  0
SECTION
  2
HEADER
  9
$ACADVER
  1
AC1018
  9
$ACADMAINTVER
 70
     0
  9
$DWGCODEPAGE
  3
ANSI_1252
  9
$INSBASE
 10
0.0
 20
0.0
 30
0.0
  9
$EXTMIN
 10
0.0
 20
0.0
 30
0.0
  9
$EXTMAX
 10
140.0
 20
110.0
 30
0.0
  9
$LIMMIN
 10
0.0
 20
0.0
  9
$LIMMAX
 10
140.0
 20
110.0
  9
$ORTHOMODE
 70
     0
  9
$REGENMODE
 70
     1
  9
$FILLMODE
 70
     1
  9
$QTEXTMODE
 70
     0
  9
$MIRRTEXT
 70
     1
  9
$LTSCALE
 40
1.0
  9
$ATTMODE
 70
     1
  9
$TEXTSIZE
 40
0.1388888889
  9
$TRACEWID
 40
0.05
  9
$TEXTSTYLE
  7
Standard
  9
$CLAYER
  8
0
  9
$CELTYPE
  6
ByLayer
  9
$CECOLOR
 62
   256
  9
$CELTSCALE
 40
1.0
  9
$DISPSILH
 70
     0
  9
$DIMSCALE
 40
1.0
  9
$DIMASZ
 40
1.0
  9
$DIMEXO
 40
0.0393700787
  9
$DIMDLI
 40
0.38
  9
$DIMRND
 40
0.0
  9
$DIMDLE
 40
0.0
  9
$DIMEXE
 40
0.0393700787
  9
$DIMTP
 40
0.0
  9
$DIMTM
 40
0.0
  9
$DIMTXT
 40
1.25
  9
$DIMCEN
 40
0.09
  9
$DIMTSZ
 40
0.0
  9
$DIMTOL
 70
     0
  9
$DIMLIM
 70
     0
  9
$DIMTIH
 70
     1
  9
$DIMTOH
 70
     1
  9
$DIMSE1
 70
     0
  9
$DIMSE2
 70
     0
  9
$DIMTAD
 70
     0
  9
$DIMZIN
 70
     0
  9
$DIMBLK
  1

  9
$DIMASO
 70
     1
  9
$DIMSHO
 70
     1
  9
$DIMPOST
  1

  9
$DIMAPOST
  1

  9
$DIMALT
 70
     0
  9
$DIMALTD
 70
     2
  9
$DIMALTF
 40
25.4
  9
$DIMLFAC
 40
1.0
  9
$DIMTOFL
 70
     0
  9
$DIMTVP
 40
0.0
  9
$DIMTIX
 70
     0
  9
$DIMSOXD
 70
     0
  9
$DIMSAH
 70
     0
  9
$DIMBLK1
  1

  9
$DIMBLK2
  1

  9
$DIMSTYLE
  2
Standard
  9
$DIMCLRD
 70
     0
  9
$DIMCLRE
 70
     0
  9
$DIMCLRT
 70
     0
  9
$DIMTFAC
 40
1.0
  9
$DIMGAP
 40
0.06
  9
$DIMJUST
 70
     0
  9
$DIMSD1
 70
     0
  9
$DIMSD2
 70
     0
  9
$DIMTOLJ
 70
     1
  9
$DIMTZIN
 70
     0
  9
$DIMALTZ
 70
     0
  9
$DIMALTTZ
 70
     0
  9
$DIMUPT
 70
     0
  9
$DIMDEC
 70
     3
  9
$DIMTDEC
 70
     2
  9
$DIMALTU
 70
     2
  9
$DIMALTTD
 70
     2
  9
$DIMTXSTY
  7
Standard
  9
$DIMAUNIT
 70
     0
  9
$DIMADEC
 70
     2
  9
$DIMALTRND
 40
0.0
  9
$DIMAZIN
 70
     0
  9
$DIMDSEP
 70
    46
  9
$DIMATFIT
 70
     3
  9
$DIMFRAC
 70
     0
  9
$DIMLDRBLK
  1

  9
$DIMLUNIT
 70
     2
  9
$DIMLWD
 70
    -2
  9
$DIMLWE
 70
    -2
  9
$DIMTMOVE
 70
     0
  9
$LUNITS
 70
     2
  9
$LUPREC
 70
     3
  9
$SKETCHINC
 40
0.1
  9
$FILLETRAD
 40
0.5
  9
$AUNITS
 70
     0
  9
$AUPREC
 70
     2
  9
$MENU
  1
.
  9
$ELEVATION
 40
0.0
  9
$PELEVATION
 40
0.0
  9
$THICKNESS
 40
0.0
  9
$LIMCHECK
 70
     0
  9
$CHAMFERA
 40
0.5
  9
$CHAMFERB
 40
0.5
  9
$CHAMFERC
 40
1.0
  9
$CHAMFERD
 40
0.0
  9
$SKPOLY
 70
     0
  9
$TDCREATE
 40
2456594.407842269
  9
$TDUCREATE
 40
2456594.616175602
  9
$TDUPDATE
 40
2456594.407846794
  9
$TDUUPDATE
 40
2456594.616180127
  9
$TDINDWG
 40
0.0000000116
  9
$TDUSRTIMER
 40
0.0000000116
  9
$USRTIMER
 70
     1
  9
$ANGBASE
 50
0.0
  9
$ANGDIR
 70
     0
  9
$PDMODE
 70
     0
  9
$PDSIZE
 40
-1.0
  9
$PLINEWID
 40
0.0
  9
$SPLFRAME
 70
     0
  9
$SPLINETYPE
 70
     6
  9
$SPLINESEGS
 70
     8
  9
$HANDSEED
  5
5AF
  9
$SURFTAB1
 70
     6
  9
$SURFTAB2
 70
     6
  9
$SURFTYPE
 70
     6
  9
$SURFU
 70
     6
  9
$SURFV
 70
     6
  9
$UCSBASE
  2

  9
$UCSNAME
  2

  9
$UCSORG
 10
0.0
 20
0.0
 30
0.0
  9
$UCSXDIR
 10
1.0
 20
0.0
 30
0.0
  9
$UCSYDIR
 10
0.0
 20
1.0
 30
0.0
  9
$UCSORTHOREF
  2

  9
$UCSORTHOVIEW
 70
     0
  9
$UCSORGTOP
 10
0.0
 20
0.0
 30
0.0
  9
$UCSORGBOTTOM
 10
0.0
 20
0.0
 30
0.0
  9
$UCSORGLEFT
 10
0.0
 20
0.0
 30
0.0
  9
$UCSORGRIGHT
 10
0.0
 20
0.0
 30
0.0
  9
$UCSORGFRONT
 10
0.0
 20
0.0
 30
0.0
  9
$UCSORGBACK
 10
0.0
 20
0.0
 30
0.0
  9
$PUCSBASE
  2

  9
$PUCSNAME
  2

  9
$PUCSORG
 10
0.0
 20
0.0
 30
0.0
  9
$PUCSXDIR
 10
1.0
 20
0.0
 30
0.0
  9
$PUCSYDIR
 10
0.0
 20
1.0
 30
0.0
  9
$PUCSORTHOREF
  2

  9
$PUCSORTHOVIEW
 70
     0
  9
$PUCSORGTOP
 10
0.0
 20
0.0
 30
0.0
  9
$PUCSORGBOTTOM
 10
0.0
 20
0.0
 30
0.0
  9
$PUCSORGLEFT
 10
0.0
 20
0.0
 30
0.0
  9
$PUCSORGRIGHT
 10
0.0
 20
0.0
 30
0.0
  9
$PUCSORGFRONT
 10
0.0
 20
0.0
 30
0.0
  9
$PUCSORGBACK
 10
0.0
 20
0.0
 30
0.0
  9
$USERI1
 70
     0
  9
$USERI2
 70
     0
  9
$USERI3
 70
     0
  9
$USERI4
 70
     0
  9
$USERI5
 70
     0
  9
$USERR1
 40
0.0
  9
$USERR2
 40
0.0
  9
$USERR3
 40
0.0
  9
$USERR4
 40
0.0
  9
$USERR5
 40
0.0
  9
$WORLDVIEW
 70
     1
  9
$SHADEDGE
 70
     3
  9
$SHADEDIF
 70
    70
  9
$TILEMODE
 70
     1
  9
$MAXACTVP
 70
    64
  9
$PINSBASE
 10
0.0
 20
0.0
 30
0.0
  9
$PLIMCHECK
 70
     0
  9
$PEXTMIN
 10
1.0000000000E+20
 20
1.0000000000E+20
 30
1.0000000000E+20
  9
$PEXTMAX
 10
-1.0000000000E+20
 20
-1.0000000000E+20
 30
-1.0000000000E+20
  9
$PLIMMIN
 10
0.0
 20
0.0
  9
$PLIMMAX
 10
12.0
 20
9.0
  9
$UNITMODE
 70
     0
  9
$VISRETAIN
 70
     1
  9
$PLINEGEN
 70
     0
  9
$PSLTSCALE
 70
     1
  9
$TREEDEPTH
 70
  3020
  9
$CMLSTYLE
  2
Standard
  9
$CMLJUST
 70
     0
  9
$CMLSCALE
 40
1.0
  9
$PROXYGRAPHICS
 70
     1
  9
$MEASUREMENT
 70
     0
  9
$CELWEIGHT
370
    -1
  9
$ENDCAPS
280
     0
  9
$JOINSTYLE
280
     0
  9
$LWDISPLAY
290
     1
  9
$INSUNITS
 70
     1
  9
$HYPERLINKBASE
  1

  9
$STYLESHEET
  1

  9
$XEDIT
290
     1
  9
$CEPSNTYPE
380
     0
  9
$PSTYLEMODE
290
     1
  9
$FINGERPRINTGUID
  2
{8D694232-6A32-498B-8011-B80ED8983145}
  9
$VERSIONGUID
  2
{FAEB1C32-E019-11D5-929B-00C0DF256EC4}
  9
$EXTNAMES
290
     1
  9
$PSVPSCALE
 40
0.0
  9
$OLESTARTUP
290
     0
  9
$SORTENTS
280
   127
  9
$INDEXCTL
280
     0
  9
$HIDETEXT
280
     1
  9
$XCLIPFRAME
290
     0
  9
$HALOGAP
280
     0
  9
$OBSCOLOR
 70
   257
  9
$OBSLTYPE
280
     0
  9
$INTERSECTIONDISPLAY
280
     0
  9
$INTERSECTIONCOLOR
 70
   257
  9
$DIMASSOC
280
     2
  9
$PROJECTNAME
  1

  0
ENDSEC
  0
SECTION
  2
CLASSES
  0
CLASS
  1
ACDBDICTIONARYWDFLT
  2
AcDbDictionaryWithDefault
  3
ObjectDBX Classes
 90
        0
 91
        4
280
     0
281
     0
  0
CLASS
  1
VISUALSTYLE
  2
AcDbVisualStyle
  3
ObjectDBX Classes
 90
     4095
 91
        4
280
     0
281
     0
  0
CLASS
  1
MATERIAL
  2
AcDbMaterial
  3
ObjectDBX Classes
 90
     1153
 91
        4
280
     0
281
     0
  0
ENDSEC
  0
SECTION
  2
TABLES
  0
TABLE
  2
VPORT
  5
8
330
0
100
AcDbSymbolTable
 70
     1
  0
VPORT
  5
29
330
8
100
AcDbSymbolTableRecord
100
AcDbViewportTableRecord
  2
*Active
 70
     0
 10
0.0
 20
0.0
 11
1.0
 21
1.0
 12
70.0
 22
55.0
 13
0.0
 23
0.0
 14
0.5
 24
0.5
 15
0.5
 25
0.5
 16
0.0
 26
0.0
 36
1.0
 17
0.0
 27
0.0
 37
0.0
 40
110.0
 41
1.2727272727
 42
50.0
 43
0.0
 44
0.0
 50
0.0
 51
0.0
 71
     0
 72
  2000
 73
     1
 74
     3
 75
     0
 76
     0
 77
     0
 78
     0
281
     0
 65
     1
110
0.0
120
0.0
130
0.0
111
1.0
121
0.0
131
0.0
112
0.0
122
1.0
132
0.0
 79
     0
146
0.0
  0
ENDTAB
  0
TABLE
  2
LTYPE
  5
5
330
0
100
AcDbSymbolTable
 70
     6
  0
LTYPE
  5
14
330
5
100
AcDbSymbolTableRecord
100
AcDbLinetypeTableRecord
  2
ByBlock
 70
     0
  3

 72
    65
 73
     0
 40
0.0
  0
LTYPE
  5
15
330
5
100
AcDbSymbolTableRecord
100
AcDbLinetypeTableRecord
  2
ByLayer
 70
     0
  3

 72
    65
 73
     0
 40
0.0
  0
LTYPE
  5
16
330
5
100
AcDbSymbolTableRecord
100
AcDbLinetypeTableRecord
  2
Continuous
 70
     0
  3
Solid line
 72
    65
 73
     0
 40
0.0
  0
LTYPE
  5
3F
330
5
100
AcDbSymbolTableRecord
100
AcDbLinetypeTableRecord
  2
HIDDEN
 70
     0
  3
Hidden __ __ __ __ __ __ __ __ __ __ __ __ __ __
 72
    65
 73
     2
 40
0.075
 49
0.05
 74
     0
 49
-0.025
 74
     0
  0
LTYPE
  5
40
330
5
100
AcDbSymbolTableRecord
100
AcDbLinetypeTableRecord
  2
PHANTOM
 70
     0
  3
Phantom ______  __  __  ______  __  __  ______
 72
    65
 73
     6
 40
0.5
 49
0.25
 74
     0
 49
-0.05
 74
     0
 49
0.05
 74
     0
 49
-0.05
 74
     0
 49
0.05
 74
     0
 49
-0.05
 74
     0
  0
LTYPE
  5
41
330
5
100
AcDbSymbolTableRecord
100
AcDbLinetypeTableRecord
  2
CENTER
 70
     0
  3
Center ____ _ ____ _ ____ _ ____ _ ____ _ ____
 72
    65
 73
     4
 40
0.4
 49
0.25
 74
     0
 49
-0.05
 74
     0
 49
0.05
 74
     0
 49
-0.05
 74
     0
  0
LTYPE
  5
42
330
5
100
AcDbSymbolTableRecord
100
AcDbLinetypeTableRecord
  2
CENTERX2
 70
     0
  3
Center (2x) ________  __  ________  __  _____
 72
    65
 73
     4
 40
0.8
 49
0.5
 74
     0
 49
-0.1
 74
     0
 49
0.1
 74
     0
 49
-0.1
 74
     0
  0
LTYPE
  5
43
330
5
100
AcDbSymbolTableRecord
100
AcDbLinetypeTableRecord
  2
DOT2
 70
     0
  3
Dot (.5x) ........................................
 72
    65
 73
     2
 40
0.025
 49
0.0
 74
     0
 49
-0.025
 74
     0
  0
ENDTAB
  0
TABLE
  2
LAYER
  5
2
330
0
100
AcDbSymbolTable
 70
     4
  0
LAYER
  5
10
330
2
100
AcDbSymbolTableRecord
100
AcDbLayerTableRecord
  2
0
 70
     0
 62
     7
  6
Continuous
370
    -3
390
F
  0
LAYER
  5
44
330
2
100
AcDbSymbolTableRecord
100
AcDbLayerTableRecord
  2
SLD-0
 70
     0
 62
     7
  6
Continuous
370
    -3
390
F
  0
LAYER
  5
45
330
2
100
AcDbSymbolTableRecord
100
AcDbLayerTableRecord
  2
NOTES
 70
     0
 62
     1
  6
Continuous
370
    -3
390
F
  0
LAYER
  5
46
330
2
100
AcDbSymbolTableRecord
100
AcDbLayerTableRecord
  2
DIM
 70
     0
 62
   100
  6
Continuous
370
    -3
390
F
  0
ENDTAB
  0
TABLE
  2
STYLE
  5
3
330
0
100
AcDbSymbolTable
 70
     2
  0
STYLE
  5
11
330
3
100
AcDbSymbolTableRecord
100
AcDbTextStyleTableRecord
  2
Standard
 70
     0
 40
0.0
 41
1.0
 50
0.0
 71
     0
 42
0.1388888889
  3
txt
  4

  0
STYLE
  5
47
330
3
100
AcDbSymbolTableRecord
100
AcDbTextStyleTableRecord
  2
SLDTEXTSTYLE0
 70
     0
 40
0.0
 41
0.75
 50
0.0
 71
     0
 42
0.2
  3
TXT
  4

  0
ENDTAB
  0
TABLE
  2
VIEW
  5
6
330
0
100
AcDbSymbolTable
 70
     0
  0
ENDTAB
  0
TABLE
  2
UCS
  5
7
330
0
100
AcDbSymbolTable
 70
     0
  0
ENDTAB
  0
TABLE
  2
APPID
  5
9
330
0
100
AcDbSymbolTable
 70
     1
  0
APPID
  5
12
330
9
100
AcDbSymbolTableRecord
100
AcDbRegAppTableRecord
  2
ACAD
 70
     0
  0
ENDTAB
  0
TABLE
  2
DIMSTYLE
  5
A
330
0
100
AcDbSymbolTable
 70
     4
100
AcDbDimStyleTable
  0
DIMSTYLE
105
27
330
A
100
AcDbSymbolTableRecord
100
AcDbDimStyleTableRecord
  2
Standard
 70
     0
178
     0
340
11
  0
DIMSTYLE
105
1B0
102
{ACAD_REACTORS
330
1AF
330
1BF
330
1CE
330
1DD
330
1EC
330
1F9
330
321
330
330
330
33B
330
34A
330
359
330
368
330
46D
330
477
330
486
330
58F
102
}
330
A
100
AcDbSymbolTableRecord
100
AcDbDimStyleTableRecord
  2
SLDDIMSTYLE0
 70
     0
 41
1.0
 44
0.0
 45
0.000000001
 78
    12
 79
     3
140
1.25
147
0.3125
173
     1
178
     0
271
     3
272
     2
276
     2
277
     5
284
    12
340
47
  0
DIMSTYLE
105
374
102
{ACAD_REACTORS
330
373
330
37D
102
}
330
A
100
AcDbSymbolTableRecord
100
AcDbDimStyleTableRecord
  2
SLDDIMSTYLE1
 70
     0
 41
1.0
 44
0.0
 45
0.000000001
 78
    12
 79
     3
140
1.25
141
0.0
147
0.3125
173
     1
178
     0
271
     3
272
     2
276
     2
277
     5
284
    12
340
47
  0
DIMSTYLE
105
492
102
{ACAD_REACTORS
330
491
330
4A0
330
59E
102
}
330
A
100
AcDbSymbolTableRecord
100
AcDbDimStyleTableRecord
  2
SLDDIMSTYLE2
 70
     0
 41
1.0
 44
0.0
 45
0.000000001
 78
    12
 79
     3
140
1.25
147
0.3125
172
     1
173
     1
178
     0
271
     3
272
     2
276
     2
277
     5
284
    12
289
     0
340
47
  0
ENDTAB
  0
TABLE
  2
BLOCK_RECORD
  5
1
330
0
100
AcDbSymbolTable
 70
    23
  0
BLOCK_RECORD
  5
1F
330
1
100
AcDbSymbolTableRecord
100
AcDbBlockTableRecord
  2
*Model_Space
340
22
  0
BLOCK_RECORD
  5
1B
330
1
100
AcDbSymbolTableRecord
100
AcDbBlockTableRecord
  2
*Paper_Space
340
1E
  0
BLOCK_RECORD
  5
23
330
1
100
AcDbSymbolTableRecord
100
AcDbBlockTableRecord
  2
*Paper_Space0
340
26
  0
BLOCK_RECORD
  5
1B1
330
1
100
AcDbSymbolTableRecord
100
AcDbBlockTableRecord
  2
_D
340
0
  0
BLOCK_RECORD
  5
1C0
330
1
100
AcDbSymbolTableRecord
100
AcDbBlockTableRecord
  2
_D_1
340
0
  0
BLOCK_RECORD
  5
1CF
330
1
100
AcDbSymbolTableRecord
100
AcDbBlockTableRecord
  2
_D_2
340
0
  0
BLOCK_RECORD
  5
1DE
330
1
100
AcDbSymbolTableRecord
100
AcDbBlockTableRecord
  2
_D_3
340
0
  0
BLOCK_RECORD
  5
1ED
330
1
100
AcDbSymbolTableRecord
100
AcDbBlockTableRecord
  2
_D_4
340
0
  0
BLOCK_RECORD
  5
1FA
330
1
100
AcDbSymbolTableRecord
100
AcDbBlockTableRecord
  2
_D_5
340
0
  0
BLOCK_RECORD
  5
322
330
1
100
AcDbSymbolTableRecord
100
AcDbBlockTableRecord
  2
_D_6
340
0
  0
BLOCK_RECORD
  5
331
330
1
100
AcDbSymbolTableRecord
100
AcDbBlockTableRecord
  2
_D_7
340
0
  0
BLOCK_RECORD
  5
33C
330
1
100
AcDbSymbolTableRecord
100
AcDbBlockTableRecord
  2
_D_8
340
0
  0
BLOCK_RECORD
  5
34B
330
1
100
AcDbSymbolTableRecord
100
AcDbBlockTableRecord
  2
_D_9
340
0
  0
BLOCK_RECORD
  5
35A
330
1
100
AcDbSymbolTableRecord
100
AcDbBlockTableRecord
  2
_D_10
340
0
  0
BLOCK_RECORD
  5
369
330
1
100
AcDbSymbolTableRecord
100
AcDbBlockTableRecord
  2
_D_11
340
0
  0
BLOCK_RECORD
  5
375
330
1
100
AcDbSymbolTableRecord
100
AcDbBlockTableRecord
  2
_D_12
340
0
  0
BLOCK_RECORD
  5
37E
330
1
100
AcDbSymbolTableRecord
100
AcDbBlockTableRecord
  2
_D_13
340
0
  0
BLOCK_RECORD
  5
386
330
1
100
AcDbSymbolTableRecord
100
AcDbBlockTableRecord
  2
SW_CENTERMARKSYMBOL_0
340
0
102
{BLKREFS
331
391
102
}
  0
BLOCK_RECORD
  5
46E
330
1
100
AcDbSymbolTableRecord
100
AcDbBlockTableRecord
  2
_D_14
340
0
  0
BLOCK_RECORD
  5
478
330
1
100
AcDbSymbolTableRecord
100
AcDbBlockTableRecord
  2
_D_15
340
0
  0
BLOCK_RECORD
  5
487
330
1
100
AcDbSymbolTableRecord
100
AcDbBlockTableRecord
  2
_D_16
340
0
  0
BLOCK_RECORD
  5
493
330
1
100
AcDbSymbolTableRecord
100
AcDbBlockTableRecord
  2
_D_17
340
0
  0
BLOCK_RECORD
  5
4A1
330
1
100
AcDbSymbolTableRecord
100
AcDbBlockTableRecord
  2
_D_18
340
0
  0
BLOCK_RECORD
  5
590
330
1
100
AcDbSymbolTableRecord
100
AcDbBlockTableRecord
  2
_D_19
340
0
  0
BLOCK_RECORD
  5
59F
330
1
100
AcDbSymbolTableRecord
100
AcDbBlockTableRecord
  2
_D_20
340
0
  0
ENDTAB
  0
ENDSEC
  0
SECTION
  2
BLOCKS
  0
BLOCK
  5
20
330
1F
100
AcDbEntity
  8
0
100
AcDbBlockBegin
  2
*Model_Space
 70
     0
 10
0.0
 20
0.0
 30
0.0
  3
*Model_Space
  1

  0
ENDBLK
  5
21
330
1F
100
AcDbEntity
  8
0
100
AcDbBlockEnd
  0
BLOCK
  5
1C
330
1B
100
AcDbEntity
 67
     1
  8
0
100
AcDbBlockBegin
  2
*Paper_Space
 70
     0
 10
0.0
 20
0.0
 30
0.0
  3
*Paper_Space
  1

  0
ENDBLK
  5
1D
330
1B
100
AcDbEntity
 67
     1
  8
0
100
AcDbBlockEnd
  0
BLOCK
  5
24
330
23
100
AcDbEntity
  8
0
100
AcDbBlockBegin
  2
*Paper_Space0
 70
     0
 10
0.0
 20
0.0
 30
0.0
  3
*Paper_Space0
  1

  0
ENDBLK
  5
25
330
23
100
AcDbEntity
  8
0
100
AcDbBlockEnd
  0
BLOCK
  5
1B2
330
1B1
100
AcDbEntity
  8
0
100
AcDbBlockBegin
  2
_D
 70
     0
 10
0.0
 20
0.0
 30
0.0
  3
_D
  1

  0
SOLID
  5
1B4
330
1B1
100
AcDbEntity
  8
DIM
100
AcDbTrace
 10
30.4108377115
 20
9.5447834202
 30
0.0
 11
30.6608377115
 21
10.5447834202
 31
0.0
 12
30.1608377115
 22
10.5447834202
 32
0.0
 13
30.1608377115
 23
10.5447834202
 33
0.0
  0
SOLID
  5
1B5
330
1B1
100
AcDbEntity
  8
DIM
100
AcDbTrace
 10
30.4108377115
 20
60.8427834201
 30
0.0
 11
30.1608377115
 21
59.8427834201
 31
0.0
 12
30.6608377115
 22
59.8427834201
 32
0.0
 13
30.6608377115
 23
59.8427834201
 33
0.0
  0
LINE
  5
1B6
330
1B1
100
AcDbEntity
  8
DIM
100
AcDbLine
 10
30.8570181652
 20
36.1338783897
 30
0.0
 11
29.3570181173
 21
33.6338783099
 31
0.0
  0
LINE
  5
1B7
330
1B1
100
AcDbEntity
  8
DIM
100
AcDbLine
 10
40.4004676327
 20
9.5447834202
 30
0.0
 11
30.3714676327
 21
9.5447834202
 31
0.0
  0
LINE
  5
1B8
330
1B1
100
AcDbEntity
  8
DIM
100
AcDbLine
 10
49.871227555
 20
60.8427834201
 30
0.0
 11
30.3714676327
 21
60.8427834201
 31
0.0
  0
LINE
  5
1B9
330
1B1
100
AcDbEntity
  8
DIM
100
AcDbLine
 10
30.4108377115
 20
9.5447834202
 30
0.0
 11
30.4108377115
 21
33.2675590016
 31
0.0
  0
LINE
  5
1BA
330
1B1
100
AcDbEntity
  8
DIM
100
AcDbLine
 10
30.4108377115
 20
60.8427834201
 30
0.0
 11
30.4108377115
 21
36.5001978446
 31
0.0
  0
MTEXT
  5
1BB
330
1B1
100
AcDbEntity
  8
DIM
100
AcDbMText
 10
27.3361849101
 20
35.6002478165
 30
11.1498870079
 40
1.25
 41
0.0
 71
     1
 72
     1
  1
51
  7
SLDTEXTSTYLE0
 73
     1
 44
1.0
  0
MTEXT
  5
1BC
330
1B1
100
AcDbEntity
  8
DIM
100
AcDbMText
 10
29.1834070642
 20
36.4952129512
 30
11.1498870079
 40
1.25
 41
0.0
 71
     1
 72
     1
  1
5
  7
SLDTEXTSTYLE0
 73
     1
 44
1.0
  0
MTEXT
  5
1BD
330
1B1
100
AcDbEntity
  8
DIM
100
AcDbMText
 10
30.1070181412
 20
34.8788935297
 30
11.1498870079
 40
1.25
 41
0.0
 71
     1
 72
     1
  1
16
  7
SLDTEXTSTYLE0
 73
     1
 44
1.0
  0
MTEXT
  5
1BE
330
1B1
100
AcDbEntity
  8
DIM
100
AcDbMText
 10
31.954240442
 20
35.6002478165
 30
11.1498870079
 40
1.25
 41
0.0
 71
     1
 72
     1
  1
"
  7
SLDTEXTSTYLE0
 73
     1
 44
1.0
  0
ENDBLK
  5
1B3
330
1B1
100
AcDbEntity
  8
0
100
AcDbBlockEnd
  0
BLOCK
  5
1C1
330
1C0
100
AcDbEntity
  8
0
100
AcDbBlockBegin
  2
_D_1
 70
     0
 10
0.0
 20
0.0
 30
0.0
  3
_D_1
  1

  0
SOLID
  5
1C3
330
1C0
100
AcDbEntity
  8
DIM
100
AcDbTrace
 10
35.4108377114
 20
10.5157834202
 30
0.0
 11
35.6608377114
 21
11.5157834202
 31
0.0
 12
35.1608377114
 22
11.5157834202
 32
0.0
 13
35.1608377114
 23
11.5157834202
 33
0.0
  0
SOLID
  5
1C4
330
1C0
100
AcDbEntity
  8
DIM
100
AcDbTrace
 10
35.4108377115
 20
43.4457834202
 30
0.0
 11
35.1608377115
 21
42.4457834202
 31
0.0
 12
35.6608377115
 22
42.4457834202
 32
0.0
 13
35.6608377115
 23
42.4457834202
 33
0.0
  0
LINE
  5
1C5
330
1C0
100
AcDbEntity
  8
DIM
100
AcDbLine
 10
36.318823777
 20
28.2307833867
 30
0.0
 11
34.8188237291
 21
25.730783307
 31
0.0
  0
LINE
  5
1C6
330
1C0
100
AcDbEntity
  8
DIM
100
AcDbLine
 10
40.5404676327
 20
10.5157834202
 30
0.0
 11
35.3714676327
 21
10.5157834202
 31
0.0
  0
LINE
  5
1C7
330
1C0
100
AcDbEntity
  8
DIM
100
AcDbLine
 10
40.5254676328
 20
43.4457834201
 30
0.0
 11
35.3714676328
 21
43.4457834202
 31
0.0
  0
LINE
  5
1C8
330
1C0
100
AcDbEntity
  8
DIM
100
AcDbLine
 10
35.4108377114
 20
10.5157834202
 30
0.0
 11
35.4108377115
 21
25.3644639987
 31
0.0
  0
LINE
  5
1C9
330
1C0
100
AcDbEntity
  8
DIM
100
AcDbLine
 10
35.4108377115
 20
43.4457834202
 30
0.0
 11
35.4108377115
 21
28.5971028417
 31
0.0
  0
MTEXT
  5
1CA
330
1C0
100
AcDbEntity
  8
DIM
100
AcDbMText
 10
31.8743794449
 20
27.6971528136
 30
11.1498870079
 40
1.25
 41
0.0
 71
     1
 72
     1
  1
32
  7
SLDTEXTSTYLE0
 73
     1
 44
1.0
  0
MTEXT
  5
1CB
330
1C0
100
AcDbEntity
  8
DIM
100
AcDbMText
 10
33.721601599
 20
28.5921179482
 30
11.1498870079
 40
1.25
 41
0.0
 71
     1
 72
     1
  1
15
  7
SLDTEXTSTYLE0
 73
     1
 44
1.0
  0
MTEXT
  5
1CC
330
1C0
100
AcDbEntity
  8
DIM
100
AcDbMText
 10
35.5688237531
 20
26.9757985268
 30
11.1498870079
 40
1.25
 41
0.0
 71
     1
 72
     1
  1
16
  7
SLDTEXTSTYLE0
 73
     1
 44
1.0
  0
MTEXT
  5
1CD
330
1C0
100
AcDbEntity
  8
DIM
100
AcDbMText
 10
37.4160462005
 20
27.6971528136
 30
11.1498870079
 40
1.25
 41
0.0
 71
     1
 72
     1
  1
"
  7
SLDTEXTSTYLE0
 73
     1
 44
1.0
  0
ENDBLK
  5
1C2
330
1C0
100
AcDbEntity
  8
0
100
AcDbBlockEnd
  0
BLOCK
  5
1D0
330
1CF
100
AcDbEntity
  8
0
100
AcDbBlockBegin
  2
_D_2
 70
     0
 10
0.0
 20
0.0
 30
0.0
  3
_D_2
  1

  0
SOLID
  5
1D2
330
1CF
100
AcDbEntity
  8
DIM
100
AcDbTrace
 10
40.4348377115
 20
3.0447814517
 30
0.0
 11
41.4348377115
 21
2.7947814517
 31
0.0
 12
41.4348377115
 22
3.2947814517
 32
0.0
 13
41.4348377115
 23
3.2947814517
 33
0.0
  0
SOLID
  5
1D3
330
1CF
100
AcDbEntity
  8
DIM
100
AcDbTrace
 10
95.3868377115
 20
3.0447814517
 30
0.0
 11
94.3868377115
 21
3.2947814517
 31
0.0
 12
94.3868377115
 22
2.7947814517
 32
0.0
 13
94.3868377115
 23
2.7947814517
 33
0.0
  0
LINE
  5
1D4
330
1CF
100
AcDbEntity
  8
DIM
100
AcDbLine
 10
68.818823777
 20
4.2947814182
 30
0.0
 11
67.3188237291
 21
1.7947813385
 31
0.0
  0
LINE
  5
1D5
330
1CF
100
AcDbEntity
  8
DIM
100
AcDbLine
 10
40.4348377115
 20
9.5294133415
 30
0.0
 11
40.4348377115
 21
3.0054113729
 31
0.0
  0
LINE
  5
1D6
330
1CF
100
AcDbEntity
  8
DIM
100
AcDbLine
 10
95.3868377115
 20
9.5294133414
 30
0.0
 11
95.3868377115
 21
3.0054113729
 31
0.0
  0
LINE
  5
1D7
330
1CF
100
AcDbEntity
  8
DIM
100
AcDbLine
 10
40.4348377115
 20
3.0447814517
 30
0.0
 11
64.3743794449
 21
3.0447814517
 31
0.0
  0
LINE
  5
1D8
330
1CF
100
AcDbEntity
  8
DIM
100
AcDbLine
 10
95.3868377115
 20
3.0447814517
 30
0.0
 11
71.447295978
 21
3.0447814517
 31
0.0
  0
MTEXT
  5
1D9
330
1CF
100
AcDbEntity
  8
DIM
100
AcDbMText
 10
64.3743794449
 20
3.7611508451
 30
11.1498870079
 40
1.25
 41
0.0
 71
     1
 72
     1
  1
54
  7
SLDTEXTSTYLE0
 73
     1
 44
1.0
  0
MTEXT
  5
1DA
330
1CF
100
AcDbEntity
  8
DIM
100
AcDbMText
 10
66.221601599
 20
4.6561159797
 30
11.1498870079
 40
1.25
 41
0.0
 71
     1
 72
     1
  1
15
  7
SLDTEXTSTYLE0
 73
     1
 44
1.0
  0
MTEXT
  5
1DB
330
1CF
100
AcDbEntity
  8
DIM
100
AcDbMText
 10
68.0688237531
 20
3.0397965583
 30
11.1498870079
 40
1.25
 41
0.0
 71
     1
 72
     1
  1
16
  7
SLDTEXTSTYLE0
 73
     1
 44
1.0
  0
MTEXT
  5
1DC
330
1CF
100
AcDbEntity
  8
DIM
100
AcDbMText
 10
69.9160462005
 20
3.7611508451
 30
11.1498870079
 40
1.25
 41
0.0
 71
     1
 72
     1
  1
"
  7
SLDTEXTSTYLE0
 73
     1
 44
1.0
  0
ENDBLK
  5
1D1
330
1CF
100
AcDbEntity
  8
0
100
AcDbBlockEnd
  0
BLOCK
  5
1DF
330
1DE
100
AcDbEntity
  8
0
100
AcDbBlockBegin
  2
_D_3
 70
     0
 10
0.0
 20
0.0
 30
0.0
  3
_D_3
  1

  0
SOLID
  5
1E1
330
1DE
100
AcDbEntity
  8
DIM
100
AcDbTrace
 10
47.9478377115
 20
6.5447814517
 30
0.0
 11
48.9478377115
 21
6.2947814517
 31
0.0
 12
48.9478377115
 22
6.7947814517
 32
0.0
 13
48.9478377115
 23
6.7947814517
 33
0.0
  0
SOLID
  5
1E2
330
1DE
100
AcDbEntity
  8
DIM
100
AcDbTrace
 10
87.8738377115
 20
6.5447814517
 30
0.0
 11
86.8738377115
 21
6.7947814517
 31
0.0
 12
86.8738377115
 22
6.2947814517
 32
0.0
 13
86.8738377115
 23
6.2947814517
 33
0.0
  0
LINE
  5
1E3
330
1DE
100
AcDbEntity
  8
DIM
100
AcDbLine
 10
68.818823777
 20
7.7947814182
 30
0.0
 11
67.3188237291
 21
5.2947813385
 31
0.0
  0
LINE
  5
1E4
330
1DE
100
AcDbEntity
  8
DIM
100
AcDbLine
 10
47.9478377115
 20
10.5054133415
 30
0.0
 11
47.9478377115
 21
6.5054113729
 31
0.0
  0
LINE
  5
1E5
330
1DE
100
AcDbEntity
  8
DIM
100
AcDbLine
 10
87.8738377115
 20
10.5054133414
 30
0.0
 11
87.8738377115
 21
6.5054113729
 31
0.0
  0
LINE
  5
1E6
330
1DE
100
AcDbEntity
  8
DIM
100
AcDbLine
 10
47.9478377115
 20
6.5447814517
 30
0.0
 11
64.3743794449
 21
6.5447814517
 31
0.0
  0
LINE
  5
1E7
330
1DE
100
AcDbEntity
  8
DIM
100
AcDbLine
 10
87.8738377115
 20
6.5447814517
 30
0.0
 11
71.447295978
 21
6.5447814517
 31
0.0
  0
MTEXT
  5
1E8
330
1DE
100
AcDbEntity
  8
DIM
100
AcDbMText
 10
64.3743794449
 20
7.2611508451
 30
11.1498870079
 40
1.25
 41
0.0
 71
     1
 72
     1
  1
39
  7
SLDTEXTSTYLE0
 73
     1
 44
1.0
  0
MTEXT
  5
1E9
330
1DE
100
AcDbEntity
  8
DIM
100
AcDbMText
 10
66.221601599
 20
8.1561159797
 30
11.1498870079
 40
1.25
 41
0.0
 71
     1
 72
     1
  1
15
  7
SLDTEXTSTYLE0
 73
     1
 44
1.0
  0
MTEXT
  5
1EA
330
1DE
100
AcDbEntity
  8
DIM
100
AcDbMText
 10
68.068823753
 20
6.5397965583
 30
11.1498870079
 40
1.25
 41
0.0
 71
     1
 72
     1
  1
16
  7
SLDTEXTSTYLE0
 73
     1
 44
1.0
  0
MTEXT
  5
1EB
330
1DE
100
AcDbEntity
  8
DIM
100
AcDbMText
 10
69.9160462004
 20
7.2611508451
 30
11.1498870079
 40
1.25
 41
0.0
 71
     1
 72
     1
  1
"
  7
SLDTEXTSTYLE0
 73
     1
 44
1.0
  0
ENDBLK
  5
1E0
330
1DE
100
AcDbEntity
  8
0
100
AcDbBlockEnd
  0
BLOCK
  5
1EE
330
1ED
100
AcDbEntity
  8
0
100
AcDbBlockBegin
  2
_D_4
 70
     0
 10
0.0
 20
0.0
 30
0.0
  3
_D_4
  1

  0
SOLID
  5
1F0
330
1ED
100
AcDbEntity
  8
DIM
100
AcDbTrace
 10
49.5122276732
 20
16.5837672915
 30
0.0
 11
50.5122276732
 21
16.3337672915
 31
0.0
 12
50.5122276732
 22
16.8337672915
 32
0.0
 13
50.5122276732
 23
16.8337672915
 33
0.0
  0
SOLID
  5
1F1
330
1ED
100
AcDbEntity
  8
DIM
100
AcDbTrace
 10
86.3094477498
 20
16.5837672915
 30
0.0
 11
85.3094477498
 21
16.8337672915
 31
0.0
 12
85.3094477498
 22
16.3337672915
 32
0.0
 13
85.3094477498
 23
16.3337672915
 33
0.0
  0
LINE
  5
1F2
330
1ED
100
AcDbEntity
  8
DIM
100
AcDbLine
 10
68.818823777
 20
17.833767258
 30
0.0
 11
67.3188237291
 21
15.3337671782
 31
0.0
  0
LINE
  5
1F3
330
1ED
100
AcDbEntity
  8
DIM
100
AcDbLine
 10
49.5122276732
 20
16.5837672915
 30
0.0
 11
64.3743794449
 21
16.5837672915
 31
0.0
  0
LINE
  5
1F4
330
1ED
100
AcDbEntity
  8
DIM
100
AcDbLine
 10
86.3094477498
 20
16.5837672915
 30
0.0
 11
71.447295978
 21
16.5837672915
 31
0.0
  0
MTEXT
  5
1F5
330
1ED
100
AcDbEntity
  8
DIM
100
AcDbMText
 10
64.3743794449
 20
17.3001366849
 30
11.1498870079
 40
1.25
 41
0.0
 71
     1
 72
     1
  1
36
  7
SLDTEXTSTYLE0
 73
     1
 44
1.0
  0
MTEXT
  5
1F6
330
1ED
100
AcDbEntity
  8
DIM
100
AcDbMText
 10
66.221601599
 20
18.1951018195
 30
11.1498870079
 40
1.25
 41
0.0
 71
     1
 72
     1
  1
13
  7
SLDTEXTSTYLE0
 73
     1
 44
1.0
  0
MTEXT
  5
1F7
330
1ED
100
AcDbEntity
  8
DIM
100
AcDbMText
 10
68.0688237531
 20
16.578782398
 30
11.1498870079
 40
1.25
 41
0.0
 71
     1
 72
     1
  1
16
  7
SLDTEXTSTYLE0
 73
     1
 44
1.0
  0
MTEXT
  5
1F8
330
1ED
100
AcDbEntity
  8
DIM
100
AcDbMText
 10
69.9160462005
 20
17.3001366849
 30
11.1498870079
 40
1.25
 41
0.0
 71
     1
 72
     1
  1
"
  7
SLDTEXTSTYLE0
 73
     1
 44
1.0
  0
ENDBLK
  5
1EF
330
1ED
100
AcDbEntity
  8
0
100
AcDbBlockEnd
  0
BLOCK
  5
1FB
330
1FA
100
AcDbEntity
  8
0
100
AcDbBlockBegin
  2
_D_5
 70
     0
 10
0.0
 20
0.0
 30
0.0
  3
_D_5
  1

  0
SOLID
  5
1FD
330
1FA
100
AcDbEntity
  8
DIM
100
AcDbTrace
 10
81.5518354899
 20
43.4167834201
 30
0.0
 11
81.3018354899
 21
42.4167834201
 31
0.0
 12
81.8018354899
 22
42.4167834201
 32
0.0
 13
81.8018354899
 23
42.4167834201
 33
0.0
  0
SOLID
  5
1FE
330
1FA
100
AcDbEntity
  8
DIM
100
AcDbTrace
 10
81.5518354898
 20
12.5187834202
 30
0.0
 11
81.8018354898
 21
13.5187834202
 31
0.0
 12
81.3018354898
 22
13.5187834202
 32
0.0
 13
81.3018354898
 23
13.5187834202
 33
0.0
  0
LINE
  5
1FF
330
1FA
100
AcDbEntity
  8
DIM
100
AcDbLine
 10
82.459821702
 20
29.2177833867
 30
0.0
 11
80.9598216542
 21
26.7177833069
 31
0.0
  0
LINE
  5
200
330
1FA
100
AcDbEntity
  8
DIM
100
AcDbLine
 10
81.5518354899
 20
43.4167834201
 30
0.0
 11
81.5518354898
 21
29.5841028416
 31
0.0
  0
LINE
  5
201
330
1FA
100
AcDbEntity
  8
DIM
100
AcDbLine
 10
81.5518354898
 20
12.5187834202
 30
0.0
 11
81.5518354898
 21
26.3514639986
 31
0.0
  0
MTEXT
  5
202
330
1FA
100
AcDbEntity
  8
DIM
100
AcDbMText
 10
78.938988447
 20
28.6841528135
 30
11.1498870079
 40
1.25
 41
0.0
 71
     1
 72
     1
  1
30
  7
SLDTEXTSTYLE0
 73
     1
 44
1.0
  0
MTEXT
  5
203
330
1FA
100
AcDbEntity
  8
DIM
100
AcDbMText
 10
80.7862106011
 20
29.5791179481
 30
11.1498870079
 40
1.25
 41
0.0
 71
     1
 72
     1
  1
7
  7
SLDTEXTSTYLE0
 73
     1
 44
1.0
  0
MTEXT
  5
204
330
1FA
100
AcDbEntity
  8
DIM
100
AcDbMText
 10
81.7098216781
 20
27.9627985267
 30
11.1498870079
 40
1.25
 41
0.0
 71
     1
 72
     1
  1
8
  7
SLDTEXTSTYLE0
 73
     1
 44
1.0
  0
MTEXT
  5
205
330
1FA
100
AcDbEntity
  8
DIM
100
AcDbMText
 10
82.6334327551
 20
28.6841528135
 30
11.1498870079
 40
1.25
 41
0.0
 71
     1
 72
     1
  1
"
  7
SLDTEXTSTYLE0
 73
     1
 44
1.0
  0
ENDBLK
  5
1FC
330
1FA
100
AcDbEntity
  8
0
100
AcDbBlockEnd
  0
BLOCK
  5
323
330
322
100
AcDbEntity
  8
0
100
AcDbBlockBegin
  2
_D_6
 70
     0
 10
0.0
 20
0.0
 30
0.0
  3
_D_6
  1

  0
SOLID
  5
325
330
322
100
AcDbEntity
  8
DIM
100
AcDbTrace
 10
40.4108377115
 20
103.8597458707
 30
0.0
 11
41.4108377115
 21
103.6097458707
 31
0.0
 12
41.4108377115
 22
104.1097458707
 32
0.0
 13
41.4108377115
 23
104.1097458707
 33
0.0
  0
SOLID
  5
326
330
322
100
AcDbEntity
  8
DIM
100
AcDbTrace
 10
67.9108377115
 20
103.8597458707
 30
0.0
 11
66.9108377115
 21
104.1097458707
 31
0.0
 12
66.9108377115
 22
103.6097458707
 32
0.0
 13
66.9108377115
 23
103.6097458707
 33
0.0
  0
LINE
  5
327
330
322
100
AcDbEntity
  8
DIM
100
AcDbLine
 10
55.0688239237
 20
105.1097458373
 30
0.0
 11
53.5688238758
 21
102.6097457575
 31
0.0
  0
LINE
  5
328
330
322
100
AcDbEntity
  8
DIM
100
AcDbLine
 10
40.4108377115
 20
100.0601448816
 30
0.0
 11
40.4108377115
 21
103.8991159494
 31
0.0
  0
LINE
  5
329
330
322
100
AcDbEntity
  8
DIM
100
AcDbLine
 10
67.9108377115
 20
95.7992645513
 30
0.0
 11
67.9108377115
 21
103.8991159494
 31
0.0
  0
LINE
  5
32A
330
322
100
AcDbEntity
  8
DIM
100
AcDbLine
 10
40.4108377115
 20
103.8597458707
 30
0.0
 11
51.5479906687
 21
103.8597458707
 31
0.0
  0
LINE
  5
32B
330
322
100
AcDbEntity
  8
DIM
100
AcDbLine
 10
67.9108377115
 20
103.8597458707
 30
0.0
 11
56.7736847543
 21
103.8597458707
 31
0.0
  0
MTEXT
  5
32C
330
322
100
AcDbEntity
  8
DIM
100
AcDbMText
 10
51.5479906687
 20
104.5761152641
 30
-25.6450620079
 40
1.25
 41
0.0
 71
     1
 72
     1
  1
27
  7
SLDTEXTSTYLE0
 73
     1
 44
1.0
  0
MTEXT
  5
32D
330
322
100
AcDbEntity
  8
DIM
100
AcDbMText
 10
53.3952128227
 20
105.4710803988
 30
-25.6450620079
 40
1.25
 41
0.0
 71
     1
 72
     1
  1
1
  7
SLDTEXTSTYLE0
 73
     1
 44
1.0
  0
MTEXT
  5
32E
330
322
100
AcDbEntity
  8
DIM
100
AcDbMText
 10
54.3188238998
 20
103.8547609773
 30
-25.6450620079
 40
1.25
 41
0.0
 71
     1
 72
     1
  1
2
  7
SLDTEXTSTYLE0
 73
     1
 44
1.0
  0
MTEXT
  5
32F
330
322
100
AcDbEntity
  8
DIM
100
AcDbMText
 10
55.2424349768
 20
104.5761152641
 30
-25.6450620079
 40
1.25
 41
0.0
 71
     1
 72
     1
  1
"
  7
SLDTEXTSTYLE0
 73
     1
 44
1.0
  0
ENDBLK
  5
324
330
322
100
AcDbEntity
  8
0
100
AcDbBlockEnd
  0
BLOCK
  5
332
330
331
100
AcDbEntity
  8
0
100
AcDbBlockBegin
  2
_D_7
 70
     0
 10
0.0
 20
0.0
 30
0.0
  3
_D_7
  1

  0
SOLID
  5
334
330
331
100
AcDbEntity
  8
DIM
100
AcDbTrace
 10
40.4108377115
 20
71.0568590729
 30
0.0
 11
41.4108377115
 21
70.8068590729
 31
0.0
 12
41.4108377115
 22
71.3068590729
 32
0.0
 13
41.4108377115
 23
71.3068590729
 33
0.0
  0
SOLID
  5
335
330
331
100
AcDbEntity
  8
DIM
100
AcDbTrace
 10
95.4108377115
 20
71.0568590729
 30
0.0
 11
94.4108377115
 21
71.3068590729
 31
0.0
 12
94.4108377115
 22
70.8068590729
 32
0.0
 13
94.4108377115
 23
70.8068590729
 33
0.0
  0
LINE
  5
336
330
331
100
AcDbEntity
  8
DIM
100
AcDbLine
 10
40.4108377115
 20
78.057475792
 30
0.0
 11
40.4108377115
 21
71.0174889942
 31
0.0
  0
LINE
  5
337
330
331
100
AcDbEntity
  8
DIM
100
AcDbLine
 10
95.4108377115
 20
78.057475792
 30
0.0
 11
95.4108377115
 21
71.0174889942
 31
0.0
  0
LINE
  5
338
330
331
100
AcDbEntity
  8
DIM
100
AcDbLine
 10
40.4108377115
 20
71.0568590729
 30
0.0
 11
66.2216015991
 21
71.0568590729
 31
0.0
  0
LINE
  5
339
330
331
100
AcDbEntity
  8
DIM
100
AcDbLine
 10
95.4108377115
 20
71.0568590729
 30
0.0
 11
69.600073824
 21
71.0568590729
 31
0.0
  0
MTEXT
  5
33A
330
331
100
AcDbEntity
  8
DIM
100
AcDbMText
 10
66.2216015991
 20
71.6760063095
 30
-25.6450620079
 40
1.25
 41
0.0
 71
     1
 72
     1
  1
55"
  7
SLDTEXTSTYLE0
 73
     1
 44
1.0
  0
ENDBLK
  5
333
330
331
100
AcDbEntity
  8
0
100
AcDbBlockEnd
  0
BLOCK
  5
33D
330
33C
100
AcDbEntity
  8
0
100
AcDbBlockBegin
  2
_D_8
 70
     0
 10
0.0
 20
0.0
 30
0.0
  3
_D_8
  1

  0
SOLID
  5
33F
330
33C
100
AcDbEntity
  8
DIM
100
AcDbTrace
 10
47.9528377115
 20
74.5568590729
 30
0.0
 11
48.9528377115
 21
74.3068590729
 31
0.0
 12
48.9528377115
 22
74.8068590729
 32
0.0
 13
48.9528377115
 23
74.8068590729
 33
0.0
  0
SOLID
  5
340
330
33C
100
AcDbEntity
  8
DIM
100
AcDbTrace
 10
87.8688377115
 20
74.5568590729
 30
0.0
 11
86.8688377115
 21
74.8068590729
 31
0.0
 12
86.8688377115
 22
74.3068590729
 32
0.0
 13
86.8688377115
 23
74.3068590729
 33
0.0
  0
LINE
  5
341
330
33C
100
AcDbEntity
  8
DIM
100
AcDbLine
 10
68.818823777
 20
75.8068590395
 30
0.0
 11
67.3188237292
 21
73.3068589597
 31
0.0
  0
LINE
  5
342
330
33C
100
AcDbEntity
  8
DIM
100
AcDbLine
 10
47.9528377115
 20
77.528475792
 30
0.0
 11
47.9528377115
 21
74.5174889942
 31
0.0
  0
LINE
  5
343
330
33C
100
AcDbEntity
  8
DIM
100
AcDbLine
 10
87.8688377115
 20
77.528475792
 30
0.0
 11
87.8688377115
 21
74.5174889942
 31
0.0
  0
LINE
  5
344
330
33C
100
AcDbEntity
  8
DIM
100
AcDbLine
 10
47.9528377115
 20
74.5568590729
 30
0.0
 11
64.374379445
 21
74.5568590729
 31
0.0
  0
LINE
  5
345
330
33C
100
AcDbEntity
  8
DIM
100
AcDbLine
 10
87.8688377115
 20
74.5568590729
 30
0.0
 11
71.447295978
 21
74.5568590729
 31
0.0
  0
MTEXT
  5
346
330
33C
100
AcDbEntity
  8
DIM
100
AcDbMText
 10
64.374379445
 20
75.2732284663
 30
-25.6450620079
 40
1.25
 41
0.0
 71
     1
 72
     1
  1
39
  7
SLDTEXTSTYLE0
 73
     1
 44
1.0
  0
MTEXT
  5
347
330
33C
100
AcDbEntity
  8
DIM
100
AcDbMText
 10
66.221601599
 20
76.168193601
 30
-25.6450620079
 40
1.25
 41
0.0
 71
     1
 72
     1
  1
15
  7
SLDTEXTSTYLE0
 73
     1
 44
1.0
  0
MTEXT
  5
348
330
33C
100
AcDbEntity
  8
DIM
100
AcDbMText
 10
68.0688237531
 20
74.5518741795
 30
-25.6450620079
 40
1.25
 41
0.0
 71
     1
 72
     1
  1
16
  7
SLDTEXTSTYLE0
 73
     1
 44
1.0
  0
MTEXT
  5
349
330
33C
100
AcDbEntity
  8
DIM
100
AcDbMText
 10
69.9160462005
 20
75.2732284663
 30
-25.6450620079
 40
1.25
 41
0.0
 71
     1
 72
     1
  1
"
  7
SLDTEXTSTYLE0
 73
     1
 44
1.0
  0
ENDBLK
  5
33E
330
33C
100
AcDbEntity
  8
0
100
AcDbBlockEnd
  0
BLOCK
  5
34C
330
34B
100
AcDbEntity
  8
0
100
AcDbBlockBegin
  2
_D_9
 70
     0
 10
0.0
 20
0.0
 30
0.0
  3
_D_9
  1

  0
SOLID
  5
34E
330
34B
100
AcDbEntity
  8
DIM
100
AcDbTrace
 10
100.4108377115
 20
100.0518458707
 30
0.0
 11
100.1608377115
 21
99.0518458707
 31
0.0
 12
100.6608377115
 22
99.0518458707
 32
0.0
 13
100.6608377115
 23
99.0518458707
 33
0.0
  0
SOLID
  5
34F
330
34B
100
AcDbEntity
  8
DIM
100
AcDbTrace
 10
100.4108377115
 20
93.2450958707
 30
0.0
 11
100.6608377115
 21
94.2450958707
 31
0.0
 12
100.1608377115
 22
94.2450958707
 32
0.0
 13
100.1608377115
 23
94.2450958707
 33
0.0
  0
LINE
  5
350
330
34B
100
AcDbEntity
  8
DIM
100
AcDbLine
 10
100.8570184585
 20
97.8984708373
 30
0.0
 11
99.3570184106
 21
95.3984707575
 31
0.0
  0
LINE
  5
351
330
34B
100
AcDbEntity
  8
DIM
100
AcDbLine
 10
95.4191367225
 20
100.0518458707
 30
0.0
 11
100.4502077902
 21
100.0518458707
 31
0.0
  0
LINE
  5
352
330
34B
100
AcDbEntity
  8
DIM
100
AcDbLine
 10
70.4650063921
 20
93.2450958707
 30
0.0
 11
100.4502077902
 21
93.2450958707
 31
0.0
  0
LINE
  5
353
330
34B
100
AcDbEntity
  8
DIM
100
AcDbLine
 10
100.4108377115
 20
100.0518458707
 30
0.0
 11
100.4108377115
 21
98.2647902922
 31
0.0
  0
LINE
  5
354
330
34B
100
AcDbEntity
  8
DIM
100
AcDbLine
 10
100.4108377115
 20
93.2450958707
 30
0.0
 11
100.4108377115
 21
95.0321514492
 31
0.0
  0
MTEXT
  5
355
330
34B
100
AcDbEntity
  8
DIM
100
AcDbMText
 10
97.3361852035
 20
97.3648402641
 30
-25.6450620079
 40
1.25
 41
0.0
 71
     1
 72
     1
  1
6
  7
SLDTEXTSTYLE0
 73
     1
 44
1.0
  0
MTEXT
  5
356
330
34B
100
AcDbEntity
  8
DIM
100
AcDbMText
 10
98.2597962805
 20
98.2598053988
 30
-25.6450620079
 40
1.25
 41
0.0
 71
     1
 72
     1
  1
13
  7
SLDTEXTSTYLE0
 73
     1
 44
1.0
  0
MTEXT
  5
357
330
34B
100
AcDbEntity
  8
DIM
100
AcDbMText
 10
100.1070184345
 20
96.6434859773
 30
-25.6450620079
 40
1.25
 41
0.0
 71
     1
 72
     1
  1
16
  7
SLDTEXTSTYLE0
 73
     1
 44
1.0
  0
MTEXT
  5
358
330
34B
100
AcDbEntity
  8
DIM
100
AcDbMText
 10
101.9542404419
 20
97.3648402641
 30
-25.6450620079
 40
1.25
 41
0.0
 71
     1
 72
     1
  1
"
  7
SLDTEXTSTYLE0
 73
     1
 44
1.0
  0
ENDBLK
  5
34D
330
34B
100
AcDbEntity
  8
0
100
AcDbBlockEnd
  0
BLOCK
  5
35B
330
35A
100
AcDbEntity
  8
0
100
AcDbBlockBegin
  2
_D_10
 70
     0
 10
0.0
 20
0.0
 30
0.0
  3
_D_10
  1

  0
SOLID
  5
35D
330
35A
100
AcDbEntity
  8
DIM
100
AcDbTrace
 10
100.4108377115
 20
78.0678458707
 30
0.0
 11
100.6608377115
 21
79.0678458707
 31
0.0
 12
100.1608377115
 22
79.0678458707
 32
0.0
 13
100.1608377115
 23
79.0678458707
 33
0.0
  0
SOLID
  5
35E
330
35A
100
AcDbEntity
  8
DIM
100
AcDbTrace
 10
100.4108377115
 20
93.2450958707
 30
0.0
 11
100.1608377115
 21
92.2450958707
 31
0.0
 12
100.6608377115
 22
92.2450958707
 32
0.0
 13
100.6608377115
 23
92.2450958707
 33
0.0
  0
LINE
  5
35F
330
35A
100
AcDbEntity
  8
DIM
100
AcDbLine
 10
100.8570181652
 20
86.9064708373
 30
0.0
 11
99.3570181173
 21
84.4064707575
 31
0.0
  0
LINE
  5
360
330
35A
100
AcDbEntity
  8
DIM
100
AcDbLine
 10
95.4212077903
 20
78.0678458707
 30
0.0
 11
100.4502077902
 21
78.0678458707
 31
0.0
  0
LINE
  5
361
330
35A
100
AcDbEntity
  8
DIM
100
AcDbLine
 10
70.4650063921
 20
93.2450958707
 30
0.0
 11
100.4502077902
 21
93.2450958707
 31
0.0
  0
LINE
  5
362
330
35A
100
AcDbEntity
  8
DIM
100
AcDbLine
 10
100.4108377115
 20
78.0678458707
 30
0.0
 11
100.4108377115
 21
84.0401514492
 31
0.0
  0
LINE
  5
363
330
35A
100
AcDbEntity
  8
DIM
100
AcDbLine
 10
100.4108377115
 20
93.2450958707
 30
0.0
 11
100.4108377115
 21
87.2727902922
 31
0.0
  0
MTEXT
  5
364
330
35A
100
AcDbEntity
  8
DIM
100
AcDbMText
 10
97.3361849101
 20
86.3728402641
 30
-25.6450620079
 40
1.25
 41
0.0
 71
     1
 72
     1
  1
15
  7
SLDTEXTSTYLE0
 73
     1
 44
1.0
  0
MTEXT
  5
365
330
35A
100
AcDbEntity
  8
DIM
100
AcDbMText
 10
99.1834070642
 20
87.2678053987
 30
-25.6450620079
 40
1.25
 41
0.0
 71
     1
 72
     1
  1
3
  7
SLDTEXTSTYLE0
 73
     1
 44
1.0
  0
MTEXT
  5
366
330
35A
100
AcDbEntity
  8
DIM
100
AcDbMText
 10
100.1070181412
 20
85.6514859773
 30
-25.6450620079
 40
1.25
 41
0.0
 71
     1
 72
     1
  1
16
  7
SLDTEXTSTYLE0
 73
     1
 44
1.0
  0
MTEXT
  5
367
330
35A
100
AcDbEntity
  8
DIM
100
AcDbMText
 10
101.954240442
 20
86.3728402641
 30
-25.6450620079
 40
1.25
 41
0.0
 71
     1
 72
     1
  1
"
  7
SLDTEXTSTYLE0
 73
     1
 44
1.0
  0
ENDBLK
  5
35C
330
35A
100
AcDbEntity
  8
0
100
AcDbBlockEnd
  0
BLOCK
  5
36A
330
369
100
AcDbEntity
  8
0
100
AcDbBlockBegin
  2
_D_11
 70
     0
 10
0.0
 20
0.0
 30
0.0
  3
_D_11
  1

  0
SOLID
  5
36C
330
369
100
AcDbEntity
  8
DIM
100
AcDbTrace
 10
105.4108377115
 20
100.0518458707
 30
0.0
 11
105.1608377115
 21
99.0518458707
 31
0.0
 12
105.6608377115
 22
99.0518458707
 32
0.0
 13
105.6608377115
 23
99.0518458707
 33
0.0
  0
SOLID
  5
36D
330
369
100
AcDbEntity
  8
DIM
100
AcDbTrace
 10
105.4108377115
 20
78.0678458707
 30
0.0
 11
105.6608377115
 21
79.0678458707
 31
0.0
 12
105.1608377115
 22
79.0678458707
 32
0.0
 13
105.1608377115
 23
79.0678458707
 33
0.0
  0
LINE
  5
36E
330
369
100
AcDbEntity
  8
DIM
100
AcDbLine
 10
95.4191367225
 20
100.0518458707
 30
0.0
 11
105.4502077902
 21
100.0518458707
 31
0.0
  0
LINE
  5
36F
330
369
100
AcDbEntity
  8
DIM
100
AcDbLine
 10
95.4212077903
 20
78.0678458707
 30
0.0
 11
105.4502077902
 21
78.0678458707
 31
0.0
  0
LINE
  5
370
330
369
100
AcDbEntity
  8
DIM
100
AcDbLine
 10
105.4108377115
 20
100.0518458707
 30
0.0
 11
105.4108377115
 21
90.0520333822
 31
0.0
  0
LINE
  5
371
330
369
100
AcDbEntity
  8
DIM
100
AcDbLine
 10
105.4108377115
 20
78.0678458707
 30
0.0
 11
105.4108377115
 21
88.0676583592
 31
0.0
  0
MTEXT
  5
372
330
369
100
AcDbEntity
  8
DIM
100
AcDbMText
 10
103.721601599
 20
89.6789931073
 30
-25.6450620079
 40
1.25
 41
0.0
 71
     1
 72
     1
  1
22"
  7
SLDTEXTSTYLE0
 73
     1
 44
1.0
  0
ENDBLK
  5
36B
330
369
100
AcDbEntity
  8
0
100
AcDbBlockEnd
  0
BLOCK
  5
376
330
375
100
AcDbEntity
  8
0
100
AcDbBlockBegin
  2
_D_12
 70
     0
 10
0.0
 20
0.0
 30
0.0
  3
_D_12
  1

  0
SOLID
  5
378
330
375
100
AcDbEntity
  8
DIM
100
AcDbTrace
 10
68.4477919853
 20
95.6845943137
 30
0.0
 11
68.9069103699
 21
96.6074758385
 31
0.0
 12
68.4185992542
 22
96.7149572519
 32
0.0
 13
68.4185992542
 23
96.7149572519
 33
0.0
  0
LINE
  5
379
330
375
100
AcDbEntity
  8
DIM
100
AcDbLine
 10
68.4477919853
 20
95.6845943137
 30
0.0
 11
70.2472120999
 21
103.8597458707
 31
0.0
  0
LINE
  5
37A
330
375
100
AcDbEntity
  8
DIM
100
AcDbLine
 10
70.2472120999
 20
103.8597458707
 30
0.0
 11
70.7389797647
 21
103.8597458707
 31
0.0
  0
MTEXT
  5
37B
330
375
100
AcDbEntity
  8
DIM
100
AcDbMText
 10
70.7389797647
 20
104.4693444842
 30
-25.6450620079
 40
1.25
 41
0.0
 71
     1
 72
     1
  1
%%c
  7
SLDTEXTSTYLE0
 73
     1
 44
1.0
  0
MTEXT
  5
37C
330
375
100
AcDbEntity
  8
DIM
100
AcDbMText
 10
72.6241360806
 20
104.4884417303
 30
-25.6450620079
 40
1.25
 41
0.0
 71
     1
 72
     1
  1
5"
  7
SLDTEXTSTYLE0
 73
     1
 44
1.0
  0
ENDBLK
  5
377
330
375
100
AcDbEntity
  8
0
100
AcDbBlockEnd
  0
BLOCK
  5
37F
330
37E
100
AcDbEntity
  8
0
100
AcDbBlockBegin
  2
_D_13
 70
     0
 10
0.0
 20
0.0
 30
0.0
  3
_D_13
  1

  0
SOLID
  5
381
330
37E
100
AcDbEntity
  8
DIM
100
AcDbTrace
 10
70.2837488174
 20
96.5332345142
 30
0.0
 11
71.0782352591
 21
97.1899622309
 31
0.0
 12
70.6757179287
 22
97.4865761192
 32
0.0
 13
70.6757179287
 23
97.4865761192
 33
0.0
  0
LINE
  5
382
330
37E
100
AcDbEntity
  8
DIM
100
AcDbLine
 10
70.2837488174
 20
96.5332345142
 30
0.0
 11
75.6826344216
 21
103.8597458707
 31
0.0
  0
LINE
  5
383
330
37E
100
AcDbEntity
  8
DIM
100
AcDbLine
 10
75.6826344216
 20
103.8597458707
 30
0.0
 11
76.5035745203
 21
103.8597458707
 31
0.0
  0
MTEXT
  5
384
330
37E
100
AcDbEntity
  8
DIM
100
AcDbMText
 10
76.5035745203
 20
104.4693444842
 30
-25.6450620079
 40
1.25
 41
0.0
 71
     1
 72
     1
  1
%%c
  7
SLDTEXTSTYLE0
 73
     1
 44
1.0
  0
MTEXT
  5
385
330
37E
100
AcDbEntity
  8
DIM
100
AcDbMText
 10
78.3887308361
 20
104.4884417303
 30
-25.6450620079
 40
1.25
 41
0.0
 71
     1
 72
     1
  1
8"
  7
SLDTEXTSTYLE0
 73
     1
 44
1.0
  0
ENDBLK
  5
380
330
37E
100
AcDbEntity
  8
0
100
AcDbBlockEnd
  0
BLOCK
  5
387
330
386
100
AcDbEntity
  8
0
100
AcDbBlockBegin
  2
SW_CENTERMARKSYMBOL_0
 70
     0
 10
0.0
 20
0.0
 30
0.0
  3
SW_CENTERMARKSYMBOL_0
  1

  0
LINE
  5
389
330
386
100
AcDbEntity
  8
DIM
 62
     0
100
AcDbLine
 10
0.0
 20
0.0
 30
0.0
 11
0.0
 21
0.0984251969
 31
0.0
  0
LINE
  5
38A
330
386
100
AcDbEntity
  8
DIM
 62
     0
100
AcDbLine
 10
0.0
 20
0.0
 30
0.0
 11
-0.0984251969
 21
0.0
 31
0.0
  0
LINE
  5
38B
330
386
100
AcDbEntity
  8
DIM
 62
     0
100
AcDbLine
 10
0.0
 20
0.0
 30
0.0
 11
0.0
 21
-0.0984251969
 31
0.0
  0
LINE
  5
38C
330
386
100
AcDbEntity
  8
DIM
 62
     0
100
AcDbLine
 10
0.0
 20
0.0
 30
0.0
 11
0.0984251969
 21
0.0
 31
0.0
  0
LINE
  5
38D
330
386
100
AcDbEntity
  8
DIM
 62
     0
100
AcDbLine
 10
0.0
 20
0.1968503937
 30
0.0
 11
0.0
 21
2.5147986019
 31
0.0
  0
LINE
  5
38E
330
386
100
AcDbEntity
  8
DIM
 62
     0
100
AcDbLine
 10
-0.1968503937
 20
0.0
 30
0.0
 11
-2.5147986019
 21
0.0
 31
0.0
  0
LINE
  5
38F
330
386
100
AcDbEntity
  8
DIM
 62
     0
100
AcDbLine
 10
0.0
 20
-0.1968503937
 30
0.0
 11
0.0
 21
-2.5147986019
 31
0.0
  0
LINE
  5
390
330
386
100
AcDbEntity
  8
DIM
 62
     0
100
AcDbLine
 10
0.1968503937
 20
0.0
 30
0.0
 11
2.5147986019
 21
0.0
 31
0.0
  0
ENDBLK
  5
388
330
386
100
AcDbEntity
  8
0
100
AcDbBlockEnd
  0
BLOCK
  5
46F
330
46E
100
AcDbEntity
  8
0
100
AcDbBlockBegin
  2
_D_14
 70
     0
 10
0.0
 20
0.0
 30
0.0
  3
_D_14
  1

  0
SOLID
  5
471
330
46E
100
AcDbEntity
  8
DIM
100
AcDbTrace
 10
119.9774182489
 20
60.8427834201
 30
0.0
 11
119.7274182489
 21
59.8427834201
 31
0.0
 12
120.2274182489
 22
59.8427834201
 32
0.0
 13
120.2274182489
 23
59.8427834201
 33
0.0
  0
SOLID
  5
472
330
46E
100
AcDbEntity
  8
DIM
100
AcDbTrace
 10
119.9774182489
 20
48.84478342
 30
0.0
 11
120.2274182489
 21
49.84478342
 31
0.0
 12
119.7274182489
 22
49.84478342
 32
0.0
 13
119.7274182489
 23
49.84478342
 33
0.0
  0
LINE
  5
473
330
46E
100
AcDbEntity
  8
DIM
100
AcDbLine
 10
115.4020467497
 20
60.8427834201
 30
0.0
 11
120.0167883277
 21
60.8427834201
 31
0.0
  0
LINE
  5
474
330
46E
100
AcDbEntity
  8
DIM
100
AcDbLine
 10
119.9774182489
 20
60.8427834201
 30
0.0
 11
119.9774182489
 21
55.8359709316
 31
0.0
  0
LINE
  5
475
330
46E
100
AcDbEntity
  8
DIM
100
AcDbLine
 10
119.9774182489
 20
48.84478342
 30
0.0
 11
119.9774182489
 21
53.8515959086
 31
0.0
  0
MTEXT
  5
476
330
46E
100
AcDbEntity
  8
DIM
100
AcDbMText
 10
118.2881821364
 20
55.4629306566
 30
0.0039370078
 40
1.25
 41
0.0
 71
     1
 72
     1
  1
12"
  7
SLDTEXTSTYLE0
 73
     1
 44
1.0
  0
ENDBLK
  5
470
330
46E
100
AcDbEntity
  8
0
100
AcDbBlockEnd
  0
BLOCK
  5
479
330
478
100
AcDbEntity
  8
0
100
AcDbBlockBegin
  2
_D_15
 70
     0
 10
0.0
 20
0.0
 30
0.0
  3
_D_15
  1

  0
SOLID
  5
47B
330
478
100
AcDbEntity
  8
DIM
100
AcDbTrace
 10
106.3516898732
 20
48.84478342
 30
0.0
 11
106.1016898732
 21
47.84478342
 31
0.0
 12
106.6016898732
 22
47.84478342
 32
0.0
 13
106.6016898732
 23
47.84478342
 33
0.0
  0
SOLID
  5
47C
330
478
100
AcDbEntity
  8
DIM
100
AcDbTrace
 10
106.3516898732
 20
9.5447834202
 30
0.0
 11
106.6016898732
 21
10.5447834202
 31
0.0
 12
106.1016898732
 22
10.5447834202
 32
0.0
 13
106.1016898732
 23
10.5447834202
 33
0.0
  0
LINE
  5
47D
330
478
100
AcDbEntity
  8
DIM
100
AcDbLine
 10
106.7978703268
 20
30.4447833867
 30
0.0
 11
105.297870279
 21
27.9447833069
 31
0.0
  0
LINE
  5
47E
330
478
100
AcDbEntity
  8
DIM
100
AcDbLine
 10
109.8523065922
 20
48.84478342
 30
0.0
 11
106.3123197944
 21
48.84478342
 31
0.0
  0
LINE
  5
47F
330
478
100
AcDbEntity
  8
DIM
100
AcDbLine
 10
109.8523065922
 20
9.5447834202
 30
0.0
 11
106.3123197944
 21
9.5447834202
 31
0.0
  0
LINE
  5
480
330
478
100
AcDbEntity
  8
DIM
100
AcDbLine
 10
106.3516898732
 20
48.84478342
 30
0.0
 11
106.3516898732
 21
30.8111028416
 31
0.0
  0
LINE
  5
481
330
478
100
AcDbEntity
  8
DIM
100
AcDbLine
 10
106.3516898732
 20
9.5447834202
 30
0.0
 11
106.3516898732
 21
27.5784639986
 31
0.0
  0
MTEXT
  5
482
330
478
100
AcDbEntity
  8
DIM
100
AcDbMText
 10
103.2770370718
 20
29.9111528135
 30
0.0039370078
 40
1.25
 41
0.0
 71
     1
 72
     1
  1
39
  7
SLDTEXTSTYLE0
 73
     1
 44
1.0
  0
MTEXT
  5
483
330
478
100
AcDbEntity
  8
DIM
100
AcDbMText
 10
105.1242592259
 20
30.8061179482
 30
0.0039370078
 40
1.25
 41
0.0
 71
     1
 72
     1
  1
5
  7
SLDTEXTSTYLE0
 73
     1
 44
1.0
  0
MTEXT
  5
484
330
478
100
AcDbEntity
  8
DIM
100
AcDbMText
 10
106.0478703029
 20
29.1897985267
 30
0.0039370078
 40
1.25
 41
0.0
 71
     1
 72
     1
  1
16
  7
SLDTEXTSTYLE0
 73
     1
 44
1.0
  0
MTEXT
  5
485
330
478
100
AcDbEntity
  8
DIM
100
AcDbMText
 10
107.8950926036
 20
29.9111528135
 30
0.0039370078
 40
1.25
 41
0.0
 71
     1
 72
     1
  1
"
  7
SLDTEXTSTYLE0
 73
     1
 44
1.0
  0
ENDBLK
  5
47A
330
478
100
AcDbEntity
  8
0
100
AcDbBlockEnd
  0
BLOCK
  5
488
330
487
100
AcDbEntity
  8
0
100
AcDbBlockBegin
  2
_D_16
 70
     0
 10
0.0
 20
0.0
 30
0.0
  3
_D_16
  1

  0
SOLID
  5
48A
330
487
100
AcDbEntity
  8
DIM
100
AcDbTrace
 10
109.862676671
 20
6.5447814517
 30
0.0
 11
110.862676671
 21
6.2947814517
 31
0.0
 12
110.862676671
 22
6.7947814517
 32
0.0
 13
110.862676671
 23
6.7947814517
 33
0.0
  0
SOLID
  5
48B
330
487
100
AcDbEntity
  8
DIM
100
AcDbTrace
 10
131.838676671
 20
6.5447814517
 30
0.0
 11
130.838676671
 21
6.7947814517
 31
0.0
 12
130.838676671
 22
6.2947814517
 32
0.0
 13
130.838676671
 23
6.2947814517
 33
0.0
  0
LINE
  5
48C
330
487
100
AcDbEntity
  8
DIM
100
AcDbLine
 10
109.862676671
 20
9.5344133414
 30
0.0
 11
109.862676671
 21
6.5054113729
 31
0.0
  0
LINE
  5
48D
330
487
100
AcDbEntity
  8
DIM
100
AcDbLine
 10
131.838676671
 20
9.5344133414
 30
0.0
 11
131.838676671
 21
6.505411373
 31
0.0
  0
LINE
  5
48E
330
487
100
AcDbEntity
  8
DIM
100
AcDbLine
 10
109.862676671
 20
6.5447814517
 30
0.0
 11
118.2881821364
 21
6.5447814517
 31
0.0
  0
LINE
  5
48F
330
487
100
AcDbEntity
  8
DIM
100
AcDbLine
 10
131.838676671
 20
6.5447814517
 30
0.0
 11
121.6666543614
 21
6.5447814517
 31
0.0
  0
MTEXT
  5
490
330
487
100
AcDbEntity
  8
DIM
100
AcDbMText
 10
118.2881821364
 20
7.1639286882
 30
0.0039370078
 40
1.25
 41
0.0
 71
     1
 72
     1
  1
22"
  7
SLDTEXTSTYLE0
 73
     1
 44
1.0
  0
ENDBLK
  5
489
330
487
100
AcDbEntity
  8
0
100
AcDbBlockEnd
  0
BLOCK
  5
494
330
493
100
AcDbEntity
  8
0
100
AcDbBlockBegin
  2
_D_17
 70
     0
 10
0.0
 20
0.0
 30
0.0
  3
_D_17
  1

  0
SOLID
  5
496
330
493
100
AcDbEntity
  8
DIM
100
AcDbTrace
 10
132.654576671
 20
6.5447814517
 30
0.0
 11
133.654576671
 21
6.2947814517
 31
0.0
 12
133.654576671
 22
6.7947814517
 32
0.0
 13
133.654576671
 23
6.7947814517
 33
0.0
  0
SOLID
  5
497
330
493
100
AcDbEntity
  8
DIM
100
AcDbTrace
 10
131.814676671
 20
6.5447814517
 30
0.0
 11
130.814676671
 21
6.7947814517
 31
0.0
 12
130.814676671
 22
6.2947814517
 32
0.0
 13
130.814676671
 23
6.2947814517
 33
0.0
  0
LINE
  5
498
330
493
100
AcDbEntity
  8
DIM
100
AcDbLine
 10
136.6389518061
 20
7.7947814182
 30
0.0
 11
135.1389517583
 21
5.2947813385
 31
0.0
  0
LINE
  5
499
330
493
100
AcDbEntity
  8
DIM
100
AcDbLine
 10
132.654576671
 20
23.5294133414
 30
0.0
 11
132.654576671
 21
6.5054113729
 31
0.0
  0
LINE
  5
49A
330
493
100
AcDbEntity
  8
DIM
100
AcDbLine
 10
131.814676671
 20
9.6544133414
 30
0.0
 11
131.814676671
 21
6.5054113729
 31
0.0
  0
LINE
  5
49B
330
493
100
AcDbEntity
  8
DIM
100
AcDbLine
 10
132.654576671
 20
6.5447814517
 30
0.0
 11
134.0417296281
 21
6.5447814517
 31
0.0
  0
LINE
  5
49C
330
493
100
AcDbEntity
  8
DIM
100
AcDbLine
 10
131.814676671
 20
6.5447814517
 30
0.0
 11
130.314676671
 21
6.5447814517
 31
0.0
  0
MTEXT
  5
49D
330
493
100
AcDbEntity
  8
DIM
100
AcDbMText
 10
134.0417296281
 20
8.1561159797
 30
0.0039370078
 40
1.25
 41
0.0
 71
     1
 72
     1
  1
13
  7
SLDTEXTSTYLE0
 73
     1
 44
1.0
  0
MTEXT
  5
49E
330
493
100
AcDbEntity
  8
DIM
100
AcDbMText
 10
135.8889517822
 20
6.5397965583
 30
0.0039370078
 40
1.25
 41
0.0
 71
     1
 72
     1
  1
16
  7
SLDTEXTSTYLE0
 73
     1
 44
1.0
  0
MTEXT
  5
49F
330
493
100
AcDbEntity
  8
DIM
100
AcDbMText
 10
137.7361739363
 20
7.2611508451
 30
0.0039370078
 40
1.25
 41
0.0
 71
     1
 72
     1
  1
"
  7
SLDTEXTSTYLE0
 73
     1
 44
1.0
  0
ENDBLK
  5
495
330
493
100
AcDbEntity
  8
0
100
AcDbBlockEnd
  0
BLOCK
  5
4A2
330
4A1
100
AcDbEntity
  8
0
100
AcDbBlockBegin
  2
_D_18
 70
     0
 10
0.0
 20
0.0
 30
0.0
  3
_D_18
  1

  0
SOLID
  5
4A4
330
4A1
100
AcDbEntity
  8
DIM
100
AcDbTrace
 10
109.862676671
 20
6.5447814517
 30
0.0
 11
110.862676671
 21
6.2947814517
 31
0.0
 12
110.862676671
 22
6.7947814517
 32
0.0
 13
110.862676671
 23
6.7947814517
 33
0.0
  0
SOLID
  5
4A5
330
4A1
100
AcDbEntity
  8
DIM
100
AcDbTrace
 10
109.362676671
 20
6.5447814517
 30
0.0
 11
108.362676671
 21
6.7947814517
 31
0.0
 12
108.362676671
 22
6.2947814517
 32
0.0
 13
108.362676671
 23
6.2947814517
 33
0.0
  0
LINE
  5
4A6
330
4A1
100
AcDbEntity
  8
DIM
100
AcDbLine
 10
105.3139350665
 20
7.7947814182
 30
0.0
 11
103.8139350186
 21
5.2947813385
 31
0.0
  0
LINE
  5
4A7
330
4A1
100
AcDbEntity
  8
DIM
100
AcDbLine
 10
109.862676671
 20
9.5344133414
 30
0.0
 11
109.862676671
 21
6.5054113729
 31
0.0
  0
LINE
  5
4A8
330
4A1
100
AcDbEntity
  8
DIM
100
AcDbLine
 10
109.362676671
 20
10.4814133414
 30
0.0
 11
109.362676671
 21
6.5054113729
 31
0.0
  0
LINE
  5
4A9
330
4A1
100
AcDbEntity
  8
DIM
100
AcDbLine
 10
109.862676671
 20
6.5447814517
 30
0.0
 11
111.362676671
 21
6.5447814517
 31
0.0
  0
LINE
  5
4AA
330
4A1
100
AcDbEntity
  8
DIM
100
AcDbLine
 10
109.362676671
 20
6.5447814517
 30
0.0
 11
107.0187961904
 21
6.5447814517
 31
0.0
  0
MTEXT
  5
4AB
330
4A1
100
AcDbEntity
  8
DIM
100
AcDbMText
 10
103.6403239655
 20
8.1561159797
 30
0.0039370078
 40
1.25
 41
0.0
 71
     1
 72
     1
  1
1
  7
SLDTEXTSTYLE0
 73
     1
 44
1.0
  0
MTEXT
  5
4AC
330
4A1
100
AcDbEntity
  8
DIM
100
AcDbMText
 10
104.5639350425
 20
6.5397965583
 30
0.0039370078
 40
1.25
 41
0.0
 71
     1
 72
     1
  1
2
  7
SLDTEXTSTYLE0
 73
     1
 44
1.0
  0
MTEXT
  5
4AD
330
4A1
100
AcDbEntity
  8
DIM
100
AcDbMText
 10
105.4875461196
 20
7.2611508451
 30
0.0039370078
 40
1.25
 41
0.0
 71
     1
 72
     1
  1
"
  7
SLDTEXTSTYLE0
 73
     1
 44
1.0
  0
ENDBLK
  5
4A3
330
4A1
100
AcDbEntity
  8
0
100
AcDbBlockEnd
  0
BLOCK
  5
591
330
590
100
AcDbEntity
  8
0
100
AcDbBlockBegin
  2
_D_19
 70
     0
 10
0.0
 20
0.0
 30
0.0
  3
_D_19
  1

  0
SOLID
  5
593
330
590
100
AcDbEntity
  8
DIM
100
AcDbTrace
 10
18.2173522673
 20
6.5447814517
 30
0.0
 11
19.2173522673
 21
6.2947814517
 31
0.0
 12
19.2173522673
 22
6.7947814517
 32
0.0
 13
19.2173522673
 23
6.7947814517
 33
0.0
  0
SOLID
  5
594
330
590
100
AcDbEntity
  8
DIM
100
AcDbTrace
 10
25.7413522673
 20
6.5447814517
 30
0.0
 11
24.7413522673
 21
6.7947814517
 31
0.0
 12
24.7413522673
 22
6.2947814517
 32
0.0
 13
24.7413522673
 23
6.2947814517
 33
0.0
  0
LINE
  5
595
330
590
100
AcDbEntity
  8
DIM
100
AcDbLine
 10
22.425532721
 20
7.7947814182
 30
0.0
 11
20.9255326732
 21
5.2947813385
 31
0.0
  0
LINE
  5
596
330
590
100
AcDbEntity
  8
DIM
100
AcDbLine
 10
18.2173522673
 20
11.800587856
 30
0.0
 11
18.2173522673
 21
6.5054113729
 31
0.0
  0
LINE
  5
597
330
590
100
AcDbEntity
  8
DIM
100
AcDbLine
 10
25.7413522673
 20
10.6304133415
 30
0.0
 11
25.7413522673
 21
6.5054113729
 31
0.0
  0
LINE
  5
598
330
590
100
AcDbEntity
  8
DIM
100
AcDbLine
 10
18.2173522673
 20
6.5447814517
 30
0.0
 11
19.828310543
 21
6.5447814517
 31
0.0
  0
LINE
  5
599
330
590
100
AcDbEntity
  8
DIM
100
AcDbLine
 10
25.7413522673
 20
6.5447814517
 30
0.0
 11
24.1303939917
 21
6.5447814517
 31
0.0
  0
MTEXT
  5
59A
330
590
100
AcDbEntity
  8
DIM
100
AcDbMText
 10
19.828310543
 20
7.2611508451
 30
0.0039370079
 40
1.25
 41
0.0
 71
     1
 72
     1
  1
7
  7
SLDTEXTSTYLE0
 73
     1
 44
1.0
  0
MTEXT
  5
59B
330
590
100
AcDbEntity
  8
DIM
100
AcDbMText
 10
20.7519216201
 20
8.1561159797
 30
0.0039370079
 40
1.25
 41
0.0
 71
     1
 72
     1
  1
1
  7
SLDTEXTSTYLE0
 73
     1
 44
1.0
  0
MTEXT
  5
59C
330
590
100
AcDbEntity
  8
DIM
100
AcDbMText
 10
21.6755326971
 20
6.5397965583
 30
0.0039370079
 40
1.25
 41
0.0
 71
     1
 72
     1
  1
2
  7
SLDTEXTSTYLE0
 73
     1
 44
1.0
  0
MTEXT
  5
59D
330
590
100
AcDbEntity
  8
DIM
100
AcDbMText
 10
22.5991439208
 20
7.2611508451
 30
0.0039370079
 40
1.25
 41
0.0
 71
     1
 72
     1
  1
"
  7
SLDTEXTSTYLE0
 73
     1
 44
1.0
  0
ENDBLK
  5
592
330
590
100
AcDbEntity
  8
0
100
AcDbBlockEnd
  0
BLOCK
  5
5A0
330
59F
100
AcDbEntity
  8
0
100
AcDbBlockBegin
  2
_D_20
 70
     0
 10
0.0
 20
0.0
 30
0.0
  3
_D_20
  1

  0
SOLID
  5
5A2
330
59F
100
AcDbEntity
  8
DIM
100
AcDbTrace
 10
14.0680570418
 20
12.8187834202
 30
0.0
 11
14.3180570418
 21
13.8187834202
 31
0.0
 12
13.8180570418
 22
13.8187834202
 32
0.0
 13
13.8180570418
 23
13.8187834202
 33
0.0
  0
SOLID
  5
5A3
330
59F
100
AcDbEntity
  8
DIM
100
AcDbTrace
 10
14.0680570418
 20
9.5447834202
 30
0.0
 11
13.8180570418
 21
8.5447834202
 31
0.0
 12
14.3180570418
 22
8.5447834202
 32
0.0
 13
14.3180570418
 23
8.5447834202
 33
0.0
  0
LINE
  5
5A4
330
59F
100
AcDbEntity
  8
DIM
100
AcDbLine
 10
11.5236443943
 20
7.7947814182
 30
0.0
 11
10.0236443464
 21
5.2947813385
 31
0.0
  0
LINE
  5
5A5
330
59F
100
AcDbEntity
  8
DIM
100
AcDbLine
 10
17.1991567031
 20
12.8187834202
 30
0.0
 11
14.0286869631
 21
12.8187834202
 31
0.0
  0
LINE
  5
5A6
330
59F
100
AcDbEntity
  8
DIM
100
AcDbLine
 10
13.2285056649
 20
6.5447814517
 30
0.0
 11
14.0680570418
 21
6.5447814517
 31
0.0
  0
LINE
  5
5A7
330
59F
100
AcDbEntity
  8
DIM
100
AcDbLine
 10
14.0680570418
 20
6.5447814517
 30
0.0
 11
14.0680570418
 21
9.5447834202
 31
0.0
  0
LINE
  5
5A8
330
59F
100
AcDbEntity
  8
DIM
100
AcDbLine
 10
14.0680570418
 20
12.8187834202
 30
0.0
 11
14.0680570418
 21
14.3187834202
 31
0.0
  0
MTEXT
  5
5A9
330
59F
100
AcDbEntity
  8
DIM
100
AcDbMText
 10
8.9264222163
 20
7.2611508451
 30
0.0039370079
 40
1.25
 41
0.0
 71
     1
 72
     1
  1
3
  7
SLDTEXTSTYLE0
 73
     1
 44
1.0
  0
MTEXT
  5
5AA
330
59F
100
AcDbEntity
  8
DIM
100
AcDbMText
 10
9.8500332933
 20
8.1561159797
 30
0.0039370079
 40
1.25
 41
0.0
 71
     1
 72
     1
  1
1
  7
SLDTEXTSTYLE0
 73
     1
 44
1.0
  0
MTEXT
  5
5AB
330
59F
100
AcDbEntity
  8
DIM
100
AcDbMText
 10
10.7736443704
 20
6.5397965583
 30
0.0039370079
 40
1.25
 41
0.0
 71
     1
 72
     1
  1
4
  7
SLDTEXTSTYLE0
 73
     1
 44
1.0
  0
MTEXT
  5
5AC
330
59F
100
AcDbEntity
  8
DIM
100
AcDbMText
 10
11.6972555941
 20
7.2611508451
 30
0.0039370079
 40
1.25
 41
0.0
 71
     1
 72
     1
  1
"
  7
SLDTEXTSTYLE0
 73
     1
 44
1.0
  0
ENDBLK
  5
5A1
330
59F
100
AcDbEntity
  8
0
100
AcDbBlockEnd
  0
ENDSEC
  0
SECTION
  2
ENTITIES
  0
MTEXT
  5
48
330
1F
100
AcDbEntity
  8
NOTES
100
AcDbMText
 10
3.260564943
 20
106.4362159866
 30
0.0
 40
2.0
 41
0.0
 71
     1
 72
     1
  1
DVLT36FP92(N,P)
  7
SLDTEXTSTYLE0
 73
     1
 44
1.0
  0
LINE
  5
49
330
1F
100
AcDbEntity
  8
SLD-0
  6
Continuous
370
    15
100
AcDbLine
 10
86.2805539296
 20
12.5151662261
 30
0.0
 11
49.5411214933
 21
12.5151662261
 31
0.0
  0
LINE
  5
4A
330
1F
100
AcDbEntity
  8
SLD-0
  6
Continuous
370
    15
100
AcDbLine
 10
49.4507958168
 20
12.3965975691
 30
0.0
 11
49.4507958168
 21
12.4531372093
 31
0.0
  0
LINE
  5
4B
330
1F
100
AcDbEntity
  8
SLD-0
  6
Continuous
370
    15
100
AcDbLine
 10
86.3708796062
 20
12.4531375026
 30
0.0
 11
86.3708796062
 21
12.3965975691
 31
0.0
  0
LINE
  5
4C
330
1F
100
AcDbEntity
  8
SLD-0
  6
Continuous
370
    15
100
AcDbLine
 10
86.6771665212
 20
43.3243946886
 30
0.0
 11
86.6771665212
 21
43.4167842346
 31
0.0
  0
LINE
  5
4D
330
1F
100
AcDbEntity
  8
SLD-0
  6
Continuous
370
    15
100
AcDbLine
 10
86.2826119325
 20
43.4167842346
 30
0.0
 11
86.2826119325
 21
43.3243946886
 31
0.0
  0
LINE
  5
4E
330
1F
100
AcDbEntity
  8
SLD-0
  6
Continuous
370
    15
100
AcDbLine
 10
49.1445089017
 20
43.4167842346
 30
0.0
 11
49.1445089017
 21
43.3243923419
 31
0.0
  0
LINE
  5
4F
330
1F
100
AcDbEntity
  8
SLD-0
  6
Continuous
370
    15
100
AcDbLine
 10
49.5390634904
 20
43.3243923419
 30
0.0
 11
49.5390634904
 21
43.4167842346
 31
0.0
  0
LINE
  5
50
330
1F
100
AcDbEntity
  8
SLD-0
  6
Continuous
370
    15
100
AcDbLine
 10
87.7786638766
 20
10.6368935574
 30
0.0
 11
87.7786638766
 21
43.3243946886
 31
0.0
  0
LINE
  5
51
330
1F
100
AcDbEntity
  8
SLD-0
  6
Continuous
370
    15
100
AcDbLine
 10
87.7030293371
 20
10.6368935574
 30
0.0
 11
87.7786638766
 21
10.6368935574
 31
0.0
  0
LINE
  5
52
330
1F
100
AcDbEntity
  8
SLD-0
  6
Continuous
370
    15
100
AcDbLine
 10
87.7030156672
 20
10.636913696
 30
0.0
 11
87.7030304444
 21
10.6368935795
 31
0.0
  0
LINE
  5
53
330
1F
100
AcDbEntity
  8
SLD-0
  6
Continuous
370
    15
100
AcDbLine
 10
87.7030152572
 20
10.6369137238
 30
0.0
 11
87.7030152572
 21
43.3243946886
 31
0.0
  0
LINE
  5
54
330
1F
100
AcDbEntity
  8
SLD-0
  6
Continuous
370
    15
100
AcDbLine
 10
87.7030152572
 20
43.3243946886
 30
0.0
 11
87.7786638766
 21
43.3243946886
 31
0.0
  0
LINE
  5
55
330
1F
100
AcDbEntity
  8
SLD-0
  6
Continuous
370
    15
100
AcDbLine
 10
87.1081163162
 20
11.3587187855
 30
0.0
 11
87.1198119678
 21
11.432049805
 31
0.0
  0
LINE
  5
56
330
1F
100
AcDbEntity
  8
SLD-0
  6
Continuous
370
    15
100
AcDbLine
 10
86.9810094112
 20
11.6212911789
 30
0.0
 11
87.1198119678
 21
11.432049805
 31
0.0
  0
LINE
  5
57
330
1F
100
AcDbEntity
  8
SLD-0
  6
Continuous
370
    15
100
AcDbLine
 10
86.9759864292
 20
11.5897915027
 30
0.0
 11
86.9810094112
 21
11.6212911789
 31
0.0
  0
LINE
  5
58
330
1F
100
AcDbEntity
  8
SLD-0
  6
Continuous
370
    15
100
AcDbLine
 10
86.7172494715
 20
11.8900218878
 30
0.0
 11
86.7291551473
 21
11.9646684921
 31
0.0
  0
LINE
  5
59
330
1F
100
AcDbEntity
  8
SLD-0
  6
Continuous
370
    15
100
AcDbLine
 10
86.3094481025
 20
12.5368934684
 30
0.0
 11
86.7291551473
 21
11.9646684921
 31
0.0
  0
LINE
  5
5A
330
1F
100
AcDbEntity
  8
SLD-0
  6
Continuous
370
    15
100
AcDbLine
 10
86.3094481025
 20
12.5368934684
 30
0.0
 11
86.3094481025
 21
43.3243946886
 31
0.0
  0
LINE
  5
5B
330
1F
100
AcDbEntity
  8
SLD-0
  6
Continuous
370
    15
100
AcDbLine
 10
87.3684208291
 20
11.0683246334
 30
0.0
 11
87.3716662317
 21
11.0886724917
 31
0.0
  0
LINE
  5
5C
330
1F
100
AcDbEntity
  8
SLD-0
  6
Continuous
370
    15
100
AcDbLine
 10
86.5744541078
 20
43.3243946886
 30
0.0
 11
87.7030152572
 21
43.3243946886
 31
0.0
  0
LINE
  5
5D
330
1F
100
AcDbEntity
  8
SLD-0
  6
Continuous
370
    15
100
AcDbLine
 10
87.3716662317
 20
11.0886724917
 30
0.0
 11
87.7030152572
 21
10.6369137238
 31
0.0
  0
SPLINE
  5
5E
330
1F
100
AcDbEntity
  8
SLD-0
  6
Continuous
370
    15
100
AcDbSpline
210
0.0
220
0.0
230
1.0
 70
     8
 71
     3
 72
    15
 73
    11
 74
     0
 42
0.00000001
 43
0.00000001
 12
1.0
 22
0.0
 32
0.0
 13
1.0
 23
0.0
 33
0.0
 40
0.0
 40
0.0
 40
0.0
 40
0.0
 40
0.1249985515247748
 40
0.2500011830224312
 40
0.3749995170935342
 40
0.4999977188336848
 40
0.6250004369986313
 40
0.749998672221626
 40
0.8749976160751356
 40
0.9999999999999999
 40
0.9999999999999999
 40
0.9999999999999999
 40
0.9999999999999999
 10
87.74938016160384
 20
10.54478340810307
 30
0.0
 10
87.7504757935838
 20
10.54527410333726
 30
0.0
 10
87.75266709330532
 20
10.546255509822
 30
0.0
 10
87.75595849970598
 20
10.55390832756864
 30
0.0
 10
87.75924543237896
 20
10.56519343377268
 30
0.0
 10
87.76253237041459
 20
10.57930342790331
 30
0.0
 10
87.76582378071656
 20
10.59457518814864
 30
0.0
 10
87.76911066725405
 20
10.60923578321486
 30
0.0
 10
87.77239782665832
 20
10.62205284560406
 30
0.0
 10
87.77459149061737
 20
10.62740470803716
 30
0.0
 10
87.77568833768954
 20
10.63008067607509
 30
0.0
  0
LINE
  5
5F
330
1F
100
AcDbEntity
  8
SLD-0
  6
Continuous
370
    15
100
AcDbLine
 10
87.7756883377
 20
10.5942609099
 30
0.0
 11
87.7756883377
 21
10.6300806761
 31
0.0
  0
SPLINE
  5
60
330
1F
100
AcDbEntity
  8
SLD-0
  6
Continuous
370
    15
100
AcDbSpline
210
0.0
220
0.0
230
1.0
 70
     8
 71
     3
 72
     9
 73
     5
 74
     0
 42
0.00000001
 43
0.00000001
 12
1.0
 22
0.0
 32
0.0
 13
1.0
 23
0.0
 33
0.0
 40
0.0
 40
0.0
 40
0.0
 40
0.0
 40
0.3960378070121215
 40
1.0
 40
1.0
 40
1.0
 40
1.0
 10
87.76479758350047
 20
10.58976621512451
 30
0.0
 10
87.76623528839673
 20
10.59052085981112
 30
0.0
 10
87.7698655097312
 20
10.59242634629053
 30
0.0
 10
87.77349578729246
 20
10.59357011612848
 30
0.0
 10
87.77568833768954
 20
10.59426090986809
 30
0.0
  0
SPLINE
  5
61
330
1F
100
AcDbEntity
  8
SLD-0
  6
Continuous
370
    15
100
AcDbSpline
210
0.0
220
0.0
230
1.0
 70
     8
 71
     3
 72
    15
 73
    11
 74
     0
 42
0.00000001
 43
0.00000001
 12
1.0
 22
0.0
 32
0.0
 13
1.0
 23
0.0
 33
0.0
 40
0.0
 40
0.0
 40
0.0
 40
0.0
 40
0.1250023839248643
 40
0.2500013277783739
 40
0.3749995630013686
 40
0.5000022811663152
 40
0.6250004829064657
 40
0.7499988169775688
 40
0.8750014484752252
 40
1.0
 40
1.0
 40
1.0
 40
1.0
 10
48.04598708525534
 20
10.63008067607509
 30
0.0
 10
48.04708393232752
 20
10.62740470803716
 30
0.0
 10
48.04927759628657
 20
10.62205284560406
 30
0.0
 10
48.05256475569082
 20
10.60923578321486
 30
0.0
 10
48.05585164222831
 20
10.59457518814864
 30
0.0
 10
48.05914305253029
 20
10.57930342790331
 30
0.0
 10
48.0624299905659
 20
10.56519343377268
 30
0.0
 10
48.06571692323891
 20
10.55390832756864
 30
0.0
 10
48.06900832963957
 20
10.546255509822
 30
0.0
 10
48.07119962936109
 20
10.54527410333726
 30
0.0
 10
48.07229526134105
 20
10.54478340810307
 30
0.0
  0
LINE
  5
62
330
1F
100
AcDbEntity
  8
SLD-0
  6
Continuous
370
    15
100
AcDbLine
 10
87.7756883377
 20
10.6300806761
 30
0.0
 11
48.0459870853
 21
10.6300806761
 31
0.0
  0
LINE
  5
63
330
1F
100
AcDbEntity
  8
SLD-0
  6
Continuous
370
    15
100
AcDbLine
 10
87.7493801616
 20
10.5447834081
 30
0.0
 11
87.7428377305
 21
10.5447834081
 31
0.0
  0
LINE
  5
64
330
1F
100
AcDbEntity
  8
SLD-0
  6
Continuous
370
    15
100
AcDbLine
 10
48.0788376924
 20
10.5447834081
 30
0.0
 11
48.0722952613
 21
10.5447834081
 31
0.0
  0
SPLINE
  5
65
330
1F
100
AcDbEntity
  8
SLD-0
  6
Continuous
370
    15
100
AcDbSpline
210
0.0
220
0.0
230
1.0
 70
     8
 71
     3
 72
     9
 73
     5
 74
     0
 42
0.00000001
 43
0.00000001
 12
1.0
 22
0.0
 32
0.0
 13
1.0
 23
0.0
 33
0.0
 40
0.0
 40
0.0
 40
0.0
 40
0.0
 40
0.6039621929878786
 40
1.0
 40
1.0
 40
1.0
 40
1.0
 10
48.04598708525534
 20
10.59426090986809
 30
0.0
 10
48.0481796356524
 20
10.59357011612848
 30
0.0
 10
48.05180991321367
 20
10.59242634629053
 30
0.0
 10
48.05544013454815
 20
10.59052085981112
 30
0.0
 10
48.05687783944443
 20
10.58976621512451
 30
0.0
  0
LINE
  5
66
330
1F
100
AcDbEntity
  8
SLD-0
  6
Continuous
370
    15
100
AcDbLine
 10
48.0459870853
 20
10.5942609099
 30
0.0
 11
48.0459870853
 21
10.6300806761
 31
0.0
  0
LINE
  5
67
330
1F
100
AcDbEntity
  8
SLD-0
  6
Continuous
370
    15
100
AcDbLine
 10
87.1132988697
 20
11.4409296357
 30
0.0
 11
87.0539934214
 21
11.4322871089
 31
0.0
  0
LINE
  5
68
330
1F
100
AcDbEntity
  8
SLD-0
  6
Continuous
370
    15
100
AcDbLine
 10
87.0539934214
 20
11.4322871089
 30
0.0
 11
87.3262716627
 21
11.0621820111
 31
0.0
  0
LINE
  5
69
330
1F
100
AcDbEntity
  8
SLD-0
  6
Continuous
370
    15
100
AcDbLine
 10
87.3262716627
 20
11.0621820111
 30
0.0
 11
87.3848367462
 21
11.0707167391
 31
0.0
  0
LINE
  5
6A
330
1F
100
AcDbEntity
  8
SLD-0
  6
Continuous
370
    15
100
AcDbLine
 10
86.6695106097
 20
11.9549129248
 30
0.0
 11
86.9417876776
 21
11.584807827
 31
0.0
  0
LINE
  5
6B
330
1F
100
AcDbEntity
  8
SLD-0
  6
Continuous
370
    15
100
AcDbLine
 10
86.9417876776
 20
11.584807827
 30
0.0
 11
87.0013970157
 21
11.5934947933
 31
0.0
  0
LINE
  5
6C
330
1F
100
AcDbEntity
  8
SLD-0
  6
Continuous
370
    15
100
AcDbLine
 10
86.728981496
 20
11.9635795047
 30
0.0
 11
86.6695106097
 21
11.9549129248
 31
0.0
  0
LINE
  5
6D
330
1F
100
AcDbEntity
  8
SLD-0
  6
Continuous
370
    15
100
AcDbLine
 10
48.4368386768
 20
11.0707167391
 30
0.0
 11
48.4954037602
 21
11.0621820111
 31
0.0
  0
LINE
  5
6E
330
1F
100
AcDbEntity
  8
SLD-0
  6
Continuous
370
    15
100
AcDbLine
 10
48.4954037602
 20
11.0621820111
 30
0.0
 11
48.7676820015
 21
11.4322871089
 31
0.0
  0
LINE
  5
6F
330
1F
100
AcDbEntity
  8
SLD-0
  6
Continuous
370
    15
100
AcDbLine
 10
48.7676820015
 20
11.4322871089
 30
0.0
 11
48.7083765533
 21
11.4409294891
 31
0.0
  0
LINE
  5
70
330
1F
100
AcDbEntity
  8
SLD-0
  6
Continuous
370
    15
100
AcDbLine
 10
48.8202784072
 20
11.5934947933
 30
0.0
 11
48.8798877453
 21
11.584807827
 31
0.0
  0
LINE
  5
71
330
1F
100
AcDbEntity
  8
SLD-0
  6
Continuous
370
    15
100
AcDbLine
 10
48.8798877453
 20
11.584807827
 30
0.0
 11
49.1521648133
 21
11.9549129248
 31
0.0
  0
LINE
  5
72
330
1F
100
AcDbEntity
  8
SLD-0
  6
Continuous
370
    15
100
AcDbLine
 10
49.1521648133
 20
11.9549129248
 30
0.0
 11
49.0926176612
 21
11.9635907979
 31
0.0
  0
LINE
  5
73
330
1F
100
AcDbEntity
  8
SLD-0
  6
Continuous
370
    15
100
AcDbLine
 10
49.2345670613
 20
12.1583338682
 30
0.0
 11
49.2715465808
 21
12.1529448105
 31
0.0
  0
LINE
  5
74
330
1F
100
AcDbEntity
  8
SLD-0
  6
Continuous
370
    15
100
AcDbLine
 10
49.2715465808
 20
12.1529448105
 30
0.0
 11
49.5345638091
 21
12.5104632671
 31
0.0
  0
LINE
  5
75
330
1F
100
AcDbEntity
  8
SLD-0
  6
Continuous
370
    15
100
AcDbLine
 10
86.2871116139
 20
12.5104632671
 30
0.0
 11
49.5345638091
 21
12.5104632671
 31
0.0
  0
LINE
  5
76
330
1F
100
AcDbEntity
  8
SLD-0
  6
Continuous
370
    15
100
AcDbLine
 10
86.2871116139
 20
12.5104632671
 30
0.0
 11
86.5501288421
 21
12.1529448105
 31
0.0
  0
LINE
  5
77
330
1F
100
AcDbEntity
  8
SLD-0
  6
Continuous
370
    15
100
AcDbLine
 10
86.5871083616
 20
12.1583338682
 30
0.0
 11
86.5501288421
 21
12.1529448105
 31
0.0
  0
LINE
  5
78
330
1F
100
AcDbEntity
  8
SLD-0
  6
Continuous
370
    15
100
AcDbLine
 10
87.7756883377
 20
10.6300806761
 30
0.0
 11
87.7706759156
 21
10.6368935574
 31
0.0
  0
LINE
  5
79
330
1F
100
AcDbEntity
  8
SLD-0
  6
Continuous
370
    15
100
AcDbLine
 10
48.0509995074
 20
10.6368934107
 30
0.0
 11
48.0459870853
 21
10.6300806761
 31
0.0
  0
LINE
  5
7A
330
1F
100
AcDbEntity
  8
SLD-0
  6
Continuous
370
    15
100
AcDbLine
 10
48.7438812098
 20
11.3999357493
 30
0.0
 11
48.7060299137
 21
11.4054518189
 31
0.0
  0
LINE
  5
7B
330
1F
100
AcDbEntity
  8
SLD-0
  6
Continuous
370
    15
100
AcDbLine
 10
87.1155680701
 20
11.4054405257
 30
0.0
 11
87.0777942132
 21
11.3999357493
 31
0.0
  0
LINE
  5
7C
330
1F
100
AcDbEntity
  8
SLD-0
  6
Continuous
370
    15
100
AcDbLine
 10
49.1283651949
 20
11.9225615652
 30
0.0
 11
49.0984654869
 21
11.9269186882
 31
0.0
  0
LINE
  5
7D
330
1F
100
AcDbEntity
  8
SLD-0
  6
Continuous
370
    15
100
AcDbLine
 10
86.7231324969
 20
11.9269075417
 30
0.0
 11
86.6933102281
 21
11.9225615652
 31
0.0
  0
ELLIPSE
  5
7E
330
1F
100
AcDbEntity
  8
SLD-0
  6
Continuous
370
    15
100
AcDbEllipse
 10
86.2871116846
 20
12.4701661489
 30
0.0
 11
-0.007152015748701501
 21
0.04495330254202302
 31
0.0
210
0.0
220
0.0
230
1.0
 40
0.2865673543
 41
5.776367642054384
 42
6.237624341086227
  0
ELLIPSE
  5
7F
330
1F
100
AcDbEntity
  8
SLD-0
  6
Continuous
370
    15
100
AcDbEllipse
 10
49.5345637384
 20
12.4701661489
 30
0.0
 11
0.007152015748694396
 21
0.044953302542023
 31
0.0
210
0.0
220
0.0
230
1.0
 40
0.2865673543
 41
0.0455609660928927
 42
0.5068176651250366
  0
LINE
  5
80
330
1F
100
AcDbEntity
  8
SLD-0
  6
Continuous
370
    15
100
AcDbLine
 10
48.0430115463
 20
10.6368934107
 30
0.0
 11
48.0430115463
 21
43.3243923419
 31
0.0
  0
LINE
  5
81
330
1F
100
AcDbEntity
  8
SLD-0
  6
Continuous
370
    15
100
AcDbLine
 10
48.1186601657
 20
10.6369135771
 30
0.0
 11
48.1186601657
 21
43.3243923419
 31
0.0
  0
LINE
  5
82
330
1F
100
AcDbEntity
  8
SLD-0
  6
Continuous
370
    15
100
AcDbLine
 10
48.1186449786
 20
10.6368934465
 30
0.0
 11
48.1186597557
 21
10.636913563
 31
0.0
  0
LINE
  5
83
330
1F
100
AcDbEntity
  8
SLD-0
  6
Continuous
370
    15
100
AcDbLine
 10
48.0430115463
 20
10.6368934107
 30
0.0
 11
48.1186460859
 21
10.6368934107
 31
0.0
  0
LINE
  5
84
330
1F
100
AcDbEntity
  8
SLD-0
  6
Continuous
370
    15
100
AcDbLine
 10
48.0430115463
 20
43.3243923419
 30
0.0
 11
48.1186601657
 21
43.3243923419
 31
0.0
  0
LINE
  5
85
330
1F
100
AcDbEntity
  8
SLD-0
  6
Continuous
370
    15
100
AcDbLine
 10
48.8456127279
 20
11.5898027959
 30
0.0
 11
48.8406038258
 21
11.6212064065
 31
0.0
  0
LINE
  5
86
330
1F
100
AcDbEntity
  8
SLD-0
  6
Continuous
370
    15
100
AcDbLine
 10
48.7018024426
 20
11.4319651793
 30
0.0
 11
48.8406038258
 21
11.6212064065
 31
0.0
  0
LINE
  5
87
330
1F
100
AcDbEntity
  8
SLD-0
  6
Continuous
370
    15
100
AcDbLine
 10
48.7134969208
 20
11.3586344531
 30
0.0
 11
48.7018024426
 21
11.4319651793
 31
0.0
  0
LINE
  5
88
330
1F
100
AcDbEntity
  8
SLD-0
  6
Continuous
370
    15
100
AcDbLine
 10
48.4531771547
 20
11.06833578
 30
0.0
 11
48.4499470053
 21
11.088587866
 31
0.0
  0
LINE
  5
89
330
1F
100
AcDbEntity
  8
SLD-0
  6
Continuous
370
    15
100
AcDbLine
 10
48.1186601657
 20
43.3243923419
 30
0.0
 11
49.2472213152
 21
43.3243923419
 31
0.0
  0
LINE
  5
8A
330
1F
100
AcDbEntity
  8
SLD-0
  6
Continuous
370
    15
100
AcDbLine
 10
49.5122273205
 20
12.5368934684
 30
0.0
 11
49.5122273205
 21
43.3243923419
 31
0.0
  0
LINE
  5
8B
330
1F
100
AcDbEntity
  8
SLD-0
  6
Continuous
370
    15
100
AcDbLine
 10
49.092459263
 20
11.9645838664
 30
0.0
 11
49.5122273205
 21
12.5368934684
 31
0.0
  0
LINE
  5
8C
330
1F
100
AcDbEntity
  8
SLD-0
  6
Continuous
370
    15
100
AcDbLine
 10
49.1043637655
 20
11.8899375554
 30
0.0
 11
49.092459263
 21
11.9645838664
 31
0.0
  0
LINE
  5
8D
330
1F
100
AcDbEntity
  8
SLD-0
  6
Continuous
370
    15
100
AcDbLine
 10
48.1186601657
 20
10.6369135771
 30
0.0
 11
48.4499470053
 21
11.088587866
 31
0.0
  0
LINE
  5
8E
330
1F
100
AcDbEntity
  8
SLD-0
  6
Continuous
370
    15
100
AcDbLine
 10
48.4163372603
 20
43.3243923419
 30
0.0
 11
48.4163372603
 21
43.4167842346
 31
0.0
  0
LINE
  5
8F
330
1F
100
AcDbEntity
  8
SLD-0
  6
Continuous
370
    15
100
AcDbLine
 10
48.1074713883
 20
43.3243923419
 30
0.0
 11
48.1074713883
 21
43.4167842346
 31
0.0
  0
LINE
  5
90
330
1F
100
AcDbEntity
  8
SLD-0
  6
Continuous
370
    15
100
AcDbLine
 10
48.0707605591
 20
43.3243923419
 30
0.0
 11
48.0707605591
 21
43.4167842346
 31
0.0
  0
LINE
  5
91
330
1F
100
AcDbEntity
  8
SLD-0
  6
Continuous
370
    15
100
AcDbLine
 10
87.4053381627
 20
43.4167842346
 30
0.0
 11
87.4053381627
 21
43.3243946886
 31
0.0
  0
LINE
  5
92
330
1F
100
AcDbEntity
  8
SLD-0
  6
Continuous
370
    15
100
AcDbLine
 10
87.7142040346
 20
43.4167842346
 30
0.0
 11
87.7142040346
 21
43.3243946886
 31
0.0
  0
LINE
  5
93
330
1F
100
AcDbEntity
  8
SLD-0
  6
Continuous
370
    15
100
AcDbLine
 10
87.7509148639
 20
43.4167842346
 30
0.0
 11
87.7509148639
 21
43.3243946886
 31
0.0
  0
LINE
  5
94
330
1F
100
AcDbEntity
  8
SLD-0
  6
Continuous
370
    15
100
AcDbLine
 10
49.4989441672
 20
12.5187832776
 30
0.0
 11
86.3227312557
 21
12.5187832776
 31
0.0
  0
LINE
  5
95
330
1F
100
AcDbEntity
  8
SLD-0
  6
Continuous
370
    15
100
AcDbLine
 10
86.3777705132
 20
43.3243946886
 30
0.0
 11
86.4498674937
 21
43.3243946886
 31
0.0
  0
LINE
  5
96
330
1F
100
AcDbEntity
  8
SLD-0
  6
Continuous
370
    15
100
AcDbLine
 10
86.4498674937
 20
43.3243946886
 30
0.0
 11
86.5744541078
 21
43.3243946886
 31
0.0
  0
LINE
  5
97
330
1F
100
AcDbEntity
  8
SLD-0
  6
Continuous
370
    15
100
AcDbLine
 10
86.2860051733
 20
43.3243946886
 30
0.0
 11
86.3777705132
 21
43.3243946886
 31
0.0
  0
LINE
  5
98
330
1F
100
AcDbEntity
  8
SLD-0
  6
Continuous
370
    15
100
AcDbLine
 10
86.2826119325
 20
43.3243946886
 30
0.0
 11
86.2860051733
 21
43.3243946886
 31
0.0
  0
LINE
  5
99
330
1F
100
AcDbEntity
  8
SLD-0
  6
Continuous
370
    15
100
AcDbLine
 10
86.1853132165
 20
43.4167842346
 30
0.0
 11
86.1853132165
 21
43.3243946886
 31
0.0
  0
LINE
  5
9A
330
1F
100
AcDbEntity
  8
SLD-0
  6
Continuous
370
    15
100
AcDbLine
 10
86.1853132165
 20
43.3243946886
 30
0.0
 11
86.2826119325
 21
43.3243946886
 31
0.0
  0
LINE
  5
9B
330
1F
100
AcDbEntity
  8
SLD-0
  6
Continuous
370
    15
100
AcDbLine
 10
49.4439049097
 20
43.3243923419
 30
0.0
 11
49.3718079293
 21
43.3243923419
 31
0.0
  0
LINE
  5
9C
330
1F
100
AcDbEntity
  8
SLD-0
  6
Continuous
370
    15
100
AcDbLine
 10
49.3718079293
 20
43.3243923419
 30
0.0
 11
49.2472213152
 21
43.3243923419
 31
0.0
  0
LINE
  5
9D
330
1F
100
AcDbEntity
  8
SLD-0
  6
Continuous
370
    15
100
AcDbLine
 10
49.5356702496
 20
43.3243923419
 30
0.0
 11
49.4439049097
 21
43.3243923419
 31
0.0
  0
LINE
  5
9E
330
1F
100
AcDbEntity
  8
SLD-0
  6
Continuous
370
    15
100
AcDbLine
 10
49.5390634904
 20
43.3243923419
 30
0.0
 11
49.5356702496
 21
43.3243923419
 31
0.0
  0
LINE
  5
9F
330
1F
100
AcDbEntity
  8
SLD-0
  6
Continuous
370
    15
100
AcDbLine
 10
49.6363622064
 20
43.3243923419
 30
0.0
 11
49.6363622064
 21
43.4167842346
 31
0.0
  0
LINE
  5
A0
330
1F
100
AcDbEntity
  8
SLD-0
  6
Continuous
370
    15
100
AcDbLine
 10
49.6363622064
 20
43.3243923419
 30
0.0
 11
49.5390634904
 21
43.3243923419
 31
0.0
  0
LINE
  5
A1
330
1F
100
AcDbEntity
  8
SLD-0
  6
Continuous
370
    15
100
AcDbLine
 10
47.9768386574
 20
19.3702835152
 30
0.0
 11
48.0282957696
 21
19.3702835152
 31
0.0
  0
LINE
  5
A2
330
1F
100
AcDbEntity
  8
SLD-0
  6
Continuous
370
    15
100
AcDbLine
 10
48.0282957696
 20
19.3702835152
 30
0.0
 11
48.0282957696
 21
16.3702831848
 31
0.0
  0
LINE
  5
A3
330
1F
100
AcDbEntity
  8
SLD-0
  6
Continuous
370
    15
100
AcDbLine
 10
47.9768386574
 20
16.3702831848
 30
0.0
 11
48.0282957696
 21
16.3702831848
 31
0.0
  0
LINE
  5
A4
330
1F
100
AcDbEntity
  8
SLD-0
  6
Continuous
370
    15
100
AcDbLine
 10
48.0282957696
 20
19.3702835152
 30
0.0
 11
48.0430115463
 21
19.3702835152
 31
0.0
  0
LINE
  5
A5
330
1F
100
AcDbEntity
  8
SLD-0
  6
Continuous
370
    15
100
AcDbLine
 10
48.0282957696
 20
16.3702831848
 30
0.0
 11
48.0430115463
 21
16.3702831848
 31
0.0
  0
LINE
  5
A6
330
1F
100
AcDbEntity
  8
SLD-0
  6
Continuous
370
    15
100
AcDbLine
 10
47.9768386574
 20
39.6742836816
 30
0.0
 11
48.0282957696
 21
39.6742836816
 31
0.0
  0
LINE
  5
A7
330
1F
100
AcDbEntity
  8
SLD-0
  6
Continuous
370
    15
100
AcDbLine
 10
48.0282957696
 20
39.6742836816
 30
0.0
 11
48.0282957696
 21
36.6742833512
 31
0.0
  0
LINE
  5
A8
330
1F
100
AcDbEntity
  8
SLD-0
  6
Continuous
370
    15
100
AcDbLine
 10
47.9768386574
 20
36.6742833512
 30
0.0
 11
48.0282957696
 21
36.6742833512
 31
0.0
  0
LINE
  5
A9
330
1F
100
AcDbEntity
  8
SLD-0
  6
Continuous
370
    15
100
AcDbLine
 10
48.0282957696
 20
39.6742836816
 30
0.0
 11
48.0430115463
 21
39.6742836816
 31
0.0
  0
LINE
  5
AA
330
1F
100
AcDbEntity
  8
SLD-0
  6
Continuous
370
    15
100
AcDbLine
 10
48.0282957696
 20
36.6742833512
 30
0.0
 11
48.0430115463
 21
36.6742833512
 31
0.0
  0
LINE
  5
AB
330
1F
100
AcDbEntity
  8
SLD-0
  6
Continuous
370
    15
100
AcDbLine
 10
87.8448367655
 20
19.3702835152
 30
0.0
 11
87.7786638766
 21
19.3702835152
 31
0.0
  0
LINE
  5
AC
330
1F
100
AcDbEntity
  8
SLD-0
  6
Continuous
370
    15
100
AcDbLine
 10
87.8448367655
 20
16.3702831848
 30
0.0
 11
87.7786638766
 21
16.3702831848
 31
0.0
  0
LINE
  5
AD
330
1F
100
AcDbEntity
  8
SLD-0
  6
Continuous
370
    15
100
AcDbLine
 10
87.8448367655
 20
39.6742836816
 30
0.0
 11
87.7786638766
 21
39.6742836816
 31
0.0
  0
LINE
  5
AE
330
1F
100
AcDbEntity
  8
SLD-0
  6
Continuous
370
    15
100
AcDbLine
 10
87.8448367655
 20
36.6742833512
 30
0.0
 11
87.7786638766
 21
36.6742833512
 31
0.0
  0
ARC
  5
AF
330
1F
100
AcDbEntity
  8
SLD-0
  6
Continuous
370
    15
100
AcDbCircle
 10
85.0647787447
 20
59.9537834201
 30
0.0
 40
0.1250000000000142
100
AcDbArc
 50
359.9999999999
 51
89.9999999999
  0
LINE
  5
B0
330
1F
100
AcDbEntity
  8
SLD-0
  6
Continuous
370
    15
100
AcDbLine
 10
85.1897783703
 20
59.3477822784
 30
0.0
 11
85.1897783703
 21
59.9537831711
 31
0.0
  0
LINE
  5
B1
330
1F
100
AcDbEntity
  8
SLD-0
  6
Continuous
370
    15
100
AcDbLine
 10
85.1897783703
 20
59.3477822784
 30
0.0
 11
50.6318970526
 21
59.3477822784
 31
0.0
  0
LINE
  5
B2
330
1F
100
AcDbEntity
  8
SLD-0
  6
Continuous
370
    15
100
AcDbLine
 10
50.6318970526
 20
59.9537831711
 30
0.0
 11
50.6318970526
 21
59.3477822784
 31
0.0
  0
ARC
  5
B3
330
1F
100
AcDbEntity
  8
SLD-0
  6
Continuous
370
    15
100
AcDbCircle
 10
50.7568966784
 20
59.9537834201
 30
0.0
 40
0.125
100
AcDbArc
 50
89.9999999999
 51
179.9999999999
  0
LINE
  5
B4
330
1F
100
AcDbEntity
  8
SLD-0
  6
Continuous
370
    15
100
AcDbLine
 10
85.0647787477
 20
60.0787839671
 30
0.0
 11
50.7568966753
 21
60.0787839671
 31
0.0
  0
LINE
  5
B5
330
1F
100
AcDbEntity
  8
SLD-0
  6
Continuous
370
    15
100
AcDbLine
 10
50.6318970526
 20
59.3087811289
 30
0.0
 11
50.6318970526
 21
59.3477822784
 31
0.0
  0
LINE
  5
B6
330
1F
100
AcDbEntity
  8
SLD-0
  6
Continuous
370
    15
100
AcDbLine
 10
85.1897783703
 20
59.3087811289
 30
0.0
 11
50.6318970526
 21
59.3087811289
 31
0.0
  0
LINE
  5
B7
330
1F
100
AcDbEntity
  8
SLD-0
  6
Continuous
370
    15
100
AcDbLine
 10
85.1897783703
 20
59.3477822784
 30
0.0
 11
85.1897783703
 21
59.3087811289
 31
0.0
  0
LINE
  5
B8
330
1F
100
AcDbEntity
  8
SLD-0
  6
Continuous
370
    15
100
AcDbLine
 10
85.3683435609
 20
59.6552389933
 30
0.0
 11
85.3369326171
 21
59.668248763
 31
0.0
  0
LWPOLYLINE
  5
B9
330
1F
100
AcDbEntity
  8
SLD-0
  6
Continuous
370
    15
100
AcDbPolyline
 90
       10
 70
   128
 43
0.0
 10
85.3369326171
 20
59.668248763
 10
85.3452385478
 20
59.6883031446
 10
85.3532922147
 20
59.7077474
 10
85.3608495674
 20
59.7259901759
 10
85.3676806352
 20
59.7424823588
 10
85.3735765671
 20
59.7567170743
 10
85.3783590185
 20
59.7682625409
 10
85.3818824978
 20
59.776771456
 10
85.3840402329
 20
59.7819809958
 10
85.3847676911
 20
59.7837362822
  0
LINE
  5
BA
330
1F
100
AcDbEntity
  8
SLD-0
  6
Continuous
370
    15
100
AcDbLine
 10
85.3847676911
 20
59.7837362822
 30
0.0
 11
85.4161798083
 21
59.7707218192
 31
0.0
  0
LWPOLYLINE
  5
BB
330
1F
100
AcDbEntity
  8
SLD-0
  6
Continuous
370
    15
100
AcDbPolyline
 90
       10
 70
   128
 43
0.0
 10
85.4161798083
 20
59.7707218192
 10
85.41545235
 20
59.7689665328
 10
85.4132946149
 20
59.763756993
 10
85.4097711356
 20
59.7552527712
 10
85.4049875109
 20
59.7437026113
 10
85.399091579
 20
59.729472589
 10
85.3922616846
 20
59.7129804062
 10
85.3847043319
 20
59.6947376303
 10
85.3766506649
 20
59.6752933749
 10
85.3683435609
 20
59.6552389933
  0
LINE
  5
BC
330
1F
100
AcDbEntity
  8
SLD-0
  6
Continuous
370
    15
100
AcDbLine
 10
85.2348103835
 20
59.3328576508
 30
0.0
 11
85.2033982663
 21
59.3458721138
 31
0.0
  0
LINE
  5
BD
330
1F
100
AcDbEntity
  8
SLD-0
  6
Continuous
370
    15
100
AcDbLine
 10
85.3369326171
 20
59.668248763
 30
0.0
 11
85.2033982663
 21
59.3458721138
 31
0.0
  0
LINE
  5
BE
330
1F
100
AcDbEntity
  8
SLD-0
  6
Continuous
370
    15
100
AcDbLine
 10
85.3683435609
 20
59.6552389933
 30
0.0
 11
85.2348103835
 21
59.3328576508
 31
0.0
  0
LINE
  5
BF
330
1F
100
AcDbEntity
  8
SLD-0
  6
Continuous
370
    15
100
AcDbLine
 10
85.1987789064
 20
59.3427839361
 30
0.0
 11
85.1987789064
 21
59.3087811289
 31
0.0
  0
ARC
  5
C0
330
1F
100
AcDbEntity
  8
SLD-0
  6
Continuous
370
    15
100
AcDbCircle
 10
85.1987787447
 20
59.3477834201
 30
0.0
 40
0.0049999999976649
100
AcDbArc
 50
270.0
 51
337.4999999999
  0
ARC
  5
C1
330
1F
100
AcDbEntity
  8
SLD-0
  6
Continuous
370
    15
100
AcDbCircle
 10
85.1987787447
 20
59.3477834201
 30
0.0
 40
0.0390000000000015
100
AcDbArc
 50
269.9999999999
 51
337.4999999999
  0
LINE
  5
C2
330
1F
100
AcDbEntity
  8
SLD-0
  6
Continuous
370
    15
100
AcDbLine
 10
85.1987789064
 20
59.3087811289
 30
0.0
 11
85.1897783703
 21
59.3087811289
 31
0.0
  0
LINE
  5
C3
330
1F
100
AcDbEntity
  8
SLD-0
  6
Continuous
370
    15
100
AcDbLine
 10
85.1987789064
 20
59.3427839361
 30
0.0
 11
85.1897783703
 21
59.3427839361
 31
0.0
  0
LINE
  5
C4
330
1F
100
AcDbEntity
  8
SLD-0
  6
Continuous
370
    15
100
AcDbLine
 10
50.6228965166
 20
59.3087811289
 30
0.0
 11
50.6228965166
 21
59.3427839361
 31
0.0
  0
LINE
  5
C5
330
1F
100
AcDbEntity
  8
SLD-0
  6
Continuous
370
    15
100
AcDbLine
 10
50.6318970526
 20
59.3087811289
 30
0.0
 11
50.6228965166
 21
59.3087811289
 31
0.0
  0
LINE
  5
C6
330
1F
100
AcDbEntity
  8
SLD-0
  6
Continuous
370
    15
100
AcDbLine
 10
50.6318970526
 20
59.3427839361
 30
0.0
 11
50.6228965166
 21
59.3427839361
 31
0.0
  0
LINE
  5
C7
330
1F
100
AcDbEntity
  8
SLD-0
  6
Continuous
370
    15
100
AcDbLine
 10
50.6182771566
 20
59.3458721138
 30
0.0
 11
50.5868650395
 21
59.3328576508
 31
0.0
  0
LINE
  5
C8
330
1F
100
AcDbEntity
  8
SLD-0
  6
Continuous
370
    15
100
AcDbLine
 10
50.5868650395
 20
59.3328576508
 30
0.0
 11
50.4533318621
 21
59.6552389933
 31
0.0
  0
LINE
  5
C9
330
1F
100
AcDbEntity
  8
SLD-0
  6
Continuous
370
    15
100
AcDbLine
 10
50.4847428059
 20
59.668248763
 30
0.0
 11
50.4533318621
 21
59.6552389933
 31
0.0
  0
LINE
  5
CA
330
1F
100
AcDbEntity
  8
SLD-0
  6
Continuous
370
    15
100
AcDbLine
 10
50.4847428059
 20
59.668248763
 30
0.0
 11
50.6182771566
 21
59.3458721138
 31
0.0
  0
ARC
  5
CB
330
1F
100
AcDbEntity
  8
SLD-0
  6
Continuous
370
    15
100
AcDbCircle
 10
50.6228966784
 20
59.3477834201
 30
0.0
 40
0.0389999999999948
100
AcDbArc
 50
202.4999999999
 51
269.9999999999
  0
ARC
  5
CC
330
1F
100
AcDbEntity
  8
SLD-0
  6
Continuous
370
    15
100
AcDbCircle
 10
50.6228966784
 20
59.3477834201
 30
0.0
 40
0.0049999999999998
100
AcDbArc
 50
202.4999999997
 51
270.0
  0
LINE
  5
CD
330
1F
100
AcDbEntity
  8
SLD-0
  6
Continuous
370
    15
100
AcDbLine
 10
50.4054956147
 20
59.7707218192
 30
0.0
 11
50.4369077318
 21
59.7837362822
 31
0.0
  0
LWPOLYLINE
  5
CE
330
1F
100
AcDbEntity
  8
SLD-0
  6
Continuous
370
    15
100
AcDbPolyline
 90
       10
 70
   128
 43
0.0
 10
50.4533318621
 20
59.6552389933
 10
50.445024758
 20
59.6752933749
 10
50.4369710911
 20
59.6947376303
 10
50.4294137384
 20
59.7129804062
 10
50.4225838439
 20
59.729472589
 10
50.4166879121
 20
59.7437026113
 10
50.4119042873
 20
59.7552527712
 10
50.408380808
 20
59.763756993
 10
50.4062230729
 20
59.7689665328
 10
50.4054956147
 20
59.7707218192
  0
LWPOLYLINE
  5
CF
330
1F
100
AcDbEntity
  8
SLD-0
  6
Continuous
370
    15
100
AcDbPolyline
 90
       10
 70
   128
 43
0.0
 10
50.4369077318
 20
59.7837362822
 10
50.4376351901
 20
59.7819809958
 10
50.4397929251
 20
59.776771456
 10
50.4433164044
 20
59.7682625409
 10
50.4480988559
 20
59.7567170743
 10
50.4539947877
 20
59.7424823588
 10
50.4608258555
 20
59.7259901759
 10
50.4683832082
 20
59.7077474
 10
50.4764368752
 20
59.6883031446
 10
50.4847428059
 20
59.668248763
  0
ARC
  5
D0
330
1F
100
AcDbEntity
  8
SLD-0
  6
Continuous
370
    15
100
AcDbCircle
 10
83.1888624853
 20
55.4916834201
 30
0.0
 40
0.125
100
AcDbArc
 50
359.9999999999
 51
89.9999999999
  0
LINE
  5
D1
330
1F
100
AcDbEntity
  8
SLD-0
  6
Continuous
370
    15
100
AcDbLine
 10
83.3138629744
 20
54.9165852546
 30
0.0
 11
83.3138629744
 21
55.4916855977
 31
0.0
  0
LINE
  5
D2
330
1F
100
AcDbEntity
  8
SLD-0
  6
Continuous
370
    15
100
AcDbLine
 10
83.3138629744
 20
54.9165852546
 30
0.0
 11
52.5078124485
 21
54.9165852546
 31
0.0
  0
LINE
  5
D3
330
1F
100
AcDbEntity
  8
SLD-0
  6
Continuous
370
    15
100
AcDbLine
 10
52.5078124485
 20
55.4916855977
 30
0.0
 11
52.5078124485
 21
54.9165852546
 31
0.0
  0
ARC
  5
D4
330
1F
100
AcDbEntity
  8
SLD-0
  6
Continuous
370
    15
100
AcDbCircle
 10
52.6328129377
 20
55.4916834201
 30
0.0
 40
0.1250000000000071
100
AcDbArc
 50
89.9999999999
 51
179.9999999999
  0
LINE
  5
D5
330
1F
100
AcDbEntity
  8
SLD-0
  6
Continuous
370
    15
100
AcDbLine
 10
83.1888621784
 20
55.6166817004
 30
0.0
 11
52.6328132445
 21
55.6166817004
 31
0.0
  0
LINE
  5
D6
330
1F
100
AcDbEntity
  8
SLD-0
  6
Continuous
370
    15
100
AcDbLine
 10
52.5078124485
 20
54.8447827774
 30
0.0
 11
52.5078124485
 21
54.9165852546
 31
0.0
  0
LINE
  5
D7
330
1F
100
AcDbEntity
  8
SLD-0
  6
Continuous
370
    15
100
AcDbLine
 10
83.3138629744
 20
54.8447827774
 30
0.0
 11
52.5078124485
 21
54.8447827774
 31
0.0
  0
LINE
  5
D8
330
1F
100
AcDbEntity
  8
SLD-0
  6
Continuous
370
    15
100
AcDbLine
 10
83.3138629744
 20
54.9165852546
 30
0.0
 11
83.3138629744
 21
54.8447827774
 31
0.0
  0
LINE
  5
D9
330
1F
100
AcDbEntity
  8
SLD-0
  6
Continuous
370
    15
100
AcDbLine
 10
83.5143434318
 20
55.1912359485
 30
0.0
 11
83.4811772016
 21
55.2049778697
 31
0.0
  0
LWPOLYLINE
  5
DA
330
1F
100
AcDbEntity
  8
SLD-0
  6
Continuous
370
    15
100
AcDbPolyline
 90
       10
 70
   128
 43
0.0
 10
83.4811772016
 20
55.2049778697
 10
83.4894831323
 20
55.2250322514
 10
83.4975379726
 20
55.2444765068
 10
83.505094152
 20
55.2627192827
 10
83.5119252197
 20
55.2792067722
 10
83.5178211516
 20
55.2934414878
 10
83.522603603
 20
55.3049916477
 10
83.5261270823
 20
55.3134958694
 10
83.5282859907
 20
55.3187054093
 10
83.5290122757
 20
55.3204606957
  0
LINE
  5
DB
330
1F
100
AcDbEntity
  8
SLD-0
  6
Continuous
370
    15
100
AcDbLine
 10
83.5290122757
 20
55.3204606957
 30
0.0
 11
83.5621796792
 21
55.3067234677
 31
0.0
  0
LWPOLYLINE
  5
DC
330
1F
100
AcDbEntity
  8
SLD-0
  6
Continuous
370
    15
100
AcDbPolyline
 90
       10
 70
   128
 43
0.0
 10
83.5621796792
 20
55.3067234677
 10
83.5614522209
 20
55.3049681813
 10
83.5592944858
 20
55.2997586415
 10
83.5557710065
 20
55.2912497264
 10
83.5509885551
 20
55.2797042598
 10
83.5450914499
 20
55.2654695443
 10
83.5382615555
 20
55.2489820547
 10
83.5307042028
 20
55.2307345855
 10
83.5226505358
 20
55.2112903301
 10
83.5143434318
 20
55.1912359485
  0
LINE
  5
DD
330
1F
100
AcDbEntity
  8
SLD-0
  6
Continuous
370
    15
100
AcDbLine
 10
83.3891971441
 20
54.8891061054
 30
0.0
 11
83.3560297406
 21
54.9028433333
 31
0.0
  0
LINE
  5
DE
330
1F
100
AcDbEntity
  8
SLD-0
  6
Continuous
370
    15
100
AcDbLine
 10
83.4811772016
 20
55.2049778697
 30
0.0
 11
83.3560297406
 21
54.9028433333
 31
0.0
  0
LINE
  5
DF
330
1F
100
AcDbEntity
  8
SLD-0
  6
Continuous
370
    15
100
AcDbLine
 10
83.5143434318
 20
55.1912359485
 30
0.0
 11
83.3891971441
 21
54.8891061054
 31
0.0
  0
ARC
  5
E0
330
1F
100
AcDbEntity
  8
SLD-0
  6
Continuous
370
    15
100
AcDbCircle
 10
83.3228624853
 20
54.9165834309
 30
0.0
 40
0.0718000182467122
100
AcDbArc
 50
269.9999999999
 51
337.4999920462
  0
LINE
  5
E1
330
1F
100
AcDbEntity
  8
SLD-0
  6
Continuous
370
    15
100
AcDbLine
 10
83.3228623371
 20
54.8806816694
 30
0.0
 11
83.3228623371
 21
54.8447827774
 31
0.0
  0
ARC
  5
E2
330
1F
100
AcDbEntity
  8
SLD-0
  6
Continuous
370
    15
100
AcDbCircle
 10
83.3228624853
 20
54.9165834201
 30
0.0
 40
0.0359000000000072
100
AcDbArc
 50
269.9999999999
 51
337.4999999999
  0
LINE
  5
E3
330
1F
100
AcDbEntity
  8
SLD-0
  6
Continuous
370
    15
100
AcDbLine
 10
83.3228623371
 20
54.8806816694
 30
0.0
 11
83.3138629744
 21
54.8806816694
 31
0.0
  0
LINE
  5
E4
330
1F
100
AcDbEntity
  8
SLD-0
  6
Continuous
370
    15
100
AcDbLine
 10
83.3228623371
 20
54.8447827774
 30
0.0
 11
83.3138629744
 21
54.8447827774
 31
0.0
  0
LINE
  5
E5
330
1F
100
AcDbEntity
  8
SLD-0
  6
Continuous
370
    15
100
AcDbLine
 10
52.4656456823
 20
54.9028433333
 30
0.0
 11
52.4324782788
 21
54.8891061054
 31
0.0
  0
LINE
  5
E6
330
1F
100
AcDbEntity
  8
SLD-0
  6
Continuous
370
    15
100
AcDbLine
 10
52.4324782788
 20
54.8891061054
 30
0.0
 11
52.3073319912
 21
55.1912359485
 31
0.0
  0
LINE
  5
E7
330
1F
100
AcDbEntity
  8
SLD-0
  6
Continuous
370
    15
100
AcDbLine
 10
52.3404982214
 20
55.2049778697
 30
0.0
 11
52.3073319912
 21
55.1912359485
 31
0.0
  0
LINE
  5
E8
330
1F
100
AcDbEntity
  8
SLD-0
  6
Continuous
370
    15
100
AcDbLine
 10
52.3404982214
 20
55.2049778697
 30
0.0
 11
52.4656456823
 21
54.9028433333
 31
0.0
  0
LINE
  5
E9
330
1F
100
AcDbEntity
  8
SLD-0
  6
Continuous
370
    15
100
AcDbLine
 10
52.4988130858
 20
54.8447827774
 30
0.0
 11
52.4988130858
 21
54.8806816694
 31
0.0
  0
LINE
  5
EA
330
1F
100
AcDbEntity
  8
SLD-0
  6
Continuous
370
    15
100
AcDbLine
 10
52.5078124485
 20
54.8806816694
 30
0.0
 11
52.4988130858
 21
54.8806816694
 31
0.0
  0
LINE
  5
EB
330
1F
100
AcDbEntity
  8
SLD-0
  6
Continuous
370
    15
100
AcDbLine
 10
52.5078124485
 20
54.8447827774
 30
0.0
 11
52.4988130858
 21
54.8447827774
 31
0.0
  0
ARC
  5
EC
330
1F
100
AcDbEntity
  8
SLD-0
  6
Continuous
370
    15
100
AcDbCircle
 10
52.4988129377
 20
54.9165834309
 30
0.0
 40
0.0718000182467264
100
AcDbArc
 50
202.5000079536
 51
269.9999999999
  0
ARC
  5
ED
330
1F
100
AcDbEntity
  8
SLD-0
  6
Continuous
370
    15
100
AcDbCircle
 10
52.4988129377
 20
54.9165834201
 30
0.0
 40
0.0359000107883105
100
AcDbArc
 50
202.4999999999
 51
269.9999999999
  0
LINE
  5
EE
330
1F
100
AcDbEntity
  8
SLD-0
  6
Continuous
370
    15
100
AcDbLine
 10
52.2594957438
 20
55.3067234677
 30
0.0
 11
52.2926631473
 21
55.3204606957
 31
0.0
  0
LWPOLYLINE
  5
EF
330
1F
100
AcDbEntity
  8
SLD-0
  6
Continuous
370
    15
100
AcDbPolyline
 90
       10
 70
   128
 43
0.0
 10
52.3073319912
 20
55.1912359485
 10
52.2990248871
 20
55.2112903301
 10
52.2909712202
 20
55.2307345855
 10
52.2834138675
 20
55.2489820547
 10
52.276583973
 20
55.2654695443
 10
52.2706868678
 20
55.2797042598
 10
52.2659044164
 20
55.2912497264
 10
52.2623809371
 20
55.2997586415
 10
52.260223202
 20
55.3049681813
 10
52.2594957438
 20
55.3067234677
  0
LWPOLYLINE
  5
F0
330
1F
100
AcDbEntity
  8
SLD-0
  6
Continuous
370
    15
100
AcDbPolyline
 90
       10
 70
   128
 43
0.0
 10
52.2926631473
 20
55.3204606957
 10
52.2933894322
 20
55.3187054093
 10
52.2955483406
 20
55.3134958694
 10
52.2990718199
 20
55.3049916477
 10
52.3038542713
 20
55.2934414878
 10
52.3097502032
 20
55.2792067722
 10
52.316581271
 20
55.2627192827
 10
52.3241374504
 20
55.2444765068
 10
52.3321922906
 20
55.2250322514
 10
52.3404982214
 20
55.2049778697
  0
LINE
  5
F1
330
1F
100
AcDbEntity
  8
SLD-0
  6
Continuous
370
    15
100
AcDbLine
 10
54.8816671589
 20
48.8688586384
 30
0.0
 11
54.913079276
 21
48.8818707548
 31
0.0
  0
LINE
  5
F2
330
1F
100
AcDbEntity
  8
SLD-0
  6
Continuous
370
    15
100
AcDbLine
 10
49.9457056195
 20
60.7853242851
 30
0.0
 11
54.8816671589
 21
48.8688586384
 31
0.0
  0
LINE
  5
F3
330
1F
100
AcDbEntity
  8
SLD-0
  6
Continuous
370
    15
100
AcDbLine
 10
49.9771165633
 20
60.7983387481
 30
0.0
 11
49.9457056195
 21
60.7853242851
 31
0.0
  0
LINE
  5
F4
330
1F
100
AcDbEntity
  8
SLD-0
  6
Continuous
370
    15
100
AcDbLine
 10
49.9771165633
 20
60.7983387481
 30
0.0
 11
54.913079276
 21
48.8818707548
 31
0.0
  0
ARC
  5
F5
330
1F
100
AcDbEntity
  8
SLD-0
  6
Continuous
370
    15
100
AcDbCircle
 10
54.917698449
 20
48.8837834201
 30
0.0
 40
0.0049999999999955
100
AcDbArc
 50
202.5
 51
270.0000000016
  0
LINE
  5
F6
330
1F
100
AcDbEntity
  8
SLD-0
  6
Continuous
370
    15
100
AcDbLine
 10
54.917698636
 20
48.8787825771
 30
0.0
 11
54.917698636
 21
48.8447844632
 31
0.0
  0
ARC
  5
F7
330
1F
100
AcDbEntity
  8
SLD-0
  6
Continuous
370
    15
100
AcDbCircle
 10
54.917698449
 20
48.8837834201
 30
0.0
 40
0.039000000000101
100
AcDbArc
 50
202.5
 51
270.0000000002
  0
LINE
  5
F8
330
1F
100
AcDbEntity
  8
SLD-0
  6
Continuous
370
    15
100
AcDbLine
 10
49.875490644
 20
60.7853242851
 30
0.0
 11
49.8440785269
 21
60.7983387481
 31
0.0
  0
LINE
  5
F9
330
1F
100
AcDbEntity
  8
SLD-0
  6
Continuous
370
    15
100
AcDbLine
 10
44.9395291047
 20
48.8688586384
 30
0.0
 11
49.875490644
 21
60.7853242851
 31
0.0
  0
LINE
  5
FA
330
1F
100
AcDbEntity
  8
SLD-0
  6
Continuous
370
    15
100
AcDbLine
 10
44.9081169875
 20
48.8818707548
 30
0.0
 11
44.9395291047
 21
48.8688586384
 31
0.0
  0
LINE
  5
FB
330
1F
100
AcDbEntity
  8
SLD-0
  6
Continuous
370
    15
100
AcDbLine
 10
44.9081169875
 20
48.8818707548
 30
0.0
 11
49.8440785269
 21
60.7983387481
 31
0.0
  0
LINE
  5
FC
330
1F
100
AcDbEntity
  8
SLD-0
  6
Continuous
370
    15
100
AcDbLine
 10
55.5393574812
 20
48.8787825771
 30
0.0
 11
55.5393574812
 21
48.8447844632
 31
0.0
  0
LINE
  5
FD
330
1F
100
AcDbEntity
  8
SLD-0
  6
Continuous
370
    15
100
AcDbLine
 10
55.4393577831
 20
48.8447844632
 30
0.0
 11
55.4393577831
 21
48.8787825771
 31
0.0
  0
LINE
  5
FE
330
1F
100
AcDbEntity
  8
SLD-0
  6
Continuous
370
    15
100
AcDbLine
 10
55.4393577831
 20
48.8787825771
 30
0.0
 11
55.5393574812
 21
48.8787825771
 31
0.0
  0
ARC
  5
FF
330
1F
100
AcDbEntity
  8
SLD-0
  6
Continuous
370
    15
100
AcDbCircle
 10
44.9034968183
 20
48.8837834201
 30
0.0
 40
0.005000000000005
100
AcDbArc
 50
270.0
 51
337.4999999991
  0
ARC
  5
100
330
1F
100
AcDbEntity
  8
SLD-0
  6
Continuous
370
    15
100
AcDbCircle
 10
44.9034968183
 20
48.8837834201
 30
0.0
 40
0.0389999999999944
100
AcDbArc
 50
270.0
 51
337.4999999999
  0
LINE
  5
101
330
1F
100
AcDbEntity
  8
SLD-0
  6
Continuous
370
    15
100
AcDbLine
 10
44.9034964542
 20
48.8447844632
 30
0.0
 11
44.9034964542
 21
48.8787825771
 31
0.0
  0
LINE
  5
102
330
1F
100
AcDbEntity
  8
SLD-0
  6
Continuous
370
    15
100
AcDbLine
 10
54.917698636
 20
48.8787825771
 30
0.0
 11
55.4393577831
 21
48.8787825771
 31
0.0
  0
ARC
  5
103
330
1F
100
AcDbEntity
  8
SLD-0
  6
Continuous
370
    15
100
AcDbCircle
 10
49.9105976337
 20
60.7707834201
 30
0.0
 40
0.0719999999999985
100
AcDbArc
 50
22.5
 51
157.5
  0
ARC
  5
104
330
1F
100
AcDbEntity
  8
SLD-0
  6
Continuous
370
    15
100
AcDbCircle
 10
49.9105976337
 20
60.7707834201
 30
0.0
 40
0.0379999999999988
100
AcDbArc
 50
22.5
 51
157.5
  0
LINE
  5
105
330
1F
100
AcDbEntity
  8
SLD-0
  6
Continuous
370
    15
100
AcDbLine
 10
44.2818387824
 20
48.8447844632
 30
0.0
 11
44.2818387824
 21
48.8787825771
 31
0.0
  0
LINE
  5
106
330
1F
100
AcDbEntity
  8
SLD-0
  6
Continuous
370
    15
100
AcDbLine
 10
44.3818384805
 20
48.8787825771
 30
0.0
 11
44.3818384805
 21
48.8447844632
 31
0.0
  0
LINE
  5
107
330
1F
100
AcDbEntity
  8
SLD-0
  6
Continuous
370
    15
100
AcDbLine
 10
44.2818387824
 20
48.8787825771
 30
0.0
 11
44.3818384805
 21
48.8787825771
 31
0.0
  0
LINE
  5
108
330
1F
100
AcDbEntity
  8
SLD-0
  6
Continuous
370
    15
100
AcDbLine
 10
44.3818384805
 20
48.8787825771
 30
0.0
 11
44.9034964542
 21
48.8787825771
 31
0.0
  0
LINE
  5
109
330
1F
100
AcDbEntity
  8
SLD-0
  6
Continuous
370
    15
100
AcDbLine
 10
90.8821463183
 20
48.8688586384
 30
0.0
 11
90.9135584354
 21
48.8818707548
 31
0.0
  0
LINE
  5
10A
330
1F
100
AcDbEntity
  8
SLD-0
  6
Continuous
370
    15
100
AcDbLine
 10
90.8821463183
 20
48.8688586384
 30
0.0
 11
85.9461847789
 21
60.7853242851
 31
0.0
  0
LINE
  5
10B
330
1F
100
AcDbEntity
  8
SLD-0
  6
Continuous
370
    15
100
AcDbLine
 10
85.9775968961
 20
60.7983387481
 30
0.0
 11
85.9461847789
 21
60.7853242851
 31
0.0
  0
LINE
  5
10C
330
1F
100
AcDbEntity
  8
SLD-0
  6
Continuous
370
    15
100
AcDbLine
 10
90.9135584354
 20
48.8818707548
 30
0.0
 11
85.9775968961
 21
60.7983387481
 31
0.0
  0
LINE
  5
10D
330
1F
100
AcDbEntity
  8
SLD-0
  6
Continuous
370
    15
100
AcDbLine
 10
91.4398369425
 20
48.8447844632
 30
0.0
 11
91.4398369425
 21
48.8787825771
 31
0.0
  0
LINE
  5
10E
330
1F
100
AcDbEntity
  8
SLD-0
  6
Continuous
370
    15
100
AcDbLine
 10
91.5398366406
 20
48.8787825771
 30
0.0
 11
91.5398366406
 21
48.8447844632
 31
0.0
  0
LINE
  5
10F
330
1F
100
AcDbEntity
  8
SLD-0
  6
Continuous
370
    15
100
AcDbLine
 10
91.4398369425
 20
48.8787825771
 30
0.0
 11
91.5398366406
 21
48.8787825771
 31
0.0
  0
LINE
  5
110
330
1F
100
AcDbEntity
  8
SLD-0
  6
Continuous
370
    15
100
AcDbLine
 10
90.9181789687
 20
48.8787825771
 30
0.0
 11
90.9181789687
 21
48.8447844632
 31
0.0
  0
LINE
  5
111
330
1F
100
AcDbEntity
  8
SLD-0
  6
Continuous
370
    15
100
AcDbLine
 10
91.4398369425
 20
48.8787825771
 30
0.0
 11
90.9181789687
 21
48.8787825771
 31
0.0
  0
ARC
  5
112
330
1F
100
AcDbEntity
  8
SLD-0
  6
Continuous
370
    15
100
AcDbCircle
 10
90.9181786047
 20
48.8837834201
 30
0.0
 40
0.0050000000000026
100
AcDbArc
 50
202.500000001
 51
269.9999999998
  0
ARC
  5
113
330
1F
100
AcDbEntity
  8
SLD-0
  6
Continuous
370
    15
100
AcDbCircle
 10
90.9181786047
 20
48.8837834201
 30
0.0
 40
0.0390000000000015
100
AcDbArc
 50
202.5
 51
269.9999999999
  0
ARC
  5
114
330
1F
100
AcDbEntity
  8
SLD-0
  6
Continuous
370
    15
100
AcDbCircle
 10
85.9110777894
 20
60.7707834201
 30
0.0
 40
0.0720000000000021
100
AcDbArc
 50
22.4999999999
 51
157.4999999999
  0
ARC
  5
115
330
1F
100
AcDbEntity
  8
SLD-0
  6
Continuous
370
    15
100
AcDbCircle
 10
85.9110777894
 20
60.7707834201
 30
0.0
 40
0.0380000000000137
100
AcDbArc
 50
22.4999999999
 51
157.4999999999
  0
LINE
  5
116
330
1F
100
AcDbEntity
  8
SLD-0
  6
Continuous
370
    15
100
AcDbLine
 10
85.8759698034
 20
60.7853242851
 30
0.0
 11
85.8445588596
 21
60.7983387481
 31
0.0
  0
LINE
  5
117
330
1F
100
AcDbEntity
  8
SLD-0
  6
Continuous
370
    15
100
AcDbLine
 10
85.8759698034
 20
60.7853242851
 30
0.0
 11
80.940008264
 21
48.8688586384
 31
0.0
  0
LINE
  5
118
330
1F
100
AcDbEntity
  8
SLD-0
  6
Continuous
370
    15
100
AcDbLine
 10
80.9085961469
 20
48.8818707548
 30
0.0
 11
80.940008264
 21
48.8688586384
 31
0.0
  0
LINE
  5
119
330
1F
100
AcDbEntity
  8
SLD-0
  6
Continuous
370
    15
100
AcDbLine
 10
85.8445588596
 20
60.7983387481
 30
0.0
 11
80.9085961469
 21
48.8818707548
 31
0.0
  0
ARC
  5
11A
330
1F
100
AcDbEntity
  8
SLD-0
  6
Continuous
370
    15
100
AcDbCircle
 10
80.903976974
 20
48.8837834201
 30
0.0
 40
0.0050000000000097
100
AcDbArc
 50
269.9999999982
 51
337.4999999998
  0
ARC
  5
11B
330
1F
100
AcDbEntity
  8
SLD-0
  6
Continuous
370
    15
100
AcDbCircle
 10
80.903976974
 20
48.8837834201
 30
0.0
 40
0.039000000000101
100
AcDbArc
 50
269.9999999997
 51
337.4999999999
  0
LINE
  5
11C
330
1F
100
AcDbEntity
  8
SLD-0
  6
Continuous
370
    15
100
AcDbLine
 10
80.903976787
 20
48.8447844632
 30
0.0
 11
80.903976787
 21
48.8787825771
 31
0.0
  0
LINE
  5
11D
330
1F
100
AcDbEntity
  8
SLD-0
  6
Continuous
370
    15
100
AcDbLine
 10
80.3823176399
 20
48.8787825771
 30
0.0
 11
80.3823176399
 21
48.8447844632
 31
0.0
  0
LINE
  5
11E
330
1F
100
AcDbEntity
  8
SLD-0
  6
Continuous
370
    15
100
AcDbLine
 10
80.903976787
 20
48.8787825771
 30
0.0
 11
80.3823176399
 21
48.8787825771
 31
0.0
  0
LINE
  5
11F
330
1F
100
AcDbEntity
  8
SLD-0
  6
Continuous
370
    15
100
AcDbLine
 10
80.2823179417
 20
48.8447844632
 30
0.0
 11
80.2823179417
 21
48.8787825771
 31
0.0
  0
LINE
  5
120
330
1F
100
AcDbEntity
  8
SLD-0
  6
Continuous
370
    15
100
AcDbLine
 10
80.2823179417
 20
48.8787825771
 30
0.0
 11
80.3823176399
 21
48.8787825771
 31
0.0
  0
LINE
  5
121
330
1F
100
AcDbEntity
  8
SLD-0
  6
Continuous
370
    15
100
AcDbLine
 10
48.022837486
 20
43.4167842346
 30
0.0
 11
48.022837486
 21
43.4407833174
 31
0.0
  0
LINE
  5
122
330
1F
100
AcDbEntity
  8
SLD-0
  6
Continuous
370
    15
100
AcDbLine
 10
48.022837486
 20
43.4407833174
 30
0.0
 11
48.147838282
 21
43.4407833174
 31
0.0
  0
LINE
  5
123
330
1F
100
AcDbEntity
  8
SLD-0
  6
Continuous
370
    15
100
AcDbLine
 10
48.147838282
 20
43.4407833174
 30
0.0
 11
48.147838282
 21
43.4167842346
 31
0.0
  0
LINE
  5
124
330
1F
100
AcDbEntity
  8
SLD-0
  6
Continuous
370
    15
100
AcDbLine
 10
48.147838282
 20
43.4167842346
 30
0.0
 11
48.022837486
 21
43.4167842346
 31
0.0
  0
LINE
  5
125
330
1F
100
AcDbEntity
  8
SLD-0
  6
Continuous
370
    15
100
AcDbLine
 10
48.147838282
 20
43.4407833174
 30
0.0
 11
87.6738371409
 21
43.4407833174
 31
0.0
  0
LINE
  5
126
330
1F
100
AcDbEntity
  8
SLD-0
  6
Continuous
370
    15
100
AcDbLine
 10
87.6738371409
 20
43.4167842346
 30
0.0
 11
87.6738371409
 21
43.4407833174
 31
0.0
  0
LINE
  5
127
330
1F
100
AcDbEntity
  8
SLD-0
  6
Continuous
370
    15
100
AcDbLine
 10
48.147838282
 20
43.4167842346
 30
0.0
 11
87.6738371409
 21
43.4167842346
 31
0.0
  0
LINE
  5
128
330
1F
100
AcDbEntity
  8
SLD-0
  6
Continuous
370
    15
100
AcDbLine
 10
87.7988379369
 20
43.4407833174
 30
0.0
 11
87.7988379369
 21
43.4167842346
 31
0.0
  0
LINE
  5
129
330
1F
100
AcDbEntity
  8
SLD-0
  6
Continuous
370
    15
100
AcDbLine
 10
87.6738371409
 20
43.4407833174
 30
0.0
 11
87.7988379369
 21
43.4407833174
 31
0.0
  0
LINE
  5
12A
330
1F
100
AcDbEntity
  8
SLD-0
  6
Continuous
370
    15
100
AcDbLine
 10
87.7988379369
 20
43.4167842346
 30
0.0
 11
87.6738371409
 21
43.4167842346
 31
0.0
  0
LINE
  5
12B
330
1F
100
AcDbEntity
  8
SLD-0
  6
Continuous
370
    15
100
AcDbLine
 10
87.7988379369
 20
43.4457840063
 30
0.0
 11
48.022837486
 21
43.4457840063
 31
0.0
  0
LINE
  5
12C
330
1F
100
AcDbEntity
  8
SLD-0
  6
Continuous
370
    15
100
AcDbLine
 10
48.022837486
 20
43.4457840063
 30
0.0
 11
48.022837486
 21
43.4407833174
 31
0.0
  0
LINE
  5
12D
330
1F
100
AcDbEntity
  8
SLD-0
  6
Continuous
370
    15
100
AcDbLine
 10
87.7988379369
 20
43.4407833174
 30
0.0
 11
87.7988379369
 21
43.4457840063
 31
0.0
  0
LINE
  5
12E
330
1F
100
AcDbEntity
  8
SLD-0
  6
Continuous
370
    15
100
AcDbLine
 10
40.4398383655
 20
48.8157823449
 30
0.0
 11
95.3818370575
 21
48.8157823449
 31
0.0
  0
LINE
  5
12F
330
1F
100
AcDbEntity
  8
SLD-0
  6
Continuous
370
    15
100
AcDbLine
 10
95.3818370575
 20
43.5707824556
 30
0.0
 11
95.3818370575
 21
48.8157823449
 31
0.0
  0
LINE
  5
130
330
1F
100
AcDbEntity
  8
SLD-0
  6
Continuous
370
    15
100
AcDbLine
 10
95.2568386081
 20
43.4457840063
 30
0.0
 11
95.3818370575
 21
43.5707824556
 31
0.0
  0
LINE
  5
131
330
1F
100
AcDbEntity
  8
SLD-0
  6
Continuous
370
    15
100
AcDbLine
 10
87.7988379369
 20
43.4457840063
 30
0.0
 11
95.2568386081
 21
43.4457840063
 31
0.0
  0
LINE
  5
132
330
1F
100
AcDbEntity
  8
SLD-0
  6
Continuous
370
    15
100
AcDbLine
 10
40.4398383655
 20
43.5707824556
 30
0.0
 11
40.5648368148
 21
43.4457840063
 31
0.0
  0
LINE
  5
133
330
1F
100
AcDbEntity
  8
SLD-0
  6
Continuous
370
    15
100
AcDbLine
 10
40.4398383655
 20
48.8157823449
 30
0.0
 11
40.4398383655
 21
43.5707824556
 31
0.0
  0
LINE
  5
134
330
1F
100
AcDbEntity
  8
SLD-0
  6
Continuous
370
    15
100
AcDbLine
 10
40.5648368148
 20
43.4457840063
 30
0.0
 11
48.022837486
 21
43.4457840063
 31
0.0
  0
LINE
  5
135
330
1F
100
AcDbEntity
  8
SLD-0
  6
Continuous
370
    15
100
AcDbLine
 10
95.3818370575
 20
48.8447844632
 30
0.0
 11
95.3818370575
 21
48.8157823449
 31
0.0
  0
LINE
  5
136
330
1F
100
AcDbEntity
  8
SLD-0
  6
Continuous
370
    15
100
AcDbLine
 10
40.4398383655
 20
48.8157823449
 30
0.0
 11
40.4398383655
 21
48.8447844632
 31
0.0
  0
LINE
  5
137
330
1F
100
AcDbEntity
  8
SLD-0
  6
Continuous
370
    15
100
AcDbLine
 10
40.4398383655
 20
48.8447844632
 30
0.0
 11
95.3818370575
 21
48.8447844632
 31
0.0
  0
LINE
  5
138
330
1F
100
AcDbEntity
  8
SLD-0
  6
Continuous
370
    15
100
AcDbLine
 10
95.4108368291
 20
48.8157823449
 30
0.0
 11
95.3868377464
 21
48.8157823449
 31
0.0
  0
LINE
  5
139
330
1F
100
AcDbEntity
  8
SLD-0
  6
Continuous
370
    15
100
AcDbLine
 10
95.3868377464
 20
47.9457845019
 30
0.0
 11
95.4108368291
 21
47.9457845019
 31
0.0
  0
LINE
  5
13A
330
1F
100
AcDbEntity
  8
SLD-0
  6
Continuous
370
    15
100
AcDbLine
 10
95.4108368291
 20
47.9457845019
 30
0.0
 11
95.4108368291
 21
48.8157823449
 31
0.0
  0
LINE
  5
13B
330
1F
100
AcDbEntity
  8
SLD-0
  6
Continuous
370
    15
100
AcDbLine
 10
95.3868377464
 20
47.9457845019
 30
0.0
 11
95.3868377464
 21
48.8157823449
 31
0.0
  0
LINE
  5
13C
330
1F
100
AcDbEntity
  8
SLD-0
  6
Continuous
370
    15
100
AcDbLine
 10
95.4108368291
 20
47.8207837059
 30
0.0
 11
95.3868377464
 21
47.8207837059
 31
0.0
  0
LINE
  5
13D
330
1F
100
AcDbEntity
  8
SLD-0
  6
Continuous
370
    15
100
AcDbLine
 10
95.4108368291
 20
47.9457845019
 30
0.0
 11
95.4108368291
 21
47.8207837059
 31
0.0
  0
LINE
  5
13E
330
1F
100
AcDbEntity
  8
SLD-0
  6
Continuous
370
    15
100
AcDbLine
 10
95.3868377464
 20
47.9217830725
 30
0.0
 11
95.3868377464
 21
47.9457845019
 31
0.0
  0
ARC
  5
13F
330
1F
100
AcDbEntity
  8
SLD-0
  6
Continuous
370
    15
100
AcDbCircle
 10
40.4398377115
 20
48.8157834201
 30
0.0
 40
0.0050000000077191
100
AcDbArc
 50
89.9999999965
 51
180.0000000084
  0
LINE
  5
140
330
1F
100
AcDbEntity
  8
SLD-0
  6
Continuous
370
    15
100
AcDbLine
 10
40.4108385938
 20
48.8157823449
 30
0.0
 11
40.4348376766
 21
48.8157823449
 31
0.0
  0
ARC
  5
141
330
1F
100
AcDbEntity
  8
SLD-0
  6
Continuous
370
    15
100
AcDbCircle
 10
40.4398377115
 20
48.8157834201
 30
0.0
 40
0.0289999999999964
100
AcDbArc
 50
89.9999999994
 51
180.0000000001
  0
LINE
  5
142
330
1F
100
AcDbEntity
  8
SLD-0
  6
Continuous
370
    15
100
AcDbLine
 10
40.4108385938
 20
47.9457845019
 30
0.0
 11
40.4348376766
 21
47.9457845019
 31
0.0
  0
LINE
  5
143
330
1F
100
AcDbEntity
  8
SLD-0
  6
Continuous
370
    15
100
AcDbLine
 10
40.4348376766
 20
47.9457845019
 30
0.0
 11
40.4348376766
 21
47.9217830725
 31
0.0
  0
LINE
  5
144
330
1F
100
AcDbEntity
  8
SLD-0
  6
Continuous
370
    15
100
AcDbLine
 10
40.4348376766
 20
47.8207837059
 30
0.0
 11
40.4108385938
 21
47.8207837059
 31
0.0
  0
LINE
  5
145
330
1F
100
AcDbEntity
  8
SLD-0
  6
Continuous
370
    15
100
AcDbLine
 10
40.4108385938
 20
47.8207837059
 30
0.0
 11
40.4108385938
 21
47.9457845019
 31
0.0
  0
LINE
  5
146
330
1F
100
AcDbEntity
  8
SLD-0
  6
Continuous
370
    15
100
AcDbLine
 10
40.4348376766
 20
48.8157823449
 30
0.0
 11
40.4348376766
 21
47.9457845019
 31
0.0
  0
LINE
  5
147
330
1F
100
AcDbEntity
  8
SLD-0
  6
Continuous
370
    15
100
AcDbLine
 10
40.4108385938
 20
48.8157823449
 30
0.0
 11
40.4108385938
 21
47.9457845019
 31
0.0
  0
ARC
  5
148
330
1F
100
AcDbEntity
  8
SLD-0
  6
Continuous
370
    15
100
AcDbCircle
 10
95.3818377115
 20
48.8157834201
 30
0.0
 40
0.0049999999999955
100
AcDbArc
 50
359.9999999983
 51
90.0
  0
ARC
  5
149
330
1F
100
AcDbEntity
  8
SLD-0
  6
Continuous
370
    15
100
AcDbCircle
 10
95.3818377115
 20
48.8157834201
 30
0.0
 40
0.0289999999999964
100
AcDbArc
 50
359.9999999999
 51
90.0
  0
LINE
  5
14A
330
1F
100
AcDbEntity
  8
SLD-0
  6
Continuous
370
    15
100
AcDbLine
 10
87.8688381949
 20
43.2707833612
 30
0.0
 11
87.8448367655
 21
43.2707833612
 31
0.0
  0
LINE
  5
14B
330
1F
100
AcDbEntity
  8
SLD-0
  6
Continuous
370
    15
100
AcDbLine
 10
87.8688381949
 20
43.2707833612
 30
0.0
 11
87.8688381949
 21
10.6697833974
 31
0.0
  0
LINE
  5
14C
330
1F
100
AcDbEntity
  8
SLD-0
  6
Continuous
370
    15
100
AcDbLine
 10
87.8448367655
 20
10.6697833974
 30
0.0
 11
87.8688381949
 21
10.6697833974
 31
0.0
  0
LINE
  5
14D
330
1F
100
AcDbEntity
  8
SLD-0
  6
Continuous
370
    15
100
AcDbLine
 10
87.8448367655
 20
43.2707833612
 30
0.0
 11
87.8448367655
 21
10.6697833974
 31
0.0
  0
LINE
  5
14E
330
1F
100
AcDbEntity
  8
SLD-0
  6
Continuous
370
    15
100
AcDbLine
 10
87.8688381949
 20
10.6697833974
 30
0.0
 11
87.8688381949
 21
10.5447834081
 31
0.0
  0
LINE
  5
14F
330
1F
100
AcDbEntity
  8
SLD-0
  6
Continuous
370
    15
100
AcDbLine
 10
87.8688381949
 20
10.5447834081
 30
0.0
 11
87.8448367655
 21
10.5447834081
 31
0.0
  0
LINE
  5
150
330
1F
100
AcDbEntity
  8
SLD-0
  6
Continuous
370
    15
100
AcDbLine
 10
87.8448367655
 20
10.5447834081
 30
0.0
 11
87.8448367655
 21
10.6697833974
 31
0.0
  0
LINE
  5
151
330
1F
100
AcDbEntity
  8
SLD-0
  6
Continuous
370
    15
100
AcDbLine
 10
87.8448367655
 20
43.3957841572
 30
0.0
 11
87.8688381949
 21
43.3957841572
 31
0.0
  0
LINE
  5
152
330
1F
100
AcDbEntity
  8
SLD-0
  6
Continuous
370
    15
100
AcDbLine
 10
87.8688381949
 20
43.3957841572
 30
0.0
 11
87.8688381949
 21
43.2707833612
 31
0.0
  0
LINE
  5
153
330
1F
100
AcDbEntity
  8
SLD-0
  6
Continuous
370
    15
100
AcDbLine
 10
87.8448367655
 20
43.2707833612
 30
0.0
 11
87.8448367655
 21
43.3957841572
 31
0.0
  0
LINE
  5
154
330
1F
100
AcDbEntity
  8
SLD-0
  6
Continuous
370
    15
100
AcDbLine
 10
87.8738388838
 20
10.5447834081
 30
0.0
 11
87.8738388838
 21
43.3957841572
 31
0.0
  0
LINE
  5
155
330
1F
100
AcDbEntity
  8
SLD-0
  6
Continuous
370
    15
100
AcDbLine
 10
87.8738388838
 20
43.3957841572
 30
0.0
 11
87.8688381949
 21
43.3957841572
 31
0.0
  0
LINE
  5
156
330
1F
100
AcDbEntity
  8
SLD-0
  6
Continuous
370
    15
100
AcDbLine
 10
87.8688381949
 20
10.5447834081
 30
0.0
 11
87.8738388838
 21
10.5447834081
 31
0.0
  0
LINE
  5
157
330
1F
100
AcDbEntity
  8
SLD-0
  6
Continuous
370
    15
100
AcDbLine
 10
87.8448367655
 20
10.5157834164
 30
0.0
 11
87.8448367655
 21
10.5447834081
 31
0.0
  0
LINE
  5
158
330
1F
100
AcDbEntity
  8
SLD-0
  6
Continuous
370
    15
100
AcDbLine
 10
87.8448367655
 20
43.3957841572
 30
0.0
 11
87.8448367655
 21
43.4457840063
 31
0.0
  0
LINE
  5
159
330
1F
100
AcDbEntity
  8
SLD-0
  6
Continuous
370
    15
100
AcDbLine
 10
95.3741166133
 20
9.5687834196
 30
0.0
 11
95.3668373374
 21
9.5687834196
 31
0.0
  0
LINE
  5
15A
330
1F
100
AcDbEntity
  8
SLD-0
  6
Continuous
370
    15
100
AcDbLine
 10
95.3818370575
 20
48.778782879
 30
0.0
 11
95.3868377464
 21
48.778782879
 31
0.0
  0
LINE
  5
15B
330
1F
100
AcDbEntity
  8
SLD-0
  6
Continuous
370
    15
100
AcDbLine
 10
95.3868377464
 20
47.9217830725
 30
0.0
 11
95.3868377464
 21
10.4677834176
 31
0.0
  0
LINE
  5
15C
330
1F
100
AcDbEntity
  8
SLD-0
  6
Continuous
370
    15
100
AcDbLine
 10
47.9768386574
 20
43.2707833612
 30
0.0
 11
47.952837228
 21
43.2707833612
 31
0.0
  0
LINE
  5
15D
330
1F
100
AcDbEntity
  8
SLD-0
  6
Continuous
370
    15
100
AcDbLine
 10
47.9768386574
 20
10.6697833974
 30
0.0
 11
47.9768386574
 21
43.2707833612
 31
0.0
  0
LINE
  5
15E
330
1F
100
AcDbEntity
  8
SLD-0
  6
Continuous
370
    15
100
AcDbLine
 10
47.952837228
 20
10.6697833974
 30
0.0
 11
47.9768386574
 21
10.6697833974
 31
0.0
  0
LINE
  5
15F
330
1F
100
AcDbEntity
  8
SLD-0
  6
Continuous
370
    15
100
AcDbLine
 10
47.952837228
 20
10.6697833974
 30
0.0
 11
47.952837228
 21
43.2707833612
 31
0.0
  0
LINE
  5
160
330
1F
100
AcDbEntity
  8
SLD-0
  6
Continuous
370
    15
100
AcDbLine
 10
47.9768386574
 20
10.5447834081
 30
0.0
 11
47.952837228
 21
10.5447834081
 31
0.0
  0
LINE
  5
161
330
1F
100
AcDbEntity
  8
SLD-0
  6
Continuous
370
    15
100
AcDbLine
 10
47.952837228
 20
10.5447834081
 30
0.0
 11
47.952837228
 21
10.6697833974
 31
0.0
  0
LINE
  5
162
330
1F
100
AcDbEntity
  8
SLD-0
  6
Continuous
370
    15
100
AcDbLine
 10
47.9768386574
 20
10.6697833974
 30
0.0
 11
47.9768386574
 21
10.5447834081
 31
0.0
  0
LINE
  5
163
330
1F
100
AcDbEntity
  8
SLD-0
  6
Continuous
370
    15
100
AcDbLine
 10
47.952837228
 20
43.3957841572
 30
0.0
 11
47.9768386574
 21
43.3957841572
 31
0.0
  0
LINE
  5
164
330
1F
100
AcDbEntity
  8
SLD-0
  6
Continuous
370
    15
100
AcDbLine
 10
47.952837228
 20
43.2707833612
 30
0.0
 11
47.952837228
 21
43.3957841572
 31
0.0
  0
LINE
  5
165
330
1F
100
AcDbEntity
  8
SLD-0
  6
Continuous
370
    15
100
AcDbLine
 10
47.9768386574
 20
43.3957841572
 30
0.0
 11
47.9768386574
 21
43.2707833612
 31
0.0
  0
LINE
  5
166
330
1F
100
AcDbEntity
  8
SLD-0
  6
Continuous
370
    15
100
AcDbLine
 10
47.9478365391
 20
10.5447834081
 30
0.0
 11
47.952837228
 21
10.5447834081
 31
0.0
  0
LINE
  5
167
330
1F
100
AcDbEntity
  8
SLD-0
  6
Continuous
370
    15
100
AcDbLine
 10
47.9478365391
 20
43.3957841572
 30
0.0
 11
47.9478365391
 21
10.5447834081
 31
0.0
  0
LINE
  5
168
330
1F
100
AcDbEntity
  8
SLD-0
  6
Continuous
370
    15
100
AcDbLine
 10
47.952837228
 20
43.3957841572
 30
0.0
 11
47.9478365391
 21
43.3957841572
 31
0.0
  0
LINE
  5
169
330
1F
100
AcDbEntity
  8
SLD-0
  6
Continuous
370
    15
100
AcDbLine
 10
47.9768386574
 20
10.5157834164
 30
0.0
 11
47.9768386574
 21
10.5447834081
 31
0.0
  0
LINE
  5
16A
330
1F
100
AcDbEntity
  8
SLD-0
  6
Continuous
370
    15
100
AcDbLine
 10
47.9768386574
 20
43.3957841572
 30
0.0
 11
47.9768386574
 21
43.4457840063
 31
0.0
  0
LINE
  5
16B
330
1F
100
AcDbEntity
  8
SLD-0
  6
Continuous
370
    15
100
AcDbLine
 10
40.4348376766
 20
48.778782879
 30
0.0
 11
40.4398383655
 21
48.778782879
 31
0.0
  0
LINE
  5
16C
330
1F
100
AcDbEntity
  8
SLD-0
  6
Continuous
370
    15
100
AcDbLine
 10
40.4548380855
 20
9.5687834196
 30
0.0
 11
40.4475588096
 21
9.5687834196
 31
0.0
  0
LINE
  5
16D
330
1F
100
AcDbEntity
  8
SLD-0
  6
Continuous
370
    15
100
AcDbLine
 10
40.4348376766
 20
10.4677834176
 30
0.0
 11
40.4348376766
 21
47.9217830725
 31
0.0
  0
LINE
  5
16E
330
1F
100
AcDbEntity
  8
SLD-0
  6
Continuous
370
    15
100
AcDbLine
 10
87.8228370197
 20
10.5447834081
 30
0.0
 11
87.8228370197
 21
10.5207834454
 31
0.0
  0
LINE
  5
16F
330
1F
100
AcDbEntity
  8
SLD-0
  6
Continuous
370
    15
100
AcDbLine
 10
87.6978385704
 20
10.5207834454
 30
0.0
 11
87.6978385704
 21
10.5447834081
 31
0.0
  0
LINE
  5
170
330
1F
100
AcDbEntity
  8
SLD-0
  6
Continuous
370
    15
100
AcDbLine
 10
87.6978385704
 20
10.5447834081
 30
0.0
 11
87.7428377305
 21
10.5447834081
 31
0.0
  0
LINE
  5
171
330
1F
100
AcDbEntity
  8
SLD-0
  6
Continuous
370
    15
100
AcDbLine
 10
87.7493801616
 20
10.5447834081
 30
0.0
 11
87.8228370197
 21
10.5447834081
 31
0.0
  0
LINE
  5
172
330
1F
100
AcDbEntity
  8
SLD-0
  6
Continuous
370
    15
100
AcDbLine
 10
87.8228370197
 20
10.5207834454
 30
0.0
 11
87.6978385704
 21
10.5207834454
 31
0.0
  0
LINE
  5
173
330
1F
100
AcDbEntity
  8
SLD-0
  6
Continuous
370
    15
100
AcDbLine
 10
48.1238368526
 20
10.5447834081
 30
0.0
 11
48.1238368526
 21
10.5207834454
 31
0.0
  0
LINE
  5
174
330
1F
100
AcDbEntity
  8
SLD-0
  6
Continuous
370
    15
100
AcDbLine
 10
87.6978385704
 20
10.5447834081
 30
0.0
 11
48.1238368526
 21
10.5447834081
 31
0.0
  0
LINE
  5
175
330
1F
100
AcDbEntity
  8
SLD-0
  6
Continuous
370
    15
100
AcDbLine
 10
87.6978385704
 20
10.5207834454
 30
0.0
 11
48.1238368526
 21
10.5207834454
 31
0.0
  0
LINE
  5
176
330
1F
100
AcDbEntity
  8
SLD-0
  6
Continuous
370
    15
100
AcDbLine
 10
47.9988384033
 20
10.5207834454
 30
0.0
 11
47.9988384033
 21
10.5447834081
 31
0.0
  0
LINE
  5
177
330
1F
100
AcDbEntity
  8
SLD-0
  6
Continuous
370
    15
100
AcDbLine
 10
47.9988384033
 20
10.5447834081
 30
0.0
 11
48.0722952613
 21
10.5447834081
 31
0.0
  0
LINE
  5
178
330
1F
100
AcDbEntity
  8
SLD-0
  6
Continuous
370
    15
100
AcDbLine
 10
48.0788376924
 20
10.5447834081
 30
0.0
 11
48.1238368526
 21
10.5447834081
 31
0.0
  0
LINE
  5
179
330
1F
100
AcDbEntity
  8
SLD-0
  6
Continuous
370
    15
100
AcDbLine
 10
48.1238368526
 20
10.5207834454
 30
0.0
 11
47.9988384033
 21
10.5207834454
 31
0.0
  0
LINE
  5
17A
330
1F
100
AcDbEntity
  8
SLD-0
  6
Continuous
370
    15
100
AcDbLine
 10
87.8228370197
 20
10.5157834164
 30
0.0
 11
87.8228370197
 21
10.5207834454
 31
0.0
  0
LINE
  5
17B
330
1F
100
AcDbEntity
  8
SLD-0
  6
Continuous
370
    15
100
AcDbLine
 10
47.9988384033
 20
10.5157834164
 30
0.0
 11
87.8228370197
 21
10.5157834164
 31
0.0
  0
LINE
  5
17C
330
1F
100
AcDbEntity
  8
SLD-0
  6
Continuous
370
    15
100
AcDbLine
 10
47.9988384033
 20
10.5207834454
 30
0.0
 11
47.9988384033
 21
10.5157834164
 31
0.0
  0
LINE
  5
17D
330
1F
100
AcDbEntity
  8
SLD-0
  6
Continuous
370
    15
100
AcDbLine
 10
40.4548380855
 20
9.573783421
 30
0.0
 11
95.3668373374
 21
9.573783421
 31
0.0
  0
LINE
  5
17E
330
1F
100
AcDbEntity
  8
SLD-0
  6
Continuous
370
    15
100
AcDbLine
 10
40.4548380855
 20
9.573783421
 30
0.0
 11
40.4548380855
 21
10.3907834271
 31
0.0
  0
LINE
  5
17F
330
1F
100
AcDbEntity
  8
SLD-0
  6
Continuous
370
    15
100
AcDbLine
 10
40.5798388815
 20
10.5157834164
 30
0.0
 11
40.4548380855
 21
10.3907834271
 31
0.0
  0
LINE
  5
180
330
1F
100
AcDbEntity
  8
SLD-0
  6
Continuous
370
    15
100
AcDbLine
 10
95.3668373374
 20
10.3907834271
 30
0.0
 11
95.2418365414
 21
10.5157834164
 31
0.0
  0
LINE
  5
181
330
1F
100
AcDbEntity
  8
SLD-0
  6
Continuous
370
    15
100
AcDbLine
 10
95.3668373374
 20
10.3907834271
 30
0.0
 11
95.3668373374
 21
9.573783421
 31
0.0
  0
LINE
  5
182
330
1F
100
AcDbEntity
  8
SLD-0
  6
Continuous
370
    15
100
AcDbLine
 10
40.5798388815
 20
10.5157834164
 30
0.0
 11
47.9988384033
 21
10.5157834164
 31
0.0
  0
LINE
  5
183
330
1F
100
AcDbEntity
  8
SLD-0
  6
Continuous
370
    15
100
AcDbLine
 10
87.8228370197
 20
10.5157834164
 30
0.0
 11
95.2418365414
 21
10.5157834164
 31
0.0
  0
LINE
  5
184
330
1F
100
AcDbEntity
  8
SLD-0
  6
Continuous
370
    15
100
AcDbLine
 10
40.4548380855
 20
9.5447834202
 30
0.0
 11
40.4548380855
 21
9.573783421
 31
0.0
  0
LINE
  5
185
330
1F
100
AcDbEntity
  8
SLD-0
  6
Continuous
370
    15
100
AcDbLine
 10
95.3668373374
 20
9.5447834202
 30
0.0
 11
40.4548380855
 21
9.5447834202
 31
0.0
  0
LINE
  5
186
330
1F
100
AcDbEntity
  8
SLD-0
  6
Continuous
370
    15
100
AcDbLine
 10
95.3668373374
 20
9.573783421
 30
0.0
 11
95.3668373374
 21
9.5447834202
 31
0.0
  0
LINE
  5
187
330
1F
100
AcDbEntity
  8
SLD-0
  6
Continuous
370
    15
100
AcDbLine
 10
95.3818370575
 20
9.5447834202
 30
0.0
 11
95.3818370575
 21
9.5687834196
 31
0.0
  0
LINE
  5
188
330
1F
100
AcDbEntity
  8
SLD-0
  6
Continuous
370
    15
100
AcDbLine
 10
95.3741166133
 20
9.5687834196
 30
0.0
 11
95.3818370575
 21
9.5687834196
 31
0.0
  0
LINE
  5
189
330
1F
100
AcDbEntity
  8
SLD-0
  6
Continuous
370
    15
100
AcDbLine
 10
95.3668373374
 20
9.5447834202
 30
0.0
 11
95.3818370575
 21
9.5447834202
 31
0.0
  0
LINE
  5
18A
330
1F
100
AcDbEntity
  8
SLD-0
  6
Continuous
370
    15
100
AcDbLine
 10
40.4398383655
 20
9.5447834202
 30
0.0
 11
40.4398383655
 21
9.5687834196
 31
0.0
  0
LINE
  5
18B
330
1F
100
AcDbEntity
  8
SLD-0
  6
Continuous
370
    15
100
AcDbLine
 10
40.4398383655
 20
9.5687834196
 30
0.0
 11
40.4475588096
 21
9.5687834196
 31
0.0
  0
LINE
  5
18C
330
1F
100
AcDbEntity
  8
SLD-0
  6
Continuous
370
    15
100
AcDbLine
 10
40.4398383655
 20
9.5447834202
 30
0.0
 11
40.4548380855
 21
9.5447834202
 31
0.0
  0
ARC
  5
18D
330
1F
100
AcDbEntity
  8
SLD-0
  6
Continuous
370
    15
100
AcDbCircle
 10
95.3818377115
 20
9.5737834202
 30
0.0
 40
0.0050000000000008
100
AcDbArc
 50
270.0
 51
0.0
  0
LINE
  5
18E
330
1F
100
AcDbEntity
  8
SLD-0
  6
Continuous
370
    15
100
AcDbLine
 10
95.4108368291
 20
9.573783421
 30
0.0
 11
95.3868377464
 21
9.573783421
 31
0.0
  0
ARC
  5
18F
330
1F
100
AcDbEntity
  8
SLD-0
  6
Continuous
370
    15
100
AcDbCircle
 10
95.3818377115
 20
9.5737834202
 30
0.0
 40
0.0289999999999999
100
AcDbArc
 50
270.0
 51
0.0000000001
  0
LINE
  5
190
330
1F
100
AcDbEntity
  8
SLD-0
  6
Continuous
370
    15
100
AcDbLine
 10
95.4108368291
 20
10.4437834549
 30
0.0
 11
95.3868377464
 21
10.4437834549
 31
0.0
  0
LINE
  5
191
330
1F
100
AcDbEntity
  8
SLD-0
  6
Continuous
370
    15
100
AcDbLine
 10
95.3868377464
 20
10.4437834549
 30
0.0
 11
95.3868377464
 21
10.4677834176
 31
0.0
  0
LINE
  5
192
330
1F
100
AcDbEntity
  8
SLD-0
  6
Continuous
370
    15
100
AcDbLine
 10
95.3868377464
 20
10.5687834442
 30
0.0
 11
95.4108368291
 21
10.5687834442
 31
0.0
  0
LINE
  5
193
330
1F
100
AcDbEntity
  8
SLD-0
  6
Continuous
370
    15
100
AcDbLine
 10
95.4108368291
 20
10.5687834442
 30
0.0
 11
95.4108368291
 21
10.4437834549
 31
0.0
  0
LINE
  5
194
330
1F
100
AcDbEntity
  8
SLD-0
  6
Continuous
370
    15
100
AcDbLine
 10
95.3868377464
 20
10.4437834549
 30
0.0
 11
95.3868377464
 21
9.573783421
 31
0.0
  0
LINE
  5
195
330
1F
100
AcDbEntity
  8
SLD-0
  6
Continuous
370
    15
100
AcDbLine
 10
95.4108368291
 20
10.4437834549
 30
0.0
 11
95.4108368291
 21
9.573783421
 31
0.0
  0
LINE
  5
196
330
1F
100
AcDbEntity
  8
SLD-0
  6
Continuous
370
    15
100
AcDbLine
 10
40.4108385938
 20
10.5687834442
 30
0.0
 11
40.4348376766
 21
10.5687834442
 31
0.0
  0
LINE
  5
197
330
1F
100
AcDbEntity
  8
SLD-0
  6
Continuous
370
    15
100
AcDbLine
 10
40.4348376766
 20
10.4677834176
 30
0.0
 11
40.4348376766
 21
10.4437834549
 31
0.0
  0
LINE
  5
198
330
1F
100
AcDbEntity
  8
SLD-0
  6
Continuous
370
    15
100
AcDbLine
 10
40.4348376766
 20
10.4437834549
 30
0.0
 11
40.4108385938
 21
10.4437834549
 31
0.0
  0
LINE
  5
199
330
1F
100
AcDbEntity
  8
SLD-0
  6
Continuous
370
    15
100
AcDbLine
 10
40.4108385938
 20
10.4437834549
 30
0.0
 11
40.4108385938
 21
10.5687834442
 31
0.0
  0
LINE
  5
19A
330
1F
100
AcDbEntity
  8
SLD-0
  6
Continuous
370
    15
100
AcDbLine
 10
40.4108385938
 20
9.573783421
 30
0.0
 11
40.4348376766
 21
9.573783421
 31
0.0
  0
LINE
  5
19B
330
1F
100
AcDbEntity
  8
SLD-0
  6
Continuous
370
    15
100
AcDbLine
 10
40.4348376766
 20
9.573783421
 30
0.0
 11
40.4348376766
 21
10.4437834549
 31
0.0
  0
LINE
  5
19C
330
1F
100
AcDbEntity
  8
SLD-0
  6
Continuous
370
    15
100
AcDbLine
 10
40.4108385938
 20
9.573783421
 30
0.0
 11
40.4108385938
 21
10.4437834549
 31
0.0
  0
ARC
  5
19D
330
1F
100
AcDbEntity
  8
SLD-0
  6
Continuous
370
    15
100
AcDbCircle
 10
40.4398377115
 20
9.5737834202
 30
0.0
 40
0.0050000000000026
100
AcDbArc
 50
179.9999999998
 51
270.0
  0
ARC
  5
19E
330
1F
100
AcDbEntity
  8
SLD-0
  6
Continuous
370
    15
100
AcDbCircle
 10
40.4398377115
 20
9.5737834202
 30
0.0
 40
0.029000000000039
100
AcDbArc
 50
179.999999999
 51
270.0
  0
LINE
  5
19F
330
1F
100
AcDbEntity
  8
SLD-0
  6
Continuous
370
    15
100
AcDbLine
 10
49.4466340515
 20
12.3909412878
 30
0.0
 11
49.4466340515
 21
12.4474639148
 31
0.0
  0
LINE
  5
1A0
330
1F
100
AcDbEntity
  8
SLD-0
  6
Continuous
370
    15
100
AcDbLine
 10
48.4853378498
 20
43.3243923419
 30
0.0
 11
48.4853378498
 21
43.4167842346
 31
0.0
  0
LINE
  5
1A1
330
1F
100
AcDbEntity
  8
SLD-0
  6
Continuous
370
    15
100
AcDbLine
 10
48.4084701512
 20
43.3243923419
 30
0.0
 11
48.4084701512
 21
43.4167842346
 31
0.0
  0
LINE
  5
1A2
330
1F
100
AcDbEntity
  8
SLD-0
  6
Continuous
370
    15
100
AcDbLine
 10
86.3750413714
 20
12.4474639148
 30
0.0
 11
86.3750413714
 21
12.3909412878
 31
0.0
  0
LINE
  5
1A3
330
1F
100
AcDbEntity
  8
SLD-0
  6
Continuous
370
    15
100
AcDbLine
 10
87.3363375731
 20
43.4167842346
 30
0.0
 11
87.3363375731
 21
43.3243946886
 31
0.0
  0
LINE
  5
1A4
330
1F
100
AcDbEntity
  8
SLD-0
  6
Continuous
370
    15
100
AcDbLine
 10
87.4132052718
 20
43.4167842346
 30
0.0
 11
87.4132052718
 21
43.3243946886
 31
0.0
  0
LINE
  5
1A5
330
1F
100
AcDbEntity
  8
SLD-0
  6
Continuous
370
    15
100
AcDbLine
 10
86.3777705132
 20
43.4167842346
 30
0.0
 11
86.3777705132
 21
43.3243946886
 31
0.0
  0
LINE
  5
1A6
330
1F
100
AcDbEntity
  8
SLD-0
  6
Continuous
370
    15
100
AcDbLine
 10
86.4498674937
 20
43.4167842346
 30
0.0
 11
86.4498674937
 21
43.3243946886
 31
0.0
  0
LINE
  5
1A7
330
1F
100
AcDbEntity
  8
SLD-0
  6
Continuous
370
    15
100
AcDbLine
 10
86.6401541488
 20
43.4167842346
 30
0.0
 11
86.6401541488
 21
43.3243946886
 31
0.0
  0
LINE
  5
1A8
330
1F
100
AcDbEntity
  8
SLD-0
  6
Continuous
370
    15
100
AcDbLine
 10
86.2860051733
 20
43.4167842346
 30
0.0
 11
86.2860051733
 21
43.3243946886
 31
0.0
  0
LINE
  5
1A9
330
1F
100
AcDbEntity
  8
SLD-0
  6
Continuous
370
    15
100
AcDbLine
 10
49.4439049097
 20
43.3243923419
 30
0.0
 11
49.4439049097
 21
43.4167842346
 31
0.0
  0
LINE
  5
1AA
330
1F
100
AcDbEntity
  8
SLD-0
  6
Continuous
370
    15
100
AcDbLine
 10
49.3718079293
 20
43.3243923419
 30
0.0
 11
49.3718079293
 21
43.4167842346
 31
0.0
  0
LINE
  5
1AB
330
1F
100
AcDbEntity
  8
SLD-0
  6
Continuous
370
    15
100
AcDbLine
 10
49.1815212741
 20
43.3243923419
 30
0.0
 11
49.1815212741
 21
43.4167842346
 31
0.0
  0
LINE
  5
1AC
330
1F
100
AcDbEntity
  8
SLD-0
  6
Continuous
370
    15
100
AcDbLine
 10
49.5356702496
 20
43.3243923419
 30
0.0
 11
49.5356702496
 21
43.4167842346
 31
0.0
  0
LINE
  5
1AD
330
1F
100
AcDbEntity
  8
SLD-0
  6
Continuous
370
    15
100
AcDbLine
 10
95.3578379747
 20
10.3997834498
 30
0.0
 11
95.3578379747
 21
43.5467833728
 31
0.0
  0
LINE
  5
1AE
330
1F
100
AcDbEntity
  8
SLD-0
  6
Continuous
370
    15
100
AcDbLine
 10
40.4638374482
 20
10.3997834498
 30
0.0
 11
40.4638374482
 21
43.5467833728
 31
0.0
  0
DIMENSION
  5
1AF
330
1F
100
AcDbEntity
  8
DIM
100
AcDbDimension
  2
_D
 10
30.4108377115
 20
60.8427834201
 30
0.0
 11
30.4108377115
 21
34.8838784231
 31
0.0
 70
   160
  1
<>
 71
     2
 42
-1.0
  3
SLDDIMSTYLE0
100
AcDbAlignedDimension
 13
40.4398377115
 23
9.5447834202
 33
0.0
 14
49.9105976337
 24
60.8427834201
 34
0.0
 50
90.0
100
AcDbRotatedDimension
  0
DIMENSION
  5
1BF
330
1F
100
AcDbEntity
  8
DIM
100
AcDbDimension
  2
_D_1
 10
35.4108377115
 20
43.4457834202
 30
0.0
 11
35.4108377115
 21
26.9807834202
 31
0.0
 70
   160
  1
<>
 71
     2
 42
-1.0
  3
SLDDIMSTYLE0
100
AcDbAlignedDimension
 13
40.5798377115
 23
10.5157834202
 33
0.0
 14
40.5648377115
 24
43.4457834201
 34
0.0
 50
90.0
100
AcDbRotatedDimension
  0
DIMENSION
  5
1CE
330
1F
100
AcDbEntity
  8
DIM
100
AcDbDimension
  2
_D_2
 10
95.3868377115
 20
3.0447814517
 30
0.0
 11
67.9108377115
 21
3.0447814517
 31
0.0
 70
   160
  1
<>
 71
     2
 42
-1.0
  3
SLDDIMSTYLE0
100
AcDbAlignedDimension
 13
40.4348377115
 23
9.5687834202
 33
0.0
 14
95.3868377115
 24
9.5687834202
 34
0.0
 50
0.0
100
AcDbRotatedDimension
  0
DIMENSION
  5
1DD
330
1F
100
AcDbEntity
  8
DIM
100
AcDbDimension
  2
_D_3
 10
87.8738377115
 20
6.5447814517
 30
0.0
 11
67.9108377114
 21
6.5447814517
 31
0.0
 70
   160
  1
<>
 71
     2
 42
-1.0
  3
SLDDIMSTYLE0
100
AcDbAlignedDimension
 13
47.9478377115
 23
10.5447834202
 33
0.0
 14
87.8738377115
 24
10.5447834202
 34
0.0
 50
0.0
100
AcDbRotatedDimension
  0
DIMENSION
  5
1EC
330
1F
100
AcDbEntity
  8
DIM
100
AcDbDimension
  2
_D_4
 10
86.3094477498
 20
16.5837672915
 30
0.0
 11
67.9108377115
 21
16.5837672915
 31
0.0
 70
   160
  1
<>
 71
     2
 42
-1.0
  3
SLDDIMSTYLE0
100
AcDbAlignedDimension
 13
49.5122276732
 23
12.5368934465
 33
0.0
 14
86.3094477498
 24
12.5368935795
 34
0.0
 50
0.0
100
AcDbRotatedDimension
  0
DIMENSION
  5
1F9
330
1F
100
AcDbEntity
  8
DIM
100
AcDbDimension
  2
_D_5
 10
81.5518354898
 20
12.5187834202
 30
0.0
 11
81.5518354898
 21
27.9677834201
 31
0.0
 70
   160
  1
<>
 71
     2
 42
-1.0
  3
SLDDIMSTYLE0
100
AcDbAlignedDimension
 13
87.7988377115
 23
43.4167834201
 33
0.0
 14
86.3483377115
 24
12.5187834202
 34
0.0
 50
90.0
100
AcDbRotatedDimension
  0
LINE
  5
206
330
1F
100
AcDbEntity
  8
SLD-0
  6
Continuous
370
    15
100
AcDbLine
 10
48.0568754928
 20
77.5678458767
 30
0.0
 11
48.147838282
 21
77.5678458767
 31
0.0
  0
LINE
  5
207
330
1F
100
AcDbEntity
  8
SLD-0
  6
Continuous
370
    15
100
AcDbLine
 10
87.6738371409
 20
77.5678458767
 30
0.0
 11
87.7647999301
 21
77.5678458767
 31
0.0
  0
LINE
  5
208
330
1F
100
AcDbEntity
  8
SLD-0
  6
Continuous
370
    15
100
AcDbLine
 10
91.4408366109
 20
100.0538451132
 30
0.0
 11
85.1987789064
 21
100.0538451132
 31
0.0
  0
LINE
  5
209
330
1F
100
AcDbEntity
  8
SLD-0
  6
Continuous
370
    15
100
AcDbLine
 10
91.5408386557
 20
100.0538451132
 30
0.0
 11
91.5408386557
 21
100.0518457763
 31
0.0
  0
LINE
  5
20A
330
1F
100
AcDbEntity
  8
SLD-0
  6
Continuous
370
    15
100
AcDbLine
 10
91.4408366109
 20
100.0538451132
 30
0.0
 11
91.5408386557
 21
100.0538451132
 31
0.0
  0
LINE
  5
20B
330
1F
100
AcDbEntity
  8
SLD-0
  6
Continuous
370
    15
100
AcDbLine
 10
44.2808367673
 20
100.0518457763
 30
0.0
 11
44.2808367673
 21
100.0538451132
 31
0.0
  0
LINE
  5
20C
330
1F
100
AcDbEntity
  8
SLD-0
  6
Continuous
370
    15
100
AcDbLine
 10
44.2808367673
 20
100.0538451132
 30
0.0
 11
44.380838812
 21
100.0538451132
 31
0.0
  0
LINE
  5
20D
330
1F
100
AcDbEntity
  8
SLD-0
  6
Continuous
370
    15
100
AcDbLine
 10
44.380838812
 20
100.0538451132
 30
0.0
 11
50.6228965166
 21
100.0538451132
 31
0.0
  0
LINE
  5
20E
330
1F
100
AcDbEntity
  8
SLD-0
  6
Continuous
370
    15
100
AcDbLine
 10
87.7030152572
 20
77.593507077
 30
0.0
 11
87.7349647548
 21
77.605135776
 31
0.0
  0
LINE
  5
20F
330
1F
100
AcDbEntity
  8
SLD-0
  6
Continuous
370
    15
100
AcDbLine
 10
87.7020766014
 20
77.5960854105
 30
0.0
 11
87.7030152572
 21
77.593507077
 31
0.0
  0
LINE
  5
210
330
1F
100
AcDbEntity
  8
SLD-0
  6
Continuous
370
    15
100
AcDbLine
 10
87.7286053616
 20
77.6226124107
 30
0.0
 11
87.7349647548
 21
77.605135776
 31
0.0
  0
LINE
  5
211
330
1F
100
AcDbEntity
  8
SLD-0
  6
Continuous
370
    15
100
AcDbLine
 10
87.7446634161
 20
77.6068458529
 30
0.0
 11
87.7786638766
 21
77.6068458529
 31
0.0
  0
LINE
  5
212
330
1F
100
AcDbEntity
  8
SLD-0
  6
Continuous
370
    15
100
AcDbLine
 10
87.7446634161
 20
77.6068458529
 30
0.0
 11
87.7446634161
 21
77.6386718219
 31
0.0
  0
LINE
  5
213
330
1F
100
AcDbEntity
  8
SLD-0
  6
Continuous
370
    15
100
AcDbLine
 10
87.7786638766
 20
77.6068458529
 30
0.0
 11
87.7786638766
 21
77.6726718425
 31
0.0
  0
ARC
  5
214
330
1F
100
AcDbEntity
  8
SLD-0
  6
Continuous
370
    15
100
AcDbCircle
 10
87.7396636794
 20
77.6068458707
 30
0.0
 40
0.0050000000000097
100
AcDbArc
 50
200.0000000002
 51
0.0000000002
  0
ARC
  5
215
330
1F
100
AcDbEntity
  8
SLD-0
  6
Continuous
370
    15
100
AcDbCircle
 10
87.7396636794
 20
77.6068458707
 30
0.0
 40
0.0390000000000157
100
AcDbArc
 50
200.0000000001
 51
0.0000000001
  0
SPLINE
  5
216
330
1F
100
AcDbEntity
  8
SLD-0
  6
Continuous
370
    15
100
AcDbSpline
210
0.0
220
0.0
230
1.0
 70
     8
 71
     3
 72
    11
 73
     7
 74
     0
 42
0.00000001
 43
0.00000001
 12
1.0
 22
0.0
 32
0.0
 13
1.0
 23
0.0
 33
0.0
 40
0.0
 40
0.0
 40
0.0
 40
0.0
 40
0.0939013812646534
 40
0.3959303419743974
 40
0.6979610149238185
 40
1.0
 40
1.0
 40
1.0
 40
1.0
 10
87.76479993014001
 20
77.56838516384833
 30
0.0
 10
87.76514101699583
 20
77.56823226549432
 30
0.0
 10
87.76657919217112
 20
77.56758757745271
 30
0.0
 10
87.76911052175461
 20
77.5716061438835
 30
0.0
 10
87.77239786303443
 20
77.57991592801974
 30
0.0
 10
87.77459150274287
 20
77.58851695762495
 30
0.0
 10
87.77568833768954
 20
77.59281753160354
 30
0.0
  0
SPLINE
  5
217
330
1F
100
AcDbEntity
  8
SLD-0
  6
Continuous
370
    15
100
AcDbSpline
210
0.0
220
0.0
230
1.0
 70
     8
 71
     3
 72
    11
 73
     7
 74
     0
 42
0.00000001
 43
0.00000001
 12
1.0
 22
0.0
 32
0.0
 13
1.0
 23
0.0
 33
0.0
 40
0.0
 40
0.0
 40
0.0
 40
0.0
 40
0.3020389850761817
 40
0.6040696580256028
 40
0.9060986187353467
 40
1.0
 40
1.0
 40
1.0
 40
1.0
 10
48.04598708525534
 20
77.59281753160354
 30
0.0
 10
48.04708392020203
 20
77.58851695762495
 30
0.0
 10
48.04927755991046
 20
77.57991592801974
 30
0.0
 10
48.05256490119026
 20
77.5716061438835
 30
0.0
 10
48.05509623077377
 20
77.56758757745271
 30
0.0
 10
48.05653440594906
 20
77.56823226549432
 30
0.0
 10
48.05687549280486
 20
77.56838516384833
 30
0.0
  0
LINE
  5
218
330
1F
100
AcDbEntity
  8
SLD-0
  6
Continuous
370
    15
100
AcDbLine
 10
48.0867106681
 20
77.605135776
 30
0.0
 11
48.1186601657
 21
77.593507077
 31
0.0
  0
LINE
  5
219
330
1F
100
AcDbEntity
  8
SLD-0
  6
Continuous
370
    15
100
AcDbLine
 10
48.0867106681
 20
77.605135776
 30
0.0
 11
48.0930700613
 21
77.6226124107
 31
0.0
  0
LINE
  5
21A
330
1F
100
AcDbEntity
  8
SLD-0
  6
Continuous
370
    15
100
AcDbLine
 10
48.1186601657
 20
77.593507077
 30
0.0
 11
48.1195988216
 21
77.5960854105
 31
0.0
  0
LINE
  5
21B
330
1F
100
AcDbEntity
  8
SLD-0
  6
Continuous
370
    15
100
AcDbLine
 10
48.0770120069
 20
77.6386718219
 30
0.0
 11
48.0770120069
 21
77.6068458529
 31
0.0
  0
LINE
  5
21C
330
1F
100
AcDbEntity
  8
SLD-0
  6
Continuous
370
    15
100
AcDbLine
 10
48.0430115463
 20
77.6068458529
 30
0.0
 11
48.0770120069
 21
77.6068458529
 31
0.0
  0
LINE
  5
21D
330
1F
100
AcDbEntity
  8
SLD-0
  6
Continuous
370
    15
100
AcDbLine
 10
48.0430115463
 20
77.6726718425
 30
0.0
 11
48.0430115463
 21
77.6068458529
 31
0.0
  0
ARC
  5
21E
330
1F
100
AcDbEntity
  8
SLD-0
  6
Continuous
370
    15
100
AcDbCircle
 10
48.0820117435
 20
77.6068458707
 30
0.0
 40
0.005000000000006
100
AcDbArc
 50
180.0
 51
339.9999999998
  0
ARC
  5
21F
330
1F
100
AcDbEntity
  8
SLD-0
  6
Continuous
370
    15
100
AcDbCircle
 10
48.0820117435
 20
77.6068458707
 30
0.0
 40
0.0390000000000086
100
AcDbArc
 50
180.0
 51
339.9999999999
  0
CIRCLE
  5
220
330
1F
100
AcDbEntity
  8
SLD-0
  6
Continuous
370
    15
100
AcDbCircle
 10
67.9108377115
 20
93.2450958707
 30
0.0
 40
3.3125
  0
CIRCLE
  5
221
330
1F
100
AcDbEntity
  8
SLD-0
  6
Continuous
370
    15
100
AcDbCircle
 10
67.9108377115
 20
93.3130958707
 30
0.0
 40
4.0
  0
CIRCLE
  5
222
330
1F
100
AcDbEntity
  8
SLD-0
  6
Continuous
370
    15
100
AcDbCircle
 10
67.9108377115
 20
93.2450958707
 30
0.0
 40
2.497893621736736
  0
CIRCLE
  5
223
330
1F
100
AcDbEntity
  8
SLD-0
  6
Continuous
370
    15
100
AcDbCircle
 10
67.9108377115
 20
93.2450958707
 30
0.0
 40
2.416373405054529
  0
LINE
  5
224
330
1F
100
AcDbEntity
  8
SLD-0
  6
Continuous
370
    15
100
AcDbLine
 10
50.6318970526
 20
78.5678458647
 30
0.0
 11
50.6318970526
 21
78.6018458852
 31
0.0
  0
LINE
  5
225
330
1F
100
AcDbEntity
  8
SLD-0
  6
Continuous
370
    15
100
AcDbLine
 10
50.6318970526
 20
78.6018458852
 30
0.0
 11
50.7568966753
 21
78.6018458852
 31
0.0
  0
LINE
  5
226
330
1F
100
AcDbEntity
  8
SLD-0
  6
Continuous
370
    15
100
AcDbLine
 10
50.7568966753
 20
78.6018458852
 30
0.0
 11
50.7568966753
 21
78.5678458647
 31
0.0
  0
LINE
  5
227
330
1F
100
AcDbEntity
  8
SLD-0
  6
Continuous
370
    15
100
AcDbLine
 10
50.7568966753
 20
78.5678458647
 30
0.0
 11
50.6318970526
 21
78.5678458647
 31
0.0
  0
LINE
  5
228
330
1F
100
AcDbEntity
  8
SLD-0
  6
Continuous
370
    15
100
AcDbLine
 10
85.0647787477
 20
78.5678458647
 30
0.0
 11
85.0647787477
 21
78.6018458852
 31
0.0
  0
LINE
  5
229
330
1F
100
AcDbEntity
  8
SLD-0
  6
Continuous
370
    15
100
AcDbLine
 10
85.0647787477
 20
78.6018458852
 30
0.0
 11
50.7568966753
 21
78.6018458852
 31
0.0
  0
LINE
  5
22A
330
1F
100
AcDbEntity
  8
SLD-0
  6
Continuous
370
    15
100
AcDbLine
 10
85.0647787477
 20
78.5678458647
 30
0.0
 11
50.7568966753
 21
78.5678458647
 31
0.0
  0
LINE
  5
22B
330
1F
100
AcDbEntity
  8
SLD-0
  6
Continuous
370
    15
100
AcDbLine
 10
85.1897783703
 20
78.6018458852
 30
0.0
 11
85.1897783703
 21
78.5678458647
 31
0.0
  0
LINE
  5
22C
330
1F
100
AcDbEntity
  8
SLD-0
  6
Continuous
370
    15
100
AcDbLine
 10
85.0647787477
 20
78.6018458852
 30
0.0
 11
85.1897783703
 21
78.6018458852
 31
0.0
  0
LINE
  5
22D
330
1F
100
AcDbEntity
  8
SLD-0
  6
Continuous
370
    15
100
AcDbLine
 10
85.1897783703
 20
78.5678458647
 30
0.0
 11
85.0647787477
 21
78.5678458647
 31
0.0
  0
LINE
  5
22E
330
1F
100
AcDbEntity
  8
SLD-0
  6
Continuous
370
    15
100
AcDbLine
 10
50.4369077318
 20
85.4428459007
 30
0.0
 11
50.4054956147
 21
85.4428459007
 31
0.0
  0
LINE
  5
22F
330
1F
100
AcDbEntity
  8
SLD-0
  6
Continuous
370
    15
100
AcDbLine
 10
50.4369077318
 20
85.4428459007
 30
0.0
 11
50.4369077318
 21
78.7728458398
 31
0.0
  0
LINE
  5
230
330
1F
100
AcDbEntity
  8
SLD-0
  6
Continuous
370
    15
100
AcDbLine
 10
50.4054956147
 20
78.7728458398
 30
0.0
 11
50.4369077318
 21
78.7728458398
 31
0.0
  0
LINE
  5
231
330
1F
100
AcDbEntity
  8
SLD-0
  6
Continuous
370
    15
100
AcDbLine
 10
50.4054956147
 20
85.4428459007
 30
0.0
 11
50.4054956147
 21
78.7728458398
 31
0.0
  0
LWPOLYLINE
  5
232
330
1F
100
AcDbEntity
  8
SLD-0
  6
Continuous
370
    15
100
AcDbPolyline
 90
       10
 70
   128
 43
0.0
 10
50.4054956147
 20
85.4428459007
 10
50.4062230729
 20
85.46455173
 10
50.408380808
 20
85.4855981535
 10
50.4119042873
 20
85.5053457121
 10
50.4166879121
 20
85.5231942525
 10
50.4225838439
 20
85.5386017012
 10
50.4294137384
 20
85.5510993169
 10
50.4369710911
 20
85.5603075305
 10
50.445024758
 20
85.565947092
 10
50.4533318621
 20
85.5678461101
  0
LINE
  5
233
330
1F
100
AcDbEntity
  8
SLD-0
  6
Continuous
370
    15
100
AcDbLine
 10
50.4533318621
 20
85.5678461101
 30
0.0
 11
50.4847428059
 21
85.5678461101
 31
0.0
  0
LWPOLYLINE
  5
234
330
1F
100
AcDbEntity
  8
SLD-0
  6
Continuous
370
    15
100
AcDbPolyline
 90
       10
 70
   128
 43
0.0
 10
50.4847428059
 20
85.5678461101
 10
50.4764368752
 20
85.565947092
 10
50.4683832082
 20
85.5603075305
 10
50.4608258555
 20
85.5510993169
 10
50.4539947877
 20
85.5386017012
 10
50.4480988559
 20
85.5231942525
 10
50.4433164044
 20
85.5053457121
 10
50.4397929251
 20
85.4855981535
 10
50.4376351901
 20
85.46455173
 10
50.4369077318
 20
85.4428459007
  0
LWPOLYLINE
  5
235
330
1F
100
AcDbEntity
  8
SLD-0
  6
Continuous
370
    15
100
AcDbPolyline
 90
       10
 70
   128
 43
0.0
 10
50.4369077318
 20
78.7728458398
 10
50.4376351901
 20
78.7511398639
 10
50.4397929251
 20
78.730093367
 10
50.4433164044
 20
78.7103458818
 10
50.4480988559
 20
78.6924974147
 10
50.4539947877
 20
78.6770903327
 10
50.4608258555
 20
78.6645926804
 10
50.4683832082
 20
78.6553842834
 10
50.4764368752
 20
78.6497449052
 10
50.4847428059
 20
78.6478458872
  0
LINE
  5
236
330
1F
100
AcDbEntity
  8
SLD-0
  6
Continuous
370
    15
100
AcDbLine
 10
50.4847428059
 20
78.6478458872
 30
0.0
 11
50.4533318621
 21
78.6478458872
 31
0.0
  0
LWPOLYLINE
  5
237
330
1F
100
AcDbEntity
  8
SLD-0
  6
Continuous
370
    15
100
AcDbPolyline
 90
       10
 70
   128
 43
0.0
 10
50.4533318621
 20
78.6478458872
 10
50.445024758
 20
78.6497449052
 10
50.4369710911
 20
78.6553842834
 10
50.4294137384
 20
78.6645926804
 10
50.4225838439
 20
78.6770903327
 10
50.4166879121
 20
78.6924974147
 10
50.4119042873
 20
78.7103458818
 10
50.408380808
 20
78.730093367
 10
50.4062230729
 20
78.7511398639
 10
50.4054956147
 20
78.7728458398
  0
LINE
  5
238
330
1F
100
AcDbEntity
  8
SLD-0
  6
Continuous
370
    15
100
AcDbLine
 10
50.4847428059
 20
85.5678461101
 30
0.0
 11
50.6182771566
 21
85.5678461101
 31
0.0
  0
LINE
  5
239
330
1F
100
AcDbEntity
  8
SLD-0
  6
Continuous
370
    15
100
AcDbLine
 10
50.6182771566
 20
85.5678461101
 30
0.0
 11
50.6182771566
 21
78.6478458872
 31
0.0
  0
LINE
  5
23A
330
1F
100
AcDbEntity
  8
SLD-0
  6
Continuous
370
    15
100
AcDbLine
 10
50.4847428059
 20
78.6478458872
 30
0.0
 11
50.6182771566
 21
78.6478458872
 31
0.0
  0
LINE
  5
23B
330
1F
100
AcDbEntity
  8
SLD-0
  6
Continuous
370
    15
100
AcDbLine
 10
85.2033982663
 20
85.5678461101
 30
0.0
 11
85.2033982663
 21
78.6478458872
 31
0.0
  0
LINE
  5
23C
330
1F
100
AcDbEntity
  8
SLD-0
  6
Continuous
370
    15
100
AcDbLine
 10
85.2033982663
 20
85.5678461101
 30
0.0
 11
85.3369326171
 21
85.5678461101
 31
0.0
  0
LWPOLYLINE
  5
23D
330
1F
100
AcDbEntity
  8
SLD-0
  6
Continuous
370
    15
100
AcDbPolyline
 90
       10
 70
   128
 43
0.0
 10
85.3847676911
 20
85.4428459007
 10
85.3840402329
 20
85.46455173
 10
85.3818824978
 20
85.4855981535
 10
85.3783590185
 20
85.5053457121
 10
85.3735765671
 20
85.5231942525
 10
85.3676806352
 20
85.5386017012
 10
85.3608495674
 20
85.5510993169
 10
85.3532922147
 20
85.5603075305
 10
85.3452385478
 20
85.565947092
 10
85.3369326171
 20
85.5678461101
  0
LINE
  5
23E
330
1F
100
AcDbEntity
  8
SLD-0
  6
Continuous
370
    15
100
AcDbLine
 10
85.3847676911
 20
85.4428459007
 30
0.0
 11
85.3847676911
 21
78.7728458398
 31
0.0
  0
LWPOLYLINE
  5
23F
330
1F
100
AcDbEntity
  8
SLD-0
  6
Continuous
370
    15
100
AcDbPolyline
 90
       10
 70
   128
 43
0.0
 10
85.3369326171
 20
78.6478458872
 10
85.3452385478
 20
78.6497449052
 10
85.3532922147
 20
78.6553842834
 10
85.3608495674
 20
78.6645926804
 10
85.3676806352
 20
78.6770903327
 10
85.3735765671
 20
78.6924974147
 10
85.3783590185
 20
78.7103458818
 10
85.3818824978
 20
78.730093367
 10
85.3840402329
 20
78.7511398639
 10
85.3847676911
 20
78.7728458398
  0
LINE
  5
240
330
1F
100
AcDbEntity
  8
SLD-0
  6
Continuous
370
    15
100
AcDbLine
 10
85.3369326171
 20
78.6478458872
 30
0.0
 11
85.2033982663
 21
78.6478458872
 31
0.0
  0
LINE
  5
241
330
1F
100
AcDbEntity
  8
SLD-0
  6
Continuous
370
    15
100
AcDbLine
 10
85.4161798083
 20
85.4428459007
 30
0.0
 11
85.3847676911
 21
85.4428459007
 31
0.0
  0
LINE
  5
242
330
1F
100
AcDbEntity
  8
SLD-0
  6
Continuous
370
    15
100
AcDbLine
 10
85.3369326171
 20
85.5678461101
 30
0.0
 11
85.3683435609
 21
85.5678461101
 31
0.0
  0
LWPOLYLINE
  5
243
330
1F
100
AcDbEntity
  8
SLD-0
  6
Continuous
370
    15
100
AcDbPolyline
 90
       10
 70
   128
 43
0.0
 10
85.3683435609
 20
85.5678461101
 10
85.3766506649
 20
85.565947092
 10
85.3847043319
 20
85.5603075305
 10
85.3922616846
 20
85.5510993169
 10
85.399091579
 20
85.5386017012
 10
85.4049875109
 20
85.5231942525
 10
85.4097711356
 20
85.5053457121
 10
85.4132946149
 20
85.4855981535
 10
85.41545235
 20
85.46455173
 10
85.4161798083
 20
85.4428459007
  0
LINE
  5
244
330
1F
100
AcDbEntity
  8
SLD-0
  6
Continuous
370
    15
100
AcDbLine
 10
85.3683435609
 20
78.6478458872
 30
0.0
 11
85.3369326171
 21
78.6478458872
 31
0.0
  0
LINE
  5
245
330
1F
100
AcDbEntity
  8
SLD-0
  6
Continuous
370
    15
100
AcDbLine
 10
85.3847676911
 20
78.7728458398
 30
0.0
 11
85.4161798083
 21
78.7728458398
 31
0.0
  0
LWPOLYLINE
  5
246
330
1F
100
AcDbEntity
  8
SLD-0
  6
Continuous
370
    15
100
AcDbPolyline
 90
       10
 70
   128
 43
0.0
 10
85.4161798083
 20
78.7728458398
 10
85.41545235
 20
78.7511398639
 10
85.4132946149
 20
78.730093367
 10
85.4097711356
 20
78.7103458818
 10
85.4049875109
 20
78.6924974147
 10
85.399091579
 20
78.6770903327
 10
85.3922616846
 20
78.6645926804
 10
85.3847043319
 20
78.6553842834
 10
85.3766506649
 20
78.6497449052
 10
85.3683435609
 20
78.6478458872
  0
LINE
  5
247
330
1F
100
AcDbEntity
  8
SLD-0
  6
Continuous
370
    15
100
AcDbLine
 10
85.4161798083
 20
85.4428459007
 30
0.0
 11
85.4161798083
 21
78.7728458398
 31
0.0
  0
LINE
  5
248
330
1F
100
AcDbEntity
  8
SLD-0
  6
Continuous
370
    15
100
AcDbLine
 10
85.1897783703
 20
78.6018458852
 30
0.0
 11
85.1897783703
 21
78.6068458775
 31
0.0
  0
LINE
  5
249
330
1F
100
AcDbEntity
  8
SLD-0
  6
Continuous
370
    15
100
AcDbLine
 10
85.1897783703
 20
78.6068458775
 30
0.0
 11
50.6318970526
 21
78.6068458775
 31
0.0
  0
LINE
  5
24A
330
1F
100
AcDbEntity
  8
SLD-0
  6
Continuous
370
    15
100
AcDbLine
 10
50.6318970526
 20
78.6068458775
 30
0.0
 11
50.6318970526
 21
78.6018458852
 31
0.0
  0
LINE
  5
24B
330
1F
100
AcDbEntity
  8
SLD-0
  6
Continuous
370
    15
100
AcDbLine
 10
50.6228965166
 20
85.5678461101
 30
0.0
 11
50.6228965166
 21
78.6478458872
 31
0.0
  0
LINE
  5
24C
330
1F
100
AcDbEntity
  8
SLD-0
  6
Continuous
370
    15
100
AcDbLine
 10
50.6228965166
 20
78.6478458872
 30
0.0
 11
50.6182771566
 21
78.6478458872
 31
0.0
  0
LINE
  5
24D
330
1F
100
AcDbEntity
  8
SLD-0
  6
Continuous
370
    15
100
AcDbLine
 10
50.6182771566
 20
85.5678461101
 30
0.0
 11
50.6228965166
 21
85.5678461101
 31
0.0
  0
LINE
  5
24E
330
1F
100
AcDbEntity
  8
SLD-0
  6
Continuous
370
    15
100
AcDbLine
 10
85.2033982663
 20
78.6478458872
 30
0.0
 11
85.1987789064
 21
78.6478458872
 31
0.0
  0
LINE
  5
24F
330
1F
100
AcDbEntity
  8
SLD-0
  6
Continuous
370
    15
100
AcDbLine
 10
85.1987789064
 20
85.5678461101
 30
0.0
 11
85.1987789064
 21
78.6478458872
 31
0.0
  0
LINE
  5
250
330
1F
100
AcDbEntity
  8
SLD-0
  6
Continuous
370
    15
100
AcDbLine
 10
85.1987789064
 20
85.5678461101
 30
0.0
 11
85.2033982663
 21
85.5678461101
 31
0.0
  0
LINE
  5
251
330
1F
100
AcDbEntity
  8
SLD-0
  6
Continuous
370
    15
100
AcDbLine
 10
50.6318970526
 20
78.6068458775
 30
0.0
 11
50.6318970526
 21
78.6478458872
 31
0.0
  0
LINE
  5
252
330
1F
100
AcDbEntity
  8
SLD-0
  6
Continuous
370
    15
100
AcDbLine
 10
50.6318970526
 20
78.6478458872
 30
0.0
 11
50.6228965166
 21
78.6478458872
 31
0.0
  0
LINE
  5
253
330
1F
100
AcDbEntity
  8
SLD-0
  6
Continuous
370
    15
100
AcDbLine
 10
50.6228965166
 20
85.5678461101
 30
0.0
 11
85.1987789064
 21
85.5678461101
 31
0.0
  0
LINE
  5
254
330
1F
100
AcDbEntity
  8
SLD-0
  6
Continuous
370
    15
100
AcDbLine
 10
85.1987789064
 20
78.6478458872
 30
0.0
 11
85.1897783703
 21
78.6478458872
 31
0.0
  0
LINE
  5
255
330
1F
100
AcDbEntity
  8
SLD-0
  6
Continuous
370
    15
100
AcDbLine
 10
85.1897783703
 20
78.6478458872
 30
0.0
 11
85.1897783703
 21
78.6068458775
 31
0.0
  0
ARC
  5
256
330
1F
100
AcDbEntity
  8
SLD-0
  6
Continuous
370
    15
100
AcDbCircle
 10
85.0647787446
 20
100.6988458707
 30
0.0
 40
0.1250000000000142
100
AcDbArc
 50
0.0
 51
90.0
  0
LINE
  5
257
330
1F
100
AcDbEntity
  8
SLD-0
  6
Continuous
370
    15
100
AcDbLine
 10
85.1897783703
 20
100.0928462627
 30
0.0
 11
85.1897783703
 21
100.6988448088
 31
0.0
  0
LINE
  5
258
330
1F
100
AcDbEntity
  8
SLD-0
  6
Continuous
370
    15
100
AcDbLine
 10
85.1897783703
 20
100.0928462627
 30
0.0
 11
50.6318970526
 21
100.0928462627
 31
0.0
  0
LINE
  5
259
330
1F
100
AcDbEntity
  8
SLD-0
  6
Continuous
370
    15
100
AcDbLine
 10
50.6318970526
 20
100.6988448088
 30
0.0
 11
50.6318970526
 21
100.0928462627
 31
0.0
  0
ARC
  5
25A
330
1F
100
AcDbEntity
  8
SLD-0
  6
Continuous
370
    15
100
AcDbCircle
 10
50.7568966784
 20
100.6988458707
 30
0.0
 40
0.1249999999999929
100
AcDbArc
 50
90.0
 51
180.0
  0
LINE
  5
25B
330
1F
100
AcDbEntity
  8
SLD-0
  6
Continuous
370
    15
100
AcDbLine
 10
85.0647787477
 20
100.8238456048
 30
0.0
 11
50.7568966753
 21
100.8238456048
 31
0.0
  0
LINE
  5
25C
330
1F
100
AcDbEntity
  8
SLD-0
  6
Continuous
370
    15
100
AcDbLine
 10
50.6318970526
 20
100.0538451132
 30
0.0
 11
50.6318970526
 21
100.0928462627
 31
0.0
  0
LINE
  5
25D
330
1F
100
AcDbEntity
  8
SLD-0
  6
Continuous
370
    15
100
AcDbLine
 10
85.1897783703
 20
100.0538451132
 30
0.0
 11
50.6318970526
 21
100.0538451132
 31
0.0
  0
LINE
  5
25E
330
1F
100
AcDbEntity
  8
SLD-0
  6
Continuous
370
    15
100
AcDbLine
 10
85.1897783703
 20
100.0928462627
 30
0.0
 11
85.1897783703
 21
100.0538451132
 31
0.0
  0
LINE
  5
25F
330
1F
100
AcDbEntity
  8
SLD-0
  6
Continuous
370
    15
100
AcDbLine
 10
85.1987789064
 20
100.0878455738
 30
0.0
 11
85.1987789064
 21
100.0538451132
 31
0.0
  0
LINE
  5
260
330
1F
100
AcDbEntity
  8
SLD-0
  6
Continuous
370
    15
100
AcDbLine
 10
85.1987789064
 20
100.0538451132
 30
0.0
 11
85.1897783703
 21
100.0538451132
 31
0.0
  0
LINE
  5
261
330
1F
100
AcDbEntity
  8
SLD-0
  6
Continuous
370
    15
100
AcDbLine
 10
85.1987789064
 20
100.0878455738
 30
0.0
 11
85.1897783703
 21
100.0878455738
 31
0.0
  0
LINE
  5
262
330
1F
100
AcDbEntity
  8
SLD-0
  6
Continuous
370
    15
100
AcDbLine
 10
85.2348103835
 20
100.0779216351
 30
0.0
 11
85.2033982663
 21
100.0909314048
 31
0.0
  0
LINE
  5
263
330
1F
100
AcDbEntity
  8
SLD-0
  6
Continuous
370
    15
100
AcDbLine
 10
85.3369326171
 20
100.4133127473
 30
0.0
 11
85.2033982663
 21
100.0909314048
 31
0.0
  0
LINE
  5
264
330
1F
100
AcDbEntity
  8
SLD-0
  6
Continuous
370
    15
100
AcDbLine
 10
85.3683435609
 20
100.4003006309
 30
0.0
 11
85.3369326171
 21
100.4133127473
 31
0.0
  0
LINE
  5
265
330
1F
100
AcDbEntity
  8
SLD-0
  6
Continuous
370
    15
100
AcDbLine
 10
85.3683435609
 20
100.4003006309
 30
0.0
 11
85.2348103835
 21
100.0779216351
 31
0.0
  0
ARC
  5
266
330
1F
100
AcDbEntity
  8
SLD-0
  6
Continuous
370
    15
100
AcDbCircle
 10
85.1987787446
 20
100.0928458707
 30
0.0
 40
0.0049999999976856
100
AcDbArc
 50
270.0
 51
337.5000000001
  0
ARC
  5
267
330
1F
100
AcDbEntity
  8
SLD-0
  6
Continuous
370
    15
100
AcDbCircle
 10
85.1987787446
 20
100.0928458707
 30
0.0
 40
0.0390000000000077
100
AcDbArc
 50
270.0
 51
337.5
  0
LINE
  5
268
330
1F
100
AcDbEntity
  8
SLD-0
  6
Continuous
370
    15
100
AcDbLine
 10
85.3847676911
 20
100.5287979199
 30
0.0
 11
85.4161798083
 21
100.5157858035
 31
0.0
  0
LWPOLYLINE
  5
269
330
1F
100
AcDbEntity
  8
SLD-0
  6
Continuous
370
    15
100
AcDbPolyline
 90
       10
 70
   128
 43
0.0
 10
85.4161798083
 20
100.5157858035
 10
85.41545235
 20
100.5140305171
 10
85.4132946149
 20
100.5088209773
 10
85.4097711356
 20
100.5003144089
 10
85.4049875109
 20
100.4887665956
 10
85.399091579
 20
100.4745318801
 10
85.3922616846
 20
100.4580420439
 10
85.3847043319
 20
100.439799268
 10
85.3766506649
 20
100.4203550126
 10
85.3683435609
 20
100.4003006309
  0
LWPOLYLINE
  5
26A
330
1F
100
AcDbEntity
  8
SLD-0
  6
Continuous
370
    15
100
AcDbPolyline
 90
       10
 70
   128
 43
0.0
 10
85.3369326171
 20
100.4133127473
 10
85.3452385478
 20
100.4333647823
 10
85.3532922147
 20
100.4528090377
 10
85.3608495674
 20
100.4710541603
 10
85.3676806352
 20
100.4875439964
 10
85.3735765671
 20
100.501778712
 10
85.3783590185
 20
100.5133241786
 10
85.3818824978
 20
100.5218330937
 10
85.3840402329
 20
100.5270426335
 10
85.3847676911
 20
100.5287979199
  0
ARC
  5
26B
330
1F
100
AcDbEntity
  8
SLD-0
  6
Continuous
370
    15
100
AcDbCircle
 10
50.6228966784
 20
100.0928458707
 30
0.0
 40
0.0389999999999957
100
AcDbArc
 50
202.5
 51
270.0
  0
LINE
  5
26C
330
1F
100
AcDbEntity
  8
SLD-0
  6
Continuous
370
    15
100
AcDbLine
 10
50.6182771566
 20
100.0909314048
 30
0.0
 11
50.5868650395
 21
100.0779216351
 31
0.0
  0
ARC
  5
26D
330
1F
100
AcDbEntity
  8
SLD-0
  6
Continuous
370
    15
100
AcDbCircle
 10
50.6228966784
 20
100.0928458707
 30
0.0
 40
0.0049999999999987
100
AcDbArc
 50
202.4999999999
 51
270.0
  0
LINE
  5
26E
330
1F
100
AcDbEntity
  8
SLD-0
  6
Continuous
370
    15
100
AcDbLine
 10
50.6228965166
 20
100.0538451132
 30
0.0
 11
50.6228965166
 21
100.0878455738
 31
0.0
  0
LINE
  5
26F
330
1F
100
AcDbEntity
  8
SLD-0
  6
Continuous
370
    15
100
AcDbLine
 10
50.5868650395
 20
100.0779216351
 30
0.0
 11
50.4533318621
 21
100.4003006309
 31
0.0
  0
LINE
  5
270
330
1F
100
AcDbEntity
  8
SLD-0
  6
Continuous
370
    15
100
AcDbLine
 10
50.4847428059
 20
100.4133127473
 30
0.0
 11
50.4533318621
 21
100.4003006309
 31
0.0
  0
LINE
  5
271
330
1F
100
AcDbEntity
  8
SLD-0
  6
Continuous
370
    15
100
AcDbLine
 10
50.4847428059
 20
100.4133127473
 30
0.0
 11
50.6182771566
 21
100.0909314048
 31
0.0
  0
LINE
  5
272
330
1F
100
AcDbEntity
  8
SLD-0
  6
Continuous
370
    15
100
AcDbLine
 10
50.4054956147
 20
100.5157858035
 30
0.0
 11
50.4369077318
 21
100.5287979199
 31
0.0
  0
LWPOLYLINE
  5
273
330
1F
100
AcDbEntity
  8
SLD-0
  6
Continuous
370
    15
100
AcDbPolyline
 90
       10
 70
   128
 43
0.0
 10
50.4369077318
 20
100.5287979199
 10
50.4376351901
 20
100.5270426335
 10
50.4397929251
 20
100.5218330937
 10
50.4433164044
 20
100.5133241786
 10
50.4480988559
 20
100.501778712
 10
50.4539947877
 20
100.4875439964
 10
50.4608258555
 20
100.4710541603
 10
50.4683832082
 20
100.4528090377
 10
50.4764368752
 20
100.4333647823
 10
50.4847428059
 20
100.4133127473
  0
LWPOLYLINE
  5
274
330
1F
100
AcDbEntity
  8
SLD-0
  6
Continuous
370
    15
100
AcDbPolyline
 90
       10
 70
   128
 43
0.0
 10
50.4533318621
 20
100.4003006309
 10
50.445024758
 20
100.4203550126
 10
50.4369710911
 20
100.439799268
 10
50.4294137384
 20
100.4580420439
 10
50.4225838439
 20
100.4745318801
 10
50.4166879121
 20
100.4887665956
 10
50.4119042873
 20
100.5003144089
 10
50.408380808
 20
100.5088209773
 10
50.4062230729
 20
100.5140305171
 10
50.4054956147
 20
100.5157858035
  0
LINE
  5
275
330
1F
100
AcDbEntity
  8
SLD-0
  6
Continuous
370
    15
100
AcDbLine
 10
50.6318970526
 20
100.0538451132
 30
0.0
 11
50.6228965166
 21
100.0538451132
 31
0.0
  0
LINE
  5
276
330
1F
100
AcDbEntity
  8
SLD-0
  6
Continuous
370
    15
100
AcDbLine
 10
50.6318970526
 20
100.0878455738
 30
0.0
 11
50.6228965166
 21
100.0878455738
 31
0.0
  0
LINE
  5
277
330
1F
100
AcDbEntity
  8
SLD-0
  6
Continuous
370
    15
100
AcDbLine
 10
83.3560297406
 20
100.1459084764
 30
0.0
 11
83.3891971441
 21
100.1321689018
 31
0.0
  0
LINE
  5
278
330
1F
100
AcDbEntity
  8
SLD-0
  6
Continuous
370
    15
100
AcDbLine
 10
83.4811772016
 20
100.4480383195
 30
0.0
 11
83.3560297406
 21
100.1459084764
 31
0.0
  0
LINE
  5
279
330
1F
100
AcDbEntity
  8
SLD-0
  6
Continuous
370
    15
100
AcDbLine
 10
83.5143434318
 20
100.4343010915
 30
0.0
 11
83.4811772016
 21
100.4480383195
 31
0.0
  0
LINE
  5
27A
330
1F
100
AcDbEntity
  8
SLD-0
  6
Continuous
370
    15
100
AcDbLine
 10
83.5143434318
 20
100.4343010915
 30
0.0
 11
83.3891971441
 21
100.1321689018
 31
0.0
  0
LINE
  5
27B
330
1F
100
AcDbEntity
  8
SLD-0
  6
Continuous
370
    15
100
AcDbLine
 10
52.4988130858
 20
100.1237468124
 30
0.0
 11
52.4988130858
 21
100.0878455738
 31
0.0
  0
LINE
  5
27C
330
1F
100
AcDbEntity
  8
SLD-0
  6
Continuous
370
    15
100
AcDbLine
 10
83.3228623371
 20
100.0878455738
 30
0.0
 11
83.3228623371
 21
100.1237468124
 31
0.0
  0
LINE
  5
27D
330
1F
100
AcDbEntity
  8
SLD-0
  6
Continuous
370
    15
100
AcDbLine
 10
83.3228623371
 20
100.1237468124
 30
0.0
 11
52.4988130858
 21
100.1237468124
 31
0.0
  0
LINE
  5
27E
330
1F
100
AcDbEntity
  8
SLD-0
  6
Continuous
370
    15
100
AcDbLine
 10
83.3228623371
 20
100.0878455738
 30
0.0
 11
52.4988130858
 21
100.0878455738
 31
0.0
  0
ARC
  5
27F
330
1F
100
AcDbEntity
  8
SLD-0
  6
Continuous
370
    15
100
AcDbCircle
 10
83.3228624853
 20
100.1596458815
 30
0.0
 40
0.0718000182467051
100
AcDbArc
 50
270.0
 51
337.4999920463
  0
ARC
  5
280
330
1F
100
AcDbEntity
  8
SLD-0
  6
Continuous
370
    15
100
AcDbCircle
 10
83.3228624853
 20
100.1596458707
 30
0.0
 40
0.0359000000000145
100
AcDbArc
 50
270.0
 51
337.5
  0
ARC
  5
281
330
1F
100
AcDbEntity
  8
SLD-0
  6
Continuous
370
    15
100
AcDbCircle
 10
52.4988129377
 20
100.1596458815
 30
0.0
 40
0.0718000182467078
100
AcDbArc
 50
202.5000079536
 51
270.0
  0
LINE
  5
282
330
1F
100
AcDbEntity
  8
SLD-0
  6
Continuous
370
    15
100
AcDbLine
 10
52.4324782788
 20
100.1321689018
 30
0.0
 11
52.4656456823
 21
100.1459084764
 31
0.0
  0
ARC
  5
283
330
1F
100
AcDbEntity
  8
SLD-0
  6
Continuous
370
    15
100
AcDbCircle
 10
52.4988129377
 20
100.1596458707
 30
0.0
 40
0.0359000000000013
100
AcDbArc
 50
202.5
 51
270.0
  0
LINE
  5
284
330
1F
100
AcDbEntity
  8
SLD-0
  6
Continuous
370
    15
100
AcDbLine
 10
52.4324782788
 20
100.1321689018
 30
0.0
 11
52.3073319912
 21
100.4343010915
 31
0.0
  0
LINE
  5
285
330
1F
100
AcDbEntity
  8
SLD-0
  6
Continuous
370
    15
100
AcDbLine
 10
52.3404982214
 20
100.4480383195
 30
0.0
 11
52.3073319912
 21
100.4343010915
 31
0.0
  0
LINE
  5
286
330
1F
100
AcDbEntity
  8
SLD-0
  6
Continuous
370
    15
100
AcDbLine
 10
52.4656456823
 20
100.1459084764
 30
0.0
 11
52.3404982214
 21
100.4480383195
 31
0.0
  0
ARC
  5
287
330
1F
100
AcDbEntity
  8
SLD-0
  6
Continuous
370
    15
100
AcDbCircle
 10
52.6328129377
 20
100.7347458707
 30
0.0
 40
0.125
100
AcDbArc
 50
90.0
 51
134.5368099036
  0
LINE
  5
288
330
1F
100
AcDbEntity
  8
SLD-0
  6
Continuous
370
    15
100
AcDbLine
 10
52.6328132445
 20
100.8597468434
 30
0.0
 11
83.1888621784
 21
100.8597468434
 31
0.0
  0
ARC
  5
289
330
1F
100
AcDbEntity
  8
SLD-0
  6
Continuous
370
    15
100
AcDbCircle
 10
83.1888624853
 20
100.7347458707
 30
0.0
 40
0.1250000000000058
100
AcDbArc
 50
45.4631900964
 51
90.0
  0
LINE
  5
28A
330
1F
100
AcDbEntity
  8
SLD-0
  6
Continuous
370
    15
100
AcDbLine
 10
49.86862203
 20
82.1928457384
 30
0.0
 11
49.86862203
 21
83.3178458623
 31
0.0
  0
LINE
  5
28B
330
1F
100
AcDbEntity
  8
SLD-0
  6
Continuous
370
    15
100
AcDbLine
 10
49.9525730602
 20
83.3178458623
 30
0.0
 11
49.9525730602
 21
82.1928457384
 31
0.0
  0
LINE
  5
28C
330
1F
100
AcDbEntity
  8
SLD-0
  6
Continuous
370
    15
100
AcDbLine
 10
49.9771165633
 20
78.5678458647
 30
0.0
 11
49.9771165633
 21
83.5678456942
 31
0.0
  0
LINE
  5
28D
330
1F
100
AcDbEntity
  8
SLD-0
  6
Continuous
370
    15
100
AcDbLine
 10
49.8440785269
 20
78.5678458647
 30
0.0
 11
49.9771165633
 21
78.5678458647
 31
0.0
  0
LINE
  5
28E
330
1F
100
AcDbEntity
  8
SLD-0
  6
Continuous
370
    15
100
AcDbLine
 10
49.8440785269
 20
78.5678458647
 30
0.0
 11
49.8440785269
 21
83.5678456942
 31
0.0
  0
LINE
  5
28F
330
1F
100
AcDbEntity
  8
SLD-0
  6
Continuous
370
    15
100
AcDbLine
 10
49.9771165633
 20
83.5678456942
 30
0.0
 11
49.8440785269
 21
83.5678456942
 31
0.0
  0
LINE
  5
290
330
1F
100
AcDbEntity
  8
SLD-0
  6
Continuous
370
    15
100
AcDbLine
 10
49.86862203
 20
78.81784588
 30
0.0
 11
49.86862203
 21
79.9428459305
 31
0.0
  0
LINE
  5
291
330
1F
100
AcDbEntity
  8
SLD-0
  6
Continuous
370
    15
100
AcDbLine
 10
49.9525730602
 20
78.81784588
 30
0.0
 11
49.86862203
 21
78.81784588
 31
0.0
  0
LINE
  5
292
330
1F
100
AcDbEntity
  8
SLD-0
  6
Continuous
370
    15
100
AcDbLine
 10
49.9525730602
 20
79.9428459305
 30
0.0
 11
49.9525730602
 21
78.81784588
 31
0.0
  0
LINE
  5
293
330
1F
100
AcDbEntity
  8
SLD-0
  6
Continuous
370
    15
100
AcDbLine
 10
49.86862203
 20
79.9428459305
 30
0.0
 11
49.9525730602
 21
79.9428459305
 31
0.0
  0
LINE
  5
294
330
1F
100
AcDbEntity
  8
SLD-0
  6
Continuous
370
    15
100
AcDbLine
 10
49.9525730602
 20
82.1928457384
 30
0.0
 11
49.86862203
 21
82.1928457384
 31
0.0
  0
LINE
  5
295
330
1F
100
AcDbEntity
  8
SLD-0
  6
Continuous
370
    15
100
AcDbLine
 10
49.86862203
 20
83.3178458623
 30
0.0
 11
49.9525730602
 21
83.3178458623
 31
0.0
  0
LINE
  5
296
330
1F
100
AcDbEntity
  8
SLD-0
  6
Continuous
370
    15
100
AcDbLine
 10
49.9327509959
 20
83.3178458623
 30
0.0
 11
49.9327509959
 21
82.1928457384
 31
0.0
  0
LINE
  5
297
330
1F
100
AcDbEntity
  8
SLD-0
  6
Continuous
370
    15
100
AcDbLine
 10
49.8884440944
 20
82.1928457384
 30
0.0
 11
49.8884440944
 21
83.3178458623
 31
0.0
  0
LINE
  5
298
330
1F
100
AcDbEntity
  8
SLD-0
  6
Continuous
370
    15
100
AcDbLine
 10
49.9327509959
 20
79.9428459305
 30
0.0
 11
49.9327509959
 21
78.81784588
 31
0.0
  0
LINE
  5
299
330
1F
100
AcDbEntity
  8
SLD-0
  6
Continuous
370
    15
100
AcDbLine
 10
49.8884440944
 20
78.81784588
 30
0.0
 11
49.8884440944
 21
79.9428459305
 31
0.0
  0
LINE
  5
29A
330
1F
100
AcDbEntity
  8
SLD-0
  6
Continuous
370
    15
100
AcDbLine
 10
49.9771165633
 20
78.5678458647
 30
0.0
 11
50.6318970526
 21
78.5678458647
 31
0.0
  0
LINE
  5
29B
330
1F
100
AcDbEntity
  8
SLD-0
  6
Continuous
370
    15
100
AcDbLine
 10
49.9771165633
 20
83.5678456942
 30
0.0
 11
50.4054956147
 21
83.5678456942
 31
0.0
  0
LINE
  5
29C
330
1F
100
AcDbEntity
  8
SLD-0
  6
Continuous
370
    15
100
AcDbLine
 10
44.9161706545
 20
78.81784588
 30
0.0
 11
44.9161706545
 21
79.9428459305
 31
0.0
  0
LINE
  5
29D
330
1F
100
AcDbEntity
  8
SLD-0
  6
Continuous
370
    15
100
AcDbLine
 10
44.9161706545
 20
79.9428459305
 30
0.0
 11
44.9081169875
 21
79.9428459305
 31
0.0
  0
LINE
  5
29E
330
1F
100
AcDbEntity
  8
SLD-0
  6
Continuous
370
    15
100
AcDbLine
 10
44.9081169875
 20
79.9428459305
 30
0.0
 11
44.9081169875
 21
82.1928457384
 31
0.0
  0
LINE
  5
29F
330
1F
100
AcDbEntity
  8
SLD-0
  6
Continuous
370
    15
100
AcDbLine
 10
44.9081169875
 20
82.1928457384
 30
0.0
 11
44.9161706545
 21
82.1928457384
 31
0.0
  0
LINE
  5
2A0
330
1F
100
AcDbEntity
  8
SLD-0
  6
Continuous
370
    15
100
AcDbLine
 10
44.9161706545
 20
82.1928457384
 30
0.0
 11
44.9161706545
 21
83.3178458623
 31
0.0
  0
LINE
  5
2A1
330
1F
100
AcDbEntity
  8
SLD-0
  6
Continuous
370
    15
100
AcDbLine
 10
44.9161706545
 20
83.3178458623
 30
0.0
 11
44.9081169875
 21
83.3178458623
 31
0.0
  0
LINE
  5
2A2
330
1F
100
AcDbEntity
  8
SLD-0
  6
Continuous
370
    15
100
AcDbLine
 10
44.9081169875
 20
83.3178458623
 30
0.0
 11
44.9081169875
 21
83.5678456942
 31
0.0
  0
LINE
  5
2A3
330
1F
100
AcDbEntity
  8
SLD-0
  6
Continuous
370
    15
100
AcDbLine
 10
44.9081169875
 20
78.5678458647
 30
0.0
 11
49.8440785269
 21
78.5678458647
 31
0.0
  0
LINE
  5
2A4
330
1F
100
AcDbEntity
  8
SLD-0
  6
Continuous
370
    15
100
AcDbLine
 10
44.9081169875
 20
78.5678458647
 30
0.0
 11
44.9081169875
 21
78.81784588
 31
0.0
  0
LINE
  5
2A5
330
1F
100
AcDbEntity
  8
SLD-0
  6
Continuous
370
    15
100
AcDbLine
 10
44.9081169875
 20
78.81784588
 30
0.0
 11
44.9161706545
 21
78.81784588
 31
0.0
  0
LINE
  5
2A6
330
1F
100
AcDbEntity
  8
SLD-0
  6
Continuous
370
    15
100
AcDbLine
 10
44.9081169875
 20
83.5678456942
 30
0.0
 11
49.8440785269
 21
83.5678456942
 31
0.0
  0
LINE
  5
2A7
330
1F
100
AcDbEntity
  8
SLD-0
  6
Continuous
370
    15
100
AcDbLine
 10
44.9034964542
 20
83.3178458623
 30
0.0
 11
44.9081169875
 21
83.3178458623
 31
0.0
  0
LINE
  5
2A8
330
1F
100
AcDbEntity
  8
SLD-0
  6
Continuous
370
    15
100
AcDbLine
 10
44.9034964542
 20
83.3178458623
 30
0.0
 11
44.9034964542
 21
83.5678456942
 31
0.0
  0
LINE
  5
2A9
330
1F
100
AcDbEntity
  8
SLD-0
  6
Continuous
370
    15
100
AcDbLine
 10
44.9081169875
 20
83.5678456942
 30
0.0
 11
44.9034964542
 21
83.5678456942
 31
0.0
  0
LINE
  5
2AA
330
1F
100
AcDbEntity
  8
SLD-0
  6
Continuous
370
    15
100
AcDbLine
 10
44.9034964542
 20
79.9428459305
 30
0.0
 11
44.9081169875
 21
79.9428459305
 31
0.0
  0
LINE
  5
2AB
330
1F
100
AcDbEntity
  8
SLD-0
  6
Continuous
370
    15
100
AcDbLine
 10
44.9034964542
 20
79.9428459305
 30
0.0
 11
44.9034964542
 21
82.1928457384
 31
0.0
  0
LINE
  5
2AC
330
1F
100
AcDbEntity
  8
SLD-0
  6
Continuous
370
    15
100
AcDbLine
 10
44.9081169875
 20
82.1928457384
 30
0.0
 11
44.9034964542
 21
82.1928457384
 31
0.0
  0
LINE
  5
2AD
330
1F
100
AcDbEntity
  8
SLD-0
  6
Continuous
370
    15
100
AcDbLine
 10
44.9034964542
 20
78.5678458647
 30
0.0
 11
44.9034964542
 21
78.81784588
 31
0.0
  0
LINE
  5
2AE
330
1F
100
AcDbEntity
  8
SLD-0
  6
Continuous
370
    15
100
AcDbLine
 10
44.9034964542
 20
78.5678458647
 30
0.0
 11
44.9081169875
 21
78.5678458647
 31
0.0
  0
LINE
  5
2AF
330
1F
100
AcDbEntity
  8
SLD-0
  6
Continuous
370
    15
100
AcDbLine
 10
44.9081169875
 20
78.81784588
 30
0.0
 11
44.9034964542
 21
78.81784588
 31
0.0
  0
LINE
  5
2B0
330
1F
100
AcDbEntity
  8
SLD-0
  6
Continuous
370
    15
100
AcDbLine
 10
44.9034964542
 20
83.3178458623
 30
0.0
 11
44.882449444
 21
83.3178458623
 31
0.0
  0
LINE
  5
2B1
330
1F
100
AcDbEntity
  8
SLD-0
  6
Continuous
370
    15
100
AcDbLine
 10
44.882449444
 20
83.3178458623
 30
0.0
 11
44.882449444
 21
82.1928457384
 31
0.0
  0
LINE
  5
2B2
330
1F
100
AcDbEntity
  8
SLD-0
  6
Continuous
370
    15
100
AcDbLine
 10
44.882449444
 20
82.1928457384
 30
0.0
 11
44.9034964542
 21
82.1928457384
 31
0.0
  0
LINE
  5
2B3
330
1F
100
AcDbEntity
  8
SLD-0
  6
Continuous
370
    15
100
AcDbLine
 10
44.9034964542
 20
79.9428459305
 30
0.0
 11
44.882449444
 21
79.9428459305
 31
0.0
  0
LINE
  5
2B4
330
1F
100
AcDbEntity
  8
SLD-0
  6
Continuous
370
    15
100
AcDbLine
 10
44.882449444
 20
79.9428459305
 30
0.0
 11
44.882449444
 21
78.81784588
 31
0.0
  0
LINE
  5
2B5
330
1F
100
AcDbEntity
  8
SLD-0
  6
Continuous
370
    15
100
AcDbLine
 10
44.882449444
 20
78.81784588
 30
0.0
 11
44.9034964542
 21
78.81784588
 31
0.0
  0
LINE
  5
2B6
330
1F
100
AcDbEntity
  8
SLD-0
  6
Continuous
370
    15
100
AcDbLine
 10
44.3818384805
 20
78.5678458647
 30
0.0
 11
44.9034964542
 21
78.5678458647
 31
0.0
  0
ARC
  5
2B7
330
1F
100
AcDbEntity
  8
SLD-0
  6
Continuous
370
    15
100
AcDbCircle
 10
44.3818377115
 20
78.6678458707
 30
0.0
 40
0.0999999999999943
100
AcDbArc
 50
180.0
 51
270.0
  0
LINE
  5
2B8
330
1F
100
AcDbEntity
  8
SLD-0
  6
Continuous
370
    15
100
AcDbLine
 10
44.2818387824
 20
78.6678458561
 30
0.0
 11
44.2818387824
 21
83.4678459961
 31
0.0
  0
ARC
  5
2B9
330
1F
100
AcDbEntity
  8
SLD-0
  6
Continuous
370
    15
100
AcDbCircle
 10
44.3818377115
 20
83.4678458707
 30
0.0
 40
0.1000000000000085
100
AcDbArc
 50
90.0
 51
180.0
  0
LINE
  5
2BA
330
1F
100
AcDbEntity
  8
SLD-0
  6
Continuous
370
    15
100
AcDbLine
 10
44.3818384805
 20
83.5678456942
 30
0.0
 11
44.9034964542
 21
83.5678456942
 31
0.0
  0
LINE
  5
2BB
330
1F
100
AcDbEntity
  8
SLD-0
  6
Continuous
370
    15
100
AcDbLine
 10
85.9530533929
 20
78.81784588
 30
0.0
 11
85.8691023627
 21
78.81784588
 31
0.0
  0
LINE
  5
2BC
330
1F
100
AcDbEntity
  8
SLD-0
  6
Continuous
370
    15
100
AcDbLine
 10
85.9530533929
 20
79.9428459305
 30
0.0
 11
85.9530533929
 21
78.81784588
 31
0.0
  0
LINE
  5
2BD
330
1F
100
AcDbEntity
  8
SLD-0
  6
Continuous
370
    15
100
AcDbLine
 10
85.8691023627
 20
79.9428459305
 30
0.0
 11
85.9530533929
 21
79.9428459305
 31
0.0
  0
LINE
  5
2BE
330
1F
100
AcDbEntity
  8
SLD-0
  6
Continuous
370
    15
100
AcDbLine
 10
85.8691023627
 20
78.81784588
 30
0.0
 11
85.8691023627
 21
79.9428459305
 31
0.0
  0
LINE
  5
2BF
330
1F
100
AcDbEntity
  8
SLD-0
  6
Continuous
370
    15
100
AcDbLine
 10
85.8445588596
 20
83.5678456942
 30
0.0
 11
85.8445588596
 21
78.5678458647
 31
0.0
  0
LINE
  5
2C0
330
1F
100
AcDbEntity
  8
SLD-0
  6
Continuous
370
    15
100
AcDbLine
 10
85.9775968961
 20
83.5678456942
 30
0.0
 11
85.9775968961
 21
78.5678458647
 31
0.0
  0
LINE
  5
2C1
330
1F
100
AcDbEntity
  8
SLD-0
  6
Continuous
370
    15
100
AcDbLine
 10
85.8445588596
 20
78.5678458647
 30
0.0
 11
85.9775968961
 21
78.5678458647
 31
0.0
  0
LINE
  5
2C2
330
1F
100
AcDbEntity
  8
SLD-0
  6
Continuous
370
    15
100
AcDbLine
 10
85.9530533929
 20
83.3178458623
 30
0.0
 11
85.9530533929
 21
82.1928457384
 31
0.0
  0
LINE
  5
2C3
330
1F
100
AcDbEntity
  8
SLD-0
  6
Continuous
370
    15
100
AcDbLine
 10
85.8691023627
 20
83.3178458623
 30
0.0
 11
85.9530533929
 21
83.3178458623
 31
0.0
  0
LINE
  5
2C4
330
1F
100
AcDbEntity
  8
SLD-0
  6
Continuous
370
    15
100
AcDbLine
 10
85.8691023627
 20
82.1928457384
 30
0.0
 11
85.8691023627
 21
83.3178458623
 31
0.0
  0
LINE
  5
2C5
330
1F
100
AcDbEntity
  8
SLD-0
  6
Continuous
370
    15
100
AcDbLine
 10
85.9530533929
 20
82.1928457384
 30
0.0
 11
85.8691023627
 21
82.1928457384
 31
0.0
  0
LINE
  5
2C6
330
1F
100
AcDbEntity
  8
SLD-0
  6
Continuous
370
    15
100
AcDbLine
 10
85.9775968961
 20
83.5678456942
 30
0.0
 11
85.8445588596
 21
83.5678456942
 31
0.0
  0
LINE
  5
2C7
330
1F
100
AcDbEntity
  8
SLD-0
  6
Continuous
370
    15
100
AcDbLine
 10
85.8889244271
 20
82.1928457384
 30
0.0
 11
85.8889244271
 21
83.3178458623
 31
0.0
  0
LINE
  5
2C8
330
1F
100
AcDbEntity
  8
SLD-0
  6
Continuous
370
    15
100
AcDbLine
 10
85.8889244271
 20
78.81784588
 30
0.0
 11
85.8889244271
 21
79.9428459305
 31
0.0
  0
LINE
  5
2C9
330
1F
100
AcDbEntity
  8
SLD-0
  6
Continuous
370
    15
100
AcDbLine
 10
85.9332313286
 20
83.3178458623
 30
0.0
 11
85.9332313286
 21
82.1928457384
 31
0.0
  0
LINE
  5
2CA
330
1F
100
AcDbEntity
  8
SLD-0
  6
Continuous
370
    15
100
AcDbLine
 10
85.9332313286
 20
79.9428459305
 30
0.0
 11
85.9332313286
 21
78.81784588
 31
0.0
  0
LINE
  5
2CB
330
1F
100
AcDbEntity
  8
SLD-0
  6
Continuous
370
    15
100
AcDbLine
 10
85.8445588596
 20
83.5678456942
 30
0.0
 11
85.4161798083
 21
83.5678456942
 31
0.0
  0
LINE
  5
2CC
330
1F
100
AcDbEntity
  8
SLD-0
  6
Continuous
370
    15
100
AcDbLine
 10
85.8445588596
 20
78.5678458647
 30
0.0
 11
85.1897783703
 21
78.5678458647
 31
0.0
  0
LINE
  5
2CD
330
1F
100
AcDbEntity
  8
SLD-0
  6
Continuous
370
    15
100
AcDbLine
 10
90.9055047684
 20
83.3178458623
 30
0.0
 11
90.9055047684
 21
82.1928457384
 31
0.0
  0
LINE
  5
2CE
330
1F
100
AcDbEntity
  8
SLD-0
  6
Continuous
370
    15
100
AcDbLine
 10
90.9055047684
 20
82.1928457384
 30
0.0
 11
90.9135584354
 21
82.1928457384
 31
0.0
  0
LINE
  5
2CF
330
1F
100
AcDbEntity
  8
SLD-0
  6
Continuous
370
    15
100
AcDbLine
 10
90.9135584354
 20
82.1928457384
 30
0.0
 11
90.9135584354
 21
79.9428459305
 31
0.0
  0
LINE
  5
2D0
330
1F
100
AcDbEntity
  8
SLD-0
  6
Continuous
370
    15
100
AcDbLine
 10
90.9135584354
 20
79.9428459305
 30
0.0
 11
90.9055047684
 21
79.9428459305
 31
0.0
  0
LINE
  5
2D1
330
1F
100
AcDbEntity
  8
SLD-0
  6
Continuous
370
    15
100
AcDbLine
 10
90.9055047684
 20
79.9428459305
 30
0.0
 11
90.9055047684
 21
78.81784588
 31
0.0
  0
LINE
  5
2D2
330
1F
100
AcDbEntity
  8
SLD-0
  6
Continuous
370
    15
100
AcDbLine
 10
90.9055047684
 20
78.81784588
 30
0.0
 11
90.9135584354
 21
78.81784588
 31
0.0
  0
LINE
  5
2D3
330
1F
100
AcDbEntity
  8
SLD-0
  6
Continuous
370
    15
100
AcDbLine
 10
90.9135584354
 20
78.81784588
 30
0.0
 11
90.9135584354
 21
78.5678458647
 31
0.0
  0
LINE
  5
2D4
330
1F
100
AcDbEntity
  8
SLD-0
  6
Continuous
370
    15
100
AcDbLine
 10
90.9135584354
 20
83.5678456942
 30
0.0
 11
90.9135584354
 21
83.3178458623
 31
0.0
  0
LINE
  5
2D5
330
1F
100
AcDbEntity
  8
SLD-0
  6
Continuous
370
    15
100
AcDbLine
 10
90.9135584354
 20
83.3178458623
 30
0.0
 11
90.9055047684
 21
83.3178458623
 31
0.0
  0
LINE
  5
2D6
330
1F
100
AcDbEntity
  8
SLD-0
  6
Continuous
370
    15
100
AcDbLine
 10
90.9135584354
 20
78.5678458647
 30
0.0
 11
85.9775968961
 21
78.5678458647
 31
0.0
  0
LINE
  5
2D7
330
1F
100
AcDbEntity
  8
SLD-0
  6
Continuous
370
    15
100
AcDbLine
 10
90.9135584354
 20
83.5678456942
 30
0.0
 11
85.9775968961
 21
83.5678456942
 31
0.0
  0
LINE
  5
2D8
330
1F
100
AcDbEntity
  8
SLD-0
  6
Continuous
370
    15
100
AcDbLine
 10
90.9181789687
 20
83.5678456942
 30
0.0
 11
90.9181789687
 21
83.3178458623
 31
0.0
  0
LINE
  5
2D9
330
1F
100
AcDbEntity
  8
SLD-0
  6
Continuous
370
    15
100
AcDbLine
 10
90.9135584354
 20
83.3178458623
 30
0.0
 11
90.9181789687
 21
83.3178458623
 31
0.0
  0
LINE
  5
2DA
330
1F
100
AcDbEntity
  8
SLD-0
  6
Continuous
370
    15
100
AcDbLine
 10
90.9181789687
 20
83.5678456942
 30
0.0
 11
90.9135584354
 21
83.5678456942
 31
0.0
  0
LINE
  5
2DB
330
1F
100
AcDbEntity
  8
SLD-0
  6
Continuous
370
    15
100
AcDbLine
 10
90.9181789687
 20
82.1928457384
 30
0.0
 11
90.9181789687
 21
79.9428459305
 31
0.0
  0
LINE
  5
2DC
330
1F
100
AcDbEntity
  8
SLD-0
  6
Continuous
370
    15
100
AcDbLine
 10
90.9135584354
 20
79.9428459305
 30
0.0
 11
90.9181789687
 21
79.9428459305
 31
0.0
  0
LINE
  5
2DD
330
1F
100
AcDbEntity
  8
SLD-0
  6
Continuous
370
    15
100
AcDbLine
 10
90.9181789687
 20
82.1928457384
 30
0.0
 11
90.9135584354
 21
82.1928457384
 31
0.0
  0
LINE
  5
2DE
330
1F
100
AcDbEntity
  8
SLD-0
  6
Continuous
370
    15
100
AcDbLine
 10
90.9181789687
 20
78.81784588
 30
0.0
 11
90.9181789687
 21
78.5678458647
 31
0.0
  0
LINE
  5
2DF
330
1F
100
AcDbEntity
  8
SLD-0
  6
Continuous
370
    15
100
AcDbLine
 10
90.9181789687
 20
78.81784588
 30
0.0
 11
90.9135584354
 21
78.81784588
 31
0.0
  0
LINE
  5
2E0
330
1F
100
AcDbEntity
  8
SLD-0
  6
Continuous
370
    15
100
AcDbLine
 10
90.9135584354
 20
78.5678458647
 30
0.0
 11
90.9181789687
 21
78.5678458647
 31
0.0
  0
LINE
  5
2E1
330
1F
100
AcDbEntity
  8
SLD-0
  6
Continuous
370
    15
100
AcDbLine
 10
90.9181789687
 20
78.81784588
 30
0.0
 11
90.9392259789
 21
78.81784588
 31
0.0
  0
LINE
  5
2E2
330
1F
100
AcDbEntity
  8
SLD-0
  6
Continuous
370
    15
100
AcDbLine
 10
90.9392259789
 20
78.81784588
 30
0.0
 11
90.9392259789
 21
79.9428459305
 31
0.0
  0
LINE
  5
2E3
330
1F
100
AcDbEntity
  8
SLD-0
  6
Continuous
370
    15
100
AcDbLine
 10
90.9392259789
 20
79.9428459305
 30
0.0
 11
90.9181789687
 21
79.9428459305
 31
0.0
  0
LINE
  5
2E4
330
1F
100
AcDbEntity
  8
SLD-0
  6
Continuous
370
    15
100
AcDbLine
 10
90.9181789687
 20
82.1928457384
 30
0.0
 11
90.9392259789
 21
82.1928457384
 31
0.0
  0
LINE
  5
2E5
330
1F
100
AcDbEntity
  8
SLD-0
  6
Continuous
370
    15
100
AcDbLine
 10
90.9392259789
 20
82.1928457384
 30
0.0
 11
90.9392259789
 21
83.3178458623
 31
0.0
  0
LINE
  5
2E6
330
1F
100
AcDbEntity
  8
SLD-0
  6
Continuous
370
    15
100
AcDbLine
 10
90.9392259789
 20
83.3178458623
 30
0.0
 11
90.9181789687
 21
83.3178458623
 31
0.0
  0
ARC
  5
2E7
330
1F
100
AcDbEntity
  8
SLD-0
  6
Continuous
370
    15
100
AcDbCircle
 10
91.4398377115
 20
83.4678458707
 30
0.0
 40
0.1000000000000085
100
AcDbArc
 50
0.0000000001
 51
90.0
  0
LINE
  5
2E8
330
1F
100
AcDbEntity
  8
SLD-0
  6
Continuous
370
    15
100
AcDbLine
 10
91.5398366406
 20
83.4678459961
 30
0.0
 11
91.5398366406
 21
78.6678458561
 31
0.0
  0
ARC
  5
2E9
330
1F
100
AcDbEntity
  8
SLD-0
  6
Continuous
370
    15
100
AcDbCircle
 10
91.4398377115
 20
78.6678458707
 30
0.0
 40
0.1000000000000085
100
AcDbArc
 50
270.0
 51
0.0000000001
  0
LINE
  5
2EA
330
1F
100
AcDbEntity
  8
SLD-0
  6
Continuous
370
    15
100
AcDbLine
 10
91.4398369425
 20
78.5678458647
 30
0.0
 11
90.9181789687
 21
78.5678458647
 31
0.0
  0
LINE
  5
2EB
330
1F
100
AcDbEntity
  8
SLD-0
  6
Continuous
370
    15
100
AcDbLine
 10
91.4398369425
 20
83.5678456942
 30
0.0
 11
90.9181789687
 21
83.5678456942
 31
0.0
  0
LWPOLYLINE
  5
2EC
330
1F
100
AcDbEntity
  8
SLD-0
  6
Continuous
370
    15
100
AcDbPolyline
 90
       10
 70
   128
 43
0.0
 10
95.3818370575
 20
100.0228460047
 10
95.386872946
 20
100.0224869688
 10
95.3917563029
 20
100.0221373195
 10
95.3963369433
 20
100.0218111366
 10
95.4004787621
 20
100.02151546
 10
95.4040526942
 20
100.0212596763
 10
95.4069531407
 20
100.021053172
 10
95.4090885827
 20
100.0209006405
 10
95.4103980075
 20
100.0208067749
 10
95.4108368291
 20
100.0207739219
  0
LINE
  5
2ED
330
1F
100
AcDbEntity
  8
SLD-0
  6
Continuous
370
    15
100
AcDbLine
 10
40.4398383655
 20
78.0968458715
 30
0.0
 11
40.4108385938
 21
78.0968458715
 31
0.0
  0
LINE
  5
2EE
330
1F
100
AcDbEntity
  8
SLD-0
  6
Continuous
370
    15
100
AcDbLine
 10
40.4108385938
 20
100.0207739219
 30
0.0
 11
40.4108385938
 21
78.0968458715
 31
0.0
  0
LWPOLYLINE
  5
2EF
330
1F
100
AcDbEntity
  8
SLD-0
  6
Continuous
370
    15
100
AcDbPolyline
 90
        9
 70
   128
 43
0.0
 10
40.4108385938
 20
100.0207739219
 10
40.4113947474
 20
100.0208138148
 10
40.413044435
 20
100.0209334934
 10
40.4157242974
 20
100.0211235712
 10
40.4193310824
 20
100.0213817016
 10
40.4237263383
 20
100.0216961513
 10
40.4287387604
 20
100.0220528405
 10
40.4341806175
 20
100.0224423827
 10
40.4398383655
 20
100.0228460047
  0
LINE
  5
2F0
330
1F
100
AcDbEntity
  8
SLD-0
  6
Continuous
370
    15
100
AcDbLine
 10
40.4398383655
 20
100.0228460047
 30
0.0
 11
40.4398383655
 21
78.0968458715
 31
0.0
  0
LINE
  5
2F1
330
1F
100
AcDbEntity
  8
SLD-0
  6
Continuous
370
    15
100
AcDbLine
 10
95.4108368291
 20
78.0968458715
 30
0.0
 11
95.4108368291
 21
100.0207739219
 31
0.0
  0
LINE
  5
2F2
330
1F
100
AcDbEntity
  8
SLD-0
  6
Continuous
370
    15
100
AcDbLine
 10
95.4108368291
 20
78.0968458715
 30
0.0
 11
95.3818370575
 21
78.0968458715
 31
0.0
  0
LINE
  5
2F3
330
1F
100
AcDbEntity
  8
SLD-0
  6
Continuous
370
    15
100
AcDbLine
 10
95.3818370575
 20
78.0968458715
 30
0.0
 11
95.3818370575
 21
100.0228460047
 31
0.0
  0
LWPOLYLINE
  5
2F4
330
1F
100
AcDbEntity
  8
SLD-0
  6
Continuous
370
    15
100
AcDbPolyline
 90
       10
 70
   128
 43
0.0
 10
40.4398383655
 20
100.0228460047
 10
40.4401974013
 20
100.0278818932
 10
40.4405470506
 20
100.0327652501
 10
40.4408732335
 20
100.0373458905
 10
40.4411689101
 20
100.0414877093
 10
40.4414246938
 20
100.0450616414
 10
40.4416311981
 20
100.0479597412
 10
40.4417837297
 20
100.0500975299
 10
40.4418775952
 20
100.0514046081
 10
40.4419081016
 20
100.0518457763
  0
LINE
  5
2F5
330
1F
100
AcDbEntity
  8
SLD-0
  6
Continuous
370
    15
100
AcDbLine
 10
95.3797673214
 20
100.0518457763
 30
0.0
 11
40.4419081016
 21
100.0518457763
 31
0.0
  0
LWPOLYLINE
  5
2F6
330
1F
100
AcDbEntity
  8
SLD-0
  6
Continuous
370
    15
100
AcDbPolyline
 90
       10
 70
   128
 43
0.0
 10
95.3797673214
 20
100.0518457763
 10
95.3797978277
 20
100.0514046081
 10
95.3798916933
 20
100.0500975299
 10
95.3800442249
 20
100.0479597412
 10
95.3802507291
 20
100.0450616414
 10
95.3805065128
 20
100.0414877093
 10
95.3808021894
 20
100.0373458905
 10
95.3811283723
 20
100.0327652501
 10
95.3814780216
 20
100.0278818932
 10
95.3818370575
 20
100.0228460047
  0
LINE
  5
2F7
330
1F
100
AcDbEntity
  8
SLD-0
  6
Continuous
370
    15
100
AcDbLine
 10
95.3818370575
 20
100.0228460047
 30
0.0
 11
40.4398383655
 21
100.0228460047
 31
0.0
  0
LINE
  5
2F8
330
1F
100
AcDbEntity
  8
SLD-0
  6
Continuous
370
    15
100
AcDbLine
 10
40.4398383655
 20
78.0968458715
 30
0.0
 11
95.3818370575
 21
78.0968458715
 31
0.0
  0
CIRCLE
  5
2F9
330
1F
100
AcDbEntity
  8
SLD-0
  6
Continuous
370
    15
100
AcDbCircle
 10
67.9108377115
 20
93.3138458707
 30
0.0
 40
4.5
  0
LINE
  5
2FA
330
1F
100
AcDbEntity
  8
SLD-0
  6
Continuous
370
    15
100
AcDbLine
 10
40.4398383655
 20
78.0678458707
 30
0.0
 11
95.3818370575
 21
78.0678458707
 31
0.0
  0
LINE
  5
2FB
330
1F
100
AcDbEntity
  8
SLD-0
  6
Continuous
370
    15
100
AcDbLine
 10
40.4398383655
 20
78.0678458707
 30
0.0
 11
40.4398383655
 21
78.0968458715
 31
0.0
  0
LINE
  5
2FC
330
1F
100
AcDbEntity
  8
SLD-0
  6
Continuous
370
    15
100
AcDbLine
 10
95.3818370575
 20
78.0968458715
 30
0.0
 11
95.3818370575
 21
78.0678458707
 31
0.0
  0
LINE
  5
2FD
330
1F
100
AcDbEntity
  8
SLD-0
  6
Continuous
370
    15
100
AcDbLine
 10
87.7988379369
 20
78.0628458704
 30
0.0
 11
87.7988379369
 21
78.0678458707
 31
0.0
  0
LINE
  5
2FE
330
1F
100
AcDbEntity
  8
SLD-0
  6
Continuous
370
    15
100
AcDbLine
 10
48.022837486
 20
78.0628458704
 30
0.0
 11
87.7988379369
 21
78.0628458704
 31
0.0
  0
LINE
  5
2FF
330
1F
100
AcDbEntity
  8
SLD-0
  6
Continuous
370
    15
100
AcDbLine
 10
48.022837486
 20
78.0678458707
 30
0.0
 11
48.022837486
 21
78.0628458704
 31
0.0
  0
LINE
  5
300
330
1F
100
AcDbEntity
  8
SLD-0
  6
Continuous
370
    15
100
AcDbLine
 10
48.147838282
 20
77.5678458767
 30
0.0
 11
87.6738371409
 21
77.5678458767
 31
0.0
  0
LINE
  5
301
330
1F
100
AcDbEntity
  8
SLD-0
  6
Continuous
370
    15
100
AcDbLine
 10
87.6738371409
 20
77.5678458767
 30
0.0
 11
87.7988379369
 21
77.6928458661
 31
0.0
  0
LINE
  5
302
330
1F
100
AcDbEntity
  8
SLD-0
  6
Continuous
370
    15
100
AcDbLine
 10
48.022837486
 20
78.0628458704
 30
0.0
 11
48.022837486
 21
77.6928458661
 31
0.0
  0
LINE
  5
303
330
1F
100
AcDbEntity
  8
SLD-0
  6
Continuous
370
    15
100
AcDbLine
 10
48.022837486
 20
77.6928458661
 30
0.0
 11
48.147838282
 21
77.5678458767
 31
0.0
  0
LINE
  5
304
330
1F
100
AcDbEntity
  8
SLD-0
  6
Continuous
370
    15
100
AcDbLine
 10
87.7988379369
 20
77.6928458661
 30
0.0
 11
87.7988379369
 21
78.0628458704
 31
0.0
  0
LINE
  5
305
330
1F
100
AcDbEntity
  8
SLD-0
  6
Continuous
370
    15
100
AcDbLine
 10
87.8688381949
 20
78.0678458707
 30
0.0
 11
87.8688381949
 21
77.6928458661
 31
0.0
  0
LINE
  5
306
330
1F
100
AcDbEntity
  8
SLD-0
  6
Continuous
370
    15
100
AcDbLine
 10
87.8448367655
 20
77.6928458661
 30
0.0
 11
87.8688381949
 21
77.6928458661
 31
0.0
  0
LINE
  5
307
330
1F
100
AcDbEntity
  8
SLD-0
  6
Continuous
370
    15
100
AcDbLine
 10
87.8448367655
 20
78.0678458707
 30
0.0
 11
87.8448367655
 21
77.6928458661
 31
0.0
  0
LINE
  5
308
330
1F
100
AcDbEntity
  8
SLD-0
  6
Continuous
370
    15
100
AcDbLine
 10
87.8688381949
 20
77.5678458767
 30
0.0
 11
87.8448367655
 21
77.5678458767
 31
0.0
  0
LINE
  5
309
330
1F
100
AcDbEntity
  8
SLD-0
  6
Continuous
370
    15
100
AcDbLine
 10
87.8448367655
 20
77.5678458767
 30
0.0
 11
87.8448367655
 21
77.6928458661
 31
0.0
  0
LINE
  5
30A
330
1F
100
AcDbEntity
  8
SLD-0
  6
Continuous
370
    15
100
AcDbLine
 10
87.8688381949
 20
77.6928458661
 30
0.0
 11
87.8688381949
 21
77.5678458767
 31
0.0
  0
LINE
  5
30B
330
1F
100
AcDbEntity
  8
SLD-0
  6
Continuous
370
    15
100
AcDbLine
 10
47.9768386574
 20
77.6928458661
 30
0.0
 11
47.9768386574
 21
78.0678458707
 31
0.0
  0
LINE
  5
30C
330
1F
100
AcDbEntity
  8
SLD-0
  6
Continuous
370
    15
100
AcDbLine
 10
47.952837228
 20
77.6928458661
 30
0.0
 11
47.9768386574
 21
77.6928458661
 31
0.0
  0
LINE
  5
30D
330
1F
100
AcDbEntity
  8
SLD-0
  6
Continuous
370
    15
100
AcDbLine
 10
47.952837228
 20
77.6928458661
 30
0.0
 11
47.952837228
 21
78.0678458707
 31
0.0
  0
LINE
  5
30E
330
1F
100
AcDbEntity
  8
SLD-0
  6
Continuous
370
    15
100
AcDbLine
 10
47.9768386574
 20
77.5678458767
 30
0.0
 11
47.952837228
 21
77.5678458767
 31
0.0
  0
LINE
  5
30F
330
1F
100
AcDbEntity
  8
SLD-0
  6
Continuous
370
    15
100
AcDbLine
 10
47.9768386574
 20
77.6928458661
 30
0.0
 11
47.9768386574
 21
77.5678458767
 31
0.0
  0
LINE
  5
310
330
1F
100
AcDbEntity
  8
SLD-0
  6
Continuous
370
    15
100
AcDbLine
 10
47.952837228
 20
77.5678458767
 30
0.0
 11
47.952837228
 21
77.6928458661
 31
0.0
  0
LINE
  5
311
330
1F
100
AcDbEntity
  8
SLD-0
  6
Continuous
370
    15
100
AcDbLine
 10
87.8228370197
 20
78.0678458707
 30
0.0
 11
87.8228370197
 21
78.0628458704
 31
0.0
  0
LINE
  5
312
330
1F
100
AcDbEntity
  8
SLD-0
  6
Continuous
370
    15
100
AcDbLine
 10
47.9988384033
 20
78.0628458704
 30
0.0
 11
47.9988384033
 21
78.0678458707
 31
0.0
  0
LINE
  5
313
330
1F
100
AcDbEntity
  8
SLD-0
  6
Continuous
370
    15
100
AcDbLine
 10
87.8228370197
 20
78.0628458704
 30
0.0
 11
87.8228370197
 21
77.6928458661
 31
0.0
  0
LINE
  5
314
330
1F
100
AcDbEntity
  8
SLD-0
  6
Continuous
370
    15
100
AcDbLine
 10
87.7786638766
 20
77.648671843
 30
0.0
 11
87.8228370197
 21
77.6928458661
 31
0.0
  0
LINE
  5
315
330
1F
100
AcDbEntity
  8
SLD-0
  6
Continuous
370
    15
100
AcDbLine
 10
87.6978385704
 20
77.5678458767
 30
0.0
 11
87.6738371409
 21
77.5678458767
 31
0.0
  0
LINE
  5
316
330
1F
100
AcDbEntity
  8
SLD-0
  6
Continuous
370
    15
100
AcDbLine
 10
48.147838282
 20
77.5678458767
 30
0.0
 11
48.1238368526
 21
77.5678458767
 31
0.0
  0
LINE
  5
317
330
1F
100
AcDbEntity
  8
SLD-0
  6
Continuous
370
    15
100
AcDbLine
 10
47.9988384033
 20
77.6928458661
 30
0.0
 11
48.0430115463
 21
77.648671843
 31
0.0
  0
LINE
  5
318
330
1F
100
AcDbEntity
  8
SLD-0
  6
Continuous
370
    15
100
AcDbLine
 10
47.9988384033
 20
77.6928458661
 30
0.0
 11
47.9988384033
 21
78.0628458704
 31
0.0
  0
LINE
  5
319
330
1F
100
AcDbEntity
  8
SLD-0
  6
Continuous
370
    15
100
AcDbLine
 10
64.4515557267
 20
100.0538451132
 30
0.0
 11
64.4515557267
 21
100.0518457763
 31
0.0
  0
LINE
  5
31A
330
1F
100
AcDbEntity
  8
SLD-0
  6
Continuous
370
    15
100
AcDbLine
 10
91.4408366109
 20
100.0518457763
 30
0.0
 11
91.4408366109
 21
100.0538451132
 31
0.0
  0
LINE
  5
31B
330
1F
100
AcDbEntity
  8
SLD-0
  6
Continuous
370
    15
100
AcDbLine
 10
44.380838812
 20
100.0538451132
 30
0.0
 11
44.380838812
 21
100.0518457763
 31
0.0
  0
LINE
  5
31C
330
1F
100
AcDbEntity
  8
SLD-0
  6
Continuous
370
    15
100
AcDbLine
 10
71.3701196962
 20
100.0518457763
 30
0.0
 11
71.3701196962
 21
100.0538451132
 31
0.0
  0
LINE
  5
31D
330
1F
100
AcDbEntity
  8
SLD-0
  6
Continuous
370
    15
100
AcDbLine
 10
87.7032733876
 20
77.5928175316
 30
0.0
 11
87.6988100791
 21
77.5928175316
 31
0.0
  0
LINE
  5
31E
330
1F
100
AcDbEntity
  8
SLD-0
  6
Continuous
370
    15
100
AcDbLine
 10
48.1228653438
 20
77.5928175316
 30
0.0
 11
48.1184020354
 21
77.5928175316
 31
0.0
  0
LINE
  5
31F
330
1F
100
AcDbEntity
  8
SLD-0
  6
Continuous
370
    15
100
AcDbLine
 10
87.8228370197
 20
78.0628458704
 30
0.0
 11
87.7988379369
 21
78.0628458704
 31
0.0
  0
LINE
  5
320
330
1F
100
AcDbEntity
  8
SLD-0
  6
Continuous
370
    15
100
AcDbLine
 10
48.022837486
 20
78.0628458704
 30
0.0
 11
47.9988384033
 21
78.0628458704
 31
0.0
  0
DIMENSION
  5
321
330
1F
100
AcDbEntity
  8
DIM
100
AcDbDimension
  2
_D_6
 10
67.9108377115
 20
103.8597458707
 30
0.0
 11
54.1608377115
 21
103.8597458707
 31
0.0
 70
   160
  1
<>
 71
     2
 42
-1.0
  3
SLDDIMSTYLE0
100
AcDbAlignedDimension
 13
40.4108377115
 23
100.0207748029
 33
0.0
 14
67.9108377115
 24
95.7598944726
 34
0.0
 50
0.0
100
AcDbRotatedDimension
  0
DIMENSION
  5
330
330
1F
100
AcDbEntity
  8
DIM
100
AcDbDimension
  2
_D_7
 10
95.4108377115
 20
71.0568590729
 30
0.0
 11
67.9108377115
 21
71.0568590729
 31
0.0
 70
   160
  1
<>
 71
     2
 42
-1.0
  3
SLDDIMSTYLE0
100
AcDbAlignedDimension
 13
40.4108377115
 23
78.0968458707
 33
0.0
 14
95.4108377115
 24
78.0968458707
 34
0.0
 50
0.0
100
AcDbRotatedDimension
  0
DIMENSION
  5
33B
330
1F
100
AcDbEntity
  8
DIM
100
AcDbDimension
  2
_D_8
 10
87.8688377115
 20
74.5568590729
 30
0.0
 11
67.9108377115
 21
74.5568590729
 31
0.0
 70
   160
  1
<>
 71
     2
 42
-1.0
  3
SLDDIMSTYLE0
100
AcDbAlignedDimension
 13
47.9528377115
 23
77.5678458707
 33
0.0
 14
87.8688377115
 24
77.5678458707
 34
0.0
100
AcDbRotatedDimension
  0
DIMENSION
  5
34A
330
1F
100
AcDbEntity
  8
DIM
100
AcDbDimension
  2
_D_9
 10
100.4108377115
 20
93.2450958707
 30
0.0
 11
100.4108377115
 21
96.6484708707
 31
0.0
 70
   160
  1
<>
 71
     2
 42
-1.0
  3
SLDDIMSTYLE0
100
AcDbAlignedDimension
 13
95.3797666437
 23
100.0518458707
 33
0.0
 14
70.4256363134
 24
93.2450958707
 34
0.0
 50
90.0
100
AcDbRotatedDimension
  0
DIMENSION
  5
359
330
1F
100
AcDbEntity
  8
DIM
100
AcDbDimension
  2
_D_10
 10
100.4108377115
 20
93.2450958707
 30
0.0
 11
100.4108377115
 21
85.6564708707
 31
0.0
 70
   160
  1
<>
 71
     2
 42
-1.0
  3
SLDDIMSTYLE0
100
AcDbAlignedDimension
 13
95.3818377115
 23
78.0678458707
 33
0.0
 14
70.4256363134
 24
93.2450958707
 34
0.0
 50
90.0
100
AcDbRotatedDimension
  0
DIMENSION
  5
368
330
1F
100
AcDbEntity
  8
DIM
100
AcDbDimension
  2
_D_11
 10
105.4108377115
 20
78.0678458707
 30
0.0
 11
105.4108377115
 21
89.0598458707
 31
0.0
 70
   160
  1
<>
 71
     2
 42
-1.0
  3
SLDDIMSTYLE0
100
AcDbAlignedDimension
 13
95.3797666437
 23
100.0518458707
 33
0.0
 14
95.3818377115
 24
78.0678458707
 34
0.0
 50
90.0
100
AcDbRotatedDimension
  0
DIMENSION
  5
373
330
1F
100
AcDbEntity
  8
DIM
100
AcDbDimension
  2
_D_12
 10
67.3738834376
 20
90.8055974277
 30
0.0
 11
72.9089884966
 21
103.8597458707
 31
0.0
 70
   163
  1
<>
 71
     1
 42
-1.0
  3
SLDDIMSTYLE1
100
AcDbDiametricDimension
 15
68.4477919853
 25
95.6845943137
 35
0.0
 40
0.0
  0
DIMENSION
  5
37D
330
1F
100
AcDbEntity
  8
DIM
100
AcDbDimension
  2
_D_13
 10
65.5379266055
 20
90.0929572272
 30
0.0
 11
78.6735832522
 21
103.8597458707
 31
0.0
 70
   163
  1
<>
 71
     1
 42
-1.0
  3
SLDDIMSTYLE1
100
AcDbDiametricDimension
 15
70.2837488174
 25
96.5332345142
 35
0.0
 40
0.0
  0
INSERT
  5
391
330
1F
100
AcDbEntity
  8
DIM
100
AcDbBlockReference
  2
SW_CENTERMARKSYMBOL_0
 10
67.9108377115
 20
93.2450958707
 30
0.0
  0
LINE
  5
392
330
1F
100
AcDbEntity
  8
SLD-0
  6
Continuous
370
    15
100
AcDbLine
 10
109.362676677
 20
43.3243946886
 30
0.0
 11
109.362676677
 21
43.2707833612
 31
0.0
  0
LINE
  5
393
330
1F
100
AcDbEntity
  8
SLD-0
  6
Continuous
370
    15
100
AcDbLine
 10
109.362676677
 20
10.6697833974
 30
0.0
 11
109.362676677
 21
10.6368935574
 31
0.0
  0
LINE
  5
394
330
1F
100
AcDbEntity
  8
SLD-0
  6
Continuous
370
    15
100
AcDbLine
 10
110.6126766802
 20
60.8427841013
 30
0.0
 11
110.3626766649
 21
60.8427841013
 31
0.0
  0
LINE
  5
395
330
1F
100
AcDbEntity
  8
SLD-0
  6
Continuous
370
    15
100
AcDbLine
 10
113.9876765386
 20
60.8427841013
 30
0.0
 11
111.7376767308
 21
60.8427841013
 31
0.0
  0
LINE
  5
396
330
1F
100
AcDbEntity
  8
SLD-0
  6
Continuous
370
    15
100
AcDbLine
 10
115.3626764945
 20
60.8427841013
 30
0.0
 11
115.1126766625
 21
60.8427841013
 31
0.0
  0
LINE
  5
397
330
1F
100
AcDbEntity
  8
SLD-0
  6
Continuous
370
    15
100
AcDbLine
 10
131.8146777996
 20
29.5687831412
 30
0.0
 11
131.8486759135
 21
29.5687831412
 31
0.0
  0
LINE
  5
398
330
1F
100
AcDbEntity
  8
SLD-0
  6
Continuous
370
    15
100
AcDbLine
 10
131.8486759135
 20
29.5687831412
 30
0.0
 11
131.8486759135
 21
29.4687834431
 31
0.0
  0
LINE
  5
399
330
1F
100
AcDbEntity
  8
SLD-0
  6
Continuous
370
    15
100
AcDbLine
 10
131.8486759135
 20
29.4687834431
 30
0.0
 11
131.8146777996
 21
29.4687834431
 31
0.0
  0
LINE
  5
39A
330
1F
100
AcDbEntity
  8
SLD-0
  6
Continuous
370
    15
100
AcDbLine
 10
131.8146777996
 20
24.6687838531
 30
0.0
 11
131.8486759135
 21
24.6687838531
 31
0.0
  0
LINE
  5
39B
330
1F
100
AcDbEntity
  8
SLD-0
  6
Continuous
370
    15
100
AcDbLine
 10
131.8486759135
 20
24.6687838531
 30
0.0
 11
131.8486759135
 21
29.4687834431
 31
0.0
  0
LINE
  5
39C
330
1F
100
AcDbEntity
  8
SLD-0
  6
Continuous
370
    15
100
AcDbLine
 10
131.8486759135
 20
24.5687829817
 30
0.0
 11
131.8146777996
 21
24.5687829817
 31
0.0
  0
LINE
  5
39D
330
1F
100
AcDbEntity
  8
SLD-0
  6
Continuous
370
    15
100
AcDbLine
 10
131.8486759135
 20
24.6687838531
 30
0.0
 11
131.8486759135
 21
24.5687829817
 31
0.0
  0
LINE
  5
39E
330
1F
100
AcDbEntity
  8
SLD-0
  6
Continuous
370
    15
100
AcDbLine
 10
109.4016766531
 20
43.3243946886
 30
0.0
 11
109.416286831
 21
43.3243946886
 31
0.0
  0
LINE
  5
39F
330
1F
100
AcDbEntity
  8
SLD-0
  6
Continuous
370
    15
100
AcDbLine
 10
109.362676677
 20
10.6368935574
 30
0.0
 11
109.3955665171
 21
10.6368935574
 31
0.0
  0
LINE
  5
3A0
330
1F
100
AcDbEntity
  8
SLD-0
  6
Continuous
370
    15
100
AcDbLine
 10
109.362676677
 20
43.3243946886
 30
0.0
 11
109.4016766531
 21
43.3243946886
 31
0.0
  0
LINE
  5
3A1
330
1F
100
AcDbEntity
  8
SLD-0
  6
Continuous
370
    15
100
AcDbLine
 10
109.4076766805
 20
10.5847834194
 30
0.0
 11
109.4076766805
 21
10.5447834081
 31
0.0
  0
LINE
  5
3A2
330
1F
100
AcDbEntity
  8
SLD-0
  6
Continuous
370
    15
100
AcDbLine
 10
109.4054512962
 20
10.5942609099
 30
0.0
 11
109.3876483319
 21
10.6300806761
 31
0.0
  0
SPLINE
  5
3A3
330
1F
100
AcDbEntity
  8
SLD-0
  6
Continuous
370
    15
100
AcDbSpline
210
0.0
220
0.0
230
1.0
 70
     8
 71
     3
 72
    11
 73
     7
 74
     0
 42
0.00000001
 43
0.00000001
 12
1.0
 22
0.0
 32
0.0
 13
1.0
 23
0.0
 33
0.0
 40
0.0
 40
0.0
 40
0.0
 40
0.0
 40
0.250017698858044
 40
0.49996442598065
 40
0.7499822080177335
 40
1.0
 40
1.0
 40
1.0
 40
1.0
 10
109.4076766804954
 20
10.58478341935286
 30
0.0
 10
109.4065602041561
 20
10.58500961553559
 30
0.0
 10
109.4043275684081
 20
10.58546194369144
 30
0.0
 10
109.402443098921
 20
10.58855521082364
 30
0.0
 10
109.4027540127699
 20
10.59216207085093
 30
0.0
 10
109.4045522017135
 20
10.59356129685309
 30
0.0
 10
109.4054512962032
 20
10.59426090986809
 30
0.0
  0
SPLINE
  5
3A4
330
1F
100
AcDbEntity
  8
SLD-0
  6
Continuous
370
    15
100
AcDbSpline
210
0.0
220
0.0
230
1.0
 70
     8
 71
     3
 72
    15
 73
    11
 74
     0
 42
0.00000001
 43
0.00000001
 12
1.0
 22
0.0
 32
0.0
 13
1.0
 23
0.0
 33
0.0
 40
0.0
 40
0.0
 40
0.0
 40
0.0
 40
0.1249985515247748
 40
0.2500011830224312
 40
0.3749995170935342
 40
0.4999977188336848
 40
0.6250004369986313
 40
0.749998672221626
 40
0.8749976160751356
 40
0.9999999999999999
 40
0.9999999999999999
 40
0.9999999999999999
 40
0.9999999999999999
 10
109.4076766804954
 20
10.54478340810307
 30
0.0
 10
109.4026513451218
 20
10.54527410333726
 30
0.0
 10
109.3926005103468
 20
10.546255509822
 30
0.0
 10
109.3792019959
 20
10.55390832756864
 30
0.0
 10
109.3689683518326
 20
10.56519343377268
 30
0.0
 10
109.3630427388143
 20
10.57930342790331
 30
0.0
 10
109.3620692952699
 20
10.59457518814864
 30
0.0
 10
109.3662104687144
 20
10.60923578321486
 30
0.0
 10
109.37480334909
 20
10.62205284560406
 30
0.0
 10
109.3833666316622
 20
10.62740470803716
 30
0.0
 10
109.3876483318646
 20
10.63008067607509
 30
0.0
  0
LINE
  5
3A5
330
1F
100
AcDbEntity
  8
SLD-0
  6
Continuous
370
    15
100
AcDbLine
 10
109.4054512962
 20
10.5942609099
 30
0.0
 11
109.4273267802
 21
10.6051333309
 31
0.0
  0
LINE
  5
3A6
330
1F
100
AcDbEntity
  8
SLD-0
  6
Continuous
370
    15
100
AcDbLine
 10
109.3876483319
 20
10.6300806761
 30
0.0
 11
109.3974886715
 21
10.6349714396
 31
0.0
  0
LINE
  5
3A7
330
1F
100
AcDbEntity
  8
SLD-0
  6
Continuous
370
    15
100
AcDbLine
 10
109.4118245126
 20
10.5447834081
 30
0.0
 11
109.4076766805
 21
10.5447834081
 31
0.0
  0
LINE
  5
3A8
330
1F
100
AcDbEntity
  8
SLD-0
  6
Continuous
370
    15
100
AcDbLine
 10
109.4476766551
 20
10.5847834194
 30
0.0
 11
109.4076766805
 21
10.5847834194
 31
0.0
  0
LINE
  5
3A9
330
1F
100
AcDbEntity
  8
SLD-0
  6
Continuous
370
    15
100
AcDbLine
 10
117.237676701
 20
59.7707218192
 30
0.0
 11
117.237676701
 21
59.7837362822
 31
0.0
  0
ARC
  5
3AA
330
1F
100
AcDbEntity
  8
SLD-0
  6
Continuous
370
    15
100
AcDbCircle
 10
117.2424393849
 20
59.6634992789
 30
0.0
 40
0.1203312931419023
100
AcDbArc
 50
2.2620557758
 51
92.2683458251
  0
LINE
  5
3AB
330
1F
100
AcDbEntity
  8
SLD-0
  6
Continuous
370
    15
100
AcDbLine
 10
117.3626769103
 20
59.668248763
 30
0.0
 11
117.3626769103
 21
59.6552389933
 31
0.0
  0
ARC
  5
3AC
330
1F
100
AcDbEntity
  8
SLD-0
  6
Continuous
370
    15
100
AcDbCircle
 10
117.2420649988
 20
59.6500793821
 30
0.0
 40
0.1207222216061412
100
AcDbArc
 50
2.449540902
 51
92.0831819015
  0
LINE
  5
3AD
330
1F
100
AcDbEntity
  8
SLD-0
  6
Continuous
370
    15
100
AcDbLine
 10
117.237676701
 20
59.7707218192
 30
0.0
 11
115.3626764945
 21
59.7707218192
 31
0.0
  0
LINE
  5
3AE
330
1F
100
AcDbEntity
  8
SLD-0
  6
Continuous
370
    15
100
AcDbLine
 10
117.237676701
 20
59.7837362822
 30
0.0
 11
115.3626764945
 21
59.7837362822
 31
0.0
  0
LINE
  5
3AF
330
1F
100
AcDbEntity
  8
SLD-0
  6
Continuous
370
    15
100
AcDbLine
 10
117.3626769103
 20
59.3328576508
 30
0.0
 11
117.3626769103
 21
59.6552389933
 31
0.0
  0
LINE
  5
3B0
330
1F
100
AcDbEntity
  8
SLD-0
  6
Continuous
370
    15
100
AcDbLine
 10
117.3626769103
 20
59.3087811289
 30
0.0
 11
115.3626764945
 21
59.3087811289
 31
0.0
  0
LINE
  5
3B1
330
1F
100
AcDbEntity
  8
SLD-0
  6
Continuous
370
    15
100
AcDbLine
 10
117.3626769103
 20
59.3087811289
 30
0.0
 11
117.3626769103
 21
59.3328576508
 31
0.0
  0
ARC
  5
3B2
330
1F
100
AcDbEntity
  8
SLD-0
  6
Continuous
370
    15
100
AcDbCircle
 10
132.1899736003
 20
23.6893961648
 30
0.0
 40
0.120722744502817
100
AcDbArc
 50
272.4486845921
 51
2.0826095345
  0
LINE
  5
3B3
330
1F
100
AcDbEntity
  8
SLD-0
  6
Continuous
370
    15
100
AcDbLine
 10
131.8727524354
 20
23.5687836537
 30
0.0
 11
132.1951314312
 21
23.5687836537
 31
0.0
  0
LINE
  5
3B4
330
1F
100
AcDbEntity
  8
SLD-0
  6
Continuous
370
    15
100
AcDbLine
 10
131.8727524354
 20
23.5687836537
 30
0.0
 11
131.8727524354
 21
30.48878318
 31
0.0
  0
LINE
  5
3B5
330
1F
100
AcDbEntity
  8
SLD-0
  6
Continuous
370
    15
100
AcDbLine
 10
132.1951314312
 20
30.48878318
 30
0.0
 11
131.8727524354
 21
30.48878318
 31
0.0
  0
ARC
  5
3B6
330
1F
100
AcDbEntity
  8
SLD-0
  6
Continuous
370
    15
100
AcDbCircle
 10
132.1903823633
 20
30.3685482739
 30
0.0
 40
0.120328659427879
100
AcDbArc
 50
357.7300767362
 51
87.7380930091
  0
LINE
  5
3B7
330
1F
100
AcDbEntity
  8
SLD-0
  6
Continuous
370
    15
100
AcDbLine
 10
132.3106166038
 20
23.6937832764
 30
0.0
 11
132.3106166038
 21
30.363782384
 31
0.0
  0
LINE
  5
3B8
330
1F
100
AcDbEntity
  8
SLD-0
  6
Continuous
370
    15
100
AcDbLine
 10
132.3106166038
 20
23.6937832764
 30
0.0
 11
132.3236287201
 21
23.6937832764
 31
0.0
  0
ARC
  5
3B9
330
1F
100
AcDbEntity
  8
SLD-0
  6
Continuous
370
    15
100
AcDbCircle
 10
132.2033921878
 20
23.6890206325
 30
0.0
 40
0.1203308210434761
100
AcDbArc
 50
272.2629584986
 51
2.2683356281
  0
LINE
  5
3BA
330
1F
100
AcDbEntity
  8
SLD-0
  6
Continuous
370
    15
100
AcDbLine
 10
132.2081435476
 20
23.5687836537
 30
0.0
 11
132.1951314312
 21
23.5687836537
 31
0.0
  0
LINE
  5
3BB
330
1F
100
AcDbEntity
  8
SLD-0
  6
Continuous
370
    15
100
AcDbLine
 10
132.3236287201
 20
30.363782384
 30
0.0
 11
132.3106166038
 21
30.363782384
 31
0.0
  0
LINE
  5
3BC
330
1F
100
AcDbEntity
  8
SLD-0
  6
Continuous
370
    15
100
AcDbLine
 10
132.3236287201
 20
23.6937832764
 30
0.0
 11
132.3236287201
 21
30.363782384
 31
0.0
  0
LINE
  5
3BD
330
1F
100
AcDbEntity
  8
SLD-0
  6
Continuous
370
    15
100
AcDbLine
 10
132.1951314312
 20
30.48878318
 30
0.0
 11
132.2081435476
 21
30.48878318
 31
0.0
  0
ARC
  5
3BE
330
1F
100
AcDbEntity
  8
SLD-0
  6
Continuous
370
    15
100
AcDbCircle
 10
132.2029860115
 20
30.3681709002
 30
0.0
 40
0.1207225008442575
100
AcDbArc
 50
357.9167191907
 51
87.5514505546
  0
LINE
  5
3BF
330
1F
100
AcDbEntity
  8
SLD-0
  6
Continuous
370
    15
100
AcDbLine
 10
131.8486759135
 20
23.5687836537
 30
0.0
 11
131.8486759135
 21
24.5687829817
 31
0.0
  0
LINE
  5
3C0
330
1F
100
AcDbEntity
  8
SLD-0
  6
Continuous
370
    15
100
AcDbLine
 10
131.8486759135
 20
29.5687831412
 30
0.0
 11
131.8486759135
 21
30.48878318
 31
0.0
  0
LINE
  5
3C1
330
1F
100
AcDbEntity
  8
SLD-0
  6
Continuous
370
    15
100
AcDbLine
 10
131.8727524354
 20
30.48878318
 30
0.0
 11
131.8486759135
 21
30.48878318
 31
0.0
  0
LINE
  5
3C2
330
1F
100
AcDbEntity
  8
SLD-0
  6
Continuous
370
    15
100
AcDbLine
 10
131.8486759135
 20
23.5687836537
 30
0.0
 11
131.8727524354
 21
23.5687836537
 31
0.0
  0
LINE
  5
3C3
330
1F
100
AcDbEntity
  8
SLD-0
  6
Continuous
370
    15
100
AcDbLine
 10
132.618676405
 20
30.5687824692
 30
0.0
 11
132.618676405
 21
30.5347843552
 31
0.0
  0
LINE
  5
3C4
330
1F
100
AcDbEntity
  8
SLD-0
  6
Continuous
370
    15
100
AcDbLine
 10
132.618676405
 20
30.5347843552
 30
0.0
 11
132.4936756091
 21
30.5347843552
 31
0.0
  0
LINE
  5
3C5
330
1F
100
AcDbEntity
  8
SLD-0
  6
Continuous
370
    15
100
AcDbLine
 10
132.4936756091
 20
30.5347843552
 30
0.0
 11
132.4936756091
 21
30.5687824692
 31
0.0
  0
LINE
  5
3C6
330
1F
100
AcDbEntity
  8
SLD-0
  6
Continuous
370
    15
100
AcDbLine
 10
132.4936756091
 20
30.5687824692
 30
0.0
 11
132.618676405
 21
30.5687824692
 31
0.0
  0
LINE
  5
3C7
330
1F
100
AcDbEntity
  8
SLD-0
  6
Continuous
370
    15
100
AcDbLine
 10
131.882676374
 20
30.5297836663
 30
0.0
 11
131.8486759135
 21
30.5297836663
 31
0.0
  0
LINE
  5
3C8
330
1F
100
AcDbEntity
  8
SLD-0
  6
Continuous
370
    15
100
AcDbLine
 10
131.882676374
 20
30.48878318
 30
0.0
 11
131.882676374
 21
30.5297836663
 31
0.0
  0
LINE
  5
3C9
330
1F
100
AcDbEntity
  8
SLD-0
  6
Continuous
370
    15
100
AcDbLine
 10
131.8486759135
 20
30.48878318
 30
0.0
 11
131.8486759135
 21
30.5297836663
 31
0.0
  0
LINE
  5
3CA
330
1F
100
AcDbEntity
  8
SLD-0
  6
Continuous
370
    15
100
AcDbLine
 10
131.8876770629
 20
30.5347843552
 30
0.0
 11
131.8876770629
 21
30.5687824692
 31
0.0
  0
LINE
  5
3CB
330
1F
100
AcDbEntity
  8
SLD-0
  6
Continuous
370
    15
100
AcDbLine
 10
131.8876770629
 20
30.5687824692
 30
0.0
 11
132.4936756091
 21
30.5687824692
 31
0.0
  0
LINE
  5
3CC
330
1F
100
AcDbEntity
  8
SLD-0
  6
Continuous
370
    15
100
AcDbLine
 10
131.8876770629
 20
30.5347843552
 30
0.0
 11
132.4936756091
 21
30.5347843552
 31
0.0
  0
ARC
  5
3CD
330
1F
100
AcDbEntity
  8
SLD-0
  6
Continuous
370
    15
100
AcDbCircle
 10
131.887676671
 20
30.5297834202
 30
0.0
 40
0.0050000000000239
100
AcDbArc
 50
90.0
 51
180.0
  0
ARC
  5
3CE
330
1F
100
AcDbEntity
  8
SLD-0
  6
Continuous
370
    15
100
AcDbCircle
 10
131.887676671
 20
30.5297834202
 30
0.0
 40
0.0390000000000157
100
AcDbArc
 50
90.0
 51
180.0
  0
LINE
  5
3CF
330
1F
100
AcDbEntity
  8
SLD-0
  6
Continuous
370
    15
100
AcDbLine
 10
117.237676701
 20
55.3067234677
 30
0.0
 11
117.237676701
 21
55.3204606957
 31
0.0
  0
ARC
  5
3D0
330
1F
100
AcDbEntity
  8
SLD-0
  6
Continuous
370
    15
100
AcDbCircle
 10
117.2424411013
 20
55.2002253571
 30
0.0
 40
0.120329697742909
100
AcDbArc
 50
2.2635290111
 51
92.2691937924
  0
LINE
  5
3D1
330
1F
100
AcDbEntity
  8
SLD-0
  6
Continuous
370
    15
100
AcDbLine
 10
117.3626769103
 20
55.2049778697
 30
0.0
 11
117.3626769103
 21
55.1912359485
 31
0.0
  0
ARC
  5
3D2
330
1F
100
AcDbEntity
  8
SLD-0
  6
Continuous
370
    15
100
AcDbCircle
 10
117.2420632748
 20
55.1860793742
 30
0.0
 40
0.1207238142390682
100
AcDbArc
 50
2.4480659314
 51
92.0823356695
  0
LINE
  5
3D3
330
1F
100
AcDbEntity
  8
SLD-0
  6
Continuous
370
    15
100
AcDbLine
 10
117.237676701
 20
55.3067234677
 30
0.0
 11
115.3626764945
 21
55.3067234677
 31
0.0
  0
LINE
  5
3D4
330
1F
100
AcDbEntity
  8
SLD-0
  6
Continuous
370
    15
100
AcDbLine
 10
117.237676701
 20
55.3204606957
 30
0.0
 11
115.3626764945
 21
55.3204606957
 31
0.0
  0
LINE
  5
3D5
330
1F
100
AcDbEntity
  8
SLD-0
  6
Continuous
370
    15
100
AcDbLine
 10
117.3626769103
 20
54.8891061054
 30
0.0
 11
117.3626769103
 21
55.1912359485
 31
0.0
  0
LINE
  5
3D6
330
1F
100
AcDbEntity
  8
SLD-0
  6
Continuous
370
    15
100
AcDbLine
 10
117.3626769103
 20
54.8447827774
 30
0.0
 11
115.3626764945
 21
54.8447827774
 31
0.0
  0
LINE
  5
3D7
330
1F
100
AcDbEntity
  8
SLD-0
  6
Continuous
370
    15
100
AcDbLine
 10
117.3626769103
 20
54.8447827774
 30
0.0
 11
117.3626769103
 21
54.8891061054
 31
0.0
  0
LINE
  5
3D8
330
1F
100
AcDbEntity
  8
SLD-0
  6
Continuous
370
    15
100
AcDbLine
 10
132.3446170643
 20
23.7737837389
 30
0.0
 11
132.3583542923
 21
23.7737837389
 31
0.0
  0
ARC
  5
3D9
330
1F
100
AcDbEntity
  8
SLD-0
  6
Continuous
370
    15
100
AcDbCircle
 10
132.228727147
 20
23.7727428804
 30
0.0
 40
0.1296313241248351
100
AcDbArc
 50
316.8338493428
 51
0.460054233
  0
ARC
  5
3DA
330
1F
100
AcDbEntity
  8
SLD-0
  6
Continuous
370
    15
100
AcDbCircle
 10
132.2126651611
 20
23.7733305881
 30
0.0
 40
0.1319526813228076
100
AcDbArc
 50
327.2389299938
 51
0.1967650835
  0
ARC
  5
3DB
330
1F
100
AcDbEntity
  8
SLD-0
  6
Continuous
370
    15
100
AcDbCircle
 10
132.2150720151
 20
30.4448365505
 30
0.0
 40
0.1295493249628389
100
AcDbArc
 50
359.5344921481
 51
43.9725123759
  0
LINE
  5
3DC
330
1F
100
AcDbEntity
  8
SLD-0
  6
Continuous
370
    15
100
AcDbLine
 10
132.3446170643
 20
30.4437840198
 30
0.0
 11
132.3446170643
 21
23.7737837389
 31
0.0
  0
LINE
  5
3DD
330
1F
100
AcDbEntity
  8
SLD-0
  6
Continuous
370
    15
100
AcDbLine
 10
132.3583542923
 20
30.4437840198
 30
0.0
 11
132.3446170643
 21
30.4437840198
 31
0.0
  0
LINE
  5
3DE
330
1F
100
AcDbEntity
  8
SLD-0
  6
Continuous
370
    15
100
AcDbLine
 10
132.3583542923
 20
30.4437840198
 30
0.0
 11
132.3583542923
 21
23.7737837389
 31
0.0
  0
ARC
  5
3DF
330
1F
100
AcDbEntity
  8
SLD-0
  6
Continuous
370
    15
100
AcDbCircle
 10
132.2284287194
 20
30.444687124
 30
0.0
 40
0.1299287116018959
100
AcDbArc
 50
359.601747185
 51
43.9027082087
  0
LINE
  5
3E0
330
1F
100
AcDbEntity
  8
SLD-0
  6
Continuous
370
    15
100
AcDbLine
 10
131.882676374
 20
30.5687824692
 30
0.0
 11
131.882676374
 21
30.5684609795
 31
0.0
  0
LINE
  5
3E1
330
1F
100
AcDbEntity
  8
SLD-0
  6
Continuous
370
    15
100
AcDbLine
 10
131.8876770629
 20
30.5687824692
 30
0.0
 11
131.882676374
 21
30.5687824692
 31
0.0
  0
LINE
  5
3E2
330
1F
100
AcDbEntity
  8
SLD-0
  6
Continuous
370
    15
100
AcDbLine
 10
132.5295768477
 20
23.5687836537
 30
0.0
 11
132.5295768477
 21
23.604683719
 31
0.0
  0
LINE
  5
3E3
330
1F
100
AcDbEntity
  8
SLD-0
  6
Continuous
370
    15
100
AcDbLine
 10
132.5295768477
 20
23.604683719
 30
0.0
 11
132.6545776436
 21
23.604683719
 31
0.0
  0
LINE
  5
3E4
330
1F
100
AcDbEntity
  8
SLD-0
  6
Continuous
370
    15
100
AcDbLine
 10
132.6545776436
 20
23.604683719
 30
0.0
 11
132.6545776436
 21
23.5687836537
 31
0.0
  0
LINE
  5
3E5
330
1F
100
AcDbEntity
  8
SLD-0
  6
Continuous
370
    15
100
AcDbLine
 10
132.6545776436
 20
23.5687836537
 30
0.0
 11
132.5295768477
 21
23.5687836537
 31
0.0
  0
LINE
  5
3E6
330
1F
100
AcDbEntity
  8
SLD-0
  6
Continuous
370
    15
100
AcDbLine
 10
132.5295768477
 20
23.604683719
 30
0.0
 11
132.2891401585
 21
23.604683719
 31
0.0
  0
LINE
  5
3E7
330
1F
100
AcDbEntity
  8
SLD-0
  6
Continuous
370
    15
100
AcDbLine
 10
132.5295768477
 20
23.5687836537
 30
0.0
 11
132.2081435476
 21
23.5687836537
 31
0.0
  0
LINE
  5
3E8
330
1F
100
AcDbEntity
  8
SLD-0
  6
Continuous
370
    15
100
AcDbLine
 10
115.2626767964
 20
48.8447844632
 30
0.0
 11
115.2626767964
 21
48.8787825771
 31
0.0
  0
LINE
  5
3E9
330
1F
100
AcDbEntity
  8
SLD-0
  6
Continuous
370
    15
100
AcDbLine
 10
110.4626766564
 20
48.8787825771
 30
0.0
 11
110.4626766564
 21
48.8447844632
 31
0.0
  0
LINE
  5
3EA
330
1F
100
AcDbEntity
  8
SLD-0
  6
Continuous
370
    15
100
AcDbLine
 10
115.2626767964
 20
48.8787825771
 30
0.0
 11
110.4626766564
 21
48.8787825771
 31
0.0
  0
LINE
  5
3EB
330
1F
100
AcDbEntity
  8
SLD-0
  6
Continuous
370
    15
100
AcDbLine
 10
115.3626764945
 20
48.8787825771
 30
0.0
 11
115.3626764945
 21
48.8447844632
 31
0.0
  0
LINE
  5
3EC
330
1F
100
AcDbEntity
  8
SLD-0
  6
Continuous
370
    15
100
AcDbLine
 10
115.2626767964
 20
48.8787825771
 30
0.0
 11
115.3626764945
 21
48.8787825771
 31
0.0
  0
LINE
  5
3ED
330
1F
100
AcDbEntity
  8
SLD-0
  6
Continuous
370
    15
100
AcDbLine
 10
110.3626766649
 20
48.8447844632
 30
0.0
 11
110.3626766649
 21
48.8787825771
 31
0.0
  0
LINE
  5
3EE
330
1F
100
AcDbEntity
  8
SLD-0
  6
Continuous
370
    15
100
AcDbLine
 10
110.3626766649
 20
48.8787825771
 30
0.0
 11
110.4626766564
 21
48.8787825771
 31
0.0
  0
LINE
  5
3EF
330
1F
100
AcDbEntity
  8
SLD-0
  6
Continuous
370
    15
100
AcDbLine
 10
115.1126766625
 20
48.8818707548
 30
0.0
 11
115.1126766625
 21
48.8787825771
 31
0.0
  0
LINE
  5
3F0
330
1F
100
AcDbEntity
  8
SLD-0
  6
Continuous
370
    15
100
AcDbLine
 10
115.3626764945
 20
48.8818707548
 30
0.0
 11
115.1126766625
 21
48.8818707548
 31
0.0
  0
LINE
  5
3F1
330
1F
100
AcDbEntity
  8
SLD-0
  6
Continuous
370
    15
100
AcDbLine
 10
115.3626764945
 20
48.8787825771
 30
0.0
 11
115.3626764945
 21
48.8818707548
 31
0.0
  0
LINE
  5
3F2
330
1F
100
AcDbEntity
  8
SLD-0
  6
Continuous
370
    15
100
AcDbLine
 10
113.9876765386
 20
48.8818707548
 30
0.0
 11
111.7376767308
 21
48.8818707548
 31
0.0
  0
LINE
  5
3F3
330
1F
100
AcDbEntity
  8
SLD-0
  6
Continuous
370
    15
100
AcDbLine
 10
111.7376767308
 20
48.8818707548
 30
0.0
 11
111.7376767308
 21
48.8787825771
 31
0.0
  0
LINE
  5
3F4
330
1F
100
AcDbEntity
  8
SLD-0
  6
Continuous
370
    15
100
AcDbLine
 10
113.9876765386
 20
48.8787825771
 30
0.0
 11
113.9876765386
 21
48.8818707548
 31
0.0
  0
LINE
  5
3F5
330
1F
100
AcDbEntity
  8
SLD-0
  6
Continuous
370
    15
100
AcDbLine
 10
110.6126766802
 20
48.8818707548
 30
0.0
 11
110.3626766649
 21
48.8818707548
 31
0.0
  0
LINE
  5
3F6
330
1F
100
AcDbEntity
  8
SLD-0
  6
Continuous
370
    15
100
AcDbLine
 10
110.6126766802
 20
48.8787825771
 30
0.0
 11
110.6126766802
 21
48.8818707548
 31
0.0
  0
LINE
  5
3F7
330
1F
100
AcDbEntity
  8
SLD-0
  6
Continuous
370
    15
100
AcDbLine
 10
110.3626766649
 20
48.8818707548
 30
0.0
 11
110.3626766649
 21
48.8787825771
 31
0.0
  0
LINE
  5
3F8
330
1F
100
AcDbEntity
  8
SLD-0
  6
Continuous
370
    15
100
AcDbLine
 10
115.1126766625
 20
48.9013150102
 30
0.0
 11
113.9876765386
 21
48.9013150102
 31
0.0
  0
LINE
  5
3F9
330
1F
100
AcDbEntity
  8
SLD-0
  6
Continuous
370
    15
100
AcDbLine
 10
113.9876765386
 20
48.9013150102
 30
0.0
 11
113.9876765386
 21
48.8818707548
 31
0.0
  0
LINE
  5
3FA
330
1F
100
AcDbEntity
  8
SLD-0
  6
Continuous
370
    15
100
AcDbLine
 10
111.7376767308
 20
48.8818707548
 30
0.0
 11
111.7376767308
 21
48.9013150102
 31
0.0
  0
LINE
  5
3FB
330
1F
100
AcDbEntity
  8
SLD-0
  6
Continuous
370
    15
100
AcDbLine
 10
111.7376767308
 20
48.9013150102
 30
0.0
 11
110.6126766802
 21
48.9013150102
 31
0.0
  0
LINE
  5
3FC
330
1F
100
AcDbEntity
  8
SLD-0
  6
Continuous
370
    15
100
AcDbLine
 10
110.6126766802
 20
48.9013150102
 30
0.0
 11
110.6126766802
 21
48.8818707548
 31
0.0
  0
LINE
  5
3FD
330
1F
100
AcDbEntity
  8
SLD-0
  6
Continuous
370
    15
100
AcDbLine
 10
110.3626766649
 20
48.8818707548
 30
0.0
 11
110.3626766649
 21
60.7983387481
 31
0.0
  0
LINE
  5
3FE
330
1F
100
AcDbEntity
  8
SLD-0
  6
Continuous
370
    15
100
AcDbLine
 10
115.3626764945
 20
60.7983387481
 30
0.0
 11
110.3626766649
 21
60.7983387481
 31
0.0
  0
LINE
  5
3FF
330
1F
100
AcDbEntity
  8
SLD-0
  6
Continuous
370
    15
100
AcDbLine
 10
115.3626764945
 20
48.8818707548
 30
0.0
 11
115.3626764945
 21
60.7983387481
 31
0.0
  0
LINE
  5
400
330
1F
100
AcDbEntity
  8
SLD-0
  6
Continuous
370
    15
100
AcDbLine
 10
115.1126766625
 20
48.8818707548
 30
0.0
 11
115.1126766625
 21
48.9013150102
 31
0.0
  0
LINE
  5
401
330
1F
100
AcDbEntity
  8
SLD-0
  6
Continuous
370
    15
100
AcDbLine
 10
113.9876765386
 20
48.8883028938
 30
0.0
 11
115.1126766625
 21
48.8883028938
 31
0.0
  0
LINE
  5
402
330
1F
100
AcDbEntity
  8
SLD-0
  6
Continuous
370
    15
100
AcDbLine
 10
110.6126766802
 20
48.8883028938
 30
0.0
 11
111.7376767308
 21
48.8883028938
 31
0.0
  0
LINE
  5
403
330
1F
100
AcDbEntity
  8
SLD-0
  6
Continuous
370
    15
100
AcDbLine
 10
110.6126766802
 20
60.8292815373
 30
0.0
 11
110.6126766802
 21
60.8427841013
 31
0.0
  0
LINE
  5
404
330
1F
100
AcDbEntity
  8
SLD-0
  6
Continuous
370
    15
100
AcDbLine
 10
111.7376767308
 20
60.8292815373
 30
0.0
 11
110.6126766802
 21
60.8292815373
 31
0.0
  0
LINE
  5
405
330
1F
100
AcDbEntity
  8
SLD-0
  6
Continuous
370
    15
100
AcDbLine
 10
111.7376767308
 20
60.8427841013
 30
0.0
 11
111.7376767308
 21
60.8292815373
 31
0.0
  0
LINE
  5
406
330
1F
100
AcDbEntity
  8
SLD-0
  6
Continuous
370
    15
100
AcDbLine
 10
110.3626766649
 20
60.8427841013
 30
0.0
 11
110.3626766649
 21
60.7983387481
 31
0.0
  0
LINE
  5
407
330
1F
100
AcDbEntity
  8
SLD-0
  6
Continuous
370
    15
100
AcDbLine
 10
115.1126766625
 20
60.8292815373
 30
0.0
 11
113.9876765386
 21
60.8292815373
 31
0.0
  0
LINE
  5
408
330
1F
100
AcDbEntity
  8
SLD-0
  6
Continuous
370
    15
100
AcDbLine
 10
115.1126766625
 20
60.8427841013
 30
0.0
 11
115.1126766625
 21
60.8292815373
 31
0.0
  0
LINE
  5
409
330
1F
100
AcDbEntity
  8
SLD-0
  6
Continuous
370
    15
100
AcDbLine
 10
113.9876765386
 20
60.8292815373
 30
0.0
 11
113.9876765386
 21
60.8427841013
 31
0.0
  0
LINE
  5
40A
330
1F
100
AcDbEntity
  8
SLD-0
  6
Continuous
370
    15
100
AcDbLine
 10
115.3626764945
 20
60.7983387481
 30
0.0
 11
115.3626764945
 21
60.8427841013
 31
0.0
  0
LINE
  5
40B
330
1F
100
AcDbEntity
  8
SLD-0
  6
Continuous
370
    15
100
AcDbLine
 10
131.8176768049
 20
48.8447844632
 30
0.0
 11
131.8176768049
 21
48.8207830338
 31
0.0
  0
LWPOLYLINE
  5
40C
330
1F
100
AcDbEntity
  8
SLD-0
  6
Continuous
370
    15
100
AcDbPolyline
 90
       10
 70
   128
 43
0.0
 10
131.8176768049
 20
48.8207830338
 10
131.8173177691
 20
48.8207079414
 10
131.8169681198
 20
48.820482664
 10
131.8166419369
 20
48.8201142415
 10
131.8163462603
 20
48.8196144073
 10
131.8160904766
 20
48.8189972411
 10
131.8158839723
 20
48.8182838627
 10
131.8157314407
 20
48.8174930452
 10
131.8156375752
 20
48.8166506016
 10
131.8156047222
 20
48.8157823449
  0
ELLIPSE
  5
40D
330
1F
100
AcDbEntity
  8
SLD-0
  6
Continuous
370
    15
100
AcDbEllipse
 10
131.817676671
 20
48.8157834201
 30
0.0
 11
0.0
 21
0.02899999999999636
 31
0.0
210
0.0
220
0.0
230
1.0
 40
0.0714161315
 41
0.0
 42
1.570796326795877
  0
LINE
  5
40E
330
1F
100
AcDbEntity
  8
SLD-0
  6
Continuous
370
    15
100
AcDbLine
 10
109.8916766718
 20
47.9457845019
 30
0.0
 11
110.0166766703
 21
47.8207837059
 31
0.0
  0
LINE
  5
40F
330
1F
100
AcDbEntity
  8
SLD-0
  6
Continuous
370
    15
100
AcDbLine
 10
109.8916766718
 20
47.9457845019
 30
0.0
 11
109.8916766718
 21
48.8157823449
 31
0.0
  0
LINE
  5
410
330
1F
100
AcDbEntity
  8
SLD-0
  6
Continuous
370
    15
100
AcDbLine
 10
109.8916766718
 20
48.8157823449
 30
0.0
 11
131.8156047222
 21
48.8157823449
 31
0.0
  0
LINE
  5
411
330
1F
100
AcDbEntity
  8
SLD-0
  6
Continuous
370
    15
100
AcDbLine
 10
131.8156047222
 20
48.8157823449
 30
0.0
 11
131.8156047222
 21
47.9457845019
 31
0.0
  0
LINE
  5
412
330
1F
100
AcDbEntity
  8
SLD-0
  6
Continuous
370
    15
100
AcDbLine
 10
131.6906062729
 20
47.8207837059
 30
0.0
 11
131.8156047222
 21
47.9457845019
 31
0.0
  0
LINE
  5
413
330
1F
100
AcDbEntity
  8
SLD-0
  6
Continuous
370
    15
100
AcDbLine
 10
110.0166766703
 20
47.8207837059
 30
0.0
 11
131.6906062729
 21
47.8207837059
 31
0.0
  0
LINE
  5
414
330
1F
100
AcDbEntity
  8
SLD-0
  6
Continuous
370
    15
100
AcDbLine
 10
109.8916766718
 20
48.8157823449
 30
0.0
 11
109.8916766718
 21
48.8447844632
 31
0.0
  0
LINE
  5
415
330
1F
100
AcDbEntity
  8
SLD-0
  6
Continuous
370
    15
100
AcDbLine
 10
109.8916766718
 20
48.8447844632
 30
0.0
 11
131.8176768049
 21
48.8447844632
 31
0.0
  0
LINE
  5
416
330
1F
100
AcDbEntity
  8
SLD-0
  6
Continuous
370
    15
100
AcDbLine
 10
109.8866766704
 20
48.8157823449
 30
0.0
 11
109.862676671
 21
48.8157823449
 31
0.0
  0
LINE
  5
417
330
1F
100
AcDbEntity
  8
SLD-0
  6
Continuous
370
    15
100
AcDbLine
 10
109.862676671
 20
43.5707824556
 30
0.0
 11
109.8866766704
 21
43.5707824556
 31
0.0
  0
LINE
  5
418
330
1F
100
AcDbEntity
  8
SLD-0
  6
Continuous
370
    15
100
AcDbLine
 10
109.862676671
 20
43.5707824556
 30
0.0
 11
109.862676671
 21
48.8157823449
 31
0.0
  0
LINE
  5
419
330
1F
100
AcDbEntity
  8
SLD-0
  6
Continuous
370
    15
100
AcDbLine
 10
109.8866766704
 20
43.5707824556
 30
0.0
 11
109.8866766704
 21
48.8157823449
 31
0.0
  0
LINE
  5
41A
330
1F
100
AcDbEntity
  8
SLD-0
  6
Continuous
370
    15
100
AcDbLine
 10
109.8866766704
 20
43.4457840063
 30
0.0
 11
109.862676671
 21
43.4457840063
 31
0.0
  0
LINE
  5
41B
330
1F
100
AcDbEntity
  8
SLD-0
  6
Continuous
370
    15
100
AcDbLine
 10
109.862676671
 20
43.4457840063
 30
0.0
 11
109.862676671
 21
43.5707824556
 31
0.0
  0
LINE
  5
41C
330
1F
100
AcDbEntity
  8
SLD-0
  6
Continuous
370
    15
100
AcDbLine
 10
109.8866766704
 20
43.5707824556
 30
0.0
 11
109.8866766704
 21
43.5467833728
 31
0.0
  0
ARC
  5
41D
330
1F
100
AcDbEntity
  8
SLD-0
  6
Continuous
370
    15
100
AcDbCircle
 10
131.817676671
 20
48.8157834201
 30
0.0
 40
0.0050000000038608
100
AcDbArc
 50
359.9999999998
 51
90.0
  0
LINE
  5
41E
330
1F
100
AcDbEntity
  8
SLD-0
  6
Continuous
370
    15
100
AcDbLine
 10
131.8466765766
 20
48.8157823449
 30
0.0
 11
131.8226774938
 21
48.8157823449
 31
0.0
  0
ARC
  5
41F
330
1F
100
AcDbEntity
  8
SLD-0
  6
Continuous
370
    15
100
AcDbCircle
 10
131.817676671
 20
48.8157834201
 30
0.0
 40
0.0290000000038617
100
AcDbArc
 50
359.9999999999
 51
90.0
  0
ARC
  5
420
330
1F
100
AcDbEntity
  8
SLD-0
  6
Continuous
370
    15
100
AcDbCircle
 10
109.891676671
 20
48.8157834201
 30
0.0
 40
0.0289999999999964
100
AcDbArc
 50
89.9999999991
 51
180.0
  0
ARC
  5
421
330
1F
100
AcDbEntity
  8
SLD-0
  6
Continuous
370
    15
100
AcDbCircle
 10
109.891676671
 20
48.8157834201
 30
0.0
 40
0.0049999999995975
100
AcDbArc
 50
90.0
 51
180.0
  0
LINE
  5
422
330
1F
100
AcDbEntity
  8
SLD-0
  6
Continuous
370
    15
100
AcDbLine
 10
131.8466765766
 20
47.8207837059
 30
0.0
 11
131.8226774938
 21
47.8207837059
 31
0.0
  0
LINE
  5
423
330
1F
100
AcDbEntity
  8
SLD-0
  6
Continuous
370
    15
100
AcDbLine
 10
131.8226774938
 20
47.8207837059
 30
0.0
 11
131.8226774938
 21
47.9457845019
 31
0.0
  0
LINE
  5
424
330
1F
100
AcDbEntity
  8
SLD-0
  6
Continuous
370
    15
100
AcDbLine
 10
131.8226774938
 20
47.9457845019
 30
0.0
 11
131.8466765766
 21
47.9457845019
 31
0.0
  0
LINE
  5
425
330
1F
100
AcDbEntity
  8
SLD-0
  6
Continuous
370
    15
100
AcDbLine
 10
131.8466765766
 20
47.9457845019
 30
0.0
 11
131.8466765766
 21
47.8207837059
 31
0.0
  0
LINE
  5
426
330
1F
100
AcDbEntity
  8
SLD-0
  6
Continuous
370
    15
100
AcDbLine
 10
131.8466765766
 20
47.9457845019
 30
0.0
 11
131.8466765766
 21
48.8157823449
 31
0.0
  0
LINE
  5
427
330
1F
100
AcDbEntity
  8
SLD-0
  6
Continuous
370
    15
100
AcDbLine
 10
131.8226774938
 20
47.9457845019
 30
0.0
 11
131.8226774938
 21
48.8157823449
 31
0.0
  0
ARC
  5
428
330
1F
100
AcDbEntity
  8
SLD-0
  6
Continuous
370
    15
100
AcDbCircle
 10
109.857676671
 20
43.4457834201
 30
0.0
 40
0.0290000000000106
100
AcDbArc
 50
270.0
 51
0.0
  0
LINE
  5
429
330
1F
100
AcDbEntity
  8
SLD-0
  6
Continuous
370
    15
100
AcDbLine
 10
109.8576766707
 20
43.4407833174
 30
0.0
 11
109.8576766707
 21
43.4167842346
 31
0.0
  0
ARC
  5
42A
330
1F
100
AcDbEntity
  8
SLD-0
  6
Continuous
370
    15
100
AcDbCircle
 10
109.857676671
 20
43.4457834201
 30
0.0
 40
0.0050000000000026
100
AcDbArc
 50
270.0
 51
0.0
  0
LINE
  5
42B
330
1F
100
AcDbEntity
  8
SLD-0
  6
Continuous
370
    15
100
AcDbLine
 10
109.362676677
 20
43.4167842346
 30
0.0
 11
109.362676677
 21
43.4407833174
 31
0.0
  0
LINE
  5
42C
330
1F
100
AcDbEntity
  8
SLD-0
  6
Continuous
370
    15
100
AcDbLine
 10
109.362676677
 20
43.4407833174
 30
0.0
 11
109.4876766663
 21
43.4407833174
 31
0.0
  0
LINE
  5
42D
330
1F
100
AcDbEntity
  8
SLD-0
  6
Continuous
370
    15
100
AcDbLine
 10
109.4876766663
 20
43.4407833174
 30
0.0
 11
109.4876766663
 21
43.4167842346
 31
0.0
  0
LINE
  5
42E
330
1F
100
AcDbEntity
  8
SLD-0
  6
Continuous
370
    15
100
AcDbLine
 10
109.4876766663
 20
43.4167842346
 30
0.0
 11
109.362676677
 21
43.4167842346
 31
0.0
  0
LINE
  5
42F
330
1F
100
AcDbEntity
  8
SLD-0
  6
Continuous
370
    15
100
AcDbLine
 10
109.4876766663
 20
43.4407833174
 30
0.0
 11
109.8576766707
 21
43.4407833174
 31
0.0
  0
LINE
  5
430
330
1F
100
AcDbEntity
  8
SLD-0
  6
Continuous
370
    15
100
AcDbLine
 10
109.4876766663
 20
43.4167842346
 30
0.0
 11
109.8576766707
 21
43.4167842346
 31
0.0
  0
LINE
  5
431
330
1F
100
AcDbEntity
  8
SLD-0
  6
Continuous
370
    15
100
AcDbLine
 10
131.7826766759
 20
10.4616413086
 30
0.0
 11
131.7826766759
 21
47.912854109
 31
0.0
  0
LINE
  5
432
330
1F
100
AcDbEntity
  8
SLD-0
  6
Continuous
370
    15
100
AcDbLine
 10
109.8866766704
 20
10.3997834498
 30
0.0
 11
109.8866766704
 21
43.5467833728
 31
0.0
  0
LINE
  5
433
330
1F
100
AcDbEntity
  8
SLD-0
  6
Continuous
370
    15
100
AcDbLine
 10
109.8866766704
 20
48.778782879
 30
0.0
 11
109.8916766718
 21
48.778782879
 31
0.0
  0
LINE
  5
434
330
1F
100
AcDbEntity
  8
SLD-0
  6
Continuous
370
    15
100
AcDbLine
 10
109.8916766718
 20
9.5687834196
 30
0.0
 11
109.8881085743
 21
9.5687834196
 31
0.0
  0
LINE
  5
435
330
1F
100
AcDbEntity
  8
SLD-0
  6
Continuous
370
    15
100
AcDbLine
 10
109.8816766713
 20
43.3957841572
 30
0.0
 11
109.8816766713
 21
10.5447834081
 31
0.0
  0
LINE
  5
436
330
1F
100
AcDbEntity
  8
SLD-0
  6
Continuous
370
    15
100
AcDbLine
 10
109.8866766704
 20
43.3957841572
 30
0.0
 11
109.8816766713
 21
43.3957841572
 31
0.0
  0
LINE
  5
437
330
1F
100
AcDbEntity
  8
SLD-0
  6
Continuous
370
    15
100
AcDbLine
 10
109.8816766713
 20
10.5447834081
 30
0.0
 11
109.8866766704
 21
10.5447834081
 31
0.0
  0
LINE
  5
438
330
1F
100
AcDbEntity
  8
SLD-0
  6
Continuous
370
    15
100
AcDbLine
 10
109.8816766713
 20
43.3957841572
 30
0.0
 11
109.4876766663
 21
43.3957841572
 31
0.0
  0
LINE
  5
439
330
1F
100
AcDbEntity
  8
SLD-0
  6
Continuous
370
    15
100
AcDbLine
 10
109.362676677
 20
43.2707833612
 30
0.0
 11
109.362676677
 21
10.6697833974
 31
0.0
  0
LINE
  5
43A
330
1F
100
AcDbEntity
  8
SLD-0
  6
Continuous
370
    15
100
AcDbLine
 10
109.362676677
 20
10.6697833974
 30
0.0
 11
109.4876766663
 21
10.5447834081
 31
0.0
  0
LINE
  5
43B
330
1F
100
AcDbEntity
  8
SLD-0
  6
Continuous
370
    15
100
AcDbLine
 10
109.4876766663
 20
43.3957841572
 30
0.0
 11
109.362676677
 21
43.2707833612
 31
0.0
  0
LINE
  5
43C
330
1F
100
AcDbEntity
  8
SLD-0
  6
Continuous
370
    15
100
AcDbLine
 10
109.4876766663
 20
10.5447834081
 30
0.0
 11
109.8816766713
 21
10.5447834081
 31
0.0
  0
LINE
  5
43D
330
1F
100
AcDbEntity
  8
SLD-0
  6
Continuous
370
    15
100
AcDbLine
 10
131.8146777996
 20
10.4876412682
 30
0.0
 11
131.8146777996
 21
47.9448552326
 31
0.0
  0
LINE
  5
43E
330
1F
100
AcDbEntity
  8
SLD-0
  6
Continuous
370
    15
100
AcDbLine
 10
131.800534603
 20
9.6937834181
 30
0.0
 11
131.8146777996
 21
9.6937834181
 31
0.0
  0
LINE
  5
43F
330
1F
100
AcDbEntity
  8
SLD-0
  6
Continuous
370
    15
100
AcDbLine
 10
131.8146777996
 20
9.5687834196
 30
0.0
 11
131.8096771107
 21
9.5687834196
 31
0.0
  0
LINE
  5
440
330
1F
100
AcDbEntity
  8
SLD-0
  6
Continuous
370
    15
100
AcDbLine
 10
131.8146777996
 20
9.573783421
 30
0.0
 11
131.8146777996
 21
9.5687834196
 31
0.0
  0
ELLIPSE
  5
441
330
1F
100
AcDbEntity
  8
SLD-0
  6
Continuous
370
    15
100
AcDbEllipse
 10
131.809676671
 20
9.5737834202
 30
0.0
 11
0.009142135622340675
 21
0.0
 31
0.0
210
0.0
220
0.0
230
1.0
 40
0.5469181608
 41
3.141592653589083
 42
4.712388980484182
  0
LINE
  5
442
330
1F
100
AcDbEntity
  8
SLD-0
  6
Continuous
370
    15
100
AcDbLine
 10
131.8096771107
 20
9.5687834196
 30
0.0
 11
131.8096771107
 21
9.5447834202
 31
0.0
  0
ELLIPSE
  5
443
330
1F
100
AcDbEntity
  8
SLD-0
  6
Continuous
370
    15
100
AcDbEllipse
 10
131.809676671
 20
9.5737834202
 30
0.0
 11
0.0
 21
0.02899999999999814
 31
0.0
210
0.0
220
0.0
230
1.0
 40
0.3152460559
 41
1.570796326794039
 42
3.141592653689321
  0
LINE
  5
444
330
1F
100
AcDbEntity
  8
SLD-0
  6
Continuous
370
    15
100
AcDbLine
 10
109.8916766718
 20
9.573783421
 30
0.0
 11
131.800534603
 21
9.573783421
 31
0.0
  0
LINE
  5
445
330
1F
100
AcDbEntity
  8
SLD-0
  6
Continuous
370
    15
100
AcDbLine
 10
109.8916766718
 20
10.4437834549
 30
0.0
 11
109.8916766718
 21
9.573783421
 31
0.0
  0
LINE
  5
446
330
1F
100
AcDbEntity
  8
SLD-0
  6
Continuous
370
    15
100
AcDbLine
 10
110.0166766703
 20
10.5687834442
 30
0.0
 11
109.8916766718
 21
10.4437834549
 31
0.0
  0
LINE
  5
447
330
1F
100
AcDbEntity
  8
SLD-0
  6
Continuous
370
    15
100
AcDbLine
 10
110.0166766703
 20
10.5687834442
 30
0.0
 11
131.675533807
 21
10.5687834442
 31
0.0
  0
LINE
  5
448
330
1F
100
AcDbEntity
  8
SLD-0
  6
Continuous
370
    15
100
AcDbLine
 10
131.800534603
 20
10.4437834549
 30
0.0
 11
131.675533807
 21
10.5687834442
 31
0.0
  0
LINE
  5
449
330
1F
100
AcDbEntity
  8
SLD-0
  6
Continuous
370
    15
100
AcDbLine
 10
131.800534603
 20
9.573783421
 30
0.0
 11
131.800534603
 21
10.4437834549
 31
0.0
  0
LINE
  5
44A
330
1F
100
AcDbEntity
  8
SLD-0
  6
Continuous
370
    15
100
AcDbLine
 10
109.8916766718
 20
9.573783421
 30
0.0
 11
109.8916766718
 21
9.5447834202
 31
0.0
  0
LINE
  5
44B
330
1F
100
AcDbEntity
  8
SLD-0
  6
Continuous
370
    15
100
AcDbLine
 10
109.8916766718
 20
9.5447834202
 30
0.0
 11
131.8096771107
 21
9.5447834202
 31
0.0
  0
ARC
  5
44C
330
1F
100
AcDbEntity
  8
SLD-0
  6
Continuous
370
    15
100
AcDbCircle
 10
131.809676671
 20
9.5737834202
 30
0.0
 40
0.0289999999999999
100
AcDbArc
 50
270.0
 51
0.0
  0
LINE
  5
44D
330
1F
100
AcDbEntity
  8
SLD-0
  6
Continuous
370
    15
100
AcDbLine
 10
131.8386768823
 20
9.573783421
 30
0.0
 11
131.8146777996
 21
9.573783421
 31
0.0
  0
ARC
  5
44E
330
1F
100
AcDbEntity
  8
SLD-0
  6
Continuous
370
    15
100
AcDbCircle
 10
131.809676671
 20
9.5737834202
 30
0.0
 40
0.0050000000000008
100
AcDbArc
 50
270.0
 51
0.0
  0
LINE
  5
44F
330
1F
100
AcDbEntity
  8
SLD-0
  6
Continuous
370
    15
100
AcDbLine
 10
131.8146777996
 20
10.4437834549
 30
0.0
 11
131.8146777996
 21
9.573783421
 31
0.0
  0
LINE
  5
450
330
1F
100
AcDbEntity
  8
SLD-0
  6
Continuous
370
    15
100
AcDbLine
 10
131.8386768823
 20
10.4437834549
 30
0.0
 11
131.8146777996
 21
10.4437834549
 31
0.0
  0
LINE
  5
451
330
1F
100
AcDbEntity
  8
SLD-0
  6
Continuous
370
    15
100
AcDbLine
 10
131.8386768823
 20
10.4437834549
 30
0.0
 11
131.8386768823
 21
9.573783421
 31
0.0
  0
LINE
  5
452
330
1F
100
AcDbEntity
  8
SLD-0
  6
Continuous
370
    15
100
AcDbLine
 10
131.8146777996
 20
10.5687834442
 30
0.0
 11
131.8386768823
 21
10.5687834442
 31
0.0
  0
LINE
  5
453
330
1F
100
AcDbEntity
  8
SLD-0
  6
Continuous
370
    15
100
AcDbLine
 10
131.8146777996
 20
10.4437834549
 30
0.0
 11
131.8146777996
 21
10.4876412682
 31
0.0
  0
LINE
  5
454
330
1F
100
AcDbEntity
  8
SLD-0
  6
Continuous
370
    15
100
AcDbLine
 10
131.8386768823
 20
10.5687834442
 30
0.0
 11
131.8386768823
 21
10.4437834549
 31
0.0
  0
ARC
  5
455
330
1F
100
AcDbEntity
  8
SLD-0
  6
Continuous
370
    15
100
AcDbCircle
 10
109.891676671
 20
9.5737834202
 30
0.0
 40
0.0289999999996269
100
AcDbArc
 50
180.0
 51
269.9999999992
  0
LINE
  5
456
330
1F
100
AcDbEntity
  8
SLD-0
  6
Continuous
370
    15
100
AcDbLine
 10
109.8866766704
 20
9.573783421
 30
0.0
 11
109.862676671
 21
9.573783421
 31
0.0
  0
ARC
  5
457
330
1F
100
AcDbEntity
  8
SLD-0
  6
Continuous
370
    15
100
AcDbCircle
 10
109.891676671
 20
9.5737834202
 30
0.0
 40
0.004999999999626
100
AcDbArc
 50
180.0
 51
224.4698238011
  0
LINE
  5
458
330
1F
100
AcDbEntity
  8
SLD-0
  6
Continuous
370
    15
100
AcDbLine
 10
109.862676671
 20
10.5157834164
 30
0.0
 11
109.8866766704
 21
10.5157834164
 31
0.0
  0
LINE
  5
459
330
1F
100
AcDbEntity
  8
SLD-0
  6
Continuous
370
    15
100
AcDbLine
 10
109.8866766704
 20
10.3997834498
 30
0.0
 11
109.8866766704
 21
10.3907834271
 31
0.0
  0
LINE
  5
45A
330
1F
100
AcDbEntity
  8
SLD-0
  6
Continuous
370
    15
100
AcDbLine
 10
109.8866766704
 20
10.3907834271
 30
0.0
 11
109.862676671
 21
10.3907834271
 31
0.0
  0
LINE
  5
45B
330
1F
100
AcDbEntity
  8
SLD-0
  6
Continuous
370
    15
100
AcDbLine
 10
109.862676671
 20
10.3907834271
 30
0.0
 11
109.862676671
 21
10.5157834164
 31
0.0
  0
LINE
  5
45C
330
1F
100
AcDbEntity
  8
SLD-0
  6
Continuous
370
    15
100
AcDbLine
 10
109.862676671
 20
10.3907834271
 30
0.0
 11
109.862676671
 21
9.573783421
 31
0.0
  0
LINE
  5
45D
330
1F
100
AcDbEntity
  8
SLD-0
  6
Continuous
370
    15
100
AcDbLine
 10
109.8866766704
 20
10.3907834271
 30
0.0
 11
109.8866766704
 21
9.573783421
 31
0.0
  0
LINE
  5
45E
330
1F
100
AcDbEntity
  8
SLD-0
  6
Continuous
370
    15
100
AcDbLine
 10
109.8576766707
 20
10.5207834454
 30
0.0
 11
109.8576766707
 21
10.5447834081
 31
0.0
  0
ARC
  5
45F
330
1F
100
AcDbEntity
  8
SLD-0
  6
Continuous
370
    15
100
AcDbCircle
 10
109.857676671
 20
10.5157834202
 30
0.0
 40
0.0050000000000097
100
AcDbArc
 50
0.0
 51
90.0
  0
ARC
  5
460
330
1F
100
AcDbEntity
  8
SLD-0
  6
Continuous
370
    15
100
AcDbCircle
 10
109.857676671
 20
10.5157834202
 30
0.0
 40
0.0290000000000106
100
AcDbArc
 50
0.0
 51
90.0
  0
LINE
  5
461
330
1F
100
AcDbEntity
  8
SLD-0
  6
Continuous
370
    15
100
AcDbLine
 10
109.4876766663
 20
10.5447834081
 30
0.0
 11
109.4876766663
 21
10.5207834454
 31
0.0
  0
LINE
  5
462
330
1F
100
AcDbEntity
  8
SLD-0
  6
Continuous
370
    15
100
AcDbLine
 10
109.362676677
 20
10.5207834454
 30
0.0
 11
109.362676677
 21
10.5447834081
 31
0.0
  0
LINE
  5
463
330
1F
100
AcDbEntity
  8
SLD-0
  6
Continuous
370
    15
100
AcDbLine
 10
109.4876766663
 20
10.5207834454
 30
0.0
 11
109.362676677
 21
10.5207834454
 31
0.0
  0
LINE
  5
464
330
1F
100
AcDbEntity
  8
SLD-0
  6
Continuous
370
    15
100
AcDbLine
 10
109.362676677
 20
10.5447834081
 30
0.0
 11
109.4076766805
 21
10.5447834081
 31
0.0
  0
LINE
  5
465
330
1F
100
AcDbEntity
  8
SLD-0
  6
Continuous
370
    15
100
AcDbLine
 10
109.4118245126
 20
10.5447834081
 30
0.0
 11
109.4876766663
 21
10.5447834081
 31
0.0
  0
LINE
  5
466
330
1F
100
AcDbEntity
  8
SLD-0
  6
Continuous
370
    15
100
AcDbLine
 10
109.8576766707
 20
10.5207834454
 30
0.0
 11
109.4876766663
 21
10.5207834454
 31
0.0
  0
LINE
  5
467
330
1F
100
AcDbEntity
  8
SLD-0
  6
Continuous
370
    15
100
AcDbLine
 10
109.4016766531
 20
43.3097845107
 30
0.0
 11
109.4016766531
 21
43.3243946886
 31
0.0
  0
LINE
  5
468
330
1F
100
AcDbEntity
  8
SLD-0
  6
Continuous
370
    15
100
AcDbLine
 10
117.3626769103
 20
59.3328576508
 30
0.0
 11
115.3626764945
 21
59.3328576508
 31
0.0
  0
LINE
  5
469
330
1F
100
AcDbEntity
  8
SLD-0
  6
Continuous
370
    15
100
AcDbLine
 10
117.3626769103
 20
54.8891061054
 30
0.0
 11
115.3626764945
 21
54.8891061054
 31
0.0
  0
LINE
  5
46A
330
1F
100
AcDbEntity
  8
SLD-0
  6
Continuous
370
    15
100
AcDbLine
 10
131.926999702
 20
30.5347843552
 30
0.0
 11
131.926999702
 21
30.48878318
 31
0.0
  0
LINE
  5
46B
330
1F
100
AcDbEntity
  8
SLD-0
  6
Continuous
370
    15
100
AcDbLine
 10
131.7536769043
 20
10.4906413002
 30
0.0
 11
131.7536769043
 21
47.8838543373
 31
0.0
  0
LINE
  5
46C
330
1F
100
AcDbEntity
  8
SLD-0
  6
Continuous
370
    15
100
AcDbLine
 10
109.9156766712
 20
47.9217830725
 30
0.0
 11
109.9156766712
 21
10.4677834176
 31
0.0
  0
DIMENSION
  5
46D
330
1F
100
AcDbEntity
  8
DIM
100
AcDbDimension
  2
_D_14
 10
119.9774182489
 20
48.84478342
 30
0.0
 11
119.9774182489
 21
54.8437834201
 31
0.0
 70
   160
  1
<>
 71
     2
 42
-1.0
  3
SLDDIMSTYLE0
100
AcDbAlignedDimension
 13
115.362676671
 23
60.8427834201
 33
0.0
 14
109.891676671
 24
48.84478342
 34
0.0
 50
90.0
100
AcDbRotatedDimension
  0
DIMENSION
  5
477
330
1F
100
AcDbEntity
  8
DIM
100
AcDbDimension
  2
_D_15
 10
106.3516898732
 20
9.5447834202
 30
0.0
 11
106.3516898732
 21
29.1947834201
 31
0.0
 70
   160
  1
<>
 71
     2
 42
-1.0
  3
SLDDIMSTYLE0
100
AcDbAlignedDimension
 13
109.891676671
 23
48.84478342
 33
0.0
 14
109.891676671
 24
9.5447834202
 34
0.0
 50
90.0
100
AcDbRotatedDimension
  0
DIMENSION
  5
486
330
1F
100
AcDbEntity
  8
DIM
100
AcDbDimension
  2
_D_16
 10
131.838676671
 20
6.5447814517
 30
0.0
 11
119.9774182489
 21
6.5447814517
 31
0.0
 70
   160
  1
<>
 71
     2
 42
-1.0
  3
SLDDIMSTYLE0
100
AcDbAlignedDimension
 13
109.862676671
 23
9.5737834202
 33
0.0
 14
131.838676671
 24
9.5737834202
 34
0.0
 50
0.0000000001
100
AcDbRotatedDimension
  0
DIMENSION
  5
491
330
1F
100
AcDbEntity
  8
DIM
100
AcDbDimension
  2
_D_17
 10
131.814676671
 20
6.5447814517
 30
0.0
 11
136.654576671
 21
6.5447814517
 31
0.0
 70
   160
  1
<>
 71
     2
 42
-1.0
  3
SLDDIMSTYLE2
100
AcDbAlignedDimension
 13
132.654576671
 23
23.5687834202
 33
0.0
 14
131.814676671
 24
9.6937834202
 34
0.0
100
AcDbRotatedDimension
  0
DIMENSION
  5
4A0
330
1F
100
AcDbEntity
  8
DIM
100
AcDbDimension
  2
_D_18
 10
109.362676671
 20
6.5447814517
 30
0.0
 11
105.329560078
 21
6.5447814517
 31
0.0
 70
   160
  1
<>
 71
     2
 42
-1.0
  3
SLDDIMSTYLE2
100
AcDbAlignedDimension
 13
109.862676671
 23
9.5737834202
 33
0.0
 14
109.362676671
 24
10.5207834202
 34
0.0
100
AcDbRotatedDimension
  0
LINE
  5
4AE
330
1F
100
AcDbEntity
  8
SLD-0
  6
Continuous
370
    15
100
AcDbLine
 10
25.7413522613
 20
10.6368934107
 30
0.0
 11
25.7413522613
 21
10.6697833974
 31
0.0
  0
LINE
  5
4AF
330
1F
100
AcDbEntity
  8
SLD-0
  6
Continuous
370
    15
100
AcDbLine
 10
25.7413522613
 20
43.2707833612
 30
0.0
 11
25.7413522613
 21
43.3243923419
 31
0.0
  0
LINE
  5
4B0
330
1F
100
AcDbEntity
  8
SLD-0
  6
Continuous
370
    15
100
AcDbLine
 10
19.9913522758
 20
60.8427841013
 30
0.0
 11
19.7413524438
 21
60.8427841013
 31
0.0
  0
LINE
  5
4B1
330
1F
100
AcDbEntity
  8
SLD-0
  6
Continuous
370
    15
100
AcDbLine
 10
23.3663522075
 20
60.8427841013
 30
0.0
 11
21.1163523997
 21
60.8427841013
 31
0.0
  0
LINE
  5
4B2
330
1F
100
AcDbEntity
  8
SLD-0
  6
Continuous
370
    15
100
AcDbLine
 10
24.7413522734
 20
60.8427841013
 30
0.0
 11
24.4913522581
 21
60.8427841013
 31
0.0
  0
LINE
  5
4B3
330
1F
100
AcDbEntity
  8
SLD-0
  6
Continuous
370
    15
100
AcDbLine
 10
3.2893511387
 20
24.5687829817
 30
0.0
 11
3.2553530248
 21
24.5687829817
 31
0.0
  0
LINE
  5
4B4
330
1F
100
AcDbEntity
  8
SLD-0
  6
Continuous
370
    15
100
AcDbLine
 10
3.2553530248
 20
24.5687829817
 30
0.0
 11
3.2553530248
 21
24.6687838531
 31
0.0
  0
LINE
  5
4B5
330
1F
100
AcDbEntity
  8
SLD-0
  6
Continuous
370
    15
100
AcDbLine
 10
3.2553530248
 20
24.6687838531
 30
0.0
 11
3.2893511387
 21
24.6687838531
 31
0.0
  0
LINE
  5
4B6
330
1F
100
AcDbEntity
  8
SLD-0
  6
Continuous
370
    15
100
AcDbLine
 10
3.2893511387
 20
29.4687834431
 30
0.0
 11
3.2553530248
 21
29.4687834431
 31
0.0
  0
LINE
  5
4B7
330
1F
100
AcDbEntity
  8
SLD-0
  6
Continuous
370
    15
100
AcDbLine
 10
3.2553530248
 20
29.4687834431
 30
0.0
 11
3.2553530248
 21
24.6687838531
 31
0.0
  0
LINE
  5
4B8
330
1F
100
AcDbEntity
  8
SLD-0
  6
Continuous
370
    15
100
AcDbLine
 10
3.2553530248
 20
29.5687831412
 30
0.0
 11
3.2893511387
 21
29.5687831412
 31
0.0
  0
LINE
  5
4B9
330
1F
100
AcDbEntity
  8
SLD-0
  6
Continuous
370
    15
100
AcDbLine
 10
3.2553530248
 20
29.4687834431
 30
0.0
 11
3.2553530248
 21
29.5687831412
 31
0.0
  0
LINE
  5
4BA
330
1F
100
AcDbEntity
  8
SLD-0
  6
Continuous
370
    15
100
AcDbLine
 10
25.6985776421
 20
10.5942609099
 30
0.0
 11
25.7163806064
 21
10.6300806761
 31
0.0
  0
LINE
  5
4BB
330
1F
100
AcDbEntity
  8
SLD-0
  6
Continuous
370
    15
100
AcDbLine
 10
25.6767021581
 20
10.6051333309
 30
0.0
 11
25.6985776421
 21
10.5942609099
 31
0.0
  0
LINE
  5
4BC
330
1F
100
AcDbEntity
  8
SLD-0
  6
Continuous
370
    15
100
AcDbLine
 10
25.7065402668
 20
10.6349714396
 30
0.0
 11
25.7163806064
 21
10.6300806761
 31
0.0
  0
SPLINE
  5
4BD
330
1F
100
AcDbEntity
  8
SLD-0
  6
Continuous
370
    15
100
AcDbSpline
210
0.0
220
0.0
230
1.0
 70
     8
 71
     3
 72
    15
 73
    11
 74
     0
 42
0.00000001
 43
0.00000001
 12
1.0
 22
0.0
 32
0.0
 13
1.0
 23
0.0
 33
0.0
 40
0.0
 40
0.0
 40
0.0
 40
0.0
 40
0.1250023839248643
 40
0.2500013277783739
 40
0.3749995630013686
 40
0.5000022811663152
 40
0.6250004829064657
 40
0.7499988169775688
 40
0.8750014484752252
 40
1.0
 40
1.0
 40
1.0
 40
1.0
 10
25.71638060644677
 20
10.63008067607509
 30
0.0
 10
25.72066230664917
 20
10.62740470803716
 30
0.0
 10
25.72922558922138
 20
10.62205284560406
 30
0.0
 10
25.73781846959697
 20
10.60923578321486
 30
0.0
 10
25.74195964304145
 20
10.59457518814864
 30
0.0
 10
25.74098619949703
 20
10.57930342790331
 30
0.0
 10
25.73506058647872
 20
10.56519343377268
 30
0.0
 10
25.72482694241139
 20
10.55390832756864
 30
0.0
 10
25.71142842796452
 20
10.546255509822
 30
0.0
 10
25.70137759318956
 20
10.54527410333726
 30
0.0
 10
25.69635225781596
 20
10.54478340810307
 30
0.0
  0
LINE
  5
4BE
330
1F
100
AcDbEntity
  8
SLD-0
  6
Continuous
370
    15
100
AcDbLine
 10
25.6963522578
 20
10.5847834194
 30
0.0
 11
25.6963522578
 21
10.5447834081
 31
0.0
  0
SPLINE
  5
4BF
330
1F
100
AcDbEntity
  8
SLD-0
  6
Continuous
370
    15
100
AcDbSpline
210
0.0
220
0.0
230
1.0
 70
     8
 71
     3
 72
    11
 73
     7
 74
     0
 42
0.00000001
 43
0.00000001
 12
1.0
 22
0.0
 32
0.0
 13
1.0
 23
0.0
 33
0.0
 40
0.0
 40
0.0
 40
0.0
 40
0.0
 40
0.2500177919822665
 40
0.5000355740193502
 40
0.749982301141956
 40
1.0
 40
1.0
 40
1.0
 40
1.0
 10
25.69857764210813
 20
10.59426090986809
 30
0.0
 10
25.69947673659783
 20
10.59356129685309
 30
0.0
 10
25.70127492554146
 20
10.59216207085093
 30
0.0
 10
25.7015858393903
 20
10.58855521082363
 30
0.0
 10
25.69970136990327
 20
10.58546194369144
 30
0.0
 10
25.69746873415527
 20
10.58500961553559
 30
0.0
 10
25.69635225781596
 20
10.58478341935286
 30
0.0
  0
LINE
  5
4C0
330
1F
100
AcDbEntity
  8
SLD-0
  6
Continuous
370
    15
100
AcDbLine
 10
25.6963522578
 20
10.5847834194
 30
0.0
 11
25.6563522832
 21
10.5847834194
 31
0.0
  0
LINE
  5
4C1
330
1F
100
AcDbEntity
  8
SLD-0
  6
Continuous
370
    15
100
AcDbLine
 10
25.6963522578
 20
10.5447834081
 30
0.0
 11
25.6922044257
 21
10.5447834081
 31
0.0
  0
LINE
  5
4C2
330
1F
100
AcDbEntity
  8
SLD-0
  6
Continuous
370
    15
100
AcDbLine
 10
25.6877422539
 20
43.3243923419
 30
0.0
 11
25.7023522852
 21
43.3243923419
 31
0.0
  0
LINE
  5
4C3
330
1F
100
AcDbEntity
  8
SLD-0
  6
Continuous
370
    15
100
AcDbLine
 10
25.7023522852
 20
43.3243923419
 30
0.0
 11
25.7413522613
 21
43.3243923419
 31
0.0
  0
LINE
  5
4C4
330
1F
100
AcDbEntity
  8
SLD-0
  6
Continuous
370
    15
100
AcDbLine
 10
25.7084623113
 20
10.6368934107
 30
0.0
 11
25.7413522613
 21
10.6368934107
 31
0.0
  0
LINE
  5
4C5
330
1F
100
AcDbEntity
  8
SLD-0
  6
Continuous
370
    15
100
AcDbLine
 10
17.741352028
 20
59.6552389933
 30
0.0
 11
17.741352028
 21
59.3328576508
 31
0.0
  0
ARC
  5
4C6
330
1F
100
AcDbEntity
  8
SLD-0
  6
Continuous
370
    15
100
AcDbCircle
 10
17.8615854317
 20
59.6504890842
 30
0.0
 40
0.1203271914661941
100
AcDbArc
 50
87.7296126721
 51
177.7376645244
  0
LINE
  5
4C7
330
1F
100
AcDbEntity
  8
SLD-0
  6
Continuous
370
    15
100
AcDbLine
 10
17.8663522373
 20
59.7707218192
 30
0.0
 11
19.7413524438
 21
59.7707218192
 31
0.0
  0
LINE
  5
4C8
330
1F
100
AcDbEntity
  8
SLD-0
  6
Continuous
370
    15
100
AcDbLine
 10
17.8663522373
 20
59.7837362822
 30
0.0
 11
17.8663522373
 21
59.7707218192
 31
0.0
  0
LINE
  5
4C9
330
1F
100
AcDbEntity
  8
SLD-0
  6
Continuous
370
    15
100
AcDbLine
 10
17.8663522373
 20
59.7837362822
 30
0.0
 11
19.7413524438
 21
59.7837362822
 31
0.0
  0
LINE
  5
4CA
330
1F
100
AcDbEntity
  8
SLD-0
  6
Continuous
370
    15
100
AcDbLine
 10
17.741352028
 20
59.6552389933
 30
0.0
 11
17.741352028
 21
59.668248763
 31
0.0
  0
ARC
  5
4CB
330
1F
100
AcDbEntity
  8
SLD-0
  6
Continuous
370
    15
100
AcDbCircle
 10
17.8619656635
 20
59.6630921887
 30
0.0
 40
0.1207238142390476
100
AcDbArc
 50
87.9176643305
 51
177.5519340686
  0
LINE
  5
4CC
330
1F
100
AcDbEntity
  8
SLD-0
  6
Continuous
370
    15
100
AcDbLine
 10
17.741352028
 20
59.3087811289
 30
0.0
 11
19.7413524438
 21
59.3087811289
 31
0.0
  0
LINE
  5
4CD
330
1F
100
AcDbEntity
  8
SLD-0
  6
Continuous
370
    15
100
AcDbLine
 10
17.741352028
 20
59.3328576508
 30
0.0
 11
17.741352028
 21
59.3087811289
 31
0.0
  0
LINE
  5
4CE
330
1F
100
AcDbEntity
  8
SLD-0
  6
Continuous
370
    15
100
AcDbLine
 10
3.231276503
 20
23.5687836537
 30
0.0
 11
3.231276503
 21
30.48878318
 31
0.0
  0
LINE
  5
4CF
330
1F
100
AcDbEntity
  8
SLD-0
  6
Continuous
370
    15
100
AcDbLine
 10
2.9088975071
 20
23.5687836537
 30
0.0
 11
3.231276503
 21
23.5687836537
 31
0.0
  0
ARC
  5
4D0
330
1F
100
AcDbEntity
  8
SLD-0
  6
Continuous
370
    15
100
AcDbCircle
 10
2.9136478693
 20
23.6890197109
 30
0.0
 40
0.1203298606818475
100
AcDbArc
 50
177.7312070453
 51
267.7374988281
  0
LINE
  5
4D1
330
1F
100
AcDbEntity
  8
SLD-0
  6
Continuous
370
    15
100
AcDbLine
 10
2.7934123345
 20
23.6937832764
 30
0.0
 11
2.7934123345
 21
30.363782384
 31
0.0
  0
ARC
  5
4D2
330
1F
100
AcDbEntity
  8
SLD-0
  6
Continuous
370
    15
100
AcDbCircle
 10
2.9140540456
 20
30.3681718218
 30
0.0
 40
0.1207215375111023
100
AcDbArc
 50
92.4480951405
 51
182.0837351142
  0
LINE
  5
4D3
330
1F
100
AcDbEntity
  8
SLD-0
  6
Continuous
370
    15
100
AcDbLine
 10
3.231276503
 20
30.48878318
 30
0.0
 11
2.9088975071
 21
30.48878318
 31
0.0
  0
LINE
  5
4D4
330
1F
100
AcDbEntity
  8
SLD-0
  6
Continuous
370
    15
100
AcDbLine
 10
2.7934123345
 20
30.363782384
 30
0.0
 11
2.7804002182
 21
30.363782384
 31
0.0
  0
ARC
  5
4D5
330
1F
100
AcDbEntity
  8
SLD-0
  6
Continuous
370
    15
100
AcDbCircle
 10
2.9006354561
 20
30.3685473524
 30
0.0
 40
0.120329619645406
100
AcDbArc
 50
92.2623642672
 51
182.2694659875
  0
LINE
  5
4D6
330
1F
100
AcDbEntity
  8
SLD-0
  6
Continuous
370
    15
100
AcDbLine
 10
2.8958853908
 20
30.48878318
 30
0.0
 11
2.9088975071
 21
30.48878318
 31
0.0
  0
LINE
  5
4D7
330
1F
100
AcDbEntity
  8
SLD-0
  6
Continuous
370
    15
100
AcDbLine
 10
2.7804002182
 20
23.6937832764
 30
0.0
 11
2.7934123345
 21
23.6937832764
 31
0.0
  0
LINE
  5
4D8
330
1F
100
AcDbEntity
  8
SLD-0
  6
Continuous
370
    15
100
AcDbLine
 10
2.7804002182
 20
23.6937832764
 30
0.0
 11
2.7804002182
 21
30.363782384
 31
0.0
  0
LINE
  5
4D9
330
1F
100
AcDbEntity
  8
SLD-0
  6
Continuous
370
    15
100
AcDbLine
 10
2.9088975071
 20
23.5687836537
 30
0.0
 11
2.8958853908
 21
23.5687836537
 31
0.0
  0
ARC
  5
4DA
330
1F
100
AcDbEntity
  8
SLD-0
  6
Continuous
370
    15
100
AcDbCircle
 10
2.9010442193
 20
23.6893970865
 30
0.0
 40
0.1207237079803938
100
AcDbArc
 50
177.9178448203
 51
267.5508610531
  0
LINE
  5
4DB
330
1F
100
AcDbEntity
  8
SLD-0
  6
Continuous
370
    15
100
AcDbLine
 10
3.2553530248
 20
30.48878318
 30
0.0
 11
3.231276503
 21
30.48878318
 31
0.0
  0
LINE
  5
4DC
330
1F
100
AcDbEntity
  8
SLD-0
  6
Continuous
370
    15
100
AcDbLine
 10
3.2553530248
 20
23.5687836537
 30
0.0
 11
3.2553530248
 21
24.5687829817
 31
0.0
  0
LINE
  5
4DD
330
1F
100
AcDbEntity
  8
SLD-0
  6
Continuous
370
    15
100
AcDbLine
 10
3.2553530248
 20
29.5687831412
 30
0.0
 11
3.2553530248
 21
30.48878318
 31
0.0
  0
LINE
  5
4DE
330
1F
100
AcDbEntity
  8
SLD-0
  6
Continuous
370
    15
100
AcDbLine
 10
3.231276503
 20
23.5687836537
 30
0.0
 11
3.2553530248
 21
23.5687836537
 31
0.0
  0
LINE
  5
4DF
330
1F
100
AcDbEntity
  8
SLD-0
  6
Continuous
370
    15
100
AcDbLine
 10
3.2163518754
 20
30.5347843552
 30
0.0
 11
3.2163518754
 21
30.5687824692
 31
0.0
  0
LINE
  5
4E0
330
1F
100
AcDbEntity
  8
SLD-0
  6
Continuous
370
    15
100
AcDbLine
 10
2.6103533292
 20
30.5347843552
 30
0.0
 11
3.2163518754
 21
30.5347843552
 31
0.0
  0
LINE
  5
4E1
330
1F
100
AcDbEntity
  8
SLD-0
  6
Continuous
370
    15
100
AcDbLine
 10
2.6103533292
 20
30.5687824692
 30
0.0
 11
2.6103533292
 21
30.5347843552
 31
0.0
  0
LINE
  5
4E2
330
1F
100
AcDbEntity
  8
SLD-0
  6
Continuous
370
    15
100
AcDbLine
 10
2.6103533292
 20
30.5687824692
 30
0.0
 11
3.2163518754
 21
30.5687824692
 31
0.0
  0
LINE
  5
4E3
330
1F
100
AcDbEntity
  8
SLD-0
  6
Continuous
370
    15
100
AcDbLine
 10
3.2213525643
 20
30.5297836663
 30
0.0
 11
3.2553530248
 21
30.5297836663
 31
0.0
  0
LINE
  5
4E4
330
1F
100
AcDbEntity
  8
SLD-0
  6
Continuous
370
    15
100
AcDbLine
 10
3.2213525643
 20
30.5297836663
 30
0.0
 11
3.2213525643
 21
30.48878318
 31
0.0
  0
LINE
  5
4E5
330
1F
100
AcDbEntity
  8
SLD-0
  6
Continuous
370
    15
100
AcDbLine
 10
3.2553530248
 20
30.5297836663
 30
0.0
 11
3.2553530248
 21
30.48878318
 31
0.0
  0
ARC
  5
4E6
330
1F
100
AcDbEntity
  8
SLD-0
  6
Continuous
370
    15
100
AcDbCircle
 10
3.2163522673
 20
30.5297834202
 30
0.0
 40
0.0050000000000039
100
AcDbArc
 50
0.0
 51
90.0
  0
ARC
  5
4E7
330
1F
100
AcDbEntity
  8
SLD-0
  6
Continuous
370
    15
100
AcDbCircle
 10
3.2163522673
 20
30.5297834202
 30
0.0
 40
0.0390000000023325
100
AcDbArc
 50
0.0
 51
90.0
  0
LINE
  5
4E8
330
1F
100
AcDbEntity
  8
SLD-0
  6
Continuous
370
    15
100
AcDbLine
 10
2.4853525333
 20
30.5347843552
 30
0.0
 11
2.4853525333
 21
30.5687824692
 31
0.0
  0
LINE
  5
4E9
330
1F
100
AcDbEntity
  8
SLD-0
  6
Continuous
370
    15
100
AcDbLine
 10
2.6103533292
 20
30.5347843552
 30
0.0
 11
2.4853525333
 21
30.5347843552
 31
0.0
  0
LINE
  5
4EA
330
1F
100
AcDbEntity
  8
SLD-0
  6
Continuous
370
    15
100
AcDbLine
 10
2.4853525333
 20
30.5687824692
 30
0.0
 11
2.6103533292
 21
30.5687824692
 31
0.0
  0
LINE
  5
4EB
330
1F
100
AcDbEntity
  8
SLD-0
  6
Continuous
370
    15
100
AcDbLine
 10
17.741352028
 20
55.1912359485
 30
0.0
 11
17.741352028
 21
54.8891061054
 31
0.0
  0
ARC
  5
4EC
330
1F
100
AcDbEntity
  8
SLD-0
  6
Continuous
370
    15
100
AcDbCircle
 10
17.8615895534
 20
55.1864864644
 30
0.0
 40
0.1203312931418752
100
AcDbArc
 50
87.7316541748
 51
177.7379442242
  0
LINE
  5
4ED
330
1F
100
AcDbEntity
  8
SLD-0
  6
Continuous
370
    15
100
AcDbLine
 10
17.8663522373
 20
55.3067234677
 30
0.0
 11
19.7413524438
 21
55.3067234677
 31
0.0
  0
LINE
  5
4EE
330
1F
100
AcDbEntity
  8
SLD-0
  6
Continuous
370
    15
100
AcDbLine
 10
17.8663522373
 20
55.3204606957
 30
0.0
 11
17.8663522373
 21
55.3067234677
 31
0.0
  0
LINE
  5
4EF
330
1F
100
AcDbEntity
  8
SLD-0
  6
Continuous
370
    15
100
AcDbLine
 10
17.741352028
 20
55.1912359485
 30
0.0
 11
17.741352028
 21
55.2049778697
 31
0.0
  0
ARC
  5
4F0
330
1F
100
AcDbEntity
  8
SLD-0
  6
Continuous
370
    15
100
AcDbCircle
 10
17.8619639395
 20
55.1998182585
 30
0.0
 40
0.1207222216061052
100
AcDbArc
 50
87.9168180985
 51
177.550459098
  0
LINE
  5
4F1
330
1F
100
AcDbEntity
  8
SLD-0
  6
Continuous
370
    15
100
AcDbLine
 10
17.8663522373
 20
55.3204606957
 30
0.0
 11
19.7413524438
 21
55.3204606957
 31
0.0
  0
LINE
  5
4F2
330
1F
100
AcDbEntity
  8
SLD-0
  6
Continuous
370
    15
100
AcDbLine
 10
17.741352028
 20
54.8447827774
 30
0.0
 11
19.7413524438
 21
54.8447827774
 31
0.0
  0
LINE
  5
4F3
330
1F
100
AcDbEntity
  8
SLD-0
  6
Continuous
370
    15
100
AcDbLine
 10
17.741352028
 20
54.8891061054
 30
0.0
 11
17.741352028
 21
54.8447827774
 31
0.0
  0
ARC
  5
4F4
330
1F
100
AcDbEntity
  8
SLD-0
  6
Continuous
370
    15
100
AcDbCircle
 10
2.8893492395
 20
30.4446800044
 30
0.0
 40
0.1299404545850125
100
AcDbArc
 50
136.0979180565
 51
180.3950774195
  0
ARC
  5
4F5
330
1F
100
AcDbEntity
  8
SLD-0
  6
Continuous
370
    15
100
AcDbCircle
 10
2.8913637772
 20
23.7733305881
 30
0.0
 40
0.1319526813229598
100
AcDbArc
 50
179.8032349165
 51
212.7610700062
  0
LINE
  5
4F6
330
1F
100
AcDbEntity
  8
SLD-0
  6
Continuous
370
    15
100
AcDbLine
 10
2.759411874
 20
30.4437840198
 30
0.0
 11
2.759411874
 21
23.7737837389
 31
0.0
  0
LINE
  5
4F7
330
1F
100
AcDbEntity
  8
SLD-0
  6
Continuous
370
    15
100
AcDbLine
 10
2.759411874
 20
30.4437840198
 30
0.0
 11
2.745674646
 21
30.4437840198
 31
0.0
  0
ARC
  5
4F8
330
1F
100
AcDbEntity
  8
SLD-0
  6
Continuous
370
    15
100
AcDbCircle
 10
2.8752003474
 20
30.4448466746
 30
0.0
 40
0.1295300604288167
100
AcDbArc
 50
136.0254891085
 51
180.4700554977
  0
LINE
  5
4F9
330
1F
100
AcDbEntity
  8
SLD-0
  6
Continuous
370
    15
100
AcDbLine
 10
2.745674646
 20
23.7737837389
 30
0.0
 11
2.759411874
 21
23.7737837389
 31
0.0
  0
LINE
  5
4FA
330
1F
100
AcDbEntity
  8
SLD-0
  6
Continuous
370
    15
100
AcDbLine
 10
2.745674646
 20
30.4437840198
 30
0.0
 11
2.745674646
 21
23.7737837389
 31
0.0
  0
ARC
  5
4FB
330
1F
100
AcDbEntity
  8
SLD-0
  6
Continuous
370
    15
100
AcDbCircle
 10
2.8757005036
 20
23.7728987572
 30
0.0
 40
0.1300288692359793
100
AcDbArc
 50
179.6100396353
 51
223.096056789
  0
LINE
  5
4FC
330
1F
100
AcDbEntity
  8
SLD-0
  6
Continuous
370
    15
100
AcDbLine
 10
3.2213525643
 20
30.5687824692
 30
0.0
 11
3.2213525643
 21
30.5684609795
 31
0.0
  0
LINE
  5
4FD
330
1F
100
AcDbEntity
  8
SLD-0
  6
Continuous
370
    15
100
AcDbLine
 10
3.2213525643
 20
30.5687824692
 30
0.0
 11
3.2163518754
 21
30.5687824692
 31
0.0
  0
LINE
  5
4FE
330
1F
100
AcDbEntity
  8
SLD-0
  6
Continuous
370
    15
100
AcDbLine
 10
2.4494512947
 20
23.5687836537
 30
0.0
 11
2.4494512947
 21
23.604683719
 31
0.0
  0
LINE
  5
4FF
330
1F
100
AcDbEntity
  8
SLD-0
  6
Continuous
370
    15
100
AcDbLine
 10
2.4494512947
 20
23.604683719
 30
0.0
 11
2.5744520906
 21
23.604683719
 31
0.0
  0
LINE
  5
500
330
1F
100
AcDbEntity
  8
SLD-0
  6
Continuous
370
    15
100
AcDbLine
 10
2.5744520906
 20
23.604683719
 30
0.0
 11
2.5744520906
 21
23.5687836537
 31
0.0
  0
LINE
  5
501
330
1F
100
AcDbEntity
  8
SLD-0
  6
Continuous
370
    15
100
AcDbLine
 10
2.5744520906
 20
23.5687836537
 30
0.0
 11
2.4494512947
 21
23.5687836537
 31
0.0
  0
LINE
  5
502
330
1F
100
AcDbEntity
  8
SLD-0
  6
Continuous
370
    15
100
AcDbLine
 10
2.8148887798
 20
23.604683719
 30
0.0
 11
2.5744520906
 21
23.604683719
 31
0.0
  0
LINE
  5
503
330
1F
100
AcDbEntity
  8
SLD-0
  6
Continuous
370
    15
100
AcDbLine
 10
2.8958853908
 20
23.5687836537
 30
0.0
 11
2.5744520906
 21
23.5687836537
 31
0.0
  0
LINE
  5
504
330
1F
100
AcDbEntity
  8
SLD-0
  6
Continuous
370
    15
100
AcDbLine
 10
24.6413522819
 20
48.8447844632
 30
0.0
 11
24.6413522819
 21
48.8787825771
 31
0.0
  0
LINE
  5
505
330
1F
100
AcDbEntity
  8
SLD-0
  6
Continuous
370
    15
100
AcDbLine
 10
19.8413521419
 20
48.8787825771
 30
0.0
 11
19.8413521419
 21
48.8447844632
 31
0.0
  0
LINE
  5
506
330
1F
100
AcDbEntity
  8
SLD-0
  6
Continuous
370
    15
100
AcDbLine
 10
24.6413522819
 20
48.8787825771
 30
0.0
 11
19.8413521419
 21
48.8787825771
 31
0.0
  0
LINE
  5
507
330
1F
100
AcDbEntity
  8
SLD-0
  6
Continuous
370
    15
100
AcDbLine
 10
19.7413524438
 20
48.8447844632
 30
0.0
 11
19.7413524438
 21
48.8787825771
 31
0.0
  0
LINE
  5
508
330
1F
100
AcDbEntity
  8
SLD-0
  6
Continuous
370
    15
100
AcDbLine
 10
19.7413524438
 20
48.8787825771
 30
0.0
 11
19.8413521419
 21
48.8787825771
 31
0.0
  0
LINE
  5
509
330
1F
100
AcDbEntity
  8
SLD-0
  6
Continuous
370
    15
100
AcDbLine
 10
24.7413522734
 20
48.8787825771
 30
0.0
 11
24.7413522734
 21
48.8447844632
 31
0.0
  0
LINE
  5
50A
330
1F
100
AcDbEntity
  8
SLD-0
  6
Continuous
370
    15
100
AcDbLine
 10
24.6413522819
 20
48.8787825771
 30
0.0
 11
24.7413522734
 21
48.8787825771
 31
0.0
  0
LINE
  5
50B
330
1F
100
AcDbEntity
  8
SLD-0
  6
Continuous
370
    15
100
AcDbLine
 10
19.9913522758
 20
48.8818707548
 30
0.0
 11
19.7413524438
 21
48.8818707548
 31
0.0
  0
LINE
  5
50C
330
1F
100
AcDbEntity
  8
SLD-0
  6
Continuous
370
    15
100
AcDbLine
 10
19.7413524438
 20
48.8818707548
 30
0.0
 11
19.7413524438
 21
48.8787825771
 31
0.0
  0
LINE
  5
50D
330
1F
100
AcDbEntity
  8
SLD-0
  6
Continuous
370
    15
100
AcDbLine
 10
19.9913522758
 20
48.8787825771
 30
0.0
 11
19.9913522758
 21
48.8818707548
 31
0.0
  0
LINE
  5
50E
330
1F
100
AcDbEntity
  8
SLD-0
  6
Continuous
370
    15
100
AcDbLine
 10
23.3663522075
 20
48.8818707548
 30
0.0
 11
21.1163523997
 21
48.8818707548
 31
0.0
  0
LINE
  5
50F
330
1F
100
AcDbEntity
  8
SLD-0
  6
Continuous
370
    15
100
AcDbLine
 10
23.3663522075
 20
48.8787825771
 30
0.0
 11
23.3663522075
 21
48.8818707548
 31
0.0
  0
LINE
  5
510
330
1F
100
AcDbEntity
  8
SLD-0
  6
Continuous
370
    15
100
AcDbLine
 10
21.1163523997
 20
48.8818707548
 30
0.0
 11
21.1163523997
 21
48.8787825771
 31
0.0
  0
LINE
  5
511
330
1F
100
AcDbEntity
  8
SLD-0
  6
Continuous
370
    15
100
AcDbLine
 10
24.4913522581
 20
48.8818707548
 30
0.0
 11
24.4913522581
 21
48.8787825771
 31
0.0
  0
LINE
  5
512
330
1F
100
AcDbEntity
  8
SLD-0
  6
Continuous
370
    15
100
AcDbLine
 10
24.7413522734
 20
48.8818707548
 30
0.0
 11
24.4913522581
 21
48.8818707548
 31
0.0
  0
LINE
  5
513
330
1F
100
AcDbEntity
  8
SLD-0
  6
Continuous
370
    15
100
AcDbLine
 10
24.7413522734
 20
48.8787825771
 30
0.0
 11
24.7413522734
 21
48.8818707548
 31
0.0
  0
LINE
  5
514
330
1F
100
AcDbEntity
  8
SLD-0
  6
Continuous
370
    15
100
AcDbLine
 10
24.4913522581
 20
48.9013150102
 30
0.0
 11
23.3663522075
 21
48.9013150102
 31
0.0
  0
LINE
  5
515
330
1F
100
AcDbEntity
  8
SLD-0
  6
Continuous
370
    15
100
AcDbLine
 10
23.3663522075
 20
48.9013150102
 30
0.0
 11
23.3663522075
 21
48.8818707548
 31
0.0
  0
LINE
  5
516
330
1F
100
AcDbEntity
  8
SLD-0
  6
Continuous
370
    15
100
AcDbLine
 10
21.1163523997
 20
48.8818707548
 30
0.0
 11
21.1163523997
 21
48.9013150102
 31
0.0
  0
LINE
  5
517
330
1F
100
AcDbEntity
  8
SLD-0
  6
Continuous
370
    15
100
AcDbLine
 10
21.1163523997
 20
48.9013150102
 30
0.0
 11
19.9913522758
 21
48.9013150102
 31
0.0
  0
LINE
  5
518
330
1F
100
AcDbEntity
  8
SLD-0
  6
Continuous
370
    15
100
AcDbLine
 10
19.9913522758
 20
48.9013150102
 30
0.0
 11
19.9913522758
 21
48.8818707548
 31
0.0
  0
LINE
  5
519
330
1F
100
AcDbEntity
  8
SLD-0
  6
Continuous
370
    15
100
AcDbLine
 10
19.7413524438
 20
48.8818707548
 30
0.0
 11
19.7413524438
 21
60.7983387481
 31
0.0
  0
LINE
  5
51A
330
1F
100
AcDbEntity
  8
SLD-0
  6
Continuous
370
    15
100
AcDbLine
 10
24.7413522734
 20
60.7983387481
 30
0.0
 11
19.7413524438
 21
60.7983387481
 31
0.0
  0
LINE
  5
51B
330
1F
100
AcDbEntity
  8
SLD-0
  6
Continuous
370
    15
100
AcDbLine
 10
24.7413522734
 20
48.8818707548
 30
0.0
 11
24.7413522734
 21
60.7983387481
 31
0.0
  0
LINE
  5
51C
330
1F
100
AcDbEntity
  8
SLD-0
  6
Continuous
370
    15
100
AcDbLine
 10
24.4913522581
 20
48.8818707548
 30
0.0
 11
24.4913522581
 21
48.9013150102
 31
0.0
  0
LINE
  5
51D
330
1F
100
AcDbEntity
  8
SLD-0
  6
Continuous
370
    15
100
AcDbLine
 10
23.3663522075
 20
48.8883028938
 30
0.0
 11
24.4913522581
 21
48.8883028938
 31
0.0
  0
LINE
  5
51E
330
1F
100
AcDbEntity
  8
SLD-0
  6
Continuous
370
    15
100
AcDbLine
 10
19.9913522758
 20
48.8883028938
 30
0.0
 11
21.1163523997
 21
48.8883028938
 31
0.0
  0
LINE
  5
51F
330
1F
100
AcDbEntity
  8
SLD-0
  6
Continuous
370
    15
100
AcDbLine
 10
19.9913522758
 20
60.8292815373
 30
0.0
 11
19.9913522758
 21
60.8427841013
 31
0.0
  0
LINE
  5
520
330
1F
100
AcDbEntity
  8
SLD-0
  6
Continuous
370
    15
100
AcDbLine
 10
21.1163523997
 20
60.8292815373
 30
0.0
 11
19.9913522758
 21
60.8292815373
 31
0.0
  0
LINE
  5
521
330
1F
100
AcDbEntity
  8
SLD-0
  6
Continuous
370
    15
100
AcDbLine
 10
21.1163523997
 20
60.8427841013
 30
0.0
 11
21.1163523997
 21
60.8292815373
 31
0.0
  0
LINE
  5
522
330
1F
100
AcDbEntity
  8
SLD-0
  6
Continuous
370
    15
100
AcDbLine
 10
24.7413522734
 20
60.7983387481
 30
0.0
 11
24.7413522734
 21
60.8427841013
 31
0.0
  0
LINE
  5
523
330
1F
100
AcDbEntity
  8
SLD-0
  6
Continuous
370
    15
100
AcDbLine
 10
19.7413524438
 20
60.8427841013
 30
0.0
 11
19.7413524438
 21
60.7983387481
 31
0.0
  0
LINE
  5
524
330
1F
100
AcDbEntity
  8
SLD-0
  6
Continuous
370
    15
100
AcDbLine
 10
24.4913522581
 20
60.8292815373
 30
0.0
 11
23.3663522075
 21
60.8292815373
 31
0.0
  0
LINE
  5
525
330
1F
100
AcDbEntity
  8
SLD-0
  6
Continuous
370
    15
100
AcDbLine
 10
24.4913522581
 20
60.8427841013
 30
0.0
 11
24.4913522581
 21
60.8292815373
 31
0.0
  0
LINE
  5
526
330
1F
100
AcDbEntity
  8
SLD-0
  6
Continuous
370
    15
100
AcDbLine
 10
23.3663522075
 20
60.8292815373
 30
0.0
 11
23.3663522075
 21
60.8427841013
 31
0.0
  0
ELLIPSE
  5
527
330
1F
100
AcDbEntity
  8
SLD-0
  6
Continuous
370
    15
100
AcDbEllipse
 10
3.2863522673
 20
48.8157834201
 30
0.0
 11
0.0
 21
0.004999999999995453
 31
0.0
210
0.0
220
0.0
230
1.0
 40
0.4142135609
 41
4.712388980381853
 42
6.283185307179586
  0
LINE
  5
528
330
1F
100
AcDbEntity
  8
SLD-0
  6
Continuous
370
    15
100
AcDbLine
 10
3.2863521334
 20
48.8447844632
 30
0.0
 11
3.2863521334
 21
48.8207830338
 31
0.0
  0
ELLIPSE
  5
529
330
1F
100
AcDbEntity
  8
SLD-0
  6
Continuous
370
    15
100
AcDbEllipse
 10
3.2863522673
 20
48.8157834201
 30
0.0
 11
0.0
 21
0.02899999999999636
 31
0.0
210
0.0
220
0.0
230
1.0
 40
0.0714161312
 41
4.712388980383711
 42
6.283185307179586
  0
LINE
  5
52A
330
1F
100
AcDbEntity
  8
SLD-0
  6
Continuous
370
    15
100
AcDbLine
 10
25.2123522665
 20
48.8447844632
 30
0.0
 11
25.2123522665
 21
48.8157823449
 31
0.0
  0
LINE
  5
52B
330
1F
100
AcDbEntity
  8
SLD-0
  6
Continuous
370
    15
100
AcDbLine
 10
3.2884242161
 20
48.8157823449
 30
0.0
 11
25.2123522665
 21
48.8157823449
 31
0.0
  0
LINE
  5
52C
330
1F
100
AcDbEntity
  8
SLD-0
  6
Continuous
370
    15
100
AcDbLine
 10
3.2863521334
 20
48.8447844632
 30
0.0
 11
25.2123522665
 21
48.8447844632
 31
0.0
  0
LINE
  5
52D
330
1F
100
AcDbEntity
  8
SLD-0
  6
Continuous
370
    15
100
AcDbLine
 10
25.2123522665
 20
48.8157823449
 30
0.0
 11
25.2123522665
 21
47.9457845019
 31
0.0
  0
LINE
  5
52E
330
1F
100
AcDbEntity
  8
SLD-0
  6
Continuous
370
    15
100
AcDbLine
 10
25.087352268
 20
47.8207837059
 30
0.0
 11
25.2123522665
 21
47.9457845019
 31
0.0
  0
LINE
  5
52F
330
1F
100
AcDbEntity
  8
SLD-0
  6
Continuous
370
    15
100
AcDbLine
 10
3.4134226655
 20
47.8207837059
 30
0.0
 11
25.087352268
 21
47.8207837059
 31
0.0
  0
LINE
  5
530
330
1F
100
AcDbEntity
  8
SLD-0
  6
Continuous
370
    15
100
AcDbLine
 10
3.2884242161
 20
47.9457845019
 30
0.0
 11
3.4134226655
 21
47.8207837059
 31
0.0
  0
LINE
  5
531
330
1F
100
AcDbEntity
  8
SLD-0
  6
Continuous
370
    15
100
AcDbLine
 10
3.2884242161
 20
47.9457845019
 30
0.0
 11
3.2884242161
 21
48.8157823449
 31
0.0
  0
ARC
  5
532
330
1F
100
AcDbEntity
  8
SLD-0
  6
Continuous
370
    15
100
AcDbCircle
 10
3.2863522673
 20
48.8157834201
 30
0.0
 40
0.0050000000038546
100
AcDbArc
 50
89.9999999912
 51
180.0000000002
  0
LINE
  5
533
330
1F
100
AcDbEntity
  8
SLD-0
  6
Continuous
370
    15
100
AcDbLine
 10
3.2573523617
 20
48.8157823449
 30
0.0
 11
3.2813514445
 21
48.8157823449
 31
0.0
  0
ARC
  5
534
330
1F
100
AcDbEntity
  8
SLD-0
  6
Continuous
370
    15
100
AcDbCircle
 10
3.2863522673
 20
48.8157834201
 30
0.0
 40
0.028999999999999
100
AcDbArc
 50
89.9999999985
 51
180.0000000001
  0
ARC
  5
535
330
1F
100
AcDbEntity
  8
SLD-0
  6
Continuous
370
    15
100
AcDbCircle
 10
25.2123522673
 20
48.8157834201
 30
0.0
 40
0.0290000000004156
100
AcDbArc
 50
0.0
 51
90.0
  0
LINE
  5
536
330
1F
100
AcDbEntity
  8
SLD-0
  6
Continuous
370
    15
100
AcDbLine
 10
25.2173522679
 20
48.8157823449
 30
0.0
 11
25.2413522673
 21
48.8157823449
 31
0.0
  0
ARC
  5
537
330
1F
100
AcDbEntity
  8
SLD-0
  6
Continuous
370
    15
100
AcDbCircle
 10
25.2123522673
 20
48.8157834201
 30
0.0
 40
0.0049999999995904
100
AcDbArc
 50
0.0
 51
90.0
  0
LINE
  5
538
330
1F
100
AcDbEntity
  8
SLD-0
  6
Continuous
370
    15
100
AcDbLine
 10
25.2413522673
 20
48.8157823449
 30
0.0
 11
25.2413522673
 21
43.5707824556
 31
0.0
  0
LINE
  5
539
330
1F
100
AcDbEntity
  8
SLD-0
  6
Continuous
370
    15
100
AcDbLine
 10
25.2173522679
 20
43.5707824556
 30
0.0
 11
25.2413522673
 21
43.5707824556
 31
0.0
  0
LINE
  5
53A
330
1F
100
AcDbEntity
  8
SLD-0
  6
Continuous
370
    15
100
AcDbLine
 10
25.2173522679
 20
48.8157823449
 30
0.0
 11
25.2173522679
 21
43.5707824556
 31
0.0
  0
LINE
  5
53B
330
1F
100
AcDbEntity
  8
SLD-0
  6
Continuous
370
    15
100
AcDbLine
 10
25.2413522673
 20
43.4457840063
 30
0.0
 11
25.2173522679
 21
43.4457840063
 31
0.0
  0
LINE
  5
53C
330
1F
100
AcDbEntity
  8
SLD-0
  6
Continuous
370
    15
100
AcDbLine
 10
25.2413522673
 20
43.5707824556
 30
0.0
 11
25.2413522673
 21
43.4457840063
 31
0.0
  0
LINE
  5
53D
330
1F
100
AcDbEntity
  8
SLD-0
  6
Continuous
370
    15
100
AcDbLine
 10
25.2173522679
 20
43.5467833728
 30
0.0
 11
25.2173522679
 21
43.5707824556
 31
0.0
  0
LINE
  5
53E
330
1F
100
AcDbEntity
  8
SLD-0
  6
Continuous
370
    15
100
AcDbLine
 10
3.2813514445
 20
48.8157823449
 30
0.0
 11
3.2813514445
 21
47.9457845019
 31
0.0
  0
LINE
  5
53F
330
1F
100
AcDbEntity
  8
SLD-0
  6
Continuous
370
    15
100
AcDbLine
 10
3.2573523617
 20
47.9457845019
 30
0.0
 11
3.2813514445
 21
47.9457845019
 31
0.0
  0
LINE
  5
540
330
1F
100
AcDbEntity
  8
SLD-0
  6
Continuous
370
    15
100
AcDbLine
 10
3.2573523617
 20
48.8157823449
 30
0.0
 11
3.2573523617
 21
47.9457845019
 31
0.0
  0
LINE
  5
541
330
1F
100
AcDbEntity
  8
SLD-0
  6
Continuous
370
    15
100
AcDbLine
 10
3.2813514445
 20
47.9457845019
 30
0.0
 11
3.2813514445
 21
47.8207837059
 31
0.0
  0
LINE
  5
542
330
1F
100
AcDbEntity
  8
SLD-0
  6
Continuous
370
    15
100
AcDbLine
 10
3.2813514445
 20
47.8207837059
 30
0.0
 11
3.2573523617
 21
47.8207837059
 31
0.0
  0
LINE
  5
543
330
1F
100
AcDbEntity
  8
SLD-0
  6
Continuous
370
    15
100
AcDbLine
 10
3.2573523617
 20
47.8207837059
 30
0.0
 11
3.2573523617
 21
47.9457845019
 31
0.0
  0
ARC
  5
544
330
1F
100
AcDbEntity
  8
SLD-0
  6
Continuous
370
    15
100
AcDbCircle
 10
25.2463522673
 20
43.4457834201
 30
0.0
 40
0.0050000000000026
100
AcDbArc
 50
180.0
 51
270.0
  0
LINE
  5
545
330
1F
100
AcDbEntity
  8
SLD-0
  6
Continuous
370
    15
100
AcDbLine
 10
25.2463522676
 20
43.4407833174
 30
0.0
 11
25.2463522676
 21
43.4167842346
 31
0.0
  0
ARC
  5
546
330
1F
100
AcDbEntity
  8
SLD-0
  6
Continuous
370
    15
100
AcDbCircle
 10
25.2463522673
 20
43.4457834201
 30
0.0
 40
0.0289999999999999
100
AcDbArc
 50
180.0
 51
270.0
  0
LINE
  5
547
330
1F
100
AcDbEntity
  8
SLD-0
  6
Continuous
370
    15
100
AcDbLine
 10
25.2463522676
 20
43.4407833174
 30
0.0
 11
25.616352272
 21
43.4407833174
 31
0.0
  0
LINE
  5
548
330
1F
100
AcDbEntity
  8
SLD-0
  6
Continuous
370
    15
100
AcDbLine
 10
25.616352272
 20
43.4167842346
 30
0.0
 11
25.616352272
 21
43.4407833174
 31
0.0
  0
LINE
  5
549
330
1F
100
AcDbEntity
  8
SLD-0
  6
Continuous
370
    15
100
AcDbLine
 10
25.2463522676
 20
43.4167842346
 30
0.0
 11
25.616352272
 21
43.4167842346
 31
0.0
  0
LINE
  5
54A
330
1F
100
AcDbEntity
  8
SLD-0
  6
Continuous
370
    15
100
AcDbLine
 10
25.7413522613
 20
43.4407833174
 30
0.0
 11
25.7413522613
 21
43.4167842346
 31
0.0
  0
LINE
  5
54B
330
1F
100
AcDbEntity
  8
SLD-0
  6
Continuous
370
    15
100
AcDbLine
 10
25.7413522613
 20
43.4167842346
 30
0.0
 11
25.616352272
 21
43.4167842346
 31
0.0
  0
LINE
  5
54C
330
1F
100
AcDbEntity
  8
SLD-0
  6
Continuous
370
    15
100
AcDbLine
 10
25.616352272
 20
43.4407833174
 30
0.0
 11
25.7413522613
 21
43.4407833174
 31
0.0
  0
CIRCLE
  5
54D
330
1F
100
AcDbEntity
  8
SLD-0
  6
Continuous
370
    15
100
AcDbCircle
 10
20.2653522673
 20
24.6737834202
 30
0.0
 40
1.25
  0
LINE
  5
54E
330
1F
100
AcDbEntity
  8
SLD-0
  6
Continuous
370
    15
100
AcDbLine
 10
19.4673523558
 20
10.5687834442
 30
0.0
 11
19.4673523558
 21
15.0687834998
 31
0.0
  0
LINE
  5
54F
330
1F
100
AcDbEntity
  8
SLD-0
  6
Continuous
370
    15
100
AcDbLine
 10
19.4673523558
 20
15.0687834998
 30
0.0
 11
16.967352276
 21
15.0687834998
 31
0.0
  0
LINE
  5
550
330
1F
100
AcDbEntity
  8
SLD-0
  6
Continuous
370
    15
100
AcDbLine
 10
16.967352276
 20
15.0687834998
 30
0.0
 11
16.967352276
 21
10.5687834442
 31
0.0
  0
LINE
  5
551
330
1F
100
AcDbEntity
  8
SLD-0
  6
Continuous
370
    15
100
AcDbLine
 10
3.3213522624
 20
47.912854109
 30
0.0
 11
3.3213522624
 21
10.4616413086
 31
0.0
  0
LINE
  5
552
330
1F
100
AcDbEntity
  8
SLD-0
  6
Continuous
370
    15
100
AcDbLine
 10
25.2123522665
 20
48.778782879
 30
0.0
 11
25.2173522679
 21
48.778782879
 31
0.0
  0
LINE
  5
553
330
1F
100
AcDbEntity
  8
SLD-0
  6
Continuous
370
    15
100
AcDbLine
 10
25.2173522679
 20
10.3997834498
 30
0.0
 11
25.2173522679
 21
43.5467833728
 31
0.0
  0
LINE
  5
554
330
1F
100
AcDbEntity
  8
SLD-0
  6
Continuous
370
    15
100
AcDbLine
 10
25.2159203641
 20
9.5687834196
 30
0.0
 11
25.2123522665
 21
9.5687834196
 31
0.0
  0
LINE
  5
555
330
1F
100
AcDbEntity
  8
SLD-0
  6
Continuous
370
    15
100
AcDbLine
 10
25.222352267
 20
43.3957841572
 30
0.0
 11
25.2173522679
 21
43.3957841572
 31
0.0
  0
LINE
  5
556
330
1F
100
AcDbEntity
  8
SLD-0
  6
Continuous
370
    15
100
AcDbLine
 10
25.222352267
 20
10.5447834081
 30
0.0
 11
25.222352267
 21
43.3957841572
 31
0.0
  0
LINE
  5
557
330
1F
100
AcDbEntity
  8
SLD-0
  6
Continuous
370
    15
100
AcDbLine
 10
25.2173522679
 20
10.5447834081
 30
0.0
 11
25.222352267
 21
10.5447834081
 31
0.0
  0
LINE
  5
558
330
1F
100
AcDbEntity
  8
SLD-0
  6
Continuous
370
    15
100
AcDbLine
 10
25.7413522613
 20
10.6697833974
 30
0.0
 11
25.7413522613
 21
43.2707833612
 31
0.0
  0
LINE
  5
559
330
1F
100
AcDbEntity
  8
SLD-0
  6
Continuous
370
    15
100
AcDbLine
 10
25.222352267
 20
10.5447834081
 30
0.0
 11
25.616352272
 21
10.5447834081
 31
0.0
  0
LINE
  5
55A
330
1F
100
AcDbEntity
  8
SLD-0
  6
Continuous
370
    15
100
AcDbLine
 10
25.616352272
 20
43.3957841572
 30
0.0
 11
25.222352267
 21
43.3957841572
 31
0.0
  0
LINE
  5
55B
330
1F
100
AcDbEntity
  8
SLD-0
  6
Continuous
370
    15
100
AcDbLine
 10
25.7413522613
 20
43.2707833612
 30
0.0
 11
25.616352272
 21
43.3957841572
 31
0.0
  0
LINE
  5
55C
330
1F
100
AcDbEntity
  8
SLD-0
  6
Continuous
370
    15
100
AcDbLine
 10
25.616352272
 20
10.5447834081
 30
0.0
 11
25.7413522613
 21
10.6697833974
 31
0.0
  0
LINE
  5
55D
330
1F
100
AcDbEntity
  8
SLD-0
  6
Continuous
370
    15
100
AcDbLine
 10
3.2893511387
 20
9.6937834181
 30
0.0
 11
3.3034943354
 21
9.6937834181
 31
0.0
  0
LINE
  5
55E
330
1F
100
AcDbEntity
  8
SLD-0
  6
Continuous
370
    15
100
AcDbLine
 10
3.2893511387
 20
47.9448552326
 30
0.0
 11
3.2893511387
 21
10.4876412682
 31
0.0
  0
LINE
  5
55F
330
1F
100
AcDbEntity
  8
SLD-0
  6
Continuous
370
    15
100
AcDbLine
 10
3.2943518276
 20
9.5687834196
 30
0.0
 11
3.2893511387
 21
9.5687834196
 31
0.0
  0
LINE
  5
560
330
1F
100
AcDbEntity
  8
SLD-0
  6
Continuous
370
    15
100
AcDbLine
 10
3.2893511387
 20
9.5687834196
 30
0.0
 11
3.2893511387
 21
9.573783421
 31
0.0
  0
LINE
  5
561
330
1F
100
AcDbEntity
  8
SLD-0
  6
Continuous
370
    15
100
AcDbLine
 10
25.2123522665
 20
10.4437834549
 30
0.0
 11
25.087352268
 21
10.5687834442
 31
0.0
  0
LINE
  5
562
330
1F
100
AcDbEntity
  8
SLD-0
  6
Continuous
370
    15
100
AcDbLine
 10
25.2123522665
 20
9.573783421
 30
0.0
 11
25.2123522665
 21
10.4437834549
 31
0.0
  0
LINE
  5
563
330
1F
100
AcDbEntity
  8
SLD-0
  6
Continuous
370
    15
100
AcDbLine
 10
3.3034943354
 20
9.573783421
 30
0.0
 11
25.2123522665
 21
9.573783421
 31
0.0
  0
LINE
  5
564
330
1F
100
AcDbEntity
  8
SLD-0
  6
Continuous
370
    15
100
AcDbLine
 10
3.3034943354
 20
10.4437834549
 30
0.0
 11
3.3034943354
 21
9.573783421
 31
0.0
  0
LINE
  5
565
330
1F
100
AcDbEntity
  8
SLD-0
  6
Continuous
370
    15
100
AcDbLine
 10
3.4284951313
 20
10.5687834442
 30
0.0
 11
3.3034943354
 21
10.4437834549
 31
0.0
  0
LINE
  5
566
330
1F
100
AcDbEntity
  8
SLD-0
  6
Continuous
370
    15
100
AcDbLine
 10
3.4284951313
 20
10.5687834442
 30
0.0
 11
25.087352268
 21
10.5687834442
 31
0.0
  0
ELLIPSE
  5
567
330
1F
100
AcDbEntity
  8
SLD-0
  6
Continuous
370
    15
100
AcDbEllipse
 10
3.2943522673
 20
9.5737834202
 30
0.0
 11
0.0
 21
0.02899999999999814
 31
0.0
210
0.0
220
0.0
230
1.0
 40
0.315246056
 41
3.141592653589793
 42
4.712388980385551
  0
LINE
  5
568
330
1F
100
AcDbEntity
  8
SLD-0
  6
Continuous
370
    15
100
AcDbLine
 10
25.2123522665
 20
9.5447834202
 30
0.0
 11
25.2123522665
 21
9.573783421
 31
0.0
  0
LINE
  5
569
330
1F
100
AcDbEntity
  8
SLD-0
  6
Continuous
370
    15
100
AcDbLine
 10
3.2943518276
 20
9.5447834202
 30
0.0
 11
25.2123522665
 21
9.5447834202
 31
0.0
  0
LINE
  5
56A
330
1F
100
AcDbEntity
  8
SLD-0
  6
Continuous
370
    15
100
AcDbLine
 10
3.2943518276
 20
9.5687834196
 30
0.0
 11
3.2943518276
 21
9.5447834202
 31
0.0
  0
ELLIPSE
  5
56B
330
1F
100
AcDbEntity
  8
SLD-0
  6
Continuous
370
    15
100
AcDbEllipse
 10
3.2943522673
 20
9.5737834202
 30
0.0
 11
0.009142135623514845
 21
0.0
 31
0.0
210
0.0
220
0.0
230
1.0
 40
0.5469181607
 41
4.712388980384697
 42
6.283185307179586
  0
LINE
  5
56C
330
1F
100
AcDbEntity
  8
SLD-0
  6
Continuous
370
    15
100
AcDbLine
 10
3.265352056
 20
9.573783421
 30
0.0
 11
3.2893511387
 21
9.573783421
 31
0.0
  0
ARC
  5
56D
330
1F
100
AcDbEntity
  8
SLD-0
  6
Continuous
370
    15
100
AcDbCircle
 10
3.2943522673
 20
9.5737834202
 30
0.0
 40
0.0290000000000168
100
AcDbArc
 50
180.0
 51
270.000000001
  0
ARC
  5
56E
330
1F
100
AcDbEntity
  8
SLD-0
  6
Continuous
370
    15
100
AcDbCircle
 10
3.2943522673
 20
9.5737834202
 30
0.0
 40
0.0050000000000008
100
AcDbArc
 50
180.0
 51
270.0000000055
  0
LINE
  5
56F
330
1F
100
AcDbEntity
  8
SLD-0
  6
Continuous
370
    15
100
AcDbLine
 10
3.265352056
 20
10.5687834442
 30
0.0
 11
3.2893511387
 21
10.5687834442
 31
0.0
  0
LINE
  5
570
330
1F
100
AcDbEntity
  8
SLD-0
  6
Continuous
370
    15
100
AcDbLine
 10
3.2893511387
 20
10.4876412682
 30
0.0
 11
3.2893511387
 21
10.4437834549
 31
0.0
  0
LINE
  5
571
330
1F
100
AcDbEntity
  8
SLD-0
  6
Continuous
370
    15
100
AcDbLine
 10
3.2893511387
 20
10.4437834549
 30
0.0
 11
3.265352056
 21
10.4437834549
 31
0.0
  0
LINE
  5
572
330
1F
100
AcDbEntity
  8
SLD-0
  6
Continuous
370
    15
100
AcDbLine
 10
3.265352056
 20
10.4437834549
 30
0.0
 11
3.265352056
 21
10.5687834442
 31
0.0
  0
LINE
  5
573
330
1F
100
AcDbEntity
  8
SLD-0
  6
Continuous
370
    15
100
AcDbLine
 10
3.265352056
 20
9.573783421
 30
0.0
 11
3.265352056
 21
10.4437834549
 31
0.0
  0
LINE
  5
574
330
1F
100
AcDbEntity
  8
SLD-0
  6
Continuous
370
    15
100
AcDbLine
 10
3.2893511387
 20
9.573783421
 30
0.0
 11
3.2893511387
 21
10.4437834549
 31
0.0
  0
ARC
  5
575
330
1F
100
AcDbEntity
  8
SLD-0
  6
Continuous
370
    15
100
AcDbCircle
 10
25.2123522673
 20
9.5737834202
 30
0.0
 40
0.0289999999996144
100
AcDbArc
 50
270.0
 51
0.0
  0
ARC
  5
576
330
1F
100
AcDbEntity
  8
SLD-0
  6
Continuous
370
    15
100
AcDbCircle
 10
25.2123522673
 20
9.5737834202
 30
0.0
 40
0.0049999999996176
100
AcDbArc
 50
315.5301759995
 51
0.0
  0
LINE
  5
577
330
1F
100
AcDbEntity
  8
SLD-0
  6
Continuous
370
    15
100
AcDbLine
 10
25.2173522679
 20
9.573783421
 30
0.0
 11
25.2413522673
 21
9.573783421
 31
0.0
  0
LINE
  5
578
330
1F
100
AcDbEntity
  8
SLD-0
  6
Continuous
370
    15
100
AcDbLine
 10
25.2413522673
 20
10.3907834271
 30
0.0
 11
25.2173522679
 21
10.3907834271
 31
0.0
  0
LINE
  5
579
330
1F
100
AcDbEntity
  8
SLD-0
  6
Continuous
370
    15
100
AcDbLine
 10
25.2173522679
 20
10.5157834164
 30
0.0
 11
25.2413522673
 21
10.5157834164
 31
0.0
  0
LINE
  5
57A
330
1F
100
AcDbEntity
  8
SLD-0
  6
Continuous
370
    15
100
AcDbLine
 10
25.2413522673
 20
10.5157834164
 30
0.0
 11
25.2413522673
 21
10.3907834271
 31
0.0
  0
LINE
  5
57B
330
1F
100
AcDbEntity
  8
SLD-0
  6
Continuous
370
    15
100
AcDbLine
 10
25.2173522679
 20
10.3907834271
 30
0.0
 11
25.2173522679
 21
10.3997834498
 31
0.0
  0
LINE
  5
57C
330
1F
100
AcDbEntity
  8
SLD-0
  6
Continuous
370
    15
100
AcDbLine
 10
25.2413522673
 20
9.573783421
 30
0.0
 11
25.2413522673
 21
10.3907834271
 31
0.0
  0
LINE
  5
57D
330
1F
100
AcDbEntity
  8
SLD-0
  6
Continuous
370
    15
100
AcDbLine
 10
25.2173522679
 20
9.573783421
 30
0.0
 11
25.2173522679
 21
10.3907834271
 31
0.0
  0
ARC
  5
57E
330
1F
100
AcDbEntity
  8
SLD-0
  6
Continuous
370
    15
100
AcDbCircle
 10
25.2463522673
 20
10.5157834202
 30
0.0
 40
0.0289999999999999
100
AcDbArc
 50
90.0
 51
180.0
  0
LINE
  5
57F
330
1F
100
AcDbEntity
  8
SLD-0
  6
Continuous
370
    15
100
AcDbLine
 10
25.2463522676
 20
10.5207834454
 30
0.0
 11
25.2463522676
 21
10.5447834081
 31
0.0
  0
ARC
  5
580
330
1F
100
AcDbEntity
  8
SLD-0
  6
Continuous
370
    15
100
AcDbCircle
 10
25.2463522673
 20
10.5157834202
 30
0.0
 40
0.0050000000000008
100
AcDbArc
 50
90.0
 51
180.0
  0
LINE
  5
581
330
1F
100
AcDbEntity
  8
SLD-0
  6
Continuous
370
    15
100
AcDbLine
 10
25.7413522613
 20
10.5447834081
 30
0.0
 11
25.7413522613
 21
10.5207834454
 31
0.0
  0
LINE
  5
582
330
1F
100
AcDbEntity
  8
SLD-0
  6
Continuous
370
    15
100
AcDbLine
 10
25.7413522613
 20
10.5207834454
 30
0.0
 11
25.616352272
 21
10.5207834454
 31
0.0
  0
LINE
  5
583
330
1F
100
AcDbEntity
  8
SLD-0
  6
Continuous
370
    15
100
AcDbLine
 10
25.616352272
 20
10.5207834454
 30
0.0
 11
25.616352272
 21
10.5447834081
 31
0.0
  0
LINE
  5
584
330
1F
100
AcDbEntity
  8
SLD-0
  6
Continuous
370
    15
100
AcDbLine
 10
25.616352272
 20
10.5447834081
 30
0.0
 11
25.6922044257
 21
10.5447834081
 31
0.0
  0
LINE
  5
585
330
1F
100
AcDbEntity
  8
SLD-0
  6
Continuous
370
    15
100
AcDbLine
 10
25.6963522578
 20
10.5447834081
 30
0.0
 11
25.7413522613
 21
10.5447834081
 31
0.0
  0
LINE
  5
586
330
1F
100
AcDbEntity
  8
SLD-0
  6
Continuous
370
    15
100
AcDbLine
 10
25.616352272
 20
10.5207834454
 30
0.0
 11
25.2463522676
 21
10.5207834454
 31
0.0
  0
LINE
  5
587
330
1F
100
AcDbEntity
  8
SLD-0
  6
Continuous
370
    15
100
AcDbLine
 10
25.7023522852
 20
43.3097845107
 30
0.0
 11
25.7023522852
 21
43.3243923419
 31
0.0
  0
LINE
  5
588
330
1F
100
AcDbEntity
  8
SLD-0
  6
Continuous
370
    15
100
AcDbLine
 10
17.741352028
 20
59.3328576508
 30
0.0
 11
19.7413524438
 21
59.3328576508
 31
0.0
  0
LINE
  5
589
330
1F
100
AcDbEntity
  8
SLD-0
  6
Continuous
370
    15
100
AcDbLine
 10
17.741352028
 20
54.8891061054
 30
0.0
 11
19.7413524438
 21
54.8891061054
 31
0.0
  0
LINE
  5
58A
330
1F
100
AcDbEntity
  8
SLD-0
  6
Continuous
370
    15
100
AcDbLine
 10
3.1770292363
 20
30.5347843552
 30
0.0
 11
3.1770292363
 21
30.48878318
 31
0.0
  0
LINE
  5
58B
330
1F
100
AcDbEntity
  8
SLD-0
  6
Continuous
370
    15
100
AcDbLine
 10
3.3503520341
 20
10.4906413002
 30
0.0
 11
3.3503520341
 21
47.8838543373
 31
0.0
  0
LINE
  5
58C
330
1F
100
AcDbEntity
  8
SLD-0
  6
Continuous
370
    15
100
AcDbLine
 10
25.1883522671
 20
10.4677834176
 30
0.0
 11
25.1883522671
 21
47.9217830725
 31
0.0
  0
LINE
  5
58D
330
1F
100
AcDbEntity
  8
DIM
100
AcDbLine
 10
18.2173522673
 20
13.7976089057
 30
0.0
 11
18.2173522673
 21
11.8399579348
 31
0.0
  0
LINE
  5
58E
330
1F
100
AcDbEntity
  8
DIM
100
AcDbLine
 10
17.2385267819
 20
12.8187834202
 30
0.0
 11
19.1961777528
 21
12.8187834202
 31
0.0
  0
DIMENSION
  5
58F
330
1F
100
AcDbEntity
  8
DIM
100
AcDbDimension
  2
_D_19
 10
25.7413522673
 20
6.5447814517
 30
0.0
 11
21.9793522673
 21
6.5447814517
 31
0.0
 70
   160
  1
<>
 71
     2
 42
-1.0
  3
SLDDIMSTYLE0
100
AcDbAlignedDimension
 13
18.2173522673
 23
11.8399579348
 33
0.0
 14
25.7413522673
 24
10.6697834202
 34
0.0
100
AcDbRotatedDimension
  0
DIMENSION
  5
59E
330
1F
100
AcDbEntity
  8
DIM
100
AcDbDimension
  2
_D_20
 10
14.0680570418
 20
9.5447834202
 30
0.0
 11
14.0680570418
 21
6.5447814517
 31
0.0
 70
   160
  1
<>
 71
     2
 42
-1.0
  3
SLDDIMSTYLE2
100
AcDbAlignedDimension
 13
17.2385267819
 23
12.8187834202
 33
0.0
 14
3.2943522673
 24
9.5447834202
 34
0.0
 50
90.0
100
AcDbRotatedDimension
  0
ENDSEC
  0
SECTION
  2
OBJECTS
  0
DICTIONARY
  5
C
330
0
100
AcDbDictionary
281
     1
  3
ACAD_GROUP
350
D
  3
ACAD_LAYOUT
350
1A
  3
ACAD_MATERIAL
350
3B
  3
ACAD_MLEADERSTYLE
350
5AE
  3
ACAD_MLINESTYLE
350
17
  3
ACAD_PLOTSETTINGS
350
19
  3
ACAD_PLOTSTYLENAME
350
E
  3
ACAD_TABLESTYLE
350
5AD
  0
DICTIONARY
  5
D
102
{ACAD_REACTORS
330
C
102
}
330
C
100
AcDbDictionary
281
     1
  0
DICTIONARY
  5
1A
102
{ACAD_REACTORS
330
C
102
}
330
C
100
AcDbDictionary
281
     1
  3
Layout1
350
1E
  3
Layout2
350
26
  3
Model
350
22
  0
DICTIONARY
  5
3B
102
{ACAD_REACTORS
330
C
102
}
330
C
100
AcDbDictionary
281
     1
  3
ByBlock
350
3D
  3
ByLayer
350
3C
  3
Global
350
3E
  0
DICTIONARY
  5
5AE
102
{ACAD_REACTORS
330
C
102
}
330
C
100
AcDbDictionary
281
     1
  0
DICTIONARY
  5
17
102
{ACAD_REACTORS
330
C
102
}
330
C
100
AcDbDictionary
281
     1
  3
Standard
350
18
  0
DICTIONARY
  5
19
102
{ACAD_REACTORS
330
C
102
}
330
C
100
AcDbDictionary
281
     1
  0
ACDBDICTIONARYWDFLT
  5
E
102
{ACAD_REACTORS
330
C
102
}
330
C
100
AcDbDictionary
281
     1
  3
Normal
350
F
100
AcDbDictionaryWithDefault
340
F
  0
DICTIONARY
  5
5AD
102
{ACAD_REACTORS
330
C
102
}
330
C
100
AcDbDictionary
281
     1
  0
LAYOUT
  5
1E
102
{ACAD_REACTORS
330
1A
102
}
330
1A
100
AcDbPlotSettings
  1

  2
none_device
  4

  6

 40
0.0
 41
0.0
 42
0.0
 43
0.0
 44
0.0
 45
0.0
 46
0.0
 47
0.0
 48
0.0
 49
0.0
140
0.0
141
0.0
142
1.0
143
1.0
 70
   688
 72
     0
 73
     0
 74
     5
  7

 75
    16
 76
     0
 77
     2
 78
   300
147
1.0
148
0.0
149
0.0
100
AcDbLayout
  1
Layout1
 70
     1
 71
     1
 10
0.0
 20
0.0
 11
12.0
 21
9.0
 12
0.0
 22
0.0
 32
0.0
 14
1.0000000000E+20
 24
1.0000000000E+20
 34
1.0000000000E+20
 15
-1.0000000000E+20
 25
-1.0000000000E+20
 35
-1.0000000000E+20
146
0.0
 13
0.0
 23
0.0
 33
0.0
 16
1.0
 26
0.0
 36
0.0
 17
0.0
 27
1.0
 37
0.0
 76
     0
330
1B
  0
LAYOUT
  5
26
102
{ACAD_REACTORS
330
1A
102
}
330
1A
100
AcDbPlotSettings
  1

  2
none_device
  4

  6

 40
0.0
 41
0.0
 42
0.0
 43
0.0
 44
0.0
 45
0.0
 46
0.0
 47
0.0
 48
0.0
 49
0.0
140
0.0
141
0.0
142
1.0
143
1.0
 70
   688
 72
     0
 73
     0
 74
     5
  7

 75
    16
 76
     0
 77
     2
 78
   300
147
1.0
148
0.0
149
0.0
100
AcDbLayout
  1
Layout2
 70
     1
 71
     2
 10
0.0
 20
0.0
 11
0.0
 21
0.0
 12
0.0
 22
0.0
 32
0.0
 14
0.0
 24
0.0
 34
0.0
 15
0.0
 25
0.0
 35
0.0
146
0.0
 13
0.0
 23
0.0
 33
0.0
 16
1.0
 26
0.0
 36
0.0
 17
0.0
 27
1.0
 37
0.0
 76
     0
330
23
  0
LAYOUT
  5
22
102
{ACAD_REACTORS
330
1A
102
}
330
1A
100
AcDbPlotSettings
  1

  2
none_device
  4

  6

 40
0.0
 41
0.0
 42
0.0
 43
0.0
 44
0.0
 45
0.0
 46
0.0
 47
0.0
 48
0.0
 49
0.0
140
0.0
141
0.0
142
1.0
143
1.0
 70
  1712
 72
     0
 73
     0
 74
     0
  7

 75
     0
 76
     0
 77
     2
 78
   300
147
1.0
148
0.0
149
0.0
100
AcDbLayout
  1
Model
 70
     1
 71
     0
 10
0.0
 20
0.0
 11
140.0
 21
110.0
 12
0.0
 22
0.0
 32
0.0
 14
0.0
 24
0.0
 34
0.0
 15
140.0
 25
110.0
 35
0.0
146
0.0
 13
0.0
 23
0.0
 33
0.0
 16
1.0
 26
0.0
 36
0.0
 17
0.0
 27
1.0
 37
0.0
 76
     0
330
1F
331
29
  0
MATERIAL
  5
3D
102
{ACAD_REACTORS
330
3B
102
}
330
3B
100
AcDbMaterial
  1
ByBlock
  0
MATERIAL
  5
3C
102
{ACAD_REACTORS
330
3B
102
}
330
3B
100
AcDbMaterial
  1
ByLayer
  0
MATERIAL
  5
3E
102
{ACAD_REACTORS
330
3B
102
}
330
3B
100
AcDbMaterial
  1
Global
  0
MLINESTYLE
  5
18
102
{ACAD_REACTORS
330
17
102
}
330
17
100
AcDbMlineStyle
  2
Standard
 70
     0
  3

 62
   256
 51
90.0
 52
90.0
 71
     2
 49
0.5
 62
   256
  6
BYLAYER
 49
-0.5
 62
   256
  6
BYLAYER
  0
ACDBPLACEHOLDER
  5
F
102
{ACAD_REACTORS
330
E
102
}
330
E
  0
ENDSEC
  0
EOF
