  0
SECTION
  2
HEADER
  9
$ACADVER
  1
AC1018
  9
$ACADMAINTVER
 70
     0
  9
$DWGCODEPAGE
  3
ANSI_1252
  9
$INSBASE
 10
0.0
 20
0.0
 30
0.0
  9
$EXTMIN
 10
0.0
 20
0.0
 30
0.0
  9
$EXTMAX
 10
150.0
 20
120.0
 30
0.0
  9
$LIMMIN
 10
0.0
 20
0.0
  9
$LIMMAX
 10
150.0
 20
120.0
  9
$ORTHOMODE
 70
     0
  9
$REGENMODE
 70
     1
  9
$FILLMODE
 70
     1
  9
$QTEXTMODE
 70
     0
  9
$MIRRTEXT
 70
     1
  9
$LTSCALE
 40
1.0
  9
$ATTMODE
 70
     1
  9
$TEXTSIZE
 40
0.1388888889
  9
$TRACEWID
 40
0.05
  9
$TEXTSTYLE
  7
Standard
  9
$CLAYER
  8
0
  9
$CELTYPE
  6
ByLayer
  9
$CECOLOR
 62
   256
  9
$CELTSCALE
 40
1.0
  9
$DISPSILH
 70
     0
  9
$DIMSCALE
 40
1.0
  9
$DIMASZ
 40
1.0
  9
$DIMEXO
 40
0.0393700787
  9
$DIMDLI
 40
0.38
  9
$DIMRND
 40
0.0
  9
$DIMDLE
 40
0.0
  9
$DIMEXE
 40
0.0393700787
  9
$DIMTP
 40
0.0
  9
$DIMTM
 40
0.0
  9
$DIMTXT
 40
1.5
  9
$DIMCEN
 40
0.09
  9
$DIMTSZ
 40
0.0
  9
$DIMTOL
 70
     0
  9
$DIMLIM
 70
     0
  9
$DIMTIH
 70
     1
  9
$DIMTOH
 70
     1
  9
$DIMSE1
 70
     0
  9
$DIMSE2
 70
     0
  9
$DIMTAD
 70
     0
  9
$DIMZIN
 70
     0
  9
$DIMBLK
  1

  9
$DIMASO
 70
     1
  9
$DIMSHO
 70
     1
  9
$DIMPOST
  1

  9
$DIMAPOST
  1

  9
$DIMALT
 70
     0
  9
$DIMALTD
 70
     2
  9
$DIMALTF
 40
25.4
  9
$DIMLFAC
 40
1.0
  9
$DIMTOFL
 70
     0
  9
$DIMTVP
 40
0.0
  9
$DIMTIX
 70
     0
  9
$DIMSOXD
 70
     0
  9
$DIMSAH
 70
     0
  9
$DIMBLK1
  1

  9
$DIMBLK2
  1

  9
$DIMSTYLE
  2
Standard
  9
$DIMCLRD
 70
     0
  9
$DIMCLRE
 70
     0
  9
$DIMCLRT
 70
     0
  9
$DIMTFAC
 40
1.0
  9
$DIMGAP
 40
0.06
  9
$DIMJUST
 70
     0
  9
$DIMSD1
 70
     0
  9
$DIMSD2
 70
     0
  9
$DIMTOLJ
 70
     1
  9
$DIMTZIN
 70
     0
  9
$DIMALTZ
 70
     0
  9
$DIMALTTZ
 70
     0
  9
$DIMUPT
 70
     0
  9
$DIMDEC
 70
     3
  9
$DIMTDEC
 70
     2
  9
$DIMALTU
 70
     2
  9
$DIMALTTD
 70
     2
  9
$DIMTXSTY
  7
Standard
  9
$DIMAUNIT
 70
     0
  9
$DIMADEC
 70
     2
  9
$DIMALTRND
 40
0.0
  9
$DIMAZIN
 70
     0
  9
$DIMDSEP
 70
    46
  9
$DIMATFIT
 70
     3
  9
$DIMFRAC
 70
     0
  9
$DIMLDRBLK
  1

  9
$DIMLUNIT
 70
     2
  9
$DIMLWD
 70
    -2
  9
$DIMLWE
 70
    -2
  9
$DIMTMOVE
 70
     0
  9
$LUNITS
 70
     2
  9
$LUPREC
 70
     3
  9
$SKETCHINC
 40
0.1
  9
$FILLETRAD
 40
0.5
  9
$AUNITS
 70
     0
  9
$AUPREC
 70
     2
  9
$MENU
  1
.
  9
$ELEVATION
 40
0.0
  9
$PELEVATION
 40
0.0
  9
$THICKNESS
 40
0.0
  9
$LIMCHECK
 70
     0
  9
$CHAMFERA
 40
0.5
  9
$CHAMFERB
 40
0.5
  9
$CHAMFERC
 40
1.0
  9
$CHAMFERD
 40
0.0
  9
$SKPOLY
 70
     0
  9
$TDCREATE
 40
2456596.36247419
  9
$TDUCREATE
 40
2456596.570807523
  9
$TDUPDATE
 40
2456596.362478171
  9
$TDUUPDATE
 40
2456596.570811504
  9
$TDINDWG
 40
0.0000000116
  9
$TDUSRTIMER
 40
0.0000000116
  9
$USRTIMER
 70
     1
  9
$ANGBASE
 50
0.0
  9
$ANGDIR
 70
     0
  9
$PDMODE
 70
     0
  9
$PDSIZE
 40
-1.0
  9
$PLINEWID
 40
0.0
  9
$SPLFRAME
 70
     0
  9
$SPLINETYPE
 70
     6
  9
$SPLINESEGS
 70
     8
  9
$HANDSEED
  5
500
  9
$SURFTAB1
 70
     6
  9
$SURFTAB2
 70
     6
  9
$SURFTYPE
 70
     6
  9
$SURFU
 70
     6
  9
$SURFV
 70
     6
  9
$UCSBASE
  2

  9
$UCSNAME
  2

  9
$UCSORG
 10
0.0
 20
0.0
 30
0.0
  9
$UCSXDIR
 10
1.0
 20
0.0
 30
0.0
  9
$UCSYDIR
 10
0.0
 20
1.0
 30
0.0
  9
$UCSORTHOREF
  2

  9
$UCSORTHOVIEW
 70
     0
  9
$UCSORGTOP
 10
0.0
 20
0.0
 30
0.0
  9
$UCSORGBOTTOM
 10
0.0
 20
0.0
 30
0.0
  9
$UCSORGLEFT
 10
0.0
 20
0.0
 30
0.0
  9
$UCSORGRIGHT
 10
0.0
 20
0.0
 30
0.0
  9
$UCSORGFRONT
 10
0.0
 20
0.0
 30
0.0
  9
$UCSORGBACK
 10
0.0
 20
0.0
 30
0.0
  9
$PUCSBASE
  2

  9
$PUCSNAME
  2

  9
$PUCSORG
 10
0.0
 20
0.0
 30
0.0
  9
$PUCSXDIR
 10
1.0
 20
0.0
 30
0.0
  9
$PUCSYDIR
 10
0.0
 20
1.0
 30
0.0
  9
$PUCSORTHOREF
  2

  9
$PUCSORTHOVIEW
 70
     0
  9
$PUCSORGTOP
 10
0.0
 20
0.0
 30
0.0
  9
$PUCSORGBOTTOM
 10
0.0
 20
0.0
 30
0.0
  9
$PUCSORGLEFT
 10
0.0
 20
0.0
 30
0.0
  9
$PUCSORGRIGHT
 10
0.0
 20
0.0
 30
0.0
  9
$PUCSORGFRONT
 10
0.0
 20
0.0
 30
0.0
  9
$PUCSORGBACK
 10
0.0
 20
0.0
 30
0.0
  9
$USERI1
 70
     0
  9
$USERI2
 70
     0
  9
$USERI3
 70
     0
  9
$USERI4
 70
     0
  9
$USERI5
 70
     0
  9
$USERR1
 40
0.0
  9
$USERR2
 40
0.0
  9
$USERR3
 40
0.0
  9
$USERR4
 40
0.0
  9
$USERR5
 40
0.0
  9
$WORLDVIEW
 70
     1
  9
$SHADEDGE
 70
     3
  9
$SHADEDIF
 70
    70
  9
$TILEMODE
 70
     1
  9
$MAXACTVP
 70
    64
  9
$PINSBASE
 10
0.0
 20
0.0
 30
0.0
  9
$PLIMCHECK
 70
     0
  9
$PEXTMIN
 10
1.0000000000E+20
 20
1.0000000000E+20
 30
1.0000000000E+20
  9
$PEXTMAX
 10
-1.0000000000E+20
 20
-1.0000000000E+20
 30
-1.0000000000E+20
  9
$PLIMMIN
 10
0.0
 20
0.0
  9
$PLIMMAX
 10
12.0
 20
9.0
  9
$UNITMODE
 70
     0
  9
$VISRETAIN
 70
     1
  9
$PLINEGEN
 70
     0
  9
$PSLTSCALE
 70
     1
  9
$TREEDEPTH
 70
  3020
  9
$CMLSTYLE
  2
Standard
  9
$CMLJUST
 70
     0
  9
$CMLSCALE
 40
1.0
  9
$PROXYGRAPHICS
 70
     1
  9
$MEASUREMENT
 70
     0
  9
$CELWEIGHT
370
    -1
  9
$ENDCAPS
280
     0
  9
$JOINSTYLE
280
     0
  9
$LWDISPLAY
290
     1
  9
$INSUNITS
 70
     1
  9
$HYPERLINKBASE
  1

  9
$STYLESHEET
  1

  9
$XEDIT
290
     1
  9
$CEPSNTYPE
380
     0
  9
$PSTYLEMODE
290
     1
  9
$FINGERPRINTGUID
  2
{A952FB59-05E4-44E8-BD68-B36C87CC1BDF}
  9
$VERSIONGUID
  2
{FAEB1C32-E019-11D5-929B-00C0DF256EC4}
  9
$EXTNAMES
290
     1
  9
$PSVPSCALE
 40
0.0
  9
$OLESTARTUP
290
     0
  9
$SORTENTS
280
   127
  9
$INDEXCTL
280
     0
  9
$HIDETEXT
280
     1
  9
$XCLIPFRAME
290
     0
  9
$HALOGAP
280
     0
  9
$OBSCOLOR
 70
   257
  9
$OBSLTYPE
280
     0
  9
$INTERSECTIONDISPLAY
280
     0
  9
$INTERSECTIONCOLOR
 70
   257
  9
$DIMASSOC
280
     2
  9
$PROJECTNAME
  1

  0
ENDSEC
  0
SECTION
  2
CLASSES
  0
CLASS
  1
ACDBDICTIONARYWDFLT
  2
AcDbDictionaryWithDefault
  3
ObjectDBX Classes
 90
        0
 91
        4
280
     0
281
     0
  0
CLASS
  1
VISUALSTYLE
  2
AcDbVisualStyle
  3
ObjectDBX Classes
 90
     4095
 91
        4
280
     0
281
     0
  0
CLASS
  1
MATERIAL
  2
AcDbMaterial
  3
ObjectDBX Classes
 90
     1153
 91
        4
280
     0
281
     0
  0
ENDSEC
  0
SECTION
  2
TABLES
  0
TABLE
  2
VPORT
  5
8
330
0
100
AcDbSymbolTable
 70
     1
  0
VPORT
  5
29
330
8
100
AcDbSymbolTableRecord
100
AcDbViewportTableRecord
  2
*Active
 70
     0
 10
0.0
 20
0.0
 11
1.0
 21
1.0
 12
75.0
 22
60.0
 13
0.0
 23
0.0
 14
0.5
 24
0.5
 15
0.5
 25
0.5
 16
0.0
 26
0.0
 36
1.0
 17
0.0
 27
0.0
 37
0.0
 40
120.0
 41
1.25
 42
50.0
 43
0.0
 44
0.0
 50
0.0
 51
0.0
 71
     0
 72
  2000
 73
     1
 74
     3
 75
     0
 76
     0
 77
     0
 78
     0
281
     0
 65
     1
110
0.0
120
0.0
130
0.0
111
1.0
121
0.0
131
0.0
112
0.0
122
1.0
132
0.0
 79
     0
146
0.0
  0
ENDTAB
  0
TABLE
  2
LTYPE
  5
5
330
0
100
AcDbSymbolTable
 70
     6
  0
LTYPE
  5
14
330
5
100
AcDbSymbolTableRecord
100
AcDbLinetypeTableRecord
  2
ByBlock
 70
     0
  3

 72
    65
 73
     0
 40
0.0
  0
LTYPE
  5
15
330
5
100
AcDbSymbolTableRecord
100
AcDbLinetypeTableRecord
  2
ByLayer
 70
     0
  3

 72
    65
 73
     0
 40
0.0
  0
LTYPE
  5
16
330
5
100
AcDbSymbolTableRecord
100
AcDbLinetypeTableRecord
  2
Continuous
 70
     0
  3
Solid line
 72
    65
 73
     0
 40
0.0
  0
LTYPE
  5
3F
330
5
100
AcDbSymbolTableRecord
100
AcDbLinetypeTableRecord
  2
HIDDEN
 70
     0
  3
Hidden __ __ __ __ __ __ __ __ __ __ __ __ __ __
 72
    65
 73
     2
 40
0.075
 49
0.05
 74
     0
 49
-0.025
 74
     0
  0
LTYPE
  5
40
330
5
100
AcDbSymbolTableRecord
100
AcDbLinetypeTableRecord
  2
PHANTOM
 70
     0
  3
Phantom ______  __  __  ______  __  __  ______
 72
    65
 73
     6
 40
0.5
 49
0.25
 74
     0
 49
-0.05
 74
     0
 49
0.05
 74
     0
 49
-0.05
 74
     0
 49
0.05
 74
     0
 49
-0.05
 74
     0
  0
LTYPE
  5
41
330
5
100
AcDbSymbolTableRecord
100
AcDbLinetypeTableRecord
  2
CENTER
 70
     0
  3
Center ____ _ ____ _ ____ _ ____ _ ____ _ ____
 72
    65
 73
     4
 40
0.4
 49
0.25
 74
     0
 49
-0.05
 74
     0
 49
0.05
 74
     0
 49
-0.05
 74
     0
  0
LTYPE
  5
42
330
5
100
AcDbSymbolTableRecord
100
AcDbLinetypeTableRecord
  2
CENTERX2
 70
     0
  3
Center (2x) ________  __  ________  __  _____
 72
    65
 73
     4
 40
0.8
 49
0.5
 74
     0
 49
-0.1
 74
     0
 49
0.1
 74
     0
 49
-0.1
 74
     0
  0
LTYPE
  5
43
330
5
100
AcDbSymbolTableRecord
100
AcDbLinetypeTableRecord
  2
DOT2
 70
     0
  3
Dot (.5x) ........................................
 72
    65
 73
     2
 40
0.025
 49
0.0
 74
     0
 49
-0.025
 74
     0
  0
ENDTAB
  0
TABLE
  2
LAYER
  5
2
330
0
100
AcDbSymbolTable
 70
     4
  0
LAYER
  5
10
330
2
100
AcDbSymbolTableRecord
100
AcDbLayerTableRecord
  2
0
 70
     0
 62
     7
  6
Continuous
370
    -3
390
F
  0
LAYER
  5
44
330
2
100
AcDbSymbolTableRecord
100
AcDbLayerTableRecord
  2
SLD-0
 70
     0
 62
     7
  6
Continuous
370
    -3
390
F
  0
LAYER
  5
45
330
2
100
AcDbSymbolTableRecord
100
AcDbLayerTableRecord
  2
NOTES
 70
     0
 62
     1
  6
Continuous
370
    -3
390
F
  0
LAYER
  5
46
330
2
100
AcDbSymbolTableRecord
100
AcDbLayerTableRecord
  2
DIM
 70
     0
 62
   100
  6
Continuous
370
    -3
390
F
  0
ENDTAB
  0
TABLE
  2
STYLE
  5
3
330
0
100
AcDbSymbolTable
 70
     2
  0
STYLE
  5
11
330
3
100
AcDbSymbolTableRecord
100
AcDbTextStyleTableRecord
  2
Standard
 70
     0
 40
0.0
 41
1.0
 50
0.0
 71
     0
 42
0.1388888889
  3
txt
  4

  0
STYLE
  5
47
330
3
100
AcDbSymbolTableRecord
100
AcDbTextStyleTableRecord
  2
SLDTEXTSTYLE0
 70
     0
 40
0.0
 41
0.75
 50
0.0
 71
     0
 42
0.2
  3
TXT
  4

  0
ENDTAB
  0
TABLE
  2
VIEW
  5
6
330
0
100
AcDbSymbolTable
 70
     0
  0
ENDTAB
  0
TABLE
  2
UCS
  5
7
330
0
100
AcDbSymbolTable
 70
     0
  0
ENDTAB
  0
TABLE
  2
APPID
  5
9
330
0
100
AcDbSymbolTable
 70
     1
  0
APPID
  5
12
330
9
100
AcDbSymbolTableRecord
100
AcDbRegAppTableRecord
  2
ACAD
 70
     0
  0
ENDTAB
  0
TABLE
  2
DIMSTYLE
  5
A
330
0
100
AcDbSymbolTable
 70
     4
100
AcDbDimStyleTable
  0
DIMSTYLE
105
27
330
A
100
AcDbSymbolTableRecord
100
AcDbDimStyleTableRecord
  2
Standard
 70
     0
178
     0
340
11
  0
DIMSTYLE
105
1B6
102
{ACAD_REACTORS
330
1B5
330
1C5
330
1D4
330
1E3
330
1EE
330
1FB
330
2FA
330
309
330
318
330
327
330
332
330
401
330
40B
330
425
330
4EF
102
}
330
A
100
AcDbSymbolTableRecord
100
AcDbDimStyleTableRecord
  2
SLDDIMSTYLE0
 70
     0
 41
1.0
 44
0.0
 45
0.000000001
 78
    12
 79
     3
140
1.5
147
0.375
173
     1
178
     0
271
     3
272
     2
276
     2
277
     5
284
    12
340
47
  0
DIMSTYLE
105
33E
102
{ACAD_REACTORS
330
33D
330
347
102
}
330
A
100
AcDbSymbolTableRecord
100
AcDbDimStyleTableRecord
  2
SLDDIMSTYLE1
 70
     0
 41
1.0
 44
0.0
 45
0.000000001
 78
    12
 79
     3
140
1.5
141
0.0
147
0.375
173
     1
178
     0
271
     3
272
     2
276
     2
277
     5
284
    12
340
47
  0
DIMSTYLE
105
417
102
{ACAD_REACTORS
330
416
330
4E0
102
}
330
A
100
AcDbSymbolTableRecord
100
AcDbDimStyleTableRecord
  2
SLDDIMSTYLE2
 70
     0
 41
1.0
 44
0.0
 45
0.000000001
 78
    12
 79
     3
140
1.5
147
0.375
172
     1
173
     1
178
     0
271
     3
272
     2
276
     2
277
     5
284
    12
289
     0
340
47
  0
ENDTAB
  0
TABLE
  2
BLOCK_RECORD
  5
1
330
0
100
AcDbSymbolTable
 70
    21
  0
BLOCK_RECORD
  5
1F
330
1
100
AcDbSymbolTableRecord
100
AcDbBlockTableRecord
  2
*Model_Space
340
22
  0
BLOCK_RECORD
  5
1B
330
1
100
AcDbSymbolTableRecord
100
AcDbBlockTableRecord
  2
*Paper_Space
340
1E
  0
BLOCK_RECORD
  5
23
330
1
100
AcDbSymbolTableRecord
100
AcDbBlockTableRecord
  2
*Paper_Space0
340
26
  0
BLOCK_RECORD
  5
1B7
330
1
100
AcDbSymbolTableRecord
100
AcDbBlockTableRecord
  2
_D
340
0
  0
BLOCK_RECORD
  5
1C6
330
1
100
AcDbSymbolTableRecord
100
AcDbBlockTableRecord
  2
_D_1
340
0
  0
BLOCK_RECORD
  5
1D5
330
1
100
AcDbSymbolTableRecord
100
AcDbBlockTableRecord
  2
_D_2
340
0
  0
BLOCK_RECORD
  5
1E4
330
1
100
AcDbSymbolTableRecord
100
AcDbBlockTableRecord
  2
_D_3
340
0
  0
BLOCK_RECORD
  5
1EF
330
1
100
AcDbSymbolTableRecord
100
AcDbBlockTableRecord
  2
_D_4
340
0
  0
BLOCK_RECORD
  5
1FC
330
1
100
AcDbSymbolTableRecord
100
AcDbBlockTableRecord
  2
_D_5
340
0
  0
BLOCK_RECORD
  5
2FB
330
1
100
AcDbSymbolTableRecord
100
AcDbBlockTableRecord
  2
_D_6
340
0
  0
BLOCK_RECORD
  5
30A
330
1
100
AcDbSymbolTableRecord
100
AcDbBlockTableRecord
  2
_D_7
340
0
  0
BLOCK_RECORD
  5
319
330
1
100
AcDbSymbolTableRecord
100
AcDbBlockTableRecord
  2
_D_8
340
0
  0
BLOCK_RECORD
  5
328
330
1
100
AcDbSymbolTableRecord
100
AcDbBlockTableRecord
  2
_D_9
340
0
  0
BLOCK_RECORD
  5
333
330
1
100
AcDbSymbolTableRecord
100
AcDbBlockTableRecord
  2
_D_10
340
0
  0
BLOCK_RECORD
  5
33F
330
1
100
AcDbSymbolTableRecord
100
AcDbBlockTableRecord
  2
_D_11
340
0
  0
BLOCK_RECORD
  5
348
330
1
100
AcDbSymbolTableRecord
100
AcDbBlockTableRecord
  2
_D_12
340
0
  0
BLOCK_RECORD
  5
350
330
1
100
AcDbSymbolTableRecord
100
AcDbBlockTableRecord
  2
SW_CENTERMARKSYMBOL_0
340
0
102
{BLKREFS
331
35B
102
}
  0
BLOCK_RECORD
  5
402
330
1
100
AcDbSymbolTableRecord
100
AcDbBlockTableRecord
  2
_D_13
340
0
  0
BLOCK_RECORD
  5
40C
330
1
100
AcDbSymbolTableRecord
100
AcDbBlockTableRecord
  2
_D_14
340
0
  0
BLOCK_RECORD
  5
418
330
1
100
AcDbSymbolTableRecord
100
AcDbBlockTableRecord
  2
_D_15
340
0
  0
BLOCK_RECORD
  5
426
330
1
100
AcDbSymbolTableRecord
100
AcDbBlockTableRecord
  2
_D_16
340
0
  0
BLOCK_RECORD
  5
4E1
330
1
100
AcDbSymbolTableRecord
100
AcDbBlockTableRecord
  2
_D_17
340
0
  0
BLOCK_RECORD
  5
4F0
330
1
100
AcDbSymbolTableRecord
100
AcDbBlockTableRecord
  2
_D_18
340
0
  0
ENDTAB
  0
ENDSEC
  0
SECTION
  2
BLOCKS
  0
BLOCK
  5
20
330
1F
100
AcDbEntity
  8
0
100
AcDbBlockBegin
  2
*Model_Space
 70
     0
 10
0.0
 20
0.0
 30
0.0
  3
*Model_Space
  1

  0
ENDBLK
  5
21
330
1F
100
AcDbEntity
  8
0
100
AcDbBlockEnd
  0
BLOCK
  5
1C
330
1B
100
AcDbEntity
 67
     1
  8
0
100
AcDbBlockBegin
  2
*Paper_Space
 70
     0
 10
0.0
 20
0.0
 30
0.0
  3
*Paper_Space
  1

  0
ENDBLK
  5
1D
330
1B
100
AcDbEntity
 67
     1
  8
0
100
AcDbBlockEnd
  0
BLOCK
  5
24
330
23
100
AcDbEntity
  8
0
100
AcDbBlockBegin
  2
*Paper_Space0
 70
     0
 10
0.0
 20
0.0
 30
0.0
  3
*Paper_Space0
  1

  0
ENDBLK
  5
25
330
23
100
AcDbEntity
  8
0
100
AcDbBlockEnd
  0
BLOCK
  5
1B8
330
1B7
100
AcDbEntity
  8
0
100
AcDbBlockBegin
  2
_D
 70
     0
 10
0.0
 20
0.0
 30
0.0
  3
_D
  1

  0
SOLID
  5
1BA
330
1B7
100
AcDbEntity
  8
DIM
100
AcDbTrace
 10
34.4260315538
 20
69.0089694032
 30
0.0
 11
34.1760315538
 21
68.0089694032
 31
0.0
 12
34.6760315538
 22
68.0089694032
 32
0.0
 13
34.6760315538
 23
68.0089694032
 33
0.0
  0
SOLID
  5
1BB
330
1B7
100
AcDbEntity
  8
DIM
100
AcDbTrace
 10
34.4260315538
 20
11.8119694031
 30
0.0
 11
34.6760315538
 21
12.8119694031
 31
0.0
 12
34.1760315538
 22
12.8119694031
 32
0.0
 13
34.1760315538
 23
12.8119694031
 33
0.0
  0
LINE
  5
1BC
330
1B7
100
AcDbEntity
  8
DIM
100
AcDbLine
 10
34.9614480366
 20
41.9104695683
 30
0.0
 11
33.1614480144
 21
38.9104695312
 31
0.0
  0
LINE
  5
1BD
330
1B7
100
AcDbEntity
  8
DIM
100
AcDbLine
 10
57.6190199432
 20
69.0089694032
 30
0.0
 11
34.3866614751
 21
69.0089694032
 31
0.0
  0
LINE
  5
1BE
330
1B7
100
AcDbEntity
  8
DIM
100
AcDbLine
 10
45.1632600211
 20
11.8119694031
 30
0.0
 11
34.3866614751
 21
11.8119694031
 31
0.0
  0
LINE
  5
1BF
330
1B7
100
AcDbEntity
  8
DIM
100
AcDbLine
 10
34.4260315538
 20
69.0089694032
 30
0.0
 11
34.4260315538
 21
42.3500527969
 31
0.0
  0
LINE
  5
1C0
330
1B7
100
AcDbEntity
  8
DIM
100
AcDbLine
 10
34.4260315538
 20
11.8119694031
 30
0.0
 11
34.4260315538
 21
38.4708860094
 31
0.0
  0
MTEXT
  5
1C1
330
1B7
100
AcDbEntity
  8
DIM
100
AcDbMText
 10
30.7364480162
 20
41.2701127926
 30
8.2559988759
 40
1.5
 41
0.0
 71
     1
 72
     1
  1
57
  7
SLDTEXTSTYLE0
 73
     1
 44
1.0
  0
MTEXT
  5
1C2
330
1B7
100
AcDbEntity
  8
DIM
100
AcDbMText
 10
32.9531146891
 20
42.3440711961
 30
8.2559988759
 40
1.5
 41
0.0
 71
     1
 72
     1
  1
3
  7
SLDTEXTSTYLE0
 73
     1
 44
1.0
  0
MTEXT
  5
1C3
330
1B7
100
AcDbEntity
  8
DIM
100
AcDbMText
 10
34.0614480255
 20
40.4044878023
 30
8.2559988759
 40
1.5
 41
0.0
 71
     1
 72
     1
  1
16
  7
SLDTEXTSTYLE0
 73
     1
 44
1.0
  0
MTEXT
  5
1C4
330
1B7
100
AcDbEntity
  8
DIM
100
AcDbMText
 10
36.2781147717
 20
41.2701127926
 30
8.2559988759
 40
1.5
 41
0.0
 71
     1
 72
     1
  1
"
  7
SLDTEXTSTYLE0
 73
     1
 44
1.0
  0
ENDBLK
  5
1B9
330
1B7
100
AcDbEntity
  8
0
100
AcDbBlockEnd
  0
BLOCK
  5
1C7
330
1C6
100
AcDbEntity
  8
0
100
AcDbBlockBegin
  2
_D_1
 70
     0
 10
0.0
 20
0.0
 30
0.0
  3
_D_1
  1

  0
SOLID
  5
1C9
330
1C6
100
AcDbEntity
  8
DIM
100
AcDbTrace
 10
40.1586300998
 20
51.6839694032
 30
0.0
 11
39.9086300998
 21
50.6839694032
 31
0.0
 12
40.4086300998
 22
50.6839694032
 32
0.0
 13
40.4086300998
 23
50.6839694032
 33
0.0
  0
SOLID
  5
1CA
330
1C6
100
AcDbEntity
  8
DIM
100
AcDbTrace
 10
40.1586300998
 20
12.7539694031
 30
0.0
 11
40.4086300998
 21
13.7539694031
 31
0.0
 12
39.9086300998
 22
13.7539694031
 32
0.0
 13
39.9086300998
 23
13.7539694031
 33
0.0
  0
LINE
  5
1CB
330
1C6
100
AcDbEntity
  8
DIM
100
AcDbLine
 10
41.2482133608
 20
33.7189695683
 30
0.0
 11
39.4482133386
 21
30.7189695313
 31
0.0
  0
LINE
  5
1CC
330
1C6
100
AcDbEntity
  8
DIM
100
AcDbLine
 10
45.2732600211
 20
51.6839694032
 30
0.0
 11
40.1192600211
 21
51.6839694032
 31
0.0
  0
LINE
  5
1CD
330
1C6
100
AcDbEntity
  8
DIM
100
AcDbLine
 10
45.2882600211
 20
12.7539694031
 30
0.0
 11
40.1192600211
 21
12.7539694031
 31
0.0
  0
LINE
  5
1CE
330
1C6
100
AcDbEntity
  8
DIM
100
AcDbLine
 10
40.1586300998
 20
51.6839694032
 30
0.0
 11
40.1586300998
 21
34.1585527969
 31
0.0
  0
LINE
  5
1CF
330
1C6
100
AcDbEntity
  8
DIM
100
AcDbLine
 10
40.1586300998
 20
12.7539694031
 30
0.0
 11
40.1586300998
 21
30.2793860094
 31
0.0
  0
MTEXT
  5
1D0
330
1C6
100
AcDbEntity
  8
DIM
100
AcDbMText
 10
35.914880004
 20
33.0786127926
 30
8.2559988759
 40
1.5
 41
0.0
 71
     1
 72
     1
  1
38
  7
SLDTEXTSTYLE0
 73
     1
 44
1.0
  0
MTEXT
  5
1D1
330
1C6
100
AcDbEntity
  8
DIM
100
AcDbMText
 10
38.1315466768
 20
34.1525711961
 30
8.2559988759
 40
1.5
 41
0.0
 71
     1
 72
     1
  1
15
  7
SLDTEXTSTYLE0
 73
     1
 44
1.0
  0
MTEXT
  5
1D2
330
1C6
100
AcDbEntity
  8
DIM
100
AcDbMText
 10
40.3482133497
 20
32.2129878023
 30
8.2559988759
 40
1.5
 41
0.0
 71
     1
 72
     1
  1
16
  7
SLDTEXTSTYLE0
 73
     1
 44
1.0
  0
MTEXT
  5
1D3
330
1C6
100
AcDbEntity
  8
DIM
100
AcDbMText
 10
42.5648798759
 20
33.0786127926
 30
8.2559988759
 40
1.5
 41
0.0
 71
     1
 72
     1
  1
"
  7
SLDTEXTSTYLE0
 73
     1
 44
1.0
  0
ENDBLK
  5
1C8
330
1C6
100
AcDbEntity
  8
0
100
AcDbBlockEnd
  0
BLOCK
  5
1D6
330
1D5
100
AcDbEntity
  8
0
100
AcDbBlockBegin
  2
_D_2
 70
     0
 10
0.0
 20
0.0
 30
0.0
  3
_D_2
  1

  0
SOLID
  5
1D8
330
1D5
100
AcDbEntity
  8
DIM
100
AcDbTrace
 10
52.7246300998
 20
8.7829674346
 30
0.0
 11
53.7246300998
 21
8.5329674346
 31
0.0
 12
53.7246300998
 22
9.0329674346
 32
0.0
 13
53.7246300998
 23
9.0329674346
 33
0.0
  0
SOLID
  5
1D9
330
1D5
100
AcDbEntity
  8
DIM
100
AcDbTrace
 10
98.5926300998
 20
8.7829674346
 30
0.0
 11
97.5926300998
 21
9.0329674346
 31
0.0
 12
97.5926300998
 22
8.5329674346
 32
0.0
 13
97.5926300998
 23
8.5329674346
 33
0.0
  0
LINE
  5
1DA
330
1D5
100
AcDbEntity
  8
DIM
100
AcDbLine
 10
76.7482134342
 20
10.2829675998
 30
0.0
 11
74.9482134119
 21
7.2829675627
 31
0.0
  0
LINE
  5
1DB
330
1D5
100
AcDbEntity
  8
DIM
100
AcDbLine
 10
52.7246300998
 20
12.8685993244
 30
0.0
 11
52.7246300998
 21
8.7435973558
 31
0.0
  0
LINE
  5
1DC
330
1D5
100
AcDbEntity
  8
DIM
100
AcDbLine
 10
98.5926300998
 20
12.8685993244
 30
0.0
 11
98.5926300998
 21
8.7435973558
 31
0.0
  0
LINE
  5
1DD
330
1D5
100
AcDbEntity
  8
DIM
100
AcDbLine
 10
52.7246300998
 20
8.7829674346
 30
0.0
 11
72.5232134137
 21
8.7829674346
 31
0.0
  0
LINE
  5
1DE
330
1D5
100
AcDbEntity
  8
DIM
100
AcDbLine
 10
98.5926300998
 20
8.7829674346
 30
0.0
 11
78.7940467859
 21
8.7829674346
 31
0.0
  0
MTEXT
  5
1DF
330
1D5
100
AcDbEntity
  8
DIM
100
AcDbMText
 10
72.5232134137
 20
9.642610824
 30
8.2559988759
 40
1.5
 41
0.0
 71
     1
 72
     1
  1
45
  7
SLDTEXTSTYLE0
 73
     1
 44
1.0
  0
MTEXT
  5
1E0
330
1D5
100
AcDbEntity
  8
DIM
100
AcDbMText
 10
74.7398800866
 20
10.7165692276
 30
8.2559988759
 40
1.5
 41
0.0
 71
     1
 72
     1
  1
7
  7
SLDTEXTSTYLE0
 73
     1
 44
1.0
  0
MTEXT
  5
1E1
330
1D5
100
AcDbEntity
  8
DIM
100
AcDbMText
 10
75.848213423
 20
8.7769858338
 30
8.2559988759
 40
1.5
 41
0.0
 71
     1
 72
     1
  1
8
  7
SLDTEXTSTYLE0
 73
     1
 44
1.0
  0
MTEXT
  5
1E2
330
1D5
100
AcDbEntity
  8
DIM
100
AcDbMText
 10
76.9565467595
 20
9.642610824
 30
8.2559988759
 40
1.5
 41
0.0
 71
     1
 72
     1
  1
"
  7
SLDTEXTSTYLE0
 73
     1
 44
1.0
  0
ENDBLK
  5
1D7
330
1D5
100
AcDbEntity
  8
0
100
AcDbBlockEnd
  0
BLOCK
  5
1E5
330
1E4
100
AcDbEntity
  8
0
100
AcDbBlockBegin
  2
_D_3
 70
     0
 10
0.0
 20
0.0
 30
0.0
  3
_D_3
  1

  0
SOLID
  5
1E7
330
1E4
100
AcDbEntity
  8
DIM
100
AcDbTrace
 10
106.1586300998
 20
5.2829674346
 30
0.0
 11
105.1586300998
 21
5.5329674346
 31
0.0
 12
105.1586300998
 22
5.0329674346
 32
0.0
 13
105.1586300998
 23
5.0329674346
 33
0.0
  0
SOLID
  5
1E8
330
1E4
100
AcDbEntity
  8
DIM
100
AcDbTrace
 10
45.1586300998
 20
5.2829674346
 30
0.0
 11
46.1586300998
 21
5.0329674346
 31
0.0
 12
46.1586300998
 22
5.5329674346
 32
0.0
 13
46.1586300998
 23
5.5329674346
 33
0.0
  0
LINE
  5
1E9
330
1E4
100
AcDbEntity
  8
DIM
100
AcDbLine
 10
106.1586300998
 20
11.7725993244
 30
0.0
 11
106.1586300998
 21
5.2435973558
 31
0.0
  0
LINE
  5
1EA
330
1E4
100
AcDbEntity
  8
DIM
100
AcDbLine
 10
45.1586300998
 20
11.7725993244
 30
0.0
 11
45.1586300998
 21
5.2435973559
 31
0.0
  0
LINE
  5
1EB
330
1E4
100
AcDbEntity
  8
DIM
100
AcDbLine
 10
106.1586300998
 20
5.2829674346
 30
0.0
 11
77.6857133761
 21
5.2829674346
 31
0.0
  0
LINE
  5
1EC
330
1E4
100
AcDbEntity
  8
DIM
100
AcDbLine
 10
45.1586300998
 20
5.2829674346
 30
0.0
 11
73.6315468235
 21
5.2829674346
 31
0.0
  0
MTEXT
  5
1ED
330
1E4
100
AcDbEntity
  8
DIM
100
AcDbMText
 10
73.6315468235
 20
6.0259440451
 30
8.2559988759
 40
1.5
 41
0.0
 71
     1
 72
     1
  1
61"
  7
SLDTEXTSTYLE0
 73
     1
 44
1.0
  0
ENDBLK
  5
1E6
330
1E4
100
AcDbEntity
  8
0
100
AcDbBlockEnd
  0
BLOCK
  5
1F0
330
1EF
100
AcDbEntity
  8
0
100
AcDbBlockBegin
  2
_D_4
 70
     0
 10
0.0
 20
0.0
 30
0.0
  3
_D_4
  1

  0
SOLID
  5
1F2
330
1EF
100
AcDbEntity
  8
DIM
100
AcDbTrace
 10
54.1944266782
 20
19.7280296995
 30
0.0
 11
55.1944266782
 21
19.4780296995
 31
0.0
 12
55.1944266782
 22
19.9780296995
 32
0.0
 13
55.1944266782
 23
19.9780296995
 33
0.0
  0
SOLID
  5
1F3
330
1EF
100
AcDbEntity
  8
DIM
100
AcDbTrace
 10
97.1228335214
 20
19.7280296995
 30
0.0
 11
96.1228335214
 21
19.9780296995
 31
0.0
 12
96.1228335214
 22
19.4780296995
 32
0.0
 13
96.1228335214
 23
19.4780296995
 33
0.0
  0
LINE
  5
1F4
330
1EF
100
AcDbEntity
  8
DIM
100
AcDbLine
 10
76.7482133608
 20
21.2280298647
 30
0.0
 11
74.9482133386
 21
18.2280298276
 31
0.0
  0
LINE
  5
1F5
330
1EF
100
AcDbEntity
  8
DIM
100
AcDbLine
 10
54.1944266782
 20
19.7280296995
 30
0.0
 11
71.414880004
 21
19.7280296995
 31
0.0
  0
LINE
  5
1F6
330
1EF
100
AcDbEntity
  8
DIM
100
AcDbLine
 10
97.1228335214
 20
19.7280296995
 30
0.0
 11
79.9023801956
 21
19.7280296995
 31
0.0
  0
MTEXT
  5
1F7
330
1EF
100
AcDbEntity
  8
DIM
100
AcDbMText
 10
71.414880004
 20
20.5876730889
 30
8.2559988759
 40
1.5
 41
0.0
 71
     1
 72
     1
  1
42
  7
SLDTEXTSTYLE0
 73
     1
 44
1.0
  0
MTEXT
  5
1F8
330
1EF
100
AcDbEntity
  8
DIM
100
AcDbMText
 10
73.6315466768
 20
21.6616314925
 30
8.2559988759
 40
1.5
 41
0.0
 71
     1
 72
     1
  1
15
  7
SLDTEXTSTYLE0
 73
     1
 44
1.0
  0
MTEXT
  5
1F9
330
1EF
100
AcDbEntity
  8
DIM
100
AcDbMText
 10
75.8482133497
 20
19.7220480987
 30
8.2559988759
 40
1.5
 41
0.0
 71
     1
 72
     1
  1
16
  7
SLDTEXTSTYLE0
 73
     1
 44
1.0
  0
MTEXT
  5
1FA
330
1EF
100
AcDbEntity
  8
DIM
100
AcDbMText
 10
78.0648798759
 20
20.5876730889
 30
8.2559988759
 40
1.5
 41
0.0
 71
     1
 72
     1
  1
"
  7
SLDTEXTSTYLE0
 73
     1
 44
1.0
  0
ENDBLK
  5
1F1
330
1EF
100
AcDbEntity
  8
0
100
AcDbBlockEnd
  0
BLOCK
  5
1FD
330
1FC
100
AcDbEntity
  8
0
100
AcDbBlockBegin
  2
_D_5
 70
     0
 10
0.0
 20
0.0
 30
0.0
  3
_D_5
  1

  0
SOLID
  5
1FF
330
1FC
100
AcDbEntity
  8
DIM
100
AcDbTrace
 10
89.5940823416
 20
14.7486493564
 30
0.0
 11
89.8440823416
 21
15.7486493564
 31
0.0
 12
89.3440823416
 22
15.7486493564
 32
0.0
 13
89.3440823416
 23
15.7486493564
 33
0.0
  0
SOLID
  5
200
330
1FC
100
AcDbEntity
  8
DIM
100
AcDbTrace
 10
89.5940823416
 20
51.6549694032
 30
0.0
 11
89.3440823416
 21
50.6549694032
 31
0.0
 12
89.8440823416
 22
50.6549694032
 32
0.0
 13
89.8440823416
 23
50.6549694032
 33
0.0
  0
LINE
  5
201
330
1FC
100
AcDbEntity
  8
DIM
100
AcDbLine
 10
90.6836656026
 20
34.701809545
 30
0.0
 11
88.8836655804
 21
31.7018095079
 31
0.0
  0
LINE
  5
202
330
1FC
100
AcDbEntity
  8
DIM
100
AcDbLine
 10
89.5940823416
 20
14.7486493564
 30
0.0
 11
89.5940823416
 21
31.262225986
 31
0.0
  0
LINE
  5
203
330
1FC
100
AcDbEntity
  8
DIM
100
AcDbLine
 10
89.5940823416
 20
51.6549694032
 30
0.0
 11
89.5940823416
 21
35.1413927736
 31
0.0
  0
MTEXT
  5
204
330
1FC
100
AcDbEntity
  8
DIM
100
AcDbMText
 10
85.3503322458
 20
34.0614527692
 30
8.2559988759
 40
1.5
 41
0.0
 71
     1
 72
     1
  1
36
  7
SLDTEXTSTYLE0
 73
     1
 44
1.0
  0
MTEXT
  5
205
330
1FC
100
AcDbEntity
  8
DIM
100
AcDbMText
 10
87.5669989186
 20
35.1354111728
 30
8.2559988759
 40
1.5
 41
0.0
 71
     1
 72
     1
  1
15
  7
SLDTEXTSTYLE0
 73
     1
 44
1.0
  0
MTEXT
  5
206
330
1FC
100
AcDbEntity
  8
DIM
100
AcDbMText
 10
89.7836655915
 20
33.195827779
 30
8.2559988759
 40
1.5
 41
0.0
 71
     1
 72
     1
  1
16
  7
SLDTEXTSTYLE0
 73
     1
 44
1.0
  0
MTEXT
  5
207
330
1FC
100
AcDbEntity
  8
DIM
100
AcDbMText
 10
92.0003321177
 20
34.0614527692
 30
8.2559988759
 40
1.5
 41
0.0
 71
     1
 72
     1
  1
"
  7
SLDTEXTSTYLE0
 73
     1
 44
1.0
  0
ENDBLK
  5
1FE
330
1FC
100
AcDbEntity
  8
0
100
AcDbBlockEnd
  0
BLOCK
  5
2FC
330
2FB
100
AcDbEntity
  8
0
100
AcDbBlockBegin
  2
_D_6
 70
     0
 10
0.0
 20
0.0
 30
0.0
  3
_D_6
  1

  0
SOLID
  5
2FE
330
2FB
100
AcDbEntity
  8
DIM
100
AcDbTrace
 10
75.6586300998
 20
112.6700145688
 30
0.0
 11
74.6586300998
 21
112.9200145688
 31
0.0
 12
74.6586300998
 22
112.4200145688
 32
0.0
 13
74.6586300998
 23
112.4200145688
 33
0.0
  0
SOLID
  5
2FF
330
2FB
100
AcDbEntity
  8
DIM
100
AcDbTrace
 10
45.1876300998
 20
112.6700145688
 30
0.0
 11
46.1876300998
 21
112.4200145688
 31
0.0
 12
46.1876300998
 22
112.9200145688
 32
0.0
 13
46.1876300998
 23
112.9200145688
 33
0.0
  0
LINE
  5
300
330
2FB
100
AcDbEntity
  8
DIM
100
AcDbLine
 10
61.5127134342
 20
114.170014734
 30
0.0
 11
59.7127134119
 21
111.170014697
 31
0.0
  0
LINE
  5
301
330
2FB
100
AcDbEntity
  8
DIM
100
AcDbLine
 10
75.6586300998
 20
105.4861832495
 30
0.0
 11
75.6586300998
 21
112.7093846476
 31
0.0
  0
LINE
  5
302
330
2FB
100
AcDbEntity
  8
DIM
100
AcDbLine
 10
45.1876300998
 20
109.6803846476
 30
0.0
 11
45.1876300998
 21
112.7093846476
 31
0.0
  0
LINE
  5
303
330
2FB
100
AcDbEntity
  8
DIM
100
AcDbLine
 10
75.6586300998
 20
112.6700145688
 30
0.0
 11
63.5585467859
 21
112.6700145688
 31
0.0
  0
LINE
  5
304
330
2FB
100
AcDbEntity
  8
DIM
100
AcDbLine
 10
45.1876300998
 20
112.6700145688
 30
0.0
 11
57.2877134137
 21
112.6700145688
 31
0.0
  0
MTEXT
  5
305
330
2FB
100
AcDbEntity
  8
DIM
100
AcDbMText
 10
57.2877134137
 20
113.5296579583
 30
-28.6450620079
 40
1.5
 41
0.0
 71
     1
 72
     1
  1
30
  7
SLDTEXTSTYLE0
 73
     1
 44
1.0
  0
MTEXT
  5
306
330
2FB
100
AcDbEntity
  8
DIM
100
AcDbMText
 10
59.5043800866
 20
114.6036163618
 30
-28.6450620079
 40
1.5
 41
0.0
 71
     1
 72
     1
  1
1
  7
SLDTEXTSTYLE0
 73
     1
 44
1.0
  0
MTEXT
  5
307
330
2FB
100
AcDbEntity
  8
DIM
100
AcDbMText
 10
60.6127134231
 20
112.6640329681
 30
-28.6450620079
 40
1.5
 41
0.0
 71
     1
 72
     1
  1
2
  7
SLDTEXTSTYLE0
 73
     1
 44
1.0
  0
MTEXT
  5
308
330
2FB
100
AcDbEntity
  8
DIM
100
AcDbMText
 10
61.7210467595
 20
113.5296579583
 30
-28.6450620079
 40
1.5
 41
0.0
 71
     1
 72
     1
  1
"
  7
SLDTEXTSTYLE0
 73
     1
 44
1.0
  0
ENDBLK
  5
2FD
330
2FB
100
AcDbEntity
  8
0
100
AcDbBlockEnd
  0
BLOCK
  5
30B
330
30A
100
AcDbEntity
  8
0
100
AcDbBlockBegin
  2
_D_7
 70
     0
 10
0.0
 20
0.0
 30
0.0
  3
_D_7
  1

  0
SOLID
  5
30D
330
30A
100
AcDbEntity
  8
DIM
100
AcDbTrace
 10
111.1586300998
 20
109.6700145688
 30
0.0
 11
110.9086300998
 21
108.6700145688
 31
0.0
 12
111.4086300998
 22
108.6700145688
 32
0.0
 13
111.4086300998
 23
108.6700145688
 33
0.0
  0
SOLID
  5
30E
330
30A
100
AcDbEntity
  8
DIM
100
AcDbTrace
 10
111.1586300998
 20
102.9320145688
 30
0.0
 11
111.4086300998
 21
103.9320145688
 31
0.0
 12
110.9086300998
 22
103.9320145688
 32
0.0
 13
110.9086300998
 23
103.9320145688
 33
0.0
  0
LINE
  5
30F
330
30A
100
AcDbEntity
  8
DIM
100
AcDbLine
 10
111.6940469493
 20
107.801014734
 30
0.0
 11
109.8940469271
 21
104.801014697
 31
0.0
  0
LINE
  5
310
330
30A
100
AcDbEntity
  8
DIM
100
AcDbLine
 10
106.1669291107
 20
109.6700145688
 30
0.0
 11
111.1980001786
 21
109.6700145688
 31
0.0
  0
LINE
  5
311
330
30A
100
AcDbEntity
  8
DIM
100
AcDbLine
 10
78.2127987804
 20
102.9320145688
 30
0.0
 11
111.1980001786
 21
102.9320145688
 31
0.0
  0
LINE
  5
312
330
30A
100
AcDbEntity
  8
DIM
100
AcDbLine
 10
111.1586300998
 20
109.6700145688
 30
0.0
 11
111.1586300998
 21
108.2405979626
 31
0.0
  0
LINE
  5
313
330
30A
100
AcDbEntity
  8
DIM
100
AcDbLine
 10
111.1586300998
 20
102.9320145688
 30
0.0
 11
111.1586300998
 21
104.3614311751
 31
0.0
  0
MTEXT
  5
314
330
30A
100
AcDbEntity
  8
DIM
100
AcDbMText
 10
108.5773802653
 20
107.1606579583
 30
-28.6450620079
 40
1.5
 41
0.0
 71
     1
 72
     1
  1
6
  7
SLDTEXTSTYLE0
 73
     1
 44
1.0
  0
MTEXT
  5
315
330
30A
100
AcDbEntity
  8
DIM
100
AcDbMText
 10
109.6857136017
 20
108.2346163618
 30
-28.6450620079
 40
1.5
 41
0.0
 71
     1
 72
     1
  1
3
  7
SLDTEXTSTYLE0
 73
     1
 44
1.0
  0
MTEXT
  5
316
330
30A
100
AcDbEntity
  8
DIM
100
AcDbMText
 10
110.7940469382
 20
106.295032968
 30
-28.6450620079
 40
1.5
 41
0.0
 71
     1
 72
     1
  1
4
  7
SLDTEXTSTYLE0
 73
     1
 44
1.0
  0
MTEXT
  5
317
330
30A
100
AcDbEntity
  8
DIM
100
AcDbMText
 10
111.9023802013
 20
107.1606579583
 30
-28.6450620079
 40
1.5
 41
0.0
 71
     1
 72
     1
  1
"
  7
SLDTEXTSTYLE0
 73
     1
 44
1.0
  0
ENDBLK
  5
30C
330
30A
100
AcDbEntity
  8
0
100
AcDbBlockEnd
  0
BLOCK
  5
31A
330
319
100
AcDbEntity
  8
0
100
AcDbBlockBegin
  2
_D_8
 70
     0
 10
0.0
 20
0.0
 30
0.0
  3
_D_8
  1

  0
SOLID
  5
31C
330
319
100
AcDbEntity
  8
DIM
100
AcDbTrace
 10
111.1586300998
 20
87.6860145688
 30
0.0
 11
111.4086300998
 21
88.6860145688
 31
0.0
 12
110.9086300998
 22
88.6860145688
 32
0.0
 13
110.9086300998
 23
88.6860145688
 33
0.0
  0
SOLID
  5
31D
330
319
100
AcDbEntity
  8
DIM
100
AcDbTrace
 10
111.1586300998
 20
102.9320145688
 30
0.0
 11
110.9086300998
 21
101.9320145688
 31
0.0
 12
111.4086300998
 22
101.9320145688
 32
0.0
 13
111.4086300998
 23
101.9320145688
 33
0.0
  0
LINE
  5
31E
330
319
100
AcDbEntity
  8
DIM
100
AcDbLine
 10
112.2482134342
 20
96.809014734
 30
0.0
 11
110.4482134119
 21
93.8090146969
 31
0.0
  0
LINE
  5
31F
330
319
100
AcDbEntity
  8
DIM
100
AcDbLine
 10
106.1690001786
 20
87.6860145688
 30
0.0
 11
111.1980001786
 21
87.6860145688
 31
0.0
  0
LINE
  5
320
330
319
100
AcDbEntity
  8
DIM
100
AcDbLine
 10
78.2127987804
 20
102.9320145688
 30
0.0
 11
111.1980001786
 21
102.9320145688
 31
0.0
  0
LINE
  5
321
330
319
100
AcDbEntity
  8
DIM
100
AcDbLine
 10
111.1586300998
 20
87.6860145688
 30
0.0
 11
111.1586300998
 21
93.3694311751
 31
0.0
  0
LINE
  5
322
330
319
100
AcDbEntity
  8
DIM
100
AcDbLine
 10
111.1586300998
 20
102.9320145688
 30
0.0
 11
111.1586300998
 21
97.2485979626
 31
0.0
  0
MTEXT
  5
323
330
319
100
AcDbEntity
  8
DIM
100
AcDbMText
 10
108.0232134137
 20
96.1686579583
 30
-28.6450620079
 40
1.5
 41
0.0
 71
     1
 72
     1
  1
15
  7
SLDTEXTSTYLE0
 73
     1
 44
1.0
  0
MTEXT
  5
324
330
319
100
AcDbEntity
  8
DIM
100
AcDbMText
 10
110.2398800866
 20
97.2426163618
 30
-28.6450620079
 40
1.5
 41
0.0
 71
     1
 72
     1
  1
1
  7
SLDTEXTSTYLE0
 73
     1
 44
1.0
  0
MTEXT
  5
325
330
319
100
AcDbEntity
  8
DIM
100
AcDbMText
 10
111.3482134231
 20
95.303032968
 30
-28.6450620079
 40
1.5
 41
0.0
 71
     1
 72
     1
  1
4
  7
SLDTEXTSTYLE0
 73
     1
 44
1.0
  0
MTEXT
  5
326
330
319
100
AcDbEntity
  8
DIM
100
AcDbMText
 10
112.4565467595
 20
96.1686579583
 30
-28.6450620079
 40
1.5
 41
0.0
 71
     1
 72
     1
  1
"
  7
SLDTEXTSTYLE0
 73
     1
 44
1.0
  0
ENDBLK
  5
31B
330
319
100
AcDbEntity
  8
0
100
AcDbBlockEnd
  0
BLOCK
  5
329
330
328
100
AcDbEntity
  8
0
100
AcDbBlockBegin
  2
_D_9
 70
     0
 10
0.0
 20
0.0
 30
0.0
  3
_D_9
  1

  0
SOLID
  5
32B
330
328
100
AcDbEntity
  8
DIM
100
AcDbTrace
 10
116.1586300998
 20
87.6860145688
 30
0.0
 11
116.4086300998
 21
88.6860145688
 31
0.0
 12
115.9086300998
 22
88.6860145688
 32
0.0
 13
115.9086300998
 23
88.6860145688
 33
0.0
  0
SOLID
  5
32C
330
328
100
AcDbEntity
  8
DIM
100
AcDbTrace
 10
116.1586300998
 20
109.6700145688
 30
0.0
 11
115.9086300998
 21
108.6700145688
 31
0.0
 12
116.4086300998
 22
108.6700145688
 32
0.0
 13
116.4086300998
 23
108.6700145688
 33
0.0
  0
LINE
  5
32D
330
328
100
AcDbEntity
  8
DIM
100
AcDbLine
 10
106.1690001786
 20
87.6860145688
 30
0.0
 11
116.1980001786
 21
87.6860145688
 31
0.0
  0
LINE
  5
32E
330
328
100
AcDbEntity
  8
DIM
100
AcDbLine
 10
106.1669291107
 20
109.6700145688
 30
0.0
 11
116.1980001786
 21
109.6700145688
 31
0.0
  0
LINE
  5
32F
330
328
100
AcDbEntity
  8
DIM
100
AcDbLine
 10
116.1586300998
 20
87.6860145688
 30
0.0
 11
116.1586300998
 21
97.4873895697
 31
0.0
  0
LINE
  5
330
330
328
100
AcDbEntity
  8
DIM
100
AcDbLine
 10
116.1586300998
 20
109.6700145688
 30
0.0
 11
116.1586300998
 21
99.868639568
 31
0.0
  0
MTEXT
  5
331
330
328
100
AcDbEntity
  8
DIM
100
AcDbMText
 10
114.1315468235
 20
99.4209911794
 30
-28.6450620079
 40
1.5
 41
0.0
 71
     1
 72
     1
  1
22"
  7
SLDTEXTSTYLE0
 73
     1
 44
1.0
  0
ENDBLK
  5
32A
330
328
100
AcDbEntity
  8
0
100
AcDbBlockEnd
  0
BLOCK
  5
334
330
333
100
AcDbEntity
  8
0
100
AcDbBlockBegin
  2
_D_10
 70
     0
 10
0.0
 20
0.0
 30
0.0
  3
_D_10
  1

  0
SOLID
  5
336
330
333
100
AcDbEntity
  8
DIM
100
AcDbTrace
 10
106.1586300998
 20
83.9676404277
 30
0.0
 11
105.1586300998
 21
84.2176404277
 31
0.0
 12
105.1586300998
 22
83.7176404277
 32
0.0
 13
105.1586300998
 23
83.7176404277
 33
0.0
  0
SOLID
  5
337
330
333
100
AcDbEntity
  8
DIM
100
AcDbTrace
 10
45.1586300998
 20
83.9676404277
 30
0.0
 11
46.1586300998
 21
83.7176404277
 31
0.0
 12
46.1586300998
 22
84.2176404277
 32
0.0
 13
46.1586300998
 23
84.2176404277
 33
0.0
  0
LINE
  5
338
330
333
100
AcDbEntity
  8
DIM
100
AcDbLine
 10
106.1586300998
 20
87.6756444901
 30
0.0
 11
106.1586300998
 21
83.928270349
 31
0.0
  0
LINE
  5
339
330
333
100
AcDbEntity
  8
DIM
100
AcDbLine
 10
45.1586300998
 20
87.6756444901
 30
0.0
 11
45.1586300998
 21
83.9282703489
 31
0.0
  0
LINE
  5
33A
330
333
100
AcDbEntity
  8
DIM
100
AcDbLine
 10
106.1586300998
 20
83.9676404277
 30
0.0
 11
77.6857133761
 21
83.9676404277
 31
0.0
  0
LINE
  5
33B
330
333
100
AcDbEntity
  8
DIM
100
AcDbLine
 10
45.1586300998
 20
83.9676404277
 30
0.0
 11
73.6315468235
 21
83.9676404277
 31
0.0
  0
MTEXT
  5
33C
330
333
100
AcDbEntity
  8
DIM
100
AcDbMText
 10
73.6315468235
 20
84.7106170382
 30
-28.6450620079
 40
1.5
 41
0.0
 71
     1
 72
     1
  1
61"
  7
SLDTEXTSTYLE0
 73
     1
 44
1.0
  0
ENDBLK
  5
335
330
333
100
AcDbEntity
  8
0
100
AcDbBlockEnd
  0
BLOCK
  5
340
330
33F
100
AcDbEntity
  8
0
100
AcDbBlockBegin
  2
_D_11
 70
     0
 10
0.0
 20
0.0
 30
0.0
  3
_D_11
  1

  0
SOLID
  5
342
330
33F
100
AcDbEntity
  8
DIM
100
AcDbTrace
 10
76.0200010589
 20
105.4036301488
 30
0.0
 11
76.4120413146
 21
106.3569424995
 31
0.0
 12
75.9173013548
 22
106.4292776374
 32
0.0
 13
75.9173013548
 23
106.4292776374
 33
0.0
  0
LINE
  5
343
330
33F
100
AcDbEntity
  8
DIM
100
AcDbLine
 10
76.0200010589
 20
105.4036301488
 30
0.0
 11
77.0824074982
 21
112.6700145688
 31
0.0
  0
LINE
  5
344
330
33F
100
AcDbEntity
  8
DIM
100
AcDbLine
 10
77.0824074982
 20
112.6700145688
 30
0.0
 11
77.7835442686
 21
112.6700145688
 31
0.0
  0
MTEXT
  5
345
330
33F
100
AcDbEntity
  8
DIM
100
AcDbMText
 10
77.7835442686
 20
113.4015327951
 30
-28.6450620079
 40
1.5
 41
0.0
 71
     1
 72
     1
  1
%%c
  7
SLDTEXTSTYLE0
 73
     1
 44
1.0
  0
MTEXT
  5
346
330
33F
100
AcDbEntity
  8
DIM
100
AcDbMText
 10
80.0457317889
 20
113.4244494537
 30
-28.6450620079
 40
1.5
 41
0.0
 71
     1
 72
     1
  1
5"
  7
SLDTEXTSTYLE0
 73
     1
 44
1.0
  0
ENDBLK
  5
341
330
33F
100
AcDbEntity
  8
0
100
AcDbBlockEnd
  0
BLOCK
  5
349
330
348
100
AcDbEntity
  8
0
100
AcDbBlockBegin
  2
_D_12
 70
     0
 10
0.0
 20
0.0
 30
0.0
  3
_D_12
  1

  0
SOLID
  5
34B
330
348
100
AcDbEntity
  8
DIM
100
AcDbTrace
 10
77.955328565
 20
106.2069460429
 30
0.0
 11
78.7341863984
 21
106.8821352574
 31
0.0
 12
78.3248199642
 22
107.1692225655
 32
0.0
 13
78.3248199642
 23
107.1692225655
 33
0.0
  0
LINE
  5
34C
330
348
100
AcDbEntity
  8
DIM
100
AcDbLine
 10
77.955328565
 20
106.2069460429
 30
0.0
 11
82.487856858
 21
112.6700145688
 31
0.0
  0
LINE
  5
34D
330
348
100
AcDbEntity
  8
DIM
100
AcDbLine
 10
82.487856858
 20
112.6700145688
 30
0.0
 11
83.11229925
 21
112.6700145688
 31
0.0
  0
MTEXT
  5
34E
330
348
100
AcDbEntity
  8
DIM
100
AcDbMText
 10
83.11229925
 20
113.4015327951
 30
-28.6450620079
 40
1.5
 41
0.0
 71
     1
 72
     1
  1
%%c
  7
SLDTEXTSTYLE0
 73
     1
 44
1.0
  0
MTEXT
  5
34F
330
348
100
AcDbEntity
  8
DIM
100
AcDbMText
 10
85.3744867703
 20
113.4244494537
 30
-28.6450620079
 40
1.5
 41
0.0
 71
     1
 72
     1
  1
8"
  7
SLDTEXTSTYLE0
 73
     1
 44
1.0
  0
ENDBLK
  5
34A
330
348
100
AcDbEntity
  8
0
100
AcDbBlockEnd
  0
BLOCK
  5
351
330
350
100
AcDbEntity
  8
0
100
AcDbBlockBegin
  2
SW_CENTERMARKSYMBOL_0
 70
     0
 10
0.0
 20
0.0
 30
0.0
  3
SW_CENTERMARKSYMBOL_0
  1

  0
LINE
  5
353
330
350
100
AcDbEntity
  8
DIM
 62
     0
100
AcDbLine
 10
0.0
 20
0.0
 30
0.0
 11
0.0
 21
0.0984251969
 31
0.0
  0
LINE
  5
354
330
350
100
AcDbEntity
  8
DIM
 62
     0
100
AcDbLine
 10
0.0
 20
0.0
 30
0.0
 11
-0.0984251969
 21
0.0
 31
0.0
  0
LINE
  5
355
330
350
100
AcDbEntity
  8
DIM
 62
     0
100
AcDbLine
 10
0.0
 20
0.0
 30
0.0
 11
0.0
 21
-0.0984251969
 31
0.0
  0
LINE
  5
356
330
350
100
AcDbEntity
  8
DIM
 62
     0
100
AcDbLine
 10
0.0
 20
0.0
 30
0.0
 11
0.0984251969
 21
0.0
 31
0.0
  0
LINE
  5
357
330
350
100
AcDbEntity
  8
DIM
 62
     0
100
AcDbLine
 10
0.0
 20
0.1968503937
 30
0.0
 11
0.0
 21
2.5147986019
 31
0.0
  0
LINE
  5
358
330
350
100
AcDbEntity
  8
DIM
 62
     0
100
AcDbLine
 10
-0.1968503937
 20
0.0
 30
0.0
 11
-2.5147986019
 21
0.0
 31
0.0
  0
LINE
  5
359
330
350
100
AcDbEntity
  8
DIM
 62
     0
100
AcDbLine
 10
0.0
 20
-0.1968503937
 30
0.0
 11
0.0
 21
-2.5147986019
 31
0.0
  0
LINE
  5
35A
330
350
100
AcDbEntity
  8
DIM
 62
     0
100
AcDbLine
 10
0.1968503937
 20
0.0
 30
0.0
 11
2.5147986019
 21
0.0
 31
0.0
  0
ENDBLK
  5
352
330
350
100
AcDbEntity
  8
0
100
AcDbBlockEnd
  0
BLOCK
  5
403
330
402
100
AcDbEntity
  8
0
100
AcDbBlockBegin
  2
_D_13
 70
     0
 10
0.0
 20
0.0
 30
0.0
  3
_D_13
  1

  0
SOLID
  5
405
330
402
100
AcDbEntity
  8
DIM
100
AcDbTrace
 10
133.071420286
 20
69.0809694032
 30
0.0
 11
132.821420286
 21
68.0809694032
 31
0.0
 12
133.321420286
 22
68.0809694032
 32
0.0
 13
133.321420286
 23
68.0809694032
 33
0.0
  0
SOLID
  5
406
330
402
100
AcDbEntity
  8
DIM
100
AcDbTrace
 10
133.071420286
 20
57.0829694032
 30
0.0
 11
133.321420286
 21
58.0829694032
 31
0.0
 12
132.821420286
 22
58.0829694032
 32
0.0
 13
132.821420286
 23
58.0829694032
 33
0.0
  0
LINE
  5
407
330
402
100
AcDbEntity
  8
DIM
100
AcDbLine
 10
127.765564728
 20
69.0809694032
 30
0.0
 11
133.1107903648
 21
69.0809694032
 31
0.0
  0
LINE
  5
408
330
402
100
AcDbEntity
  8
DIM
100
AcDbLine
 10
133.071420286
 20
69.0809694032
 30
0.0
 11
133.071420286
 21
64.2725944023
 31
0.0
  0
LINE
  5
409
330
402
100
AcDbEntity
  8
DIM
100
AcDbLine
 10
133.071420286
 20
57.0829694032
 30
0.0
 11
133.071420286
 21
61.891344404
 31
0.0
  0
MTEXT
  5
40A
330
402
100
AcDbEntity
  8
DIM
100
AcDbMText
 10
131.0443370097
 20
63.8249460137
 30
0.0039370079
 40
1.5
 41
0.0
 71
     1
 72
     1
  1
12"
  7
SLDTEXTSTYLE0
 73
     1
 44
1.0
  0
ENDBLK
  5
404
330
402
100
AcDbEntity
  8
0
100
AcDbBlockEnd
  0
BLOCK
  5
40D
330
40C
100
AcDbEntity
  8
0
100
AcDbBlockBegin
  2
_D_14
 70
     0
 10
0.0
 20
0.0
 30
0.0
  3
_D_14
  1

  0
SOLID
  5
40F
330
40C
100
AcDbEntity
  8
DIM
100
AcDbTrace
 10
122.2261946493
 20
8.7829674346
 30
0.0
 11
123.2261946493
 21
8.5329674346
 31
0.0
 12
123.2261946493
 22
9.0329674346
 32
0.0
 13
123.2261946493
 23
9.0329674346
 33
0.0
  0
SOLID
  5
410
330
40C
100
AcDbEntity
  8
DIM
100
AcDbTrace
 10
144.2021946493
 20
8.7829674346
 30
0.0
 11
143.2021946493
 21
9.0329674346
 31
0.0
 12
143.2021946493
 22
8.5329674346
 32
0.0
 13
143.2021946493
 23
8.5329674346
 33
0.0
  0
LINE
  5
411
330
40C
100
AcDbEntity
  8
DIM
100
AcDbLine
 10
122.2261946493
 20
11.7725993244
 30
0.0
 11
122.2261946493
 21
8.7435973558
 31
0.0
  0
LINE
  5
412
330
40C
100
AcDbEntity
  8
DIM
100
AcDbLine
 10
144.2021946493
 20
11.7725993244
 30
0.0
 11
144.2021946493
 21
8.7435973558
 31
0.0
  0
LINE
  5
413
330
40C
100
AcDbEntity
  8
DIM
100
AcDbLine
 10
122.2261946493
 20
8.7829674346
 30
0.0
 11
131.187111373
 21
8.7829674346
 31
0.0
  0
LINE
  5
414
330
40C
100
AcDbEntity
  8
DIM
100
AcDbLine
 10
144.2021946493
 20
8.7829674346
 30
0.0
 11
135.2412779256
 21
8.7829674346
 31
0.0
  0
MTEXT
  5
415
330
40C
100
AcDbEntity
  8
DIM
100
AcDbMText
 10
131.187111373
 20
9.5259440451
 30
0.0039370079
 40
1.5
 41
0.0
 71
     1
 72
     1
  1
22"
  7
SLDTEXTSTYLE0
 73
     1
 44
1.0
  0
ENDBLK
  5
40E
330
40C
100
AcDbEntity
  8
0
100
AcDbBlockEnd
  0
BLOCK
  5
419
330
418
100
AcDbEntity
  8
0
100
AcDbBlockBegin
  2
_D_15
 70
     0
 10
0.0
 20
0.0
 30
0.0
  3
_D_15
  1

  0
SOLID
  5
41B
330
418
100
AcDbEntity
  8
DIM
100
AcDbTrace
 10
121.7261946493
 20
8.7829674346
 30
0.0
 11
120.7261946493
 21
9.0329674346
 31
0.0
 12
120.7261946493
 22
8.5329674346
 32
0.0
 13
120.7261946493
 23
8.5329674346
 33
0.0
  0
SOLID
  5
41C
330
418
100
AcDbEntity
  8
DIM
100
AcDbTrace
 10
122.2261946493
 20
8.7829674346
 30
0.0
 11
123.2261946493
 21
8.5329674346
 31
0.0
 12
123.2261946493
 22
9.0329674346
 32
0.0
 13
123.2261946493
 23
9.0329674346
 33
0.0
  0
LINE
  5
41D
330
418
100
AcDbEntity
  8
DIM
100
AcDbLine
 10
117.0754677923
 20
10.2829675998
 30
0.0
 11
115.2754677701
 21
7.2829675627
 31
0.0
  0
LINE
  5
41E
330
418
100
AcDbEntity
  8
DIM
100
AcDbLine
 10
121.7261946493
 20
12.7195993244
 30
0.0
 11
121.7261946493
 21
8.7435973558
 31
0.0
  0
LINE
  5
41F
330
418
100
AcDbEntity
  8
DIM
100
AcDbLine
 10
122.2261946493
 20
11.7725993244
 30
0.0
 11
122.2261946493
 21
8.7435973558
 31
0.0
  0
LINE
  5
420
330
418
100
AcDbEntity
  8
DIM
100
AcDbLine
 10
121.7261946493
 20
8.7829674346
 30
0.0
 11
119.1213009973
 21
8.7829674346
 31
0.0
  0
LINE
  5
421
330
418
100
AcDbEntity
  8
DIM
100
AcDbLine
 10
122.2261946493
 20
8.7829674346
 30
0.0
 11
123.7261946493
 21
8.7829674346
 31
0.0
  0
MTEXT
  5
422
330
418
100
AcDbEntity
  8
DIM
100
AcDbMText
 10
115.0671344447
 20
10.7165692276
 30
0.0039370079
 40
1.5
 41
0.0
 71
     1
 72
     1
  1
1
  7
SLDTEXTSTYLE0
 73
     1
 44
1.0
  0
MTEXT
  5
423
330
418
100
AcDbEntity
  8
DIM
100
AcDbMText
 10
116.1754677812
 20
8.7769858338
 30
0.0039370079
 40
1.5
 41
0.0
 71
     1
 72
     1
  1
2
  7
SLDTEXTSTYLE0
 73
     1
 44
1.0
  0
MTEXT
  5
424
330
418
100
AcDbEntity
  8
DIM
100
AcDbMText
 10
117.2838011176
 20
9.642610824
 30
0.0039370079
 40
1.5
 41
0.0
 71
     1
 72
     1
  1
"
  7
SLDTEXTSTYLE0
 73
     1
 44
1.0
  0
ENDBLK
  5
41A
330
418
100
AcDbEntity
  8
0
100
AcDbBlockEnd
  0
BLOCK
  5
427
330
426
100
AcDbEntity
  8
0
100
AcDbBlockBegin
  2
_D_16
 70
     0
 10
0.0
 20
0.0
 30
0.0
  3
_D_16
  1

  0
SOLID
  5
429
330
426
100
AcDbEntity
  8
DIM
100
AcDbTrace
 10
113.7463183853
 20
11.7829694031
 30
0.0
 11
113.9963183853
 21
12.7829694031
 31
0.0
 12
113.4963183853
 22
12.7829694031
 32
0.0
 13
113.4963183853
 23
12.7829694031
 33
0.0
  0
SOLID
  5
42A
330
426
100
AcDbEntity
  8
DIM
100
AcDbTrace
 10
113.7463183853
 20
57.0829694032
 30
0.0
 11
113.4963183853
 21
56.0829694032
 31
0.0
 12
113.9963183853
 22
56.0829694032
 32
0.0
 13
113.9963183853
 23
56.0829694032
 33
0.0
  0
LINE
  5
42B
330
426
100
AcDbEntity
  8
DIM
100
AcDbLine
 10
114.2817348681
 20
35.9329695683
 30
0.0
 11
112.4817348459
 21
32.9329695313
 31
0.0
  0
LINE
  5
42C
330
426
100
AcDbEntity
  8
DIM
100
AcDbLine
 10
122.2158245706
 20
11.7829694031
 30
0.0
 11
113.7069483065
 21
11.7829694031
 31
0.0
  0
LINE
  5
42D
330
426
100
AcDbEntity
  8
DIM
100
AcDbLine
 10
122.2158245706
 20
57.0829694032
 30
0.0
 11
113.7069483065
 21
57.0829694032
 31
0.0
  0
LINE
  5
42E
330
426
100
AcDbEntity
  8
DIM
100
AcDbLine
 10
113.7463183853
 20
11.7829694031
 30
0.0
 11
113.7463183853
 21
32.4933860094
 31
0.0
  0
LINE
  5
42F
330
426
100
AcDbEntity
  8
DIM
100
AcDbLine
 10
113.7463183853
 20
57.0829694032
 30
0.0
 11
113.7463183853
 21
36.3725527969
 31
0.0
  0
MTEXT
  5
430
330
426
100
AcDbEntity
  8
DIM
100
AcDbMText
 10
110.0567348477
 20
35.2926127926
 30
0.0039370079
 40
1.5
 41
0.0
 71
     1
 72
     1
  1
45
  7
SLDTEXTSTYLE0
 73
     1
 44
1.0
  0
MTEXT
  5
431
330
426
100
AcDbEntity
  8
DIM
100
AcDbMText
 10
112.2734015206
 20
36.3665711961
 30
0.0039370079
 40
1.5
 41
0.0
 71
     1
 72
     1
  1
5
  7
SLDTEXTSTYLE0
 73
     1
 44
1.0
  0
MTEXT
  5
432
330
426
100
AcDbEntity
  8
DIM
100
AcDbMText
 10
113.381734857
 20
34.4269878023
 30
0.0039370079
 40
1.5
 41
0.0
 71
     1
 72
     1
  1
16
  7
SLDTEXTSTYLE0
 73
     1
 44
1.0
  0
MTEXT
  5
433
330
426
100
AcDbEntity
  8
DIM
100
AcDbMText
 10
115.5984016032
 20
35.2926127926
 30
0.0039370079
 40
1.5
 41
0.0
 71
     1
 72
     1
  1
"
  7
SLDTEXTSTYLE0
 73
     1
 44
1.0
  0
ENDBLK
  5
428
330
426
100
AcDbEntity
  8
0
100
AcDbBlockEnd
  0
BLOCK
  5
4E2
330
4E1
100
AcDbEntity
  8
0
100
AcDbBlockBegin
  2
_D_17
 70
     0
 10
0.0
 20
0.0
 30
0.0
  3
_D_17
  1

  0
SOLID
  5
4E4
330
4E1
100
AcDbEntity
  8
DIM
100
AcDbTrace
 10
15.2457193631
 20
15.0569694031
 30
0.0
 11
15.4957193631
 21
16.0569694031
 31
0.0
 12
14.9957193631
 22
16.0569694031
 32
0.0
 13
14.9957193631
 23
16.0569694031
 33
0.0
  0
SOLID
  5
4E5
330
4E1
100
AcDbEntity
  8
DIM
100
AcDbTrace
 10
15.2457193631
 20
11.7829694031
 30
0.0
 11
14.9957193631
 21
10.7829694031
 31
0.0
 12
15.4957193631
 22
10.7829694031
 32
0.0
 13
15.4957193631
 23
10.7829694031
 33
0.0
  0
LINE
  5
4E6
330
4E1
100
AcDbEntity
  8
DIM
100
AcDbLine
 10
11.8967936754
 20
10.2829675998
 30
0.0
 11
10.0967936531
 21
7.2829675627
 31
0.0
  0
LINE
  5
4E7
330
4E1
100
AcDbEntity
  8
DIM
100
AcDbLine
 10
19.2801205919
 20
15.0569694031
 30
0.0
 11
15.2063492843
 21
15.0569694031
 31
0.0
  0
LINE
  5
4E8
330
4E1
100
AcDbEntity
  8
DIM
100
AcDbLine
 10
13.9426266604
 20
8.7829674346
 30
0.0
 11
15.2457193631
 21
8.7829674346
 31
0.0
  0
LINE
  5
4E9
330
4E1
100
AcDbEntity
  8
DIM
100
AcDbLine
 10
15.2457193631
 20
8.7829674346
 30
0.0
 11
15.2457193631
 21
11.7829694031
 31
0.0
  0
LINE
  5
4EA
330
4E1
100
AcDbEntity
  8
DIM
100
AcDbLine
 10
15.2457193631
 20
15.0569694031
 30
0.0
 11
15.2457193631
 21
16.5569694031
 31
0.0
  0
MTEXT
  5
4EB
330
4E1
100
AcDbEntity
  8
DIM
100
AcDbMText
 10
8.7801269914
 20
9.642610824
 30
0.0039370079
 40
1.5
 41
0.0
 71
     1
 72
     1
  1
3
  7
SLDTEXTSTYLE0
 73
     1
 44
1.0
  0
MTEXT
  5
4EC
330
4E1
100
AcDbEntity
  8
DIM
100
AcDbMText
 10
9.8884603278
 20
10.7165692276
 30
0.0039370079
 40
1.5
 41
0.0
 71
     1
 72
     1
  1
1
  7
SLDTEXTSTYLE0
 73
     1
 44
1.0
  0
MTEXT
  5
4ED
330
4E1
100
AcDbEntity
  8
DIM
100
AcDbMText
 10
10.9967936643
 20
8.7769858338
 30
0.0039370079
 40
1.5
 41
0.0
 71
     1
 72
     1
  1
4
  7
SLDTEXTSTYLE0
 73
     1
 44
1.0
  0
MTEXT
  5
4EE
330
4E1
100
AcDbEntity
  8
DIM
100
AcDbMText
 10
12.1051269274
 20
9.642610824
 30
0.0039370079
 40
1.5
 41
0.0
 71
     1
 72
     1
  1
"
  7
SLDTEXTSTYLE0
 73
     1
 44
1.0
  0
ENDBLK
  5
4E3
330
4E1
100
AcDbEntity
  8
0
100
AcDbBlockEnd
  0
BLOCK
  5
4F1
330
4F0
100
AcDbEntity
  8
0
100
AcDbBlockBegin
  2
_D_18
 70
     0
 10
0.0
 20
0.0
 30
0.0
  3
_D_18
  1

  0
SOLID
  5
4F3
330
4F0
100
AcDbEntity
  8
DIM
100
AcDbTrace
 10
27.6675832911
 20
8.7829674346
 30
0.0
 11
26.6675832911
 21
9.0329674346
 31
0.0
 12
26.6675832911
 22
8.5329674346
 32
0.0
 13
26.6675832911
 23
8.5329674346
 33
0.0
  0
SOLID
  5
4F4
330
4F0
100
AcDbEntity
  8
DIM
100
AcDbTrace
 10
20.1435832911
 20
8.7829674346
 30
0.0
 11
21.1435832911
 21
8.5329674346
 31
0.0
 12
21.1435832911
 22
9.0329674346
 32
0.0
 13
21.1435832911
 23
9.0329674346
 33
0.0
  0
LINE
  5
4F5
330
4F0
100
AcDbEntity
  8
DIM
100
AcDbLine
 10
24.4222088567
 20
10.2829675998
 30
0.0
 11
22.6222088344
 21
7.2829675627
 31
0.0
  0
LINE
  5
4F6
330
4F0
100
AcDbEntity
  8
DIM
100
AcDbLine
 10
27.6675832911
 20
12.8685993244
 30
0.0
 11
27.6675832911
 21
8.7435973558
 31
0.0
  0
LINE
  5
4F7
330
4F0
100
AcDbEntity
  8
DIM
100
AcDbLine
 10
20.1435832911
 20
14.1935067038
 30
0.0
 11
20.1435832911
 21
8.7435973558
 31
0.0
  0
LINE
  5
4F8
330
4F0
100
AcDbEntity
  8
DIM
100
AcDbLine
 10
27.6675832911
 20
8.7829674346
 30
0.0
 11
26.4680418417
 21
8.7829674346
 31
0.0
  0
LINE
  5
4F9
330
4F0
100
AcDbEntity
  8
DIM
100
AcDbLine
 10
20.1435832911
 20
8.7829674346
 30
0.0
 11
21.3055421727
 21
8.7829674346
 31
0.0
  0
MTEXT
  5
4FA
330
4F0
100
AcDbEntity
  8
DIM
100
AcDbMText
 10
21.3055421727
 20
9.642610824
 30
0.0039370079
 40
1.5
 41
0.0
 71
     1
 72
     1
  1
7
  7
SLDTEXTSTYLE0
 73
     1
 44
1.0
  0
MTEXT
  5
4FB
330
4F0
100
AcDbEntity
  8
DIM
100
AcDbMText
 10
22.4138755091
 20
10.7165692276
 30
0.0039370079
 40
1.5
 41
0.0
 71
     1
 72
     1
  1
1
  7
SLDTEXTSTYLE0
 73
     1
 44
1.0
  0
MTEXT
  5
4FC
330
4F0
100
AcDbEntity
  8
DIM
100
AcDbMText
 10
23.5222088456
 20
8.7769858338
 30
0.0039370079
 40
1.5
 41
0.0
 71
     1
 72
     1
  1
2
  7
SLDTEXTSTYLE0
 73
     1
 44
1.0
  0
MTEXT
  5
4FD
330
4F0
100
AcDbEntity
  8
DIM
100
AcDbMText
 10
24.6305421087
 20
9.642610824
 30
0.0039370079
 40
1.5
 41
0.0
 71
     1
 72
     1
  1
"
  7
SLDTEXTSTYLE0
 73
     1
 44
1.0
  0
ENDBLK
  5
4F2
330
4F0
100
AcDbEntity
  8
0
100
AcDbBlockEnd
  0
ENDSEC
  0
SECTION
  2
ENTITIES
  0
MTEXT
  5
48
330
1F
100
AcDbEntity
  8
NOTES
100
AcDbMText
 10
4.5065430752
 20
115.3969317043
 30
0.0
 40
2.0
 41
0.0
 71
     1
 72
     1
  1
DVLT42FP92(N,P)
  7
SLDTEXTSTYLE0
 73
     1
 44
1.0
  0
LINE
  5
49
330
1F
100
AcDbEntity
  8
SLD-0
  6
Continuous
370
    15
100
AcDbLine
 10
97.028345475
 20
14.753352209
 30
0.0
 11
54.2889147246
 21
14.753352209
 31
0.0
  0
SPLINE
  5
4A
330
1F
100
AcDbEntity
  8
SLD-0
  6
Continuous
370
    15
100
AcDbSpline
210
0.0
220
0.0
230
1.0
 70
     8
 71
     3
 72
     9
 73
     5
 74
     0
 42
0.00000001
 43
0.00000001
 12
1.0
 22
0.0
 32
0.0
 13
1.0
 23
0.0
 33
0.0
 40
0.0
 40
0.0
 40
0.0
 40
0.0
 40
0.6816579445144358
 40
1.0
 40
1.0
 40
1.0
 40
1.0
 10
52.80476376294534
 20
12.82756522249709
 30
0.0
 10
52.78652886601746
 20
12.82891754427724
 30
0.0
 10
52.75977806369112
 20
12.83090141579379
 30
0.0
 10
52.73311779883112
 20
12.83384485270618
 30
0.0
 10
52.72463071531582
 20
12.83478187246307
 30
0.0
  0
LINE
  5
4B
330
1F
100
AcDbEntity
  8
SLD-0
  6
Continuous
370
    15
100
AcDbLine
 10
53.8419221283
 20
51.6549708783
 30
0.0
 11
53.8419221283
 21
51.5704683878
 31
0.0
  0
LINE
  5
4C
330
1F
100
AcDbEntity
  8
SLD-0
  6
Continuous
370
    15
100
AcDbLine
 10
54.236476717
 20
51.5704683878
 30
0.0
 11
54.236476717
 21
51.6549708783
 31
0.0
  0
LINE
  5
4D
330
1F
100
AcDbEntity
  8
SLD-0
  6
Continuous
370
    15
100
AcDbLine
 10
97.4753380713
 20
51.5704683878
 30
0.0
 11
97.4753380713
 21
51.6549708783
 31
0.0
  0
LINE
  5
4E
330
1F
100
AcDbEntity
  8
SLD-0
  6
Continuous
370
    15
100
AcDbLine
 10
97.0807834826
 20
51.6549708783
 30
0.0
 11
97.0807834826
 21
51.5704683878
 31
0.0
  0
LINE
  5
4F
330
1F
100
AcDbEntity
  8
SLD-0
  6
Continuous
370
    15
100
AcDbLine
 10
54.1985878747
 20
14.634783552
 30
0.0
 11
54.1985878747
 21
14.7417158101
 31
0.0
  0
LINE
  5
50
330
1F
100
AcDbEntity
  8
SLD-0
  6
Continuous
370
    15
100
AcDbLine
 10
97.1186723249
 20
14.7417158101
 30
0.0
 11
97.1186723249
 21
14.634783552
 31
0.0
  0
LINE
  5
51
330
1F
100
AcDbEntity
  8
SLD-0
  6
Continuous
370
    15
100
AcDbLine
 10
98.5576293553
 20
12.8829693825
 30
0.0
 11
98.5576293553
 21
51.5704683878
 31
0.0
  0
LINE
  5
52
330
1F
100
AcDbEntity
  8
SLD-0
  6
Continuous
370
    15
100
AcDbLine
 10
98.4819971623
 20
12.8829693825
 30
0.0
 11
98.5576293553
 21
12.8829693825
 31
0.0
  0
LINE
  5
53
330
1F
100
AcDbEntity
  8
SLD-0
  6
Continuous
370
    15
100
AcDbLine
 10
98.4819820876
 20
12.8829895196
 30
0.0
 11
98.4819968647
 21
12.8829694031
 31
0.0
  0
LINE
  5
54
330
1F
100
AcDbEntity
  8
SLD-0
  6
Continuous
370
    15
100
AcDbLine
 10
98.4819830825
 20
12.8829895489
 30
0.0
 11
98.4819830825
 21
51.5704683878
 31
0.0
  0
LINE
  5
55
330
1F
100
AcDbEntity
  8
SLD-0
  6
Continuous
370
    15
100
AcDbLine
 10
98.4819830825
 20
51.5704683878
 30
0.0
 11
98.5576293553
 21
51.5704683878
 31
0.0
  0
LINE
  5
56
330
1F
100
AcDbEntity
  8
SLD-0
  6
Continuous
370
    15
100
AcDbLine
 10
97.8804947776
 20
13.5634855411
 30
0.0
 11
97.8987774464
 21
13.6781256301
 31
0.0
  0
LINE
  5
57
330
1F
100
AcDbEntity
  8
SLD-0
  6
Continuous
370
    15
100
AcDbLine
 10
97.7599760632
 20
13.867367004
 30
0.0
 11
97.8987774464
 21
13.6781256301
 31
0.0
  0
LINE
  5
58
330
1F
100
AcDbEntity
  8
SLD-0
  6
Continuous
370
    15
100
AcDbLine
 10
97.7544051409
 20
13.8324409408
 30
0.0
 11
97.7599760632
 21
13.867367004
 31
0.0
  0
LINE
  5
59
330
1F
100
AcDbEntity
  8
SLD-0
  6
Continuous
370
    15
100
AcDbLine
 10
97.4896267596
 20
14.0947884968
 30
0.0
 11
97.508120626
 21
14.2107443172
 31
0.0
  0
LINE
  5
5A
330
1F
100
AcDbEntity
  8
SLD-0
  6
Continuous
370
    15
100
AcDbLine
 10
97.0884147544
 20
14.7829694402
 30
0.0
 11
97.508120626
 21
14.2107443172
 31
0.0
  0
LINE
  5
5B
330
1F
100
AcDbEntity
  8
SLD-0
  6
Continuous
370
    15
100
AcDbLine
 10
97.0884147544
 20
14.7829694402
 30
0.0
 11
97.0884147544
 21
51.5704683878
 31
0.0
  0
LINE
  5
5C
330
1F
100
AcDbEntity
  8
SLD-0
  6
Continuous
370
    15
100
AcDbLine
 10
97.3810336674
 20
51.5704683878
 30
0.0
 11
98.4819830825
 21
51.5704683878
 31
0.0
  0
LINE
  5
5D
330
1F
100
AcDbEntity
  8
SLD-0
  6
Continuous
370
    15
100
AcDbLine
 10
98.1468407141
 20
13.3109739248
 30
0.0
 11
98.1506328836
 21
13.3347483168
 31
0.0
  0
LWPOLYLINE
  5
5E
330
1F
100
AcDbEntity
  8
SLD-0
  6
Continuous
370
    15
100
AcDbPolyline
 90
       33
 70
   128
 43
0.0
 10
97.8604732489
 20
51.3204714892
 10
97.8597528305
 20
51.3418306024
 10
97.8576220818
 20
51.3623730851
 10
97.8541607885
 20
51.3813057731
 10
97.8495050556
 20
51.3978965147
 10
97.8438285345
 20
51.4115164107
 10
97.837354156
 20
51.4216351205
 10
97.8303283171
 20
51.4278631019
 10
97.8230232282
 20
51.4299703842
 10
97.8157157926
 20
51.4278631019
 10
97.8086899537
 20
51.4216351205
 10
97.8022155752
 20
51.4115164107
 10
97.7965390541
 20
51.3978965147
 10
97.7918833212
 20
51.3813057731
 10
97.7884220279
 20
51.3623730851
 10
97.7862912792
 20
51.3418306024
 10
97.7855708608
 20
51.3204714892
 10
97.7862912792
 20
51.2991076826
 10
97.7884220279
 20
51.2785651999
 10
97.7918833212
 20
51.259632512
 10
97.7965390541
 20
51.2430417703
 10
97.8022155752
 20
51.2294218743
 10
97.8086899537
 20
51.2193031645
 10
97.8157157926
 20
51.2130751831
 10
97.8230232282
 20
51.2109679008
 10
97.8303283171
 20
51.2130751831
 10
97.837354156
 20
51.2193031645
 10
97.8438285345
 20
51.2294218743
 10
97.8495050556
 20
51.2430417703
 10
97.8541607885
 20
51.259632512
 10
97.8576220818
 20
51.2785651999
 10
97.8597528305
 20
51.2991076826
 10
97.8604732489
 20
51.3204714892
  0
LINE
  5
5F
330
1F
100
AcDbEntity
  8
SLD-0
  6
Continuous
370
    15
100
AcDbLine
 10
98.1506328836
 20
13.3347483168
 30
0.0
 11
98.4819830825
 21
12.8829895489
 31
0.0
  0
ARC
  5
60
330
1F
100
AcDbEntity
  8
SLD-0
  6
Continuous
370
    15
100
AcDbCircle
 10
98.0407455011
 20
51.3204691425
 30
0.0
 40
0.2247475098720751
100
AcDbArc
 50
153.8532382022
 51
206.1467617978
  0
SPLINE
  5
61
330
1F
100
AcDbEntity
  8
SLD-0
  6
Continuous
370
    15
100
AcDbSpline
210
0.0
220
0.0
230
1.0
 70
     8
 71
     3
 72
    15
 73
    11
 74
     0
 42
0.00000001
 43
0.00000001
 12
1.0
 22
0.0
 32
0.0
 13
1.0
 23
0.0
 33
0.0
 40
0.0
 40
0.0
 40
0.0
 40
0.0
 40
0.1250023839248643
 40
0.2500013277783739
 40
0.3749995630013686
 40
0.5000022811663152
 40
0.6250004829064657
 40
0.7499988169775688
 40
0.8750014484752252
 40
1.0
 40
1.0
 40
1.0
 40
1.0
 10
52.79377914317394
 20
12.86826665897729
 30
0.0
 10
52.7948759902461
 20
12.86559069093936
 30
0.0
 10
52.79706965420517
 20
12.86023882850626
 30
0.0
 10
52.80035681360943
 20
12.84742176611706
 30
0.0
 10
52.80364370014691
 20
12.83276117105084
 30
0.0
 10
52.80693511044888
 20
12.81748941080551
 30
0.0
 10
52.8102220484845
 20
12.80337941667488
 30
0.0
 10
52.81350898115751
 20
12.79209431047084
 30
0.0
 10
52.81680038755816
 20
12.7844414927242
 30
0.0
 10
52.81899168727968
 20
12.78346008623946
 30
0.0
 10
52.82008731925965
 20
12.78296939100527
 30
0.0
  0
LINE
  5
62
330
1F
100
AcDbEntity
  8
SLD-0
  6
Continuous
370
    15
100
AcDbLine
 10
98.5234810564
 20
12.868266659
 30
0.0
 11
52.7937791432
 21
12.868266659
 31
0.0
  0
SPLINE
  5
63
330
1F
100
AcDbEntity
  8
SLD-0
  6
Continuous
370
    15
100
AcDbSpline
210
0.0
220
0.0
230
1.0
 70
     8
 71
     3
 72
    15
 73
    11
 74
     0
 42
0.00000001
 43
0.00000001
 12
1.0
 22
0.0
 32
0.0
 13
1.0
 23
0.0
 33
0.0
 40
0.0
 40
0.0
 40
0.0
 40
0.0
 40
0.1249985515247748
 40
0.2500011830224312
 40
0.3749995170935342
 40
0.4999977188336848
 40
0.6250004369986313
 40
0.749998672221626
 40
0.8749976160751356
 40
0.9999999999999999
 40
0.9999999999999999
 40
0.9999999999999999
 40
0.9999999999999999
 10
98.49717288033614
 20
12.78296939100527
 30
0.0
 10
98.4982685123161
 20
12.78346008623946
 30
0.0
 10
98.50045981203762
 20
12.7844414927242
 30
0.0
 10
98.50375121843828
 20
12.79209431047084
 30
0.0
 10
98.50703815111126
 20
12.80337941667488
 30
0.0
 10
98.51032508914689
 20
12.81748941080551
 30
0.0
 10
98.51361649944886
 20
12.83276117105084
 30
0.0
 10
98.51690338598635
 20
12.84742176611706
 30
0.0
 10
98.52019054539059
 20
12.86023882850626
 30
0.0
 10
98.52238420934967
 20
12.86559069093936
 30
0.0
 10
98.52348105642184
 20
12.86826665897729
 30
0.0
  0
LINE
  5
64
330
1F
100
AcDbEntity
  8
SLD-0
  6
Continuous
370
    15
100
AcDbLine
 10
98.4971728803
 20
12.782969391
 30
0.0
 11
98.4906304492
 21
12.782969391
 31
0.0
  0
LINE
  5
65
330
1F
100
AcDbEntity
  8
SLD-0
  6
Continuous
370
    15
100
AcDbLine
 10
52.8266297503
 20
12.782969391
 30
0.0
 11
52.8200873193
 21
12.782969391
 31
0.0
  0
SPLINE
  5
66
330
1F
100
AcDbEntity
  8
SLD-0
  6
Continuous
370
    15
100
AcDbSpline
210
0.0
220
0.0
230
1.0
 70
     8
 71
     3
 72
     9
 73
     5
 74
     0
 42
0.00000001
 43
0.00000001
 12
1.0
 22
0.0
 32
0.0
 13
1.0
 23
0.0
 33
0.0
 40
0.0
 40
0.0
 40
0.0
 40
0.0
 40
0.6037082623620184
 40
1.0
 40
1.0
 40
1.0
 40
1.0
 10
52.79377914317394
 20
12.83244689277028
 30
0.0
 10
52.79597167633027
 20
12.83175602571743
 30
0.0
 10
52.79960345229396
 20
12.83061165335097
 30
0.0
 10
52.80323531389672
 20
12.82870552688604
 30
0.0
 10
52.80467459064214
 20
12.8279501447171
 30
0.0
  0
LINE
  5
67
330
1F
100
AcDbEntity
  8
SLD-0
  6
Continuous
370
    15
100
AcDbLine
 10
52.7937791432
 20
12.8324468928
 30
0.0
 11
52.7937791432
 21
12.868266659
 31
0.0
  0
LINE
  5
68
330
1F
100
AcDbEntity
  8
SLD-0
  6
Continuous
370
    15
100
AcDbLine
 10
98.5234810564
 20
12.8324468928
 30
0.0
 11
98.5234810564
 21
12.868266659
 31
0.0
  0
SPLINE
  5
69
330
1F
100
AcDbEntity
  8
SLD-0
  6
Continuous
370
    15
100
AcDbSpline
210
0.0
220
0.0
230
1.0
 70
     8
 71
     3
 72
     9
 73
     5
 74
     0
 42
0.00000001
 43
0.00000001
 12
1.0
 22
0.0
 32
0.0
 13
1.0
 23
0.0
 33
0.0
 40
0.0
 40
0.0
 40
0.0
 40
0.0
 40
0.3962917376379816
 40
1.0
 40
1.0
 40
1.0
 40
1.0
 10
98.51258560895364
 20
12.8279501447171
 30
0.0
 10
98.51402488569906
 20
12.82870552688604
 30
0.0
 10
98.5176567473018
 20
12.83061165335097
 30
0.0
 10
98.52128852326551
 20
12.83175602571743
 30
0.0
 10
98.52348105642184
 20
12.83244689277028
 30
0.0
  0
LINE
  5
6A
330
1F
100
AcDbEntity
  8
SLD-0
  6
Continuous
370
    15
100
AcDbLine
 10
97.894483096
 20
13.6839818158
 30
0.0
 11
97.8017861402
 21
13.6704730918
 31
0.0
  0
LINE
  5
6B
330
1F
100
AcDbEntity
  8
SLD-0
  6
Continuous
370
    15
100
AcDbLine
 10
97.8017861402
 20
13.6704730918
 30
0.0
 11
98.0740643815
 21
13.300367994
 31
0.0
  0
LINE
  5
6C
330
1F
100
AcDbEntity
  8
SLD-0
  6
Continuous
370
    15
100
AcDbLine
 10
98.0740643815
 20
13.300367994
 30
0.0
 11
98.1660197992
 21
13.3137689192
 31
0.0
  0
LINE
  5
6D
330
1F
100
AcDbEntity
  8
SLD-0
  6
Continuous
370
    15
100
AcDbLine
 10
97.4173033284
 20
14.1930989077
 30
0.0
 11
97.6895792231
 21
13.8229938099
 31
0.0
  0
LINE
  5
6E
330
1F
100
AcDbEntity
  8
SLD-0
  6
Continuous
370
    15
100
AcDbLine
 10
97.6895792231
 20
13.8229938099
 30
0.0
 11
97.782581242
 21
13.8365469733
 31
0.0
  0
LINE
  5
6F
330
1F
100
AcDbEntity
  8
SLD-0
  6
Continuous
370
    15
100
AcDbLine
 10
97.5074002076
 20
14.2062289427
 30
0.0
 11
97.4173033284
 21
14.1930989077
 31
0.0
  0
LINE
  5
70
330
1F
100
AcDbEntity
  8
SLD-0
  6
Continuous
370
    15
100
AcDbLine
 10
53.1512404004
 20
13.3137689192
 30
0.0
 11
53.2431958181
 21
13.300367994
 31
0.0
  0
LINE
  5
71
330
1F
100
AcDbEntity
  8
SLD-0
  6
Continuous
370
    15
100
AcDbLine
 10
53.2431958181
 20
13.300367994
 30
0.0
 11
53.5154740594
 21
13.6704730918
 31
0.0
  0
LINE
  5
72
330
1F
100
AcDbEntity
  8
SLD-0
  6
Continuous
370
    15
100
AcDbLine
 10
53.5154740594
 20
13.6704730918
 30
0.0
 11
53.4227771036
 21
13.6839818158
 31
0.0
  0
LINE
  5
73
330
1F
100
AcDbEntity
  8
SLD-0
  6
Continuous
370
    15
100
AcDbLine
 10
53.5346789576
 20
13.8365469733
 30
0.0
 11
53.6276809765
 21
13.8229938099
 31
0.0
  0
LINE
  5
74
330
1F
100
AcDbEntity
  8
SLD-0
  6
Continuous
370
    15
100
AcDbLine
 10
53.6276809765
 20
13.8229938099
 30
0.0
 11
53.8999568712
 21
14.1930989077
 31
0.0
  0
LINE
  5
75
330
1F
100
AcDbEntity
  8
SLD-0
  6
Continuous
370
    15
100
AcDbLine
 10
53.8999568712
 20
14.1930989077
 30
0.0
 11
53.8097825529
 21
14.2062402359
 31
0.0
  0
LINE
  5
76
330
1F
100
AcDbEntity
  8
SLD-0
  6
Continuous
370
    15
100
AcDbLine
 10
98.5234810564
 20
12.868266659
 30
0.0
 11
98.5126630481
 21
12.8829693825
 31
0.0
  0
LINE
  5
77
330
1F
100
AcDbEntity
  8
SLD-0
  6
Continuous
370
    15
100
AcDbLine
 10
53.948968785
 20
14.4013859016
 30
0.0
 11
54.0193374654
 21
14.3911307934
 31
0.0
  0
LINE
  5
78
330
1F
100
AcDbEntity
  8
SLD-0
  6
Continuous
370
    15
100
AcDbLine
 10
54.0193374654
 20
14.3911307934
 30
0.0
 11
54.282355867
 21
14.74864925
 31
0.0
  0
LINE
  5
79
330
1F
100
AcDbEntity
  8
SLD-0
  6
Continuous
370
    15
100
AcDbLine
 10
97.0349043326
 20
14.74864925
 30
0.0
 11
54.282355867
 21
14.74864925
 31
0.0
  0
LINE
  5
7A
330
1F
100
AcDbEntity
  8
SLD-0
  6
Continuous
370
    15
100
AcDbLine
 10
97.0349043326
 20
14.74864925
 30
0.0
 11
97.2979227342
 21
14.3911307934
 31
0.0
  0
LINE
  5
7B
330
1F
100
AcDbEntity
  8
SLD-0
  6
Continuous
370
    15
100
AcDbLine
 10
97.3682914146
 20
14.4013859016
 30
0.0
 11
97.2979227342
 21
14.3911307934
 31
0.0
  0
LINE
  5
7C
330
1F
100
AcDbEntity
  8
SLD-0
  6
Continuous
370
    15
100
AcDbLine
 10
52.8045971515
 20
12.8829693825
 30
0.0
 11
52.7937791432
 21
12.868266659
 31
0.0
  0
LINE
  5
7D
330
1F
100
AcDbEntity
  8
SLD-0
  6
Continuous
370
    15
100
AcDbLine
 10
53.491674441
 20
13.6381217322
 30
0.0
 11
53.4231948054
 21
13.6481011103
 31
0.0
  0
LINE
  5
7E
330
1F
100
AcDbEntity
  8
SLD-0
  6
Continuous
370
    15
100
AcDbLine
 10
97.893987955
 20
13.6480898171
 30
0.0
 11
97.8255857586
 21
13.6381217322
 31
0.0
  0
LINE
  5
7F
330
1F
100
AcDbEntity
  8
SLD-0
  6
Continuous
370
    15
100
AcDbLine
 10
53.8761572528
 20
14.1607475481
 30
0.0
 11
53.8156303787
 21
14.1695681262
 31
0.0
  0
LINE
  5
80
330
1F
100
AcDbEntity
  8
SLD-0
  6
Continuous
370
    15
100
AcDbLine
 10
97.5015523818
 20
14.169556833
 30
0.0
 11
97.4411029468
 21
14.1607475481
 31
0.0
  0
ELLIPSE
  5
81
330
1F
100
AcDbEntity
  8
SLD-0
  6
Continuous
370
    15
100
AcDbEllipse
 10
97.0349040729
 20
14.7083521318
 30
0.0
 11
-0.007152015748701501
 21
0.04495330254202123
 31
0.0
210
0.0
220
0.0
230
1.0
 40
0.2865673543
 41
5.776367642054384
 42
6.23762434108621
  0
ELLIPSE
  5
82
330
1F
100
AcDbEntity
  8
SLD-0
  6
Continuous
370
    15
100
AcDbEllipse
 10
54.2823561267
 20
14.7083521318
 30
0.0
 11
0.007152015748701501
 21
0.04495330254202123
 31
0.0
210
0.0
220
0.0
230
1.0
 40
0.2865673543
 41
0.0455609660934259
 42
0.5068176651252408
  0
LINE
  5
83
330
1F
100
AcDbEntity
  8
SLD-0
  6
Continuous
370
    15
100
AcDbLine
 10
52.7596308443
 20
12.8829693825
 30
0.0
 11
52.7596308443
 21
51.5704683878
 31
0.0
  0
LINE
  5
84
330
1F
100
AcDbEntity
  8
SLD-0
  6
Continuous
370
    15
100
AcDbLine
 10
52.8352771171
 20
12.8829895489
 30
0.0
 11
52.8352771171
 21
51.5704683878
 31
0.0
  0
LINE
  5
85
330
1F
100
AcDbEntity
  8
SLD-0
  6
Continuous
370
    15
100
AcDbLine
 10
52.8352633349
 20
12.8829694031
 30
0.0
 11
52.835278112
 21
12.8829895196
 31
0.0
  0
LINE
  5
86
330
1F
100
AcDbEntity
  8
SLD-0
  6
Continuous
370
    15
100
AcDbLine
 10
52.7596308443
 20
12.8829693825
 30
0.0
 11
52.8352630373
 21
12.8829693825
 31
0.0
  0
LINE
  5
87
330
1F
100
AcDbEntity
  8
SLD-0
  6
Continuous
370
    15
100
AcDbLine
 10
52.7596308443
 20
51.5704683878
 30
0.0
 11
52.8352771171
 21
51.5704683878
 31
0.0
  0
LINE
  5
88
330
1F
100
AcDbEntity
  8
SLD-0
  6
Continuous
370
    15
100
AcDbLine
 10
53.5627776196
 20
13.832452234
 30
0.0
 11
53.5572231238
 21
13.8672823783
 31
0.0
  0
LINE
  5
89
330
1F
100
AcDbEntity
  8
SLD-0
  6
Continuous
370
    15
100
AcDbLine
 10
53.4184193939
 20
13.6780411511
 30
0.0
 11
53.5572231238
 21
13.8672823783
 31
0.0
  0
LINE
  5
8A
330
1F
100
AcDbEntity
  8
SLD-0
  6
Continuous
370
    15
100
AcDbLine
 10
53.4367044094
 20
13.5634012087
 30
0.0
 11
53.4184193939
 21
13.6780411511
 31
0.0
  0
LINE
  5
8B
330
1F
100
AcDbEntity
  8
SLD-0
  6
Continuous
370
    15
100
AcDbLine
 10
53.1703420464
 20
13.310985218
 30
0.0
 11
53.1665663034
 21
13.3346638378
 31
0.0
  0
LINE
  5
8C
330
1F
100
AcDbEntity
  8
SLD-0
  6
Continuous
370
    15
100
AcDbLine
 10
52.8352771171
 20
51.5704683878
 30
0.0
 11
53.9362265322
 21
51.5704683878
 31
0.0
  0
LINE
  5
8D
330
1F
100
AcDbEntity
  8
SLD-0
  6
Continuous
370
    15
100
AcDbLine
 10
54.2288454452
 20
14.7829694402
 30
0.0
 11
54.2288454452
 21
51.5704683878
 31
0.0
  0
LINE
  5
8E
330
1F
100
AcDbEntity
  8
SLD-0
  6
Continuous
370
    15
100
AcDbLine
 10
53.8090762144
 20
14.2106596915
 30
0.0
 11
54.2288454452
 21
14.7829694402
 31
0.0
  0
LINE
  5
8F
330
1F
100
AcDbEntity
  8
SLD-0
  6
Continuous
370
    15
100
AcDbLine
 10
53.8275700807
 20
14.0947041644
 30
0.0
 11
53.8090762144
 21
14.2106596915
 31
0.0
  0
LWPOLYLINE
  5
90
330
1F
100
AcDbEntity
  8
SLD-0
  6
Continuous
370
    15
100
AcDbPolyline
 90
       33
 70
   128
 43
0.0
 10
53.5316893388
 20
51.3204714892
 10
53.5309689204
 20
51.3418306024
 10
53.5288381717
 20
51.3623730851
 10
53.5253768784
 20
51.3813057731
 10
53.5207211455
 20
51.3978965147
 10
53.5150446244
 20
51.4115164107
 10
53.5085702458
 20
51.4216351205
 10
53.501544407
 20
51.4278631019
 10
53.4942369714
 20
51.4299703842
 10
53.4869318825
 20
51.4278631019
 10
53.4799060436
 20
51.4216351205
 10
53.4734316651
 20
51.4115164107
 10
53.467755144
 20
51.3978965147
 10
53.4630994111
 20
51.3813057731
 10
53.4596381178
 20
51.3623730851
 10
53.4575073691
 20
51.3418306024
 10
53.4567869507
 20
51.3204714892
 10
53.4575073691
 20
51.2991076826
 10
53.4596381178
 20
51.2785651999
 10
53.4630994111
 20
51.259632512
 10
53.467755144
 20
51.2430417703
 10
53.4734316651
 20
51.2294218743
 10
53.4799060436
 20
51.2193031645
 10
53.4869318825
 20
51.2130751831
 10
53.4942369714
 20
51.2109679008
 10
53.501544407
 20
51.2130751831
 10
53.5085702458
 20
51.2193031645
 10
53.5150446244
 20
51.2294218743
 10
53.5207211455
 20
51.2430417703
 10
53.5253768784
 20
51.259632512
 10
53.5288381717
 20
51.2785651999
 10
53.5309689204
 20
51.2991076826
 10
53.5316893388
 20
51.3204714892
  0
LINE
  5
91
330
1F
100
AcDbEntity
  8
SLD-0
  6
Continuous
370
    15
100
AcDbLine
 10
52.8352771171
 20
12.8829895489
 30
0.0
 11
53.1665663034
 21
13.3346638378
 31
0.0
  0
ARC
  5
92
330
1F
100
AcDbEntity
  8
SLD-0
  6
Continuous
370
    15
100
AcDbCircle
 10
53.3155728807
 20
51.3085568515
 30
0.0
 40
0.184551965391147
100
AcDbArc
 50
331.8290729141
 51
3.7015783584
  0
ARC
  5
93
330
1F
100
AcDbEntity
  8
SLD-0
  6
Continuous
370
    15
100
AcDbCircle
 10
53.3155757212
 20
51.332382614
 30
0.0
 40
0.1845489040119656
100
AcDbArc
 50
356.299453027
 51
28.171020344
  0
LINE
  5
94
330
1F
100
AcDbEntity
  8
SLD-0
  6
Continuous
370
    15
100
AcDbLine
 10
54.1413181363
 20
51.5704683878
 30
0.0
 11
54.0692223291
 21
51.5704683878
 31
0.0
  0
LINE
  5
95
330
1F
100
AcDbEntity
  8
SLD-0
  6
Continuous
370
    15
100
AcDbLine
 10
54.0692223291
 20
51.5704683878
 30
0.0
 11
53.9362265322
 21
51.5704683878
 31
0.0
  0
LINE
  5
96
330
1F
100
AcDbEntity
  8
SLD-0
  6
Continuous
370
    15
100
AcDbLine
 10
54.2330834762
 20
51.5704683878
 30
0.0
 11
54.1413181363
 21
51.5704683878
 31
0.0
  0
LINE
  5
97
330
1F
100
AcDbEntity
  8
SLD-0
  6
Continuous
370
    15
100
AcDbLine
 10
54.236476717
 20
51.5704683878
 30
0.0
 11
54.2330834762
 21
51.5704683878
 31
0.0
  0
LINE
  5
98
330
1F
100
AcDbEntity
  8
SLD-0
  6
Continuous
370
    15
100
AcDbLine
 10
54.333775433
 20
51.5704683878
 30
0.0
 11
54.333775433
 21
51.6549708783
 31
0.0
  0
LINE
  5
99
330
1F
100
AcDbEntity
  8
SLD-0
  6
Continuous
370
    15
100
AcDbLine
 10
54.333775433
 20
51.5704683878
 30
0.0
 11
54.236476717
 21
51.5704683878
 31
0.0
  0
LINE
  5
9A
330
1F
100
AcDbEntity
  8
SLD-0
  6
Continuous
370
    15
100
AcDbLine
 10
97.1759420633
 20
51.5704683878
 30
0.0
 11
97.2480378705
 21
51.5704683878
 31
0.0
  0
LINE
  5
9B
330
1F
100
AcDbEntity
  8
SLD-0
  6
Continuous
370
    15
100
AcDbLine
 10
97.2480378705
 20
51.5704683878
 30
0.0
 11
97.3810336674
 21
51.5704683878
 31
0.0
  0
LINE
  5
9C
330
1F
100
AcDbEntity
  8
SLD-0
  6
Continuous
370
    15
100
AcDbLine
 10
97.0841767234
 20
51.5704683878
 30
0.0
 11
97.1759420633
 21
51.5704683878
 31
0.0
  0
LINE
  5
9D
330
1F
100
AcDbEntity
  8
SLD-0
  6
Continuous
370
    15
100
AcDbLine
 10
97.0807834826
 20
51.5704683878
 30
0.0
 11
97.0841767234
 21
51.5704683878
 31
0.0
  0
LINE
  5
9E
330
1F
100
AcDbEntity
  8
SLD-0
  6
Continuous
370
    15
100
AcDbLine
 10
96.9834847666
 20
51.6549708783
 30
0.0
 11
96.9834847666
 21
51.5704683878
 31
0.0
  0
LINE
  5
9F
330
1F
100
AcDbEntity
  8
SLD-0
  6
Continuous
370
    15
100
AcDbLine
 10
96.9834847666
 20
51.5704683878
 30
0.0
 11
97.0807834826
 21
51.5704683878
 31
0.0
  0
LINE
  5
A0
330
1F
100
AcDbEntity
  8
SLD-0
  6
Continuous
370
    15
100
AcDbLine
 10
53.9716138567
 20
14.3980856464
 30
0.0
 11
53.9716138567
 21
14.4322626916
 31
0.0
  0
ARC
  5
A1
330
1F
100
AcDbEntity
  8
SLD-0
  6
Continuous
370
    15
100
AcDbCircle
 10
53.7281300998
 20
14.0964694031
 30
0.0
 40
0.109499999999999
100
AcDbArc
 50
5.8374412587
 51
35.6481731803
  0
LINE
  5
A2
330
1F
100
AcDbEntity
  8
SLD-0
  6
Continuous
370
    15
100
AcDbLine
 10
53.1641304915
 20
51.5704683878
 30
0.0
 11
53.1641304915
 21
51.6549708783
 31
0.0
  0
LINE
  5
A3
330
1F
100
AcDbEntity
  8
SLD-0
  6
Continuous
370
    15
100
AcDbLine
 10
52.8185549636
 20
51.5704683878
 30
0.0
 11
52.8185549636
 21
51.6549708783
 31
0.0
  0
LINE
  5
A4
330
1F
100
AcDbEntity
  8
SLD-0
  6
Continuous
370
    15
100
AcDbLine
 10
52.8552634462
 20
51.5704683878
 30
0.0
 11
52.8552634462
 21
51.6549708783
 31
0.0
  0
LINE
  5
A5
330
1F
100
AcDbEntity
  8
SLD-0
  6
Continuous
370
    15
100
AcDbLine
 10
97.3456463429
 20
14.4322626916
 30
0.0
 11
97.3456463429
 21
14.3980856464
 31
0.0
  0
LINE
  5
A6
330
1F
100
AcDbEntity
  8
SLD-0
  6
Continuous
370
    15
100
AcDbLine
 10
98.1531297081
 20
51.6549708783
 30
0.0
 11
98.1531297081
 21
51.5704683878
 31
0.0
  0
ARC
  5
A7
330
1F
100
AcDbEntity
  8
SLD-0
  6
Continuous
370
    15
100
AcDbCircle
 10
97.5891300998
 20
14.0964694031
 30
0.0
 40
0.1095000000000053
100
AcDbArc
 50
144.4390999541
 51
174.1625587417
  0
LINE
  5
A8
330
1F
100
AcDbEntity
  8
SLD-0
  6
Continuous
370
    15
100
AcDbLine
 10
98.498705236
 20
51.6549708783
 30
0.0
 11
98.498705236
 21
51.5704683878
 31
0.0
  0
LINE
  5
A9
330
1F
100
AcDbEntity
  8
SLD-0
  6
Continuous
370
    15
100
AcDbLine
 10
98.4619967534
 20
51.6549708783
 30
0.0
 11
98.4619967534
 21
51.5704683878
 31
0.0
  0
LINE
  5
AA
330
1F
100
AcDbEntity
  8
SLD-0
  6
Continuous
370
    15
100
AcDbLine
 10
54.2211296943
 20
14.7569692605
 30
0.0
 11
97.0961305053
 21
14.7569692605
 31
0.0
  0
LINE
  5
AB
330
1F
100
AcDbEntity
  8
SLD-0
  6
Continuous
370
    15
100
AcDbLine
 10
97.0961305053
 20
14.7569692605
 30
0.0
 11
97.0961305053
 21
14.772449455
 31
0.0
  0
LINE
  5
AC
330
1F
100
AcDbEntity
  8
SLD-0
  6
Continuous
370
    15
100
AcDbLine
 10
54.2211296943
 20
14.772449455
 30
0.0
 11
54.2211296943
 21
14.7569692605
 31
0.0
  0
ARC
  5
AD
330
1F
100
AcDbEntity
  8
SLD-0
  6
Continuous
370
    15
100
AcDbCircle
 10
92.8125711329
 20
68.1919694032
 30
0.0
 40
0.125
100
AcDbArc
 50
0.0
 51
90.0
  0
LINE
  5
AE
330
1F
100
AcDbEntity
  8
SLD-0
  6
Continuous
370
    15
100
AcDbLine
 10
92.9375707587
 20
67.5859689221
 30
0.0
 11
92.9375707587
 21
68.1919698148
 31
0.0
  0
LINE
  5
AF
330
1F
100
AcDbEntity
  8
SLD-0
  6
Continuous
370
    15
100
AcDbLine
 10
92.9375707587
 20
67.5859689221
 30
0.0
 11
58.3796894409
 21
67.5859689221
 31
0.0
  0
LINE
  5
B0
330
1F
100
AcDbEntity
  8
SLD-0
  6
Continuous
370
    15
100
AcDbLine
 10
58.3796894409
 20
68.1919698148
 30
0.0
 11
58.3796894409
 21
67.5859689221
 31
0.0
  0
ARC
  5
B1
330
1F
100
AcDbEntity
  8
SLD-0
  6
Continuous
370
    15
100
AcDbCircle
 10
58.5046890667
 20
68.1919694032
 30
0.0
 40
0.125
100
AcDbArc
 50
90.0
 51
180.0
  0
LINE
  5
B2
330
1F
100
AcDbEntity
  8
SLD-0
  6
Continuous
370
    15
100
AcDbLine
 10
92.812571136
 20
68.3169706108
 30
0.0
 11
58.5046890636
 21
68.3169706108
 31
0.0
  0
LINE
  5
B3
330
1F
100
AcDbEntity
  8
SLD-0
  6
Continuous
370
    15
100
AcDbLine
 10
58.3796894409
 20
67.5469677726
 30
0.0
 11
58.3796894409
 21
67.5859689221
 31
0.0
  0
LINE
  5
B4
330
1F
100
AcDbEntity
  8
SLD-0
  6
Continuous
370
    15
100
AcDbLine
 10
92.9375707587
 20
67.5859689221
 30
0.0
 11
92.9375707587
 21
67.5469677726
 31
0.0
  0
LINE
  5
B5
330
1F
100
AcDbEntity
  8
SLD-0
  6
Continuous
370
    15
100
AcDbLine
 10
92.9375707587
 20
67.5469677726
 30
0.0
 11
58.3796894409
 21
67.5469677726
 31
0.0
  0
LINE
  5
B6
330
1F
100
AcDbEntity
  8
SLD-0
  6
Continuous
370
    15
100
AcDbLine
 10
58.3660695449
 20
67.5840540642
 30
0.0
 11
58.3346574278
 21
67.5710442945
 31
0.0
  0
LINE
  5
B7
330
1F
100
AcDbEntity
  8
SLD-0
  6
Continuous
370
    15
100
AcDbLine
 10
58.3346574278
 20
67.5710442945
 30
0.0
 11
58.2011242504
 21
67.893425637
 31
0.0
  0
LINE
  5
B8
330
1F
100
AcDbEntity
  8
SLD-0
  6
Continuous
370
    15
100
AcDbLine
 10
58.2325351942
 20
67.9064354067
 30
0.0
 11
58.2011242504
 21
67.893425637
 31
0.0
  0
LINE
  5
B9
330
1F
100
AcDbEntity
  8
SLD-0
  6
Continuous
370
    15
100
AcDbLine
 10
58.2325351942
 20
67.9064354067
 30
0.0
 11
58.3660695449
 21
67.5840540642
 31
0.0
  0
ARC
  5
BA
330
1F
100
AcDbEntity
  8
SLD-0
  6
Continuous
370
    15
100
AcDbCircle
 10
58.3706890667
 20
67.5859694032
 30
0.0
 40
0.0050000000000097
100
AcDbArc
 50
202.4999999999
 51
270.0
  0
LINE
  5
BB
330
1F
100
AcDbEntity
  8
SLD-0
  6
Continuous
370
    15
100
AcDbLine
 10
58.3706889049
 20
67.5469677726
 30
0.0
 11
58.3706889049
 21
67.5809705798
 31
0.0
  0
ARC
  5
BC
330
1F
100
AcDbEntity
  8
SLD-0
  6
Continuous
370
    15
100
AcDbCircle
 10
58.3706890667
 20
67.5859694032
 30
0.0
 40
0.0390000000000077
100
AcDbArc
 50
202.5
 51
270.0
  0
LINE
  5
BD
330
1F
100
AcDbEntity
  8
SLD-0
  6
Continuous
370
    15
100
AcDbLine
 10
58.3796894409
 20
67.5809705798
 30
0.0
 11
58.3706889049
 21
67.5809705798
 31
0.0
  0
LINE
  5
BE
330
1F
100
AcDbEntity
  8
SLD-0
  6
Continuous
370
    15
100
AcDbLine
 10
58.3796894409
 20
67.5469677726
 30
0.0
 11
58.3706889049
 21
67.5469677726
 31
0.0
  0
LINE
  5
BF
330
1F
100
AcDbEntity
  8
SLD-0
  6
Continuous
370
    15
100
AcDbLine
 10
92.9465712947
 20
67.5809705798
 30
0.0
 11
92.9465712947
 21
67.5469677726
 31
0.0
  0
LINE
  5
C0
330
1F
100
AcDbEntity
  8
SLD-0
  6
Continuous
370
    15
100
AcDbLine
 10
92.9465712947
 20
67.5809705798
 30
0.0
 11
92.9375707587
 21
67.5809705798
 31
0.0
  0
LINE
  5
C1
330
1F
100
AcDbEntity
  8
SLD-0
  6
Continuous
370
    15
100
AcDbLine
 10
92.9465712947
 20
67.5469677726
 30
0.0
 11
92.9375707587
 21
67.5469677726
 31
0.0
  0
LINE
  5
C2
330
1F
100
AcDbEntity
  8
SLD-0
  6
Continuous
370
    15
100
AcDbLine
 10
92.9826027718
 20
67.5710442945
 30
0.0
 11
92.9511906547
 21
67.5840540642
 31
0.0
  0
LINE
  5
C3
330
1F
100
AcDbEntity
  8
SLD-0
  6
Continuous
370
    15
100
AcDbLine
 10
93.1161359492
 20
67.893425637
 30
0.0
 11
93.0847250054
 21
67.9064354067
 31
0.0
  0
LINE
  5
C4
330
1F
100
AcDbEntity
  8
SLD-0
  6
Continuous
370
    15
100
AcDbLine
 10
93.0847250054
 20
67.9064354067
 30
0.0
 11
92.9511906547
 21
67.5840540642
 31
0.0
  0
LINE
  5
C5
330
1F
100
AcDbEntity
  8
SLD-0
  6
Continuous
370
    15
100
AcDbLine
 10
93.1161359492
 20
67.893425637
 30
0.0
 11
92.9826027718
 21
67.5710442945
 31
0.0
  0
ARC
  5
C6
330
1F
100
AcDbEntity
  8
SLD-0
  6
Continuous
370
    15
100
AcDbCircle
 10
92.9465711329
 20
67.5859694032
 30
0.0
 40
0.0390000000000015
100
AcDbArc
 50
270.0
 51
337.5
  0
ARC
  5
C7
330
1F
100
AcDbEntity
  8
SLD-0
  6
Continuous
370
    15
100
AcDbCircle
 10
92.9465711329
 20
67.5859694032
 30
0.0
 40
0.004999999997667
100
AcDbArc
 50
270.0
 51
337.5000000001
  0
LINE
  5
C8
330
1F
100
AcDbEntity
  8
SLD-0
  6
Continuous
370
    15
100
AcDbLine
 10
58.153288003
 20
68.0089084629
 30
0.0
 11
58.1847001201
 21
68.0219182326
 31
0.0
  0
LWPOLYLINE
  5
C9
330
1F
100
AcDbEntity
  8
SLD-0
  6
Continuous
370
    15
100
AcDbPolyline
 90
        9
 70
   128
 43
0.0
 10
58.1847001201
 20
68.0219182326
 10
58.1856200028
 20
68.0197030049
 10
58.1883421047
 20
68.0131277208
 10
58.1927620003
 20
68.0024598974
 10
58.1987107316
 20
67.98809377
 10
58.2059595012
 20
67.9705972255
 10
58.2142302323
 20
67.9506273228
 10
58.223203782
 20
67.9289631464
 10
58.2325351942
 20
67.9064354067
  0
LWPOLYLINE
  5
CA
330
1F
100
AcDbEntity
  8
SLD-0
  6
Continuous
370
    15
100
AcDbPolyline
 90
        9
 70
   128
 43
0.0
 10
58.2011242504
 20
67.893425637
 10
58.1917916649
 20
67.9159533767
 10
58.1828181152
 20
67.9376175531
 10
58.1745473841
 20
67.9575827625
 10
58.1672986145
 20
67.9750840003
 10
58.1613498832
 20
67.9894454344
 10
58.1569299876
 20
68.0001179511
 10
58.1542078857
 20
68.0066885419
 10
58.153288003
 20
68.0089084629
  0
LINE
  5
CB
330
1F
100
AcDbEntity
  8
SLD-0
  6
Continuous
370
    15
100
AcDbLine
 10
93.1325600795
 20
68.0219182326
 30
0.0
 11
93.1639721966
 21
68.0089084629
 31
0.0
  0
LWPOLYLINE
  5
CC
330
1F
100
AcDbEntity
  8
SLD-0
  6
Continuous
370
    15
100
AcDbPolyline
 90
        9
 70
   128
 43
0.0
 10
93.0847250054
 20
67.9064354067
 10
93.0940564176
 20
67.9289631464
 10
93.1030299673
 20
67.9506273228
 10
93.1113006984
 20
67.9705972255
 10
93.118549468
 20
67.98809377
 10
93.1244981993
 20
68.0024598974
 10
93.1289180949
 20
68.0131277208
 10
93.1316401968
 20
68.0197030049
 10
93.1325600795
 20
68.0219182326
  0
LWPOLYLINE
  5
CD
330
1F
100
AcDbEntity
  8
SLD-0
  6
Continuous
370
    15
100
AcDbPolyline
 90
        9
 70
   128
 43
0.0
 10
93.1639721966
 20
68.0089084629
 10
93.1630523139
 20
68.0066885419
 10
93.160330212
 20
68.0001179511
 10
93.1559103164
 20
67.9894454344
 10
93.1499615851
 20
67.9750840003
 10
93.1427128155
 20
67.9575827625
 10
93.1344420844
 20
67.9376175531
 10
93.1254685347
 20
67.9159533767
 10
93.1161359492
 20
67.893425637
  0
ARC
  5
CE
330
1F
100
AcDbEntity
  8
SLD-0
  6
Continuous
370
    15
100
AcDbCircle
 10
90.9366548736
 20
63.7298694032
 30
0.0
 40
0.125
100
AcDbArc
 50
0.0
 51
90.0
  0
LINE
  5
CF
330
1F
100
AcDbEntity
  8
SLD-0
  6
Continuous
370
    15
100
AcDbLine
 10
91.0616553627
 20
63.154767205
 30
0.0
 11
91.0616553627
 21
63.7298675481
 31
0.0
  0
LINE
  5
D0
330
1F
100
AcDbEntity
  8
SLD-0
  6
Continuous
370
    15
100
AcDbLine
 10
91.0616553627
 20
63.154767205
 30
0.0
 11
60.2556048369
 21
63.154767205
 31
0.0
  0
LINE
  5
D1
330
1F
100
AcDbEntity
  8
SLD-0
  6
Continuous
370
    15
100
AcDbLine
 10
60.2556048369
 20
63.7298675481
 30
0.0
 11
60.2556048369
 21
63.154767205
 31
0.0
  0
ARC
  5
D2
330
1F
100
AcDbEntity
  8
SLD-0
  6
Continuous
370
    15
100
AcDbCircle
 10
60.380605326
 20
63.7298694032
 30
0.0
 40
0.125
100
AcDbArc
 50
90.0
 51
180.0
  0
LINE
  5
D3
330
1F
100
AcDbEntity
  8
SLD-0
  6
Continuous
370
    15
100
AcDbLine
 10
90.9366545668
 20
63.8548683441
 30
0.0
 11
60.3806056328
 21
63.8548683441
 31
0.0
  0
LINE
  5
D4
330
1F
100
AcDbEntity
  8
SLD-0
  6
Continuous
370
    15
100
AcDbLine
 10
91.0616553627
 20
63.154767205
 30
0.0
 11
91.0616553627
 21
63.0829694211
 31
0.0
  0
LINE
  5
D5
330
1F
100
AcDbEntity
  8
SLD-0
  6
Continuous
370
    15
100
AcDbLine
 10
91.0616553627
 20
63.0829694211
 30
0.0
 11
60.2556048369
 21
63.0829694211
 31
0.0
  0
LINE
  5
D6
330
1F
100
AcDbEntity
  8
SLD-0
  6
Continuous
370
    15
100
AcDbLine
 10
60.2556048369
 20
63.0829694211
 30
0.0
 11
60.2556048369
 21
63.154767205
 31
0.0
  0
LINE
  5
D7
330
1F
100
AcDbEntity
  8
SLD-0
  6
Continuous
370
    15
100
AcDbLine
 10
60.0072881321
 20
63.5449101114
 30
0.0
 11
60.0404555356
 21
63.5586473394
 31
0.0
  0
LWPOLYLINE
  5
D8
330
1F
100
AcDbEntity
  8
SLD-0
  6
Continuous
370
    15
100
AcDbPolyline
 90
        9
 70
   128
 43
0.0
 10
60.0404555356
 20
63.5586473394
 10
60.041374245
 20
63.5564274184
 10
60.0440963469
 20
63.5498568276
 10
60.0485174158
 20
63.5391843109
 10
60.0544661471
 20
63.5248228768
 10
60.0617149167
 20
63.507321639
 10
60.0699856478
 20
63.4873564296
 10
60.0789591975
 20
63.4656922532
 10
60.0882906097
 20
63.4431645134
  0
LINE
  5
D9
330
1F
100
AcDbEntity
  8
SLD-0
  6
Continuous
370
    15
100
AcDbLine
 10
60.0882906097
 20
63.4431645134
 30
0.0
 11
60.0551243795
 21
63.4294225922
 31
0.0
  0
LWPOLYLINE
  5
DA
330
1F
100
AcDbEntity
  8
SLD-0
  6
Continuous
370
    15
100
AcDbPolyline
 90
        9
 70
   128
 43
0.0
 10
60.0551243795
 20
63.4294225922
 10
60.045791794
 20
63.4519550252
 10
60.0368182443
 20
63.4736192016
 10
60.0285475132
 20
63.493584411
 10
60.0212987436
 20
63.5110856488
 10
60.0153500123
 20
63.5254470829
 10
60.0109301167
 20
63.5361195996
 10
60.0082080148
 20
63.5426901904
 10
60.0072881321
 20
63.5449101114
  0
LINE
  5
DB
330
1F
100
AcDbEntity
  8
SLD-0
  6
Continuous
370
    15
100
AcDbLine
 10
60.2134380706
 20
63.1410299771
 30
0.0
 11
60.1802706671
 21
63.1272927491
 31
0.0
  0
LINE
  5
DC
330
1F
100
AcDbEntity
  8
SLD-0
  6
Continuous
370
    15
100
AcDbLine
 10
60.0882906097
 20
63.4431645134
 30
0.0
 11
60.2134380706
 21
63.1410299771
 31
0.0
  0
LINE
  5
DD
330
1F
100
AcDbEntity
  8
SLD-0
  6
Continuous
370
    15
100
AcDbLine
 10
60.1802706671
 20
63.1272927491
 30
0.0
 11
60.0551243795
 21
63.4294225922
 31
0.0
  0
ARC
  5
DE
330
1F
100
AcDbEntity
  8
SLD-0
  6
Continuous
370
    15
100
AcDbCircle
 10
60.246605326
 20
63.1547694032
 30
0.0
 40
0.0359000107883034
100
AcDbArc
 50
202.5
 51
270.0
  0
LINE
  5
DF
330
1F
100
AcDbEntity
  8
SLD-0
  6
Continuous
370
    15
100
AcDbLine
 10
60.2466054742
 20
63.0829694211
 30
0.0
 11
60.2466054742
 21
63.1188683131
 31
0.0
  0
ARC
  5
E0
330
1F
100
AcDbEntity
  8
SLD-0
  6
Continuous
370
    15
100
AcDbCircle
 10
60.246605326
 20
63.1547694139
 30
0.0
 40
0.0718000182467264
100
AcDbArc
 50
202.5000079537
 51
270.0
  0
LINE
  5
E1
330
1F
100
AcDbEntity
  8
SLD-0
  6
Continuous
370
    15
100
AcDbLine
 10
60.2556048369
 20
63.0829694211
 30
0.0
 11
60.2466054742
 21
63.0829694211
 31
0.0
  0
LINE
  5
E2
330
1F
100
AcDbEntity
  8
SLD-0
  6
Continuous
370
    15
100
AcDbLine
 10
60.2556048369
 20
63.1188683131
 30
0.0
 11
60.2466054742
 21
63.1188683131
 31
0.0
  0
ARC
  5
E3
330
1F
100
AcDbEntity
  8
SLD-0
  6
Continuous
370
    15
100
AcDbCircle
 10
91.0706548736
 20
63.1547694139
 30
0.0
 40
0.0718000182467193
100
AcDbArc
 50
270.0
 51
337.4999920463
  0
LINE
  5
E4
330
1F
100
AcDbEntity
  8
SLD-0
  6
Continuous
370
    15
100
AcDbLine
 10
91.0706547254
 20
63.1188683131
 30
0.0
 11
91.0706547254
 21
63.0829694211
 31
0.0
  0
ARC
  5
E5
330
1F
100
AcDbEntity
  8
SLD-0
  6
Continuous
370
    15
100
AcDbCircle
 10
91.0706548736
 20
63.1547694032
 30
0.0
 40
0.035899999999998
100
AcDbArc
 50
270.0
 51
337.5
  0
LINE
  5
E6
330
1F
100
AcDbEntity
  8
SLD-0
  6
Continuous
370
    15
100
AcDbLine
 10
91.1369895325
 20
63.1272927491
 30
0.0
 11
91.103822129
 21
63.1410299771
 31
0.0
  0
LINE
  5
E7
330
1F
100
AcDbEntity
  8
SLD-0
  6
Continuous
370
    15
100
AcDbLine
 10
91.0706547254
 20
63.0829694211
 30
0.0
 11
91.0616553627
 21
63.0829694211
 31
0.0
  0
LINE
  5
E8
330
1F
100
AcDbEntity
  8
SLD-0
  6
Continuous
370
    15
100
AcDbLine
 10
91.0706547254
 20
63.1188683131
 30
0.0
 11
91.0616553627
 21
63.1188683131
 31
0.0
  0
LINE
  5
E9
330
1F
100
AcDbEntity
  8
SLD-0
  6
Continuous
370
    15
100
AcDbLine
 10
91.2289695899
 20
63.4431645134
 30
0.0
 11
91.103822129
 21
63.1410299771
 31
0.0
  0
LINE
  5
EA
330
1F
100
AcDbEntity
  8
SLD-0
  6
Continuous
370
    15
100
AcDbLine
 10
91.2621358201
 20
63.4294225922
 30
0.0
 11
91.2289695899
 21
63.4431645134
 31
0.0
  0
LINE
  5
EB
330
1F
100
AcDbEntity
  8
SLD-0
  6
Continuous
370
    15
100
AcDbLine
 10
91.2621358201
 20
63.4294225922
 30
0.0
 11
91.1369895325
 21
63.1272927491
 31
0.0
  0
LINE
  5
EC
330
1F
100
AcDbEntity
  8
SLD-0
  6
Continuous
370
    15
100
AcDbLine
 10
91.276804664
 20
63.5586473394
 30
0.0
 11
91.3099720675
 21
63.5449101114
 31
0.0
  0
LWPOLYLINE
  5
ED
330
1F
100
AcDbEntity
  8
SLD-0
  6
Continuous
370
    15
100
AcDbPolyline
 90
        9
 70
   128
 43
0.0
 10
91.3099720675
 20
63.5449101114
 10
91.3090521848
 20
63.5426901904
 10
91.3063300829
 20
63.5361195996
 10
91.3019101873
 20
63.5254470829
 10
91.295961456
 20
63.5110856488
 10
91.2887126864
 20
63.493584411
 10
91.2804419553
 20
63.4736192016
 10
91.2714684056
 20
63.4519550252
 10
91.2621358201
 20
63.4294225922
  0
LWPOLYLINE
  5
EE
330
1F
100
AcDbEntity
  8
SLD-0
  6
Continuous
370
    15
100
AcDbPolyline
 90
        9
 70
   128
 43
0.0
 10
91.2289695899
 20
63.4431645134
 10
91.2383010021
 20
63.4656922532
 10
91.2472745518
 20
63.4873564296
 10
91.2555452829
 20
63.507321639
 10
91.2627940525
 20
63.5248228768
 10
91.2687427838
 20
63.5391843109
 10
91.2731638527
 20
63.5498568276
 10
91.2758859546
 20
63.5564274184
 10
91.276804664
 20
63.5586473394
  0
LINE
  5
EF
330
1F
100
AcDbEntity
  8
SLD-0
  6
Continuous
370
    15
100
AcDbLine
 10
88.1301100282
 20
57.1169715675
 30
0.0
 11
88.1301100282
 21
57.0829687603
 31
0.0
  0
LINE
  5
F0
330
1F
100
AcDbEntity
  8
SLD-0
  6
Continuous
370
    15
100
AcDbLine
 10
88.0301103301
 20
57.0829687603
 30
0.0
 11
88.0301103301
 21
57.1169715675
 31
0.0
  0
LINE
  5
F1
330
1F
100
AcDbEntity
  8
SLD-0
  6
Continuous
370
    15
100
AcDbLine
 10
88.0301103301
 20
57.1169715675
 30
0.0
 11
88.1301100282
 21
57.1169715675
 31
0.0
  0
LINE
  5
F2
330
1F
100
AcDbEntity
  8
SLD-0
  6
Continuous
370
    15
100
AcDbLine
 10
88.6517691753
 20
57.0829687603
 30
0.0
 11
88.6517691753
 21
57.1169715675
 31
0.0
  0
LINE
  5
F3
330
1F
100
AcDbEntity
  8
SLD-0
  6
Continuous
370
    15
100
AcDbLine
 10
88.6517691753
 20
57.1169715675
 30
0.0
 11
88.1301100282
 21
57.1169715675
 31
0.0
  0
ARC
  5
F4
330
1F
100
AcDbEntity
  8
SLD-0
  6
Continuous
370
    15
100
AcDbCircle
 10
88.6517693623
 20
57.1219694032
 30
0.0
 40
0.0050000000000026
100
AcDbArc
 50
269.9999999984
 51
337.4999999999
  0
LINE
  5
F5
330
1F
100
AcDbEntity
  8
SLD-0
  6
Continuous
370
    15
100
AcDbLine
 10
88.6563885352
 20
57.1200550519
 30
0.0
 11
88.6878006524
 21
57.1070452822
 31
0.0
  0
ARC
  5
F6
330
1F
100
AcDbEntity
  8
SLD-0
  6
Continuous
370
    15
100
AcDbCircle
 10
88.6517693623
 20
57.1219694032
 30
0.0
 40
0.0390000000000938
100
AcDbArc
 50
269.9999999998
 51
337.5
  0
LINE
  5
F7
330
1F
100
AcDbEntity
  8
SLD-0
  6
Continuous
370
    15
100
AcDbLine
 10
93.6237621917
 20
69.0235109288
 30
0.0
 11
93.5923512479
 21
69.0365206985
 31
0.0
  0
LINE
  5
F8
330
1F
100
AcDbEntity
  8
SLD-0
  6
Continuous
370
    15
100
AcDbLine
 10
93.6237621917
 20
69.0235109288
 30
0.0
 11
88.6878006524
 21
57.1070452822
 31
0.0
  0
LINE
  5
F9
330
1F
100
AcDbEntity
  8
SLD-0
  6
Continuous
370
    15
100
AcDbLine
 10
93.5923512479
 20
69.0365206985
 30
0.0
 11
88.6563885352
 21
57.1200550519
 31
0.0
  0
LINE
  5
FA
330
1F
100
AcDbEntity
  8
SLD-0
  6
Continuous
370
    15
100
AcDbLine
 10
93.7253892844
 20
69.0365206985
 30
0.0
 11
93.6939771673
 21
69.0235109288
 31
0.0
  0
ARC
  5
FB
330
1F
100
AcDbEntity
  8
SLD-0
  6
Continuous
370
    15
100
AcDbCircle
 10
93.6588701777
 20
69.0089694032
 30
0.0
 40
0.0380000000000065
100
AcDbArc
 50
22.5
 51
157.5
  0
ARC
  5
FC
330
1F
100
AcDbEntity
  8
SLD-0
  6
Continuous
370
    15
100
AcDbCircle
 10
93.6588701777
 20
69.0089694032
 30
0.0
 40
0.0719999999999958
100
AcDbArc
 50
22.5
 51
157.5
  0
LINE
  5
FD
330
1F
100
AcDbEntity
  8
SLD-0
  6
Continuous
370
    15
100
AcDbLine
 10
98.6299387066
 20
57.1070452822
 30
0.0
 11
98.6613508237
 21
57.1200550519
 31
0.0
  0
LINE
  5
FE
330
1F
100
AcDbEntity
  8
SLD-0
  6
Continuous
370
    15
100
AcDbLine
 10
98.6299387066
 20
57.1070452822
 30
0.0
 11
93.6939771673
 21
69.0235109288
 31
0.0
  0
LINE
  5
FF
330
1F
100
AcDbEntity
  8
SLD-0
  6
Continuous
370
    15
100
AcDbLine
 10
98.6613508237
 20
57.1200550519
 30
0.0
 11
93.7253892844
 21
69.0365206985
 31
0.0
  0
ARC
  5
100
330
1F
100
AcDbEntity
  8
SLD-0
  6
Continuous
370
    15
100
AcDbCircle
 10
98.665970993
 20
57.1219694032
 30
0.0
 40
0.0049999999999985
100
AcDbArc
 50
202.500000001
 51
270.0
  0
LINE
  5
101
330
1F
100
AcDbEntity
  8
SLD-0
  6
Continuous
370
    15
100
AcDbLine
 10
98.665971357
 20
57.1169715675
 30
0.0
 11
98.665971357
 21
57.0829687603
 31
0.0
  0
ARC
  5
102
330
1F
100
AcDbEntity
  8
SLD-0
  6
Continuous
370
    15
100
AcDbCircle
 10
98.665970993
 20
57.1219694032
 30
0.0
 40
0.0390000000000015
100
AcDbArc
 50
202.5000000001
 51
270.0
  0
LINE
  5
103
330
1F
100
AcDbEntity
  8
SLD-0
  6
Continuous
370
    15
100
AcDbLine
 10
99.1876293308
 20
57.1169715675
 30
0.0
 11
98.665971357
 21
57.1169715675
 31
0.0
  0
LINE
  5
104
330
1F
100
AcDbEntity
  8
SLD-0
  6
Continuous
370
    15
100
AcDbLine
 10
99.1876293308
 20
57.0829687603
 30
0.0
 11
99.1876293308
 21
57.1169715675
 31
0.0
  0
LINE
  5
105
330
1F
100
AcDbEntity
  8
SLD-0
  6
Continuous
370
    15
100
AcDbLine
 10
99.2876290289
 20
57.1169715675
 30
0.0
 11
99.2876290289
 21
57.0829687603
 31
0.0
  0
LINE
  5
106
330
1F
100
AcDbEntity
  8
SLD-0
  6
Continuous
370
    15
100
AcDbLine
 10
99.1876293308
 20
57.1169715675
 30
0.0
 11
99.2876290289
 21
57.1169715675
 31
0.0
  0
LINE
  5
107
330
1F
100
AcDbEntity
  8
SLD-0
  6
Continuous
370
    15
100
AcDbLine
 10
62.6294595472
 20
57.1070452822
 30
0.0
 11
62.6608716643
 21
57.1200550519
 31
0.0
  0
LINE
  5
108
330
1F
100
AcDbEntity
  8
SLD-0
  6
Continuous
370
    15
100
AcDbLine
 10
57.6934980079
 20
69.0235109288
 30
0.0
 11
62.6294595472
 21
57.1070452822
 31
0.0
  0
LINE
  5
109
330
1F
100
AcDbEntity
  8
SLD-0
  6
Continuous
370
    15
100
AcDbLine
 10
57.7249089517
 20
69.0365206985
 30
0.0
 11
57.6934980079
 21
69.0235109288
 31
0.0
  0
LINE
  5
10A
330
1F
100
AcDbEntity
  8
SLD-0
  6
Continuous
370
    15
100
AcDbLine
 10
57.7249089517
 20
69.0365206985
 30
0.0
 11
62.6608716643
 21
57.1200550519
 31
0.0
  0
ARC
  5
10B
330
1F
100
AcDbEntity
  8
SLD-0
  6
Continuous
370
    15
100
AcDbCircle
 10
62.6654908373
 20
57.1219694032
 30
0.0
 40
0.0049999999999955
100
AcDbArc
 50
202.5
 51
270.0000000015
  0
LINE
  5
10C
330
1F
100
AcDbEntity
  8
SLD-0
  6
Continuous
370
    15
100
AcDbLine
 10
62.6654910243
 20
57.1169715675
 30
0.0
 11
62.6654910243
 21
57.0829687603
 31
0.0
  0
ARC
  5
10D
330
1F
100
AcDbEntity
  8
SLD-0
  6
Continuous
370
    15
100
AcDbCircle
 10
62.6654908373
 20
57.1219694032
 30
0.0
 40
0.039000000000101
100
AcDbArc
 50
202.5
 51
270.0000000002
  0
ARC
  5
10E
330
1F
100
AcDbEntity
  8
SLD-0
  6
Continuous
370
    15
100
AcDbCircle
 10
52.6512892066
 20
57.1219694032
 30
0.0
 40
0.005000000000005
100
AcDbArc
 50
270.0
 51
337.4999999991
  0
LINE
  5
10F
330
1F
100
AcDbEntity
  8
SLD-0
  6
Continuous
370
    15
100
AcDbLine
 10
52.6559093759
 20
57.1200550519
 30
0.0
 11
52.687321493
 21
57.1070452822
 31
0.0
  0
ARC
  5
110
330
1F
100
AcDbEntity
  8
SLD-0
  6
Continuous
370
    15
100
AcDbCircle
 10
52.6512892066
 20
57.1219694032
 30
0.0
 40
0.0390000000000015
100
AcDbArc
 50
270.0
 51
337.4999999999
  0
LINE
  5
111
330
1F
100
AcDbEntity
  8
SLD-0
  6
Continuous
370
    15
100
AcDbLine
 10
52.6512888426
 20
57.0829687603
 30
0.0
 11
52.6512888426
 21
57.1169715675
 31
0.0
  0
LINE
  5
112
330
1F
100
AcDbEntity
  8
SLD-0
  6
Continuous
370
    15
100
AcDbLine
 10
57.6232830323
 20
69.0235109288
 30
0.0
 11
57.5918709152
 21
69.0365206985
 31
0.0
  0
LINE
  5
113
330
1F
100
AcDbEntity
  8
SLD-0
  6
Continuous
370
    15
100
AcDbLine
 10
52.6559093759
 20
57.1200550519
 30
0.0
 11
57.5918709152
 21
69.0365206985
 31
0.0
  0
LINE
  5
114
330
1F
100
AcDbEntity
  8
SLD-0
  6
Continuous
370
    15
100
AcDbLine
 10
52.687321493
 20
57.1070452822
 30
0.0
 11
57.6232830323
 21
69.0235109288
 31
0.0
  0
LINE
  5
115
330
1F
100
AcDbEntity
  8
SLD-0
  6
Continuous
370
    15
100
AcDbLine
 10
52.0296311707
 20
57.0829687603
 30
0.0
 11
52.0296311707
 21
57.1169715675
 31
0.0
  0
LINE
  5
116
330
1F
100
AcDbEntity
  8
SLD-0
  6
Continuous
370
    15
100
AcDbLine
 10
52.1296308688
 20
57.1169715675
 30
0.0
 11
52.1296308688
 21
57.0829687603
 31
0.0
  0
LINE
  5
117
330
1F
100
AcDbEntity
  8
SLD-0
  6
Continuous
370
    15
100
AcDbLine
 10
52.0296311707
 20
57.1169715675
 30
0.0
 11
52.1296308688
 21
57.1169715675
 31
0.0
  0
LINE
  5
118
330
1F
100
AcDbEntity
  8
SLD-0
  6
Continuous
370
    15
100
AcDbLine
 10
62.6654910243
 20
57.1169715675
 30
0.0
 11
63.1871501714
 21
57.1169715675
 31
0.0
  0
LINE
  5
119
330
1F
100
AcDbEntity
  8
SLD-0
  6
Continuous
370
    15
100
AcDbLine
 10
63.1871501714
 20
57.0829687603
 30
0.0
 11
63.1871501714
 21
57.1169715675
 31
0.0
  0
LINE
  5
11A
330
1F
100
AcDbEntity
  8
SLD-0
  6
Continuous
370
    15
100
AcDbLine
 10
63.2871498695
 20
57.1169715675
 30
0.0
 11
63.2871498695
 21
57.0829687603
 31
0.0
  0
LINE
  5
11B
330
1F
100
AcDbEntity
  8
SLD-0
  6
Continuous
370
    15
100
AcDbLine
 10
63.1871501714
 20
57.1169715675
 30
0.0
 11
63.2871498695
 21
57.1169715675
 31
0.0
  0
ARC
  5
11C
330
1F
100
AcDbEntity
  8
SLD-0
  6
Continuous
370
    15
100
AcDbCircle
 10
57.658390022
 20
69.0089694032
 30
0.0
 40
0.0720000000000143
100
AcDbArc
 50
22.5
 51
157.5
  0
ARC
  5
11D
330
1F
100
AcDbEntity
  8
SLD-0
  6
Continuous
370
    15
100
AcDbCircle
 10
57.658390022
 20
69.0089694032
 30
0.0
 40
0.0380000000000053
100
AcDbArc
 50
22.5
 51
157.5
  0
LINE
  5
11E
330
1F
100
AcDbEntity
  8
SLD-0
  6
Continuous
370
    15
100
AcDbLine
 10
52.1296308688
 20
57.1169715675
 30
0.0
 11
52.6512888426
 21
57.1169715675
 31
0.0
  0
LINE
  5
11F
330
1F
100
AcDbEntity
  8
SLD-0
  6
Continuous
370
    15
100
AcDbLine
 10
52.7706295439
 20
51.6549708783
 30
0.0
 11
52.7706295439
 21
51.6789676144
 31
0.0
  0
LINE
  5
120
330
1F
100
AcDbEntity
  8
SLD-0
  6
Continuous
370
    15
100
AcDbLine
 10
52.7706295439
 20
51.6789676144
 30
0.0
 11
52.8956303399
 21
51.6789676144
 31
0.0
  0
LINE
  5
121
330
1F
100
AcDbEntity
  8
SLD-0
  6
Continuous
370
    15
100
AcDbLine
 10
52.8956303399
 20
51.6789676144
 30
0.0
 11
52.8956303399
 21
51.6549708783
 31
0.0
  0
LINE
  5
122
330
1F
100
AcDbEntity
  8
SLD-0
  6
Continuous
370
    15
100
AcDbLine
 10
52.8956303399
 20
51.6549708783
 30
0.0
 11
52.7706295439
 21
51.6549708783
 31
0.0
  0
LINE
  5
123
330
1F
100
AcDbEntity
  8
SLD-0
  6
Continuous
370
    15
100
AcDbLine
 10
52.8956303399
 20
51.6789676144
 30
0.0
 11
98.4216298597
 21
51.6789676144
 31
0.0
  0
LINE
  5
124
330
1F
100
AcDbEntity
  8
SLD-0
  6
Continuous
370
    15
100
AcDbLine
 10
98.4216298597
 20
51.6549708783
 30
0.0
 11
98.4216298597
 21
51.6789676144
 31
0.0
  0
LINE
  5
125
330
1F
100
AcDbEntity
  8
SLD-0
  6
Continuous
370
    15
100
AcDbLine
 10
52.8956303399
 20
51.6549708783
 30
0.0
 11
98.4216298597
 21
51.6549708783
 31
0.0
  0
LINE
  5
126
330
1F
100
AcDbEntity
  8
SLD-0
  6
Continuous
370
    15
100
AcDbLine
 10
98.5466306557
 20
51.6789676144
 30
0.0
 11
98.5466306557
 21
51.6549708783
 31
0.0
  0
LINE
  5
127
330
1F
100
AcDbEntity
  8
SLD-0
  6
Continuous
370
    15
100
AcDbLine
 10
98.4216298597
 20
51.6789676144
 30
0.0
 11
98.5466306557
 21
51.6789676144
 31
0.0
  0
LINE
  5
128
330
1F
100
AcDbEntity
  8
SLD-0
  6
Continuous
370
    15
100
AcDbLine
 10
98.5466306557
 20
51.6549708783
 30
0.0
 11
98.4216298597
 21
51.6549708783
 31
0.0
  0
LINE
  5
129
330
1F
100
AcDbEntity
  8
SLD-0
  6
Continuous
370
    15
100
AcDbLine
 10
98.5466306557
 20
51.68397065
 30
0.0
 11
52.7706295439
 21
51.68397065
 31
0.0
  0
LINE
  5
12A
330
1F
100
AcDbEntity
  8
SLD-0
  6
Continuous
370
    15
100
AcDbLine
 10
98.5466306557
 20
51.6789676144
 30
0.0
 11
98.5466306557
 21
51.68397065
 31
0.0
  0
LINE
  5
12B
330
1F
100
AcDbEntity
  8
SLD-0
  6
Continuous
370
    15
100
AcDbLine
 10
52.7706295439
 20
51.68397065
 30
0.0
 11
52.7706295439
 21
51.6789676144
 31
0.0
  0
LINE
  5
12C
330
1F
100
AcDbEntity
  8
SLD-0
  6
Continuous
370
    15
100
AcDbLine
 10
45.1876304234
 20
57.0539689886
 30
0.0
 11
106.1296297762
 21
57.0539689886
 31
0.0
  0
LINE
  5
12D
330
1F
100
AcDbEntity
  8
SLD-0
  6
Continuous
370
    15
100
AcDbLine
 10
106.1296297762
 20
51.808971446
 30
0.0
 11
106.1296297762
 21
57.0539689886
 31
0.0
  0
LINE
  5
12E
330
1F
100
AcDbEntity
  8
SLD-0
  6
Continuous
370
    15
100
AcDbLine
 10
106.0046289802
 20
51.68397065
 30
0.0
 11
106.1296297762
 21
51.808971446
 31
0.0
  0
LINE
  5
12F
330
1F
100
AcDbEntity
  8
SLD-0
  6
Continuous
370
    15
100
AcDbLine
 10
98.5466306557
 20
51.68397065
 30
0.0
 11
106.0046289802
 21
51.68397065
 31
0.0
  0
LINE
  5
130
330
1F
100
AcDbEntity
  8
SLD-0
  6
Continuous
370
    15
100
AcDbLine
 10
45.1876304234
 20
51.808971446
 30
0.0
 11
45.3126312194
 21
51.68397065
 31
0.0
  0
LINE
  5
131
330
1F
100
AcDbEntity
  8
SLD-0
  6
Continuous
370
    15
100
AcDbLine
 10
45.1876304234
 20
57.0539689886
 30
0.0
 11
45.1876304234
 21
51.808971446
 31
0.0
  0
LINE
  5
132
330
1F
100
AcDbEntity
  8
SLD-0
  6
Continuous
370
    15
100
AcDbLine
 10
45.3126312194
 20
51.68397065
 30
0.0
 11
52.7706295439
 21
51.68397065
 31
0.0
  0
LINE
  5
133
330
1F
100
AcDbEntity
  8
SLD-0
  6
Continuous
370
    15
100
AcDbLine
 10
106.1296297762
 20
57.0829687603
 30
0.0
 11
106.1296297762
 21
57.0539689886
 31
0.0
  0
LINE
  5
134
330
1F
100
AcDbEntity
  8
SLD-0
  6
Continuous
370
    15
100
AcDbLine
 10
45.1876304234
 20
57.0539689886
 30
0.0
 11
45.1876304234
 21
57.0829687603
 31
0.0
  0
LINE
  5
135
330
1F
100
AcDbEntity
  8
SLD-0
  6
Continuous
370
    15
100
AcDbLine
 10
45.1876304234
 20
57.0829687603
 30
0.0
 11
106.1296297762
 21
57.0829687603
 31
0.0
  0
LINE
  5
136
330
1F
100
AcDbEntity
  8
SLD-0
  6
Continuous
370
    15
100
AcDbLine
 10
106.1586295479
 20
57.0539689886
 30
0.0
 11
106.1346304651
 21
57.0539689886
 31
0.0
  0
LINE
  5
137
330
1F
100
AcDbEntity
  8
SLD-0
  6
Continuous
370
    15
100
AcDbLine
 10
106.1586295479
 20
56.1839711456
 30
0.0
 11
106.1586295479
 21
57.0539689886
 31
0.0
  0
LINE
  5
138
330
1F
100
AcDbEntity
  8
SLD-0
  6
Continuous
370
    15
100
AcDbLine
 10
106.1346304651
 20
56.1839711456
 30
0.0
 11
106.1586295479
 21
56.1839711456
 31
0.0
  0
LINE
  5
139
330
1F
100
AcDbEntity
  8
SLD-0
  6
Continuous
370
    15
100
AcDbLine
 10
106.1346304651
 20
56.1839711456
 30
0.0
 11
106.1346304651
 21
57.0539689886
 31
0.0
  0
LINE
  5
13A
330
1F
100
AcDbEntity
  8
SLD-0
  6
Continuous
370
    15
100
AcDbLine
 10
106.1586295479
 20
56.0589703496
 30
0.0
 11
106.1346304651
 21
56.0589703496
 31
0.0
  0
LINE
  5
13B
330
1F
100
AcDbEntity
  8
SLD-0
  6
Continuous
370
    15
100
AcDbLine
 10
106.1586295479
 20
56.1839711456
 30
0.0
 11
106.1586295479
 21
56.0589703496
 31
0.0
  0
LINE
  5
13C
330
1F
100
AcDbEntity
  8
SLD-0
  6
Continuous
370
    15
100
AcDbLine
 10
106.1346304651
 20
56.1599697162
 30
0.0
 11
106.1346304651
 21
56.1839711456
 31
0.0
  0
ARC
  5
13D
330
1F
100
AcDbEntity
  8
SLD-0
  6
Continuous
370
    15
100
AcDbCircle
 10
45.1876300998
 20
57.0539694032
 30
0.0
 40
0.0050000000085646
100
AcDbArc
 50
89.9999999965
 51
179.9999999952
  0
LINE
  5
13E
330
1F
100
AcDbEntity
  8
SLD-0
  6
Continuous
370
    15
100
AcDbLine
 10
45.1586306517
 20
57.0539689886
 30
0.0
 11
45.1826297345
 21
57.0539689886
 31
0.0
  0
ARC
  5
13F
330
1F
100
AcDbEntity
  8
SLD-0
  6
Continuous
370
    15
100
AcDbCircle
 10
45.1876300998
 20
57.0539694032
 30
0.0
 40
0.0290000000000035
100
AcDbArc
 50
89.9999999994
 51
180.0
  0
ARC
  5
140
330
1F
100
AcDbEntity
  8
SLD-0
  6
Continuous
370
    15
100
AcDbCircle
 10
106.1296300998
 20
57.0539694032
 30
0.0
 40
0.0290000000000106
100
AcDbArc
 50
0.0
 51
90.0
  0
ARC
  5
141
330
1F
100
AcDbEntity
  8
SLD-0
  6
Continuous
370
    15
100
AcDbCircle
 10
106.1296300998
 20
57.0539694032
 30
0.0
 40
0.0049999999999955
100
AcDbArc
 50
0.0000000017
 51
90.0
  0
LINE
  5
142
330
1F
100
AcDbEntity
  8
SLD-0
  6
Continuous
370
    15
100
AcDbLine
 10
45.1826297345
 20
57.0539689886
 30
0.0
 11
45.1826297345
 21
56.1839711456
 31
0.0
  0
LINE
  5
143
330
1F
100
AcDbEntity
  8
SLD-0
  6
Continuous
370
    15
100
AcDbLine
 10
45.1586306517
 20
56.1839711456
 30
0.0
 11
45.1826297345
 21
56.1839711456
 31
0.0
  0
LINE
  5
144
330
1F
100
AcDbEntity
  8
SLD-0
  6
Continuous
370
    15
100
AcDbLine
 10
45.1586306517
 20
57.0539689886
 30
0.0
 11
45.1586306517
 21
56.1839711456
 31
0.0
  0
LINE
  5
145
330
1F
100
AcDbEntity
  8
SLD-0
  6
Continuous
370
    15
100
AcDbLine
 10
45.1826297345
 20
56.1839711456
 30
0.0
 11
45.1826297345
 21
56.1599697162
 31
0.0
  0
LINE
  5
146
330
1F
100
AcDbEntity
  8
SLD-0
  6
Continuous
370
    15
100
AcDbLine
 10
45.1826297345
 20
56.0589703496
 30
0.0
 11
45.1586306517
 21
56.0589703496
 31
0.0
  0
LINE
  5
147
330
1F
100
AcDbEntity
  8
SLD-0
  6
Continuous
370
    15
100
AcDbLine
 10
45.1586306517
 20
56.0589703496
 30
0.0
 11
45.1586306517
 21
56.1839711456
 31
0.0
  0
LINE
  5
148
330
1F
100
AcDbEntity
  8
SLD-0
  6
Continuous
370
    15
100
AcDbLine
 10
98.5926294843
 20
44.9124699949
 30
0.0
 11
98.5576293553
 21
44.9124699949
 31
0.0
  0
LINE
  5
149
330
1F
100
AcDbEntity
  8
SLD-0
  6
Continuous
370
    15
100
AcDbLine
 10
98.5926294843
 20
47.9124703253
 30
0.0
 11
98.5576293553
 21
47.9124703253
 31
0.0
  0
LINE
  5
14A
330
1F
100
AcDbEntity
  8
SLD-0
  6
Continuous
370
    15
100
AcDbLine
 10
52.7246307153
 20
47.9124703253
 30
0.0
 11
52.7596308443
 21
47.9124703253
 31
0.0
  0
LINE
  5
14B
330
1F
100
AcDbEntity
  8
SLD-0
  6
Continuous
370
    15
100
AcDbLine
 10
52.7246307153
 20
44.9124699949
 30
0.0
 11
52.7596308443
 21
44.9124699949
 31
0.0
  0
LINE
  5
14C
330
1F
100
AcDbEntity
  8
SLD-0
  6
Continuous
370
    15
100
AcDbLine
 10
52.7246307153
 20
18.6084691677
 30
0.0
 11
52.7596308443
 21
18.6084691677
 31
0.0
  0
LINE
  5
14D
330
1F
100
AcDbEntity
  8
SLD-0
  6
Continuous
370
    15
100
AcDbLine
 10
52.7246307153
 20
21.6084694981
 30
0.0
 11
52.7596308443
 21
21.6084694981
 31
0.0
  0
LINE
  5
14E
330
1F
100
AcDbEntity
  8
SLD-0
  6
Continuous
370
    15
100
AcDbLine
 10
98.5926294843
 20
18.6084691677
 30
0.0
 11
98.5576293553
 21
18.6084691677
 31
0.0
  0
LINE
  5
14F
330
1F
100
AcDbEntity
  8
SLD-0
  6
Continuous
370
    15
100
AcDbLine
 10
98.5926294843
 20
21.6084694981
 30
0.0
 11
98.5576293553
 21
21.6084694981
 31
0.0
  0
LINE
  5
150
330
1F
100
AcDbEntity
  8
SLD-0
  6
Continuous
370
    15
100
AcDbLine
 10
98.6166309137
 20
51.5089676583
 30
0.0
 11
98.5926294843
 21
51.5089676583
 31
0.0
  0
LINE
  5
151
330
1F
100
AcDbEntity
  8
SLD-0
  6
Continuous
370
    15
100
AcDbLine
 10
98.6166309137
 20
51.5089676583
 30
0.0
 11
98.6166309137
 21
12.9079693803
 31
0.0
  0
LINE
  5
152
330
1F
100
AcDbEntity
  8
SLD-0
  6
Continuous
370
    15
100
AcDbLine
 10
98.5926294843
 20
12.9079693803
 30
0.0
 11
98.6166309137
 21
12.9079693803
 31
0.0
  0
LINE
  5
153
330
1F
100
AcDbEntity
  8
SLD-0
  6
Continuous
370
    15
100
AcDbLine
 10
98.5926294843
 20
51.5089676583
 30
0.0
 11
98.5926294843
 21
12.9079693803
 31
0.0
  0
LINE
  5
154
330
1F
100
AcDbEntity
  8
SLD-0
  6
Continuous
370
    15
100
AcDbLine
 10
98.6166309137
 20
12.9079693803
 30
0.0
 11
98.6166309137
 21
12.782969391
 31
0.0
  0
LINE
  5
155
330
1F
100
AcDbEntity
  8
SLD-0
  6
Continuous
370
    15
100
AcDbLine
 10
98.6166309137
 20
12.782969391
 30
0.0
 11
98.5926294843
 21
12.782969391
 31
0.0
  0
LINE
  5
156
330
1F
100
AcDbEntity
  8
SLD-0
  6
Continuous
370
    15
100
AcDbLine
 10
98.5926294843
 20
12.782969391
 30
0.0
 11
98.5926294843
 21
12.9079693803
 31
0.0
  0
LINE
  5
157
330
1F
100
AcDbEntity
  8
SLD-0
  6
Continuous
370
    15
100
AcDbLine
 10
98.5926294843
 20
51.6339684543
 30
0.0
 11
98.6166309137
 21
51.6339684543
 31
0.0
  0
LINE
  5
158
330
1F
100
AcDbEntity
  8
SLD-0
  6
Continuous
370
    15
100
AcDbLine
 10
98.6166309137
 20
51.6339684543
 30
0.0
 11
98.6166309137
 21
51.5089676583
 31
0.0
  0
LINE
  5
159
330
1F
100
AcDbEntity
  8
SLD-0
  6
Continuous
370
    15
100
AcDbLine
 10
98.5926294843
 20
51.5089676583
 30
0.0
 11
98.5926294843
 21
51.6339684543
 31
0.0
  0
LINE
  5
15A
330
1F
100
AcDbEntity
  8
SLD-0
  6
Continuous
370
    15
100
AcDbLine
 10
98.6166309137
 20
12.782969391
 30
0.0
 11
98.6216292559
 21
12.782969391
 31
0.0
  0
LINE
  5
15B
330
1F
100
AcDbEntity
  8
SLD-0
  6
Continuous
370
    15
100
AcDbLine
 10
98.6216292559
 20
51.6339684543
 30
0.0
 11
98.6166309137
 21
51.6339684543
 31
0.0
  0
LINE
  5
15C
330
1F
100
AcDbEntity
  8
SLD-0
  6
Continuous
370
    15
100
AcDbLine
 10
98.6216292559
 20
12.782969391
 30
0.0
 11
98.6216292559
 21
51.6339684543
 31
0.0
  0
LINE
  5
15D
330
1F
100
AcDbEntity
  8
SLD-0
  6
Continuous
370
    15
100
AcDbLine
 10
98.5926294843
 20
12.7539693993
 30
0.0
 11
98.5926294843
 21
12.782969391
 31
0.0
  0
LINE
  5
15E
330
1F
100
AcDbEntity
  8
SLD-0
  6
Continuous
370
    15
100
AcDbLine
 10
98.5926294843
 20
51.6339684543
 30
0.0
 11
98.5926294843
 21
51.68397065
 31
0.0
  0
LINE
  5
15F
330
1F
100
AcDbEntity
  8
SLD-0
  6
Continuous
370
    15
100
AcDbLine
 10
106.1219093321
 20
11.8069694025
 30
0.0
 11
106.1146300562
 21
11.8069694025
 31
0.0
  0
LINE
  5
160
330
1F
100
AcDbEntity
  8
SLD-0
  6
Continuous
370
    15
100
AcDbLine
 10
106.1346304651
 20
56.1599697162
 30
0.0
 11
106.1346304651
 21
12.7059694005
 31
0.0
  0
LINE
  5
161
330
1F
100
AcDbEntity
  8
SLD-0
  6
Continuous
370
    15
100
AcDbLine
 10
106.1296297762
 20
57.0169671761
 30
0.0
 11
106.1346304651
 21
57.0169671761
 31
0.0
  0
LINE
  5
162
330
1F
100
AcDbEntity
  8
SLD-0
  6
Continuous
370
    15
100
AcDbLine
 10
52.7246307153
 20
51.5089676583
 30
0.0
 11
52.7006292859
 21
51.5089676583
 31
0.0
  0
LINE
  5
163
330
1F
100
AcDbEntity
  8
SLD-0
  6
Continuous
370
    15
100
AcDbLine
 10
52.7006292859
 20
12.9079693803
 30
0.0
 11
52.7246307153
 21
12.9079693803
 31
0.0
  0
LINE
  5
164
330
1F
100
AcDbEntity
  8
SLD-0
  6
Continuous
370
    15
100
AcDbLine
 10
52.7006292859
 20
12.9079693803
 30
0.0
 11
52.7006292859
 21
51.5089676583
 31
0.0
  0
LINE
  5
165
330
1F
100
AcDbEntity
  8
SLD-0
  6
Continuous
370
    15
100
AcDbLine
 10
52.7246307153
 20
12.9079693803
 30
0.0
 11
52.7246307153
 21
51.5089676583
 31
0.0
  0
LINE
  5
166
330
1F
100
AcDbEntity
  8
SLD-0
  6
Continuous
370
    15
100
AcDbLine
 10
52.7246307153
 20
12.782969391
 30
0.0
 11
52.7006292859
 21
12.782969391
 31
0.0
  0
LINE
  5
167
330
1F
100
AcDbEntity
  8
SLD-0
  6
Continuous
370
    15
100
AcDbLine
 10
52.7006292859
 20
12.782969391
 30
0.0
 11
52.7006292859
 21
12.9079693803
 31
0.0
  0
LINE
  5
168
330
1F
100
AcDbEntity
  8
SLD-0
  6
Continuous
370
    15
100
AcDbLine
 10
52.7246307153
 20
12.9079693803
 30
0.0
 11
52.7246307153
 21
12.782969391
 31
0.0
  0
LINE
  5
169
330
1F
100
AcDbEntity
  8
SLD-0
  6
Continuous
370
    15
100
AcDbLine
 10
52.7006292859
 20
51.6339684543
 30
0.0
 11
52.7246307153
 21
51.6339684543
 31
0.0
  0
LINE
  5
16A
330
1F
100
AcDbEntity
  8
SLD-0
  6
Continuous
370
    15
100
AcDbLine
 10
52.7006292859
 20
51.5089676583
 30
0.0
 11
52.7006292859
 21
51.6339684543
 31
0.0
  0
LINE
  5
16B
330
1F
100
AcDbEntity
  8
SLD-0
  6
Continuous
370
    15
100
AcDbLine
 10
52.7246307153
 20
51.6339684543
 30
0.0
 11
52.7246307153
 21
51.5089676583
 31
0.0
  0
LINE
  5
16C
330
1F
100
AcDbEntity
  8
SLD-0
  6
Continuous
370
    15
100
AcDbLine
 10
52.7006292859
 20
51.6339684543
 30
0.0
 11
52.6956309437
 21
51.6339684543
 31
0.0
  0
LINE
  5
16D
330
1F
100
AcDbEntity
  8
SLD-0
  6
Continuous
370
    15
100
AcDbLine
 10
52.6956309437
 20
12.782969391
 30
0.0
 11
52.7006292859
 21
12.782969391
 31
0.0
  0
LINE
  5
16E
330
1F
100
AcDbEntity
  8
SLD-0
  6
Continuous
370
    15
100
AcDbLine
 10
52.6956309437
 20
51.6339684543
 30
0.0
 11
52.6956309437
 21
12.782969391
 31
0.0
  0
LINE
  5
16F
330
1F
100
AcDbEntity
  8
SLD-0
  6
Continuous
370
    15
100
AcDbLine
 10
52.7246307153
 20
51.6339684543
 30
0.0
 11
52.7246307153
 21
51.68397065
 31
0.0
  0
LINE
  5
170
330
1F
100
AcDbEntity
  8
SLD-0
  6
Continuous
370
    15
100
AcDbLine
 10
52.7246307153
 20
12.7539693993
 30
0.0
 11
52.7246307153
 21
12.782969391
 31
0.0
  0
LINE
  5
171
330
1F
100
AcDbEntity
  8
SLD-0
  6
Continuous
370
    15
100
AcDbLine
 10
45.1826297345
 20
57.0169671761
 30
0.0
 11
45.1876304234
 21
57.0169671761
 31
0.0
  0
LINE
  5
172
330
1F
100
AcDbEntity
  8
SLD-0
  6
Continuous
370
    15
100
AcDbLine
 10
45.2026301434
 20
11.8069694025
 30
0.0
 11
45.1953508675
 21
11.8069694025
 31
0.0
  0
LINE
  5
173
330
1F
100
AcDbEntity
  8
SLD-0
  6
Continuous
370
    15
100
AcDbLine
 10
45.1826297345
 20
12.7059694005
 30
0.0
 11
45.1826297345
 21
56.1599697162
 31
0.0
  0
LINE
  5
174
330
1F
100
AcDbEntity
  8
SLD-0
  6
Continuous
370
    15
100
AcDbLine
 10
98.4456289424
 20
12.7589694283
 30
0.0
 11
98.4456289424
 21
12.782969391
 31
0.0
  0
LINE
  5
175
330
1F
100
AcDbEntity
  8
SLD-0
  6
Continuous
370
    15
100
AcDbLine
 10
98.4456289424
 20
12.7589694283
 30
0.0
 11
52.8716312572
 21
12.7589694283
 31
0.0
  0
LINE
  5
176
330
1F
100
AcDbEntity
  8
SLD-0
  6
Continuous
370
    15
100
AcDbLine
 10
52.8716312572
 20
12.782969391
 30
0.0
 11
52.8716312572
 21
12.7589694283
 31
0.0
  0
LINE
  5
177
330
1F
100
AcDbEntity
  8
SLD-0
  6
Continuous
370
    15
100
AcDbLine
 10
98.4456289424
 20
12.782969391
 30
0.0
 11
52.8716312572
 21
12.782969391
 31
0.0
  0
LINE
  5
178
330
1F
100
AcDbEntity
  8
SLD-0
  6
Continuous
370
    15
100
AcDbLine
 10
98.5706297384
 20
12.782969391
 30
0.0
 11
98.5706297384
 21
12.7589694283
 31
0.0
  0
LINE
  5
179
330
1F
100
AcDbEntity
  8
SLD-0
  6
Continuous
370
    15
100
AcDbLine
 10
98.5706297384
 20
12.7589694283
 30
0.0
 11
98.4456289424
 21
12.7589694283
 31
0.0
  0
LINE
  5
17A
330
1F
100
AcDbEntity
  8
SLD-0
  6
Continuous
370
    15
100
AcDbLine
 10
98.4456289424
 20
12.782969391
 30
0.0
 11
98.4906304492
 21
12.782969391
 31
0.0
  0
LINE
  5
17B
330
1F
100
AcDbEntity
  8
SLD-0
  6
Continuous
370
    15
100
AcDbLine
 10
98.4971728803
 20
12.782969391
 30
0.0
 11
98.5706297384
 21
12.782969391
 31
0.0
  0
LINE
  5
17C
330
1F
100
AcDbEntity
  8
SLD-0
  6
Continuous
370
    15
100
AcDbLine
 10
52.7466304612
 20
12.7589694283
 30
0.0
 11
52.7466304612
 21
12.782969391
 31
0.0
  0
LINE
  5
17D
330
1F
100
AcDbEntity
  8
SLD-0
  6
Continuous
370
    15
100
AcDbLine
 10
52.8716312572
 20
12.7589694283
 30
0.0
 11
52.7466304612
 21
12.7589694283
 31
0.0
  0
LINE
  5
17E
330
1F
100
AcDbEntity
  8
SLD-0
  6
Continuous
370
    15
100
AcDbLine
 10
52.7466304612
 20
12.782969391
 30
0.0
 11
52.8200873193
 21
12.782969391
 31
0.0
  0
LINE
  5
17F
330
1F
100
AcDbEntity
  8
SLD-0
  6
Continuous
370
    15
100
AcDbLine
 10
52.8266297503
 20
12.782969391
 30
0.0
 11
52.8716312572
 21
12.782969391
 31
0.0
  0
LINE
  5
180
330
1F
100
AcDbEntity
  8
SLD-0
  6
Continuous
370
    15
100
AcDbLine
 10
52.7466304612
 20
12.7589694283
 30
0.0
 11
52.7466304612
 21
12.7539693993
 31
0.0
  0
LINE
  5
181
330
1F
100
AcDbEntity
  8
SLD-0
  6
Continuous
370
    15
100
AcDbLine
 10
98.5706297384
 20
12.7539693993
 30
0.0
 11
98.5706297384
 21
12.7589694283
 31
0.0
  0
LINE
  5
182
330
1F
100
AcDbEntity
  8
SLD-0
  6
Continuous
370
    15
100
AcDbLine
 10
52.7466304612
 20
12.7539693993
 30
0.0
 11
98.5706297384
 21
12.7539693993
 31
0.0
  0
LINE
  5
183
330
1F
100
AcDbEntity
  8
SLD-0
  6
Continuous
370
    15
100
AcDbLine
 10
106.1146300562
 20
11.8119694039
 30
0.0
 11
45.2026301434
 21
11.8119694039
 31
0.0
  0
LINE
  5
184
330
1F
100
AcDbEntity
  8
SLD-0
  6
Continuous
370
    15
100
AcDbLine
 10
45.2026301434
 20
11.8119694039
 30
0.0
 11
45.2026301434
 21
12.62896941
 31
0.0
  0
LINE
  5
185
330
1F
100
AcDbEntity
  8
SLD-0
  6
Continuous
370
    15
100
AcDbLine
 10
45.3276309394
 20
12.7539693993
 30
0.0
 11
45.2026301434
 21
12.62896941
 31
0.0
  0
LINE
  5
186
330
1F
100
AcDbEntity
  8
SLD-0
  6
Continuous
370
    15
100
AcDbLine
 10
98.5706297384
 20
12.7539693993
 30
0.0
 11
105.9896292602
 21
12.7539693993
 31
0.0
  0
LINE
  5
187
330
1F
100
AcDbEntity
  8
SLD-0
  6
Continuous
370
    15
100
AcDbLine
 10
106.1146300562
 20
12.62896941
 30
0.0
 11
105.9896292602
 21
12.7539693993
 31
0.0
  0
LINE
  5
188
330
1F
100
AcDbEntity
  8
SLD-0
  6
Continuous
370
    15
100
AcDbLine
 10
106.1146300562
 20
12.62896941
 30
0.0
 11
106.1146300562
 21
11.8119694039
 31
0.0
  0
LINE
  5
189
330
1F
100
AcDbEntity
  8
SLD-0
  6
Continuous
370
    15
100
AcDbLine
 10
45.3276309394
 20
12.7539693993
 30
0.0
 11
52.7466304612
 21
12.7539693993
 31
0.0
  0
LINE
  5
18A
330
1F
100
AcDbEntity
  8
SLD-0
  6
Continuous
370
    15
100
AcDbLine
 10
45.2026301434
 20
11.7829694031
 30
0.0
 11
45.2026301434
 21
11.8119694039
 31
0.0
  0
LINE
  5
18B
330
1F
100
AcDbEntity
  8
SLD-0
  6
Continuous
370
    15
100
AcDbLine
 10
106.1146300562
 20
11.7829694031
 30
0.0
 11
45.2026301434
 21
11.7829694031
 31
0.0
  0
LINE
  5
18C
330
1F
100
AcDbEntity
  8
SLD-0
  6
Continuous
370
    15
100
AcDbLine
 10
106.1146300562
 20
11.8119694039
 30
0.0
 11
106.1146300562
 21
11.7829694031
 31
0.0
  0
LINE
  5
18D
330
1F
100
AcDbEntity
  8
SLD-0
  6
Continuous
370
    15
100
AcDbLine
 10
106.1296297762
 20
11.7829694031
 30
0.0
 11
106.1296297762
 21
11.8069694025
 31
0.0
  0
LINE
  5
18E
330
1F
100
AcDbEntity
  8
SLD-0
  6
Continuous
370
    15
100
AcDbLine
 10
106.1219093321
 20
11.8069694025
 30
0.0
 11
106.1296297762
 21
11.8069694025
 31
0.0
  0
LINE
  5
18F
330
1F
100
AcDbEntity
  8
SLD-0
  6
Continuous
370
    15
100
AcDbLine
 10
106.1146300562
 20
11.7829694031
 30
0.0
 11
106.1296297762
 21
11.7829694031
 31
0.0
  0
LINE
  5
190
330
1F
100
AcDbEntity
  8
SLD-0
  6
Continuous
370
    15
100
AcDbLine
 10
45.1876304234
 20
11.7829694031
 30
0.0
 11
45.1876304234
 21
11.8069694025
 31
0.0
  0
LINE
  5
191
330
1F
100
AcDbEntity
  8
SLD-0
  6
Continuous
370
    15
100
AcDbLine
 10
45.1876304234
 20
11.8069694025
 30
0.0
 11
45.1953508675
 21
11.8069694025
 31
0.0
  0
LINE
  5
192
330
1F
100
AcDbEntity
  8
SLD-0
  6
Continuous
370
    15
100
AcDbLine
 10
45.1876304234
 20
11.7829694031
 30
0.0
 11
45.2026301434
 21
11.7829694031
 31
0.0
  0
LINE
  5
193
330
1F
100
AcDbEntity
  8
SLD-0
  6
Continuous
370
    15
100
AcDbLine
 10
106.1586295479
 20
11.8119694039
 30
0.0
 11
106.1346304651
 21
11.8119694039
 31
0.0
  0
LINE
  5
194
330
1F
100
AcDbEntity
  8
SLD-0
  6
Continuous
370
    15
100
AcDbLine
 10
106.1346304651
 20
12.6819694378
 30
0.0
 11
106.1346304651
 21
11.8119694039
 31
0.0
  0
LINE
  5
195
330
1F
100
AcDbEntity
  8
SLD-0
  6
Continuous
370
    15
100
AcDbLine
 10
106.1586295479
 20
12.6819694378
 30
0.0
 11
106.1346304651
 21
12.6819694378
 31
0.0
  0
LINE
  5
196
330
1F
100
AcDbEntity
  8
SLD-0
  6
Continuous
370
    15
100
AcDbLine
 10
106.1586295479
 20
12.6819694378
 30
0.0
 11
106.1586295479
 21
11.8119694039
 31
0.0
  0
LINE
  5
197
330
1F
100
AcDbEntity
  8
SLD-0
  6
Continuous
370
    15
100
AcDbLine
 10
106.1346304651
 20
12.6819694378
 30
0.0
 11
106.1346304651
 21
12.7059694005
 31
0.0
  0
LINE
  5
198
330
1F
100
AcDbEntity
  8
SLD-0
  6
Continuous
370
    15
100
AcDbLine
 10
106.1346304651
 20
12.8069694271
 30
0.0
 11
106.1586295479
 21
12.8069694271
 31
0.0
  0
LINE
  5
199
330
1F
100
AcDbEntity
  8
SLD-0
  6
Continuous
370
    15
100
AcDbLine
 10
106.1586295479
 20
12.8069694271
 30
0.0
 11
106.1586295479
 21
12.6819694378
 31
0.0
  0
ARC
  5
19A
330
1F
100
AcDbEntity
  8
SLD-0
  6
Continuous
370
    15
100
AcDbCircle
 10
106.1296300998
 20
11.8119694031
 30
0.0
 40
0.004999999999999
100
AcDbArc
 50
270.0
 51
0.0
  0
ARC
  5
19B
330
1F
100
AcDbEntity
  8
SLD-0
  6
Continuous
370
    15
100
AcDbCircle
 10
106.1296300998
 20
11.8119694031
 30
0.0
 40
0.0289999999999981
100
AcDbArc
 50
270.0
 51
359.9999999999
  0
LINE
  5
19C
330
1F
100
AcDbEntity
  8
SLD-0
  6
Continuous
370
    15
100
AcDbLine
 10
45.1586306517
 20
11.8119694039
 30
0.0
 11
45.1826297345
 21
11.8119694039
 31
0.0
  0
LINE
  5
19D
330
1F
100
AcDbEntity
  8
SLD-0
  6
Continuous
370
    15
100
AcDbLine
 10
45.1586306517
 20
11.8119694039
 30
0.0
 11
45.1586306517
 21
12.6819694378
 31
0.0
  0
LINE
  5
19E
330
1F
100
AcDbEntity
  8
SLD-0
  6
Continuous
370
    15
100
AcDbLine
 10
45.1826297345
 20
12.6819694378
 30
0.0
 11
45.1586306517
 21
12.6819694378
 31
0.0
  0
LINE
  5
19F
330
1F
100
AcDbEntity
  8
SLD-0
  6
Continuous
370
    15
100
AcDbLine
 10
45.1826297345
 20
11.8119694039
 30
0.0
 11
45.1826297345
 21
12.6819694378
 31
0.0
  0
LINE
  5
1A0
330
1F
100
AcDbEntity
  8
SLD-0
  6
Continuous
370
    15
100
AcDbLine
 10
45.1586306517
 20
12.8069694271
 30
0.0
 11
45.1826297345
 21
12.8069694271
 31
0.0
  0
LINE
  5
1A1
330
1F
100
AcDbEntity
  8
SLD-0
  6
Continuous
370
    15
100
AcDbLine
 10
45.1826297345
 20
12.7059694005
 30
0.0
 11
45.1826297345
 21
12.6819694378
 31
0.0
  0
LINE
  5
1A2
330
1F
100
AcDbEntity
  8
SLD-0
  6
Continuous
370
    15
100
AcDbLine
 10
45.1586306517
 20
12.6819694378
 30
0.0
 11
45.1586306517
 21
12.8069694271
 31
0.0
  0
ARC
  5
1A3
330
1F
100
AcDbEntity
  8
SLD-0
  6
Continuous
370
    15
100
AcDbCircle
 10
45.1876300998
 20
11.8119694031
 30
0.0
 40
0.0050000000000026
100
AcDbArc
 50
179.9999999998
 51
270.0
  0
ARC
  5
1A4
330
1F
100
AcDbEntity
  8
SLD-0
  6
Continuous
370
    15
100
AcDbCircle
 10
45.1876300998
 20
11.8119694031
 30
0.0
 40
0.0290000000000461
100
AcDbArc
 50
180.0000000007
 51
270.0
  0
LINE
  5
1A5
330
1F
100
AcDbEntity
  8
SLD-0
  6
Continuous
370
    15
100
AcDbLine
 10
54.1413181363
 20
51.5704683878
 30
0.0
 11
54.1413181363
 21
51.6549708783
 31
0.0
  0
LINE
  5
1A6
330
1F
100
AcDbEntity
  8
SLD-0
  6
Continuous
370
    15
100
AcDbLine
 10
54.0692223291
 20
51.5704683878
 30
0.0
 11
54.0692223291
 21
51.6549708783
 31
0.0
  0
LINE
  5
1A7
330
1F
100
AcDbEntity
  8
SLD-0
  6
Continuous
370
    15
100
AcDbLine
 10
53.8789333274
 20
51.5704683878
 30
0.0
 11
53.8789333274
 21
51.6549708783
 31
0.0
  0
LINE
  5
1A8
330
1F
100
AcDbEntity
  8
SLD-0
  6
Continuous
370
    15
100
AcDbLine
 10
54.2330834762
 20
51.5704683878
 30
0.0
 11
54.2330834762
 21
51.6549708783
 31
0.0
  0
LINE
  5
1A9
330
1F
100
AcDbEntity
  8
SLD-0
  6
Continuous
370
    15
100
AcDbLine
 10
97.1759420633
 20
51.6549708783
 30
0.0
 11
97.1759420633
 21
51.5704683878
 31
0.0
  0
LINE
  5
1AA
330
1F
100
AcDbEntity
  8
SLD-0
  6
Continuous
370
    15
100
AcDbLine
 10
97.2480378705
 20
51.6549708783
 30
0.0
 11
97.2480378705
 21
51.5704683878
 31
0.0
  0
LINE
  5
1AB
330
1F
100
AcDbEntity
  8
SLD-0
  6
Continuous
370
    15
100
AcDbLine
 10
97.4383268722
 20
51.6549708783
 30
0.0
 11
97.4383268722
 21
51.5704683878
 31
0.0
  0
LINE
  5
1AC
330
1F
100
AcDbEntity
  8
SLD-0
  6
Continuous
370
    15
100
AcDbLine
 10
97.0841767234
 20
51.6549708783
 30
0.0
 11
97.0841767234
 21
51.5704683878
 31
0.0
  0
LINE
  5
1AD
330
1F
100
AcDbEntity
  8
SLD-0
  6
Continuous
370
    15
100
AcDbLine
 10
54.1944272828
 20
14.6291272707
 30
0.0
 11
54.1944272828
 21
14.7360422223
 31
0.0
  0
LINE
  5
1AE
330
1F
100
AcDbEntity
  8
SLD-0
  6
Continuous
370
    15
100
AcDbLine
 10
53.2331310811
 20
51.5704683878
 30
0.0
 11
53.2331310811
 21
51.6549708783
 31
0.0
  0
LINE
  5
1AF
330
1F
100
AcDbEntity
  8
SLD-0
  6
Continuous
370
    15
100
AcDbLine
 10
53.1562622091
 20
51.5704683878
 30
0.0
 11
53.1562622091
 21
51.6549708783
 31
0.0
  0
LINE
  5
1B0
330
1F
100
AcDbEntity
  8
SLD-0
  6
Continuous
370
    15
100
AcDbLine
 10
97.1228329168
 20
14.7360422223
 30
0.0
 11
97.1228329168
 21
14.6291272707
 31
0.0
  0
LINE
  5
1B1
330
1F
100
AcDbEntity
  8
SLD-0
  6
Continuous
370
    15
100
AcDbLine
 10
98.0841291185
 20
51.6549708783
 30
0.0
 11
98.0841291185
 21
51.5704683878
 31
0.0
  0
LINE
  5
1B2
330
1F
100
AcDbEntity
  8
SLD-0
  6
Continuous
370
    15
100
AcDbLine
 10
98.1609979905
 20
51.6549708783
 30
0.0
 11
98.1609979905
 21
51.5704683878
 31
0.0
  0
LINE
  5
1B3
330
1F
100
AcDbEntity
  8
SLD-0
  6
Continuous
370
    15
100
AcDbLine
 10
106.1056306934
 20
12.6379694327
 30
0.0
 11
106.1056306934
 21
51.7849700166
 31
0.0
  0
LINE
  5
1B4
330
1F
100
AcDbEntity
  8
SLD-0
  6
Continuous
370
    15
100
AcDbLine
 10
45.2116295061
 20
12.6379694327
 30
0.0
 11
45.2116295061
 21
51.7849700166
 31
0.0
  0
DIMENSION
  5
1B5
330
1F
100
AcDbEntity
  8
DIM
100
AcDbDimension
  2
_D
 10
34.4260315538
 20
11.8119694031
 30
0.0
 11
34.4260315538
 21
40.4104694031
 31
0.0
 70
   160
  1
<>
 71
     2
 42
-1.0
  3
SLDDIMSTYLE0
100
AcDbAlignedDimension
 13
57.658390022
 23
69.0089694032
 33
0.0
 14
45.2026300998
 24
11.8119694031
 34
0.0
 50
90.0
100
AcDbRotatedDimension
  0
DIMENSION
  5
1C5
330
1F
100
AcDbEntity
  8
DIM
100
AcDbDimension
  2
_D_1
 10
40.1586300998
 20
12.7539694031
 30
0.0
 11
40.1586300998
 21
32.2189694031
 31
0.0
 70
   160
  1
<>
 71
     2
 42
-1.0
  3
SLDDIMSTYLE0
100
AcDbAlignedDimension
 13
45.3126300998
 23
51.6839694032
 33
0.0
 14
45.3276300998
 24
12.7539694031
 34
0.0
 50
90.0
100
AcDbRotatedDimension
  0
DIMENSION
  5
1D4
330
1F
100
AcDbEntity
  8
DIM
100
AcDbDimension
  2
_D_2
 10
98.5926300998
 20
8.7829674346
 30
0.0
 11
75.6586300998
 21
8.7829674346
 31
0.0
 70
   160
  1
<>
 71
     2
 42
-1.0
  3
SLDDIMSTYLE0
100
AcDbAlignedDimension
 13
52.7246300998
 23
12.9079694031
 33
0.0
 14
98.5926300998
 24
12.9079694031
 34
0.0
 50
0.0
100
AcDbRotatedDimension
  0
DIMENSION
  5
1E3
330
1F
100
AcDbEntity
  8
DIM
100
AcDbDimension
  2
_D_3
 10
45.1586300998
 20
5.2829674346
 30
0.0
 11
75.6586300998
 21
5.2829674346
 31
0.0
 70
   160
  1
<>
 71
     2
 42
-1.0
  3
SLDDIMSTYLE0
100
AcDbAlignedDimension
 13
106.1586300998
 23
11.8119694031
 33
0.0
 14
45.1586300998
 24
11.8119694031
 34
0.0
 50
0.0
100
AcDbRotatedDimension
  0
DIMENSION
  5
1EE
330
1F
100
AcDbEntity
  8
DIM
100
AcDbDimension
  2
_D_4
 10
97.1228335214
 20
19.7280296995
 30
0.0
 11
75.6586300998
 21
19.7280296995
 31
0.0
 70
   160
  1
<>
 71
     2
 42
-1.0
  3
SLDDIMSTYLE0
100
AcDbAlignedDimension
 13
54.1944266782
 23
13.7214694031
 33
0.0
 14
97.1228335214
 24
13.7214694031
 34
0.0
100
AcDbRotatedDimension
  0
DIMENSION
  5
1FB
330
1F
100
AcDbEntity
  8
DIM
100
AcDbDimension
  2
_D_5
 10
89.5940823416
 20
51.6549694032
 30
0.0
 11
89.5940823416
 21
33.2018093798
 31
0.0
 70
   160
  1
<>
 71
     2
 42
-1.0
  3
SLDDIMSTYLE0
100
AcDbAlignedDimension
 13
97.0349040729
 23
14.7486493564
 33
0.0
 14
98.4216300998
 24
51.6549694032
 34
0.0
 50
90.0
100
AcDbRotatedDimension
  0
LINE
  5
208
330
1F
100
AcDbEntity
  8
SLD-0
  6
Continuous
370
    15
100
AcDbLine
 10
52.8046675507
 20
87.1860145749
 30
0.0
 11
52.8956303399
 21
87.1860145749
 31
0.0
  0
LINE
  5
209
330
1F
100
AcDbEntity
  8
SLD-0
  6
Continuous
370
    15
100
AcDbLine
 10
98.4216298597
 20
87.1860145749
 30
0.0
 11
98.5125926489
 21
87.1860145749
 31
0.0
  0
LINE
  5
20A
330
1F
100
AcDbEntity
  8
SLD-0
  6
Continuous
370
    15
100
AcDbLine
 10
98.4819830825
 20
87.2116757751
 30
0.0
 11
98.5139325801
 21
87.2233044741
 31
0.0
  0
LINE
  5
20B
330
1F
100
AcDbEntity
  8
SLD-0
  6
Continuous
370
    15
100
AcDbLine
 10
98.4727255894
 20
87.2371094613
 30
0.0
 11
98.4819830825
 21
87.2116757751
 31
0.0
  0
LINE
  5
20C
330
1F
100
AcDbEntity
  8
SLD-0
  6
Continuous
370
    15
100
AcDbLine
 10
98.499252003
 20
87.2636364615
 30
0.0
 11
98.5139325801
 21
87.2233044741
 31
0.0
  0
ARC
  5
20D
330
1F
100
AcDbEntity
  8
SLD-0
  6
Continuous
370
    15
100
AcDbCircle
 10
98.5186300998
 20
87.2250145688
 30
0.0
 40
0.0049999999999955
100
AcDbArc
 50
200.0
 51
0.0
  0
LINE
  5
20E
330
1F
100
AcDbEntity
  8
SLD-0
  6
Continuous
370
    15
100
AcDbLine
 10
98.5236312414
 20
87.225014551
 30
0.0
 11
98.5576293553
 21
87.225014551
 31
0.0
  0
ARC
  5
20F
330
1F
100
AcDbEntity
  8
SLD-0
  6
Continuous
370
    15
100
AcDbCircle
 10
98.5186300998
 20
87.2250145688
 30
0.0
 40
0.0390000000000015
100
AcDbArc
 50
200.0
 51
0.0
  0
LINE
  5
210
330
1F
100
AcDbEntity
  8
SLD-0
  6
Continuous
370
    15
100
AcDbLine
 10
98.5236312414
 20
87.225014551
 30
0.0
 11
98.5236312414
 21
87.2880145632
 31
0.0
  0
LINE
  5
211
330
1F
100
AcDbEntity
  8
SLD-0
  6
Continuous
370
    15
100
AcDbLine
 10
98.5576293553
 20
87.225014551
 30
0.0
 11
98.5576293553
 21
87.6860145688
 31
0.0
  0
LINE
  5
212
330
1F
100
AcDbEntity
  8
SLD-0
  6
Continuous
370
    15
100
AcDbLine
 10
98.5200972022
 20
87.2202349962
 30
0.0
 11
98.5028963342
 21
87.2672809027
 31
0.0
  0
LINE
  5
213
330
1F
100
AcDbEntity
  8
SLD-0
  6
Continuous
370
    15
100
AcDbLine
 10
52.8143638654
 20
87.2672809027
 30
0.0
 11
52.7971629974
 21
87.2202349962
 31
0.0
  0
LINE
  5
214
330
1F
100
AcDbEntity
  8
SLD-0
  6
Continuous
370
    15
100
AcDbLine
 10
98.5234810564
 20
87.2287891941
 30
0.0
 11
98.5234810564
 21
87.2242521131
 31
0.0
  0
LINE
  5
215
330
1F
100
AcDbEntity
  8
SLD-0
  6
Continuous
370
    15
100
AcDbLine
 10
98.5234810564
 20
87.2287891941
 30
0.0
 11
98.5076623592
 21
87.2720475143
 31
0.0
  0
LINE
  5
216
330
1F
100
AcDbEntity
  8
SLD-0
  6
Continuous
370
    15
100
AcDbLine
 10
52.7937791432
 20
87.2287891941
 30
0.0
 11
52.7937791432
 21
87.2242758729
 31
0.0
  0
LINE
  5
217
330
1F
100
AcDbEntity
  8
SLD-0
  6
Continuous
370
    15
100
AcDbLine
 10
52.8095978404
 20
87.2720475143
 30
0.0
 11
52.7937791432
 21
87.2287891941
 31
0.0
  0
LINE
  5
218
330
1F
100
AcDbEntity
  8
SLD-0
  6
Continuous
370
    15
100
AcDbLine
 10
52.8033276195
 20
87.2233044741
 30
0.0
 11
52.8352771171
 21
87.2116757751
 31
0.0
  0
LINE
  5
219
330
1F
100
AcDbEntity
  8
SLD-0
  6
Continuous
370
    15
100
AcDbLine
 10
52.8352771171
 20
87.2116757751
 30
0.0
 11
52.8445346102
 21
87.2371094613
 31
0.0
  0
LINE
  5
21A
330
1F
100
AcDbEntity
  8
SLD-0
  6
Continuous
370
    15
100
AcDbLine
 10
52.8033276195
 20
87.2233044741
 30
0.0
 11
52.8180081966
 21
87.2636364615
 31
0.0
  0
LINE
  5
21B
330
1F
100
AcDbEntity
  8
SLD-0
  6
Continuous
370
    15
100
AcDbLine
 10
52.7596308443
 20
87.225014551
 30
0.0
 11
52.7936289582
 21
87.225014551
 31
0.0
  0
LINE
  5
21C
330
1F
100
AcDbEntity
  8
SLD-0
  6
Continuous
370
    15
100
AcDbLine
 10
52.7596308443
 20
87.6860145688
 30
0.0
 11
52.7596308443
 21
87.225014551
 31
0.0
  0
LINE
  5
21D
330
1F
100
AcDbEntity
  8
SLD-0
  6
Continuous
370
    15
100
AcDbLine
 10
52.7936289582
 20
87.2880145632
 30
0.0
 11
52.7936289582
 21
87.225014551
 31
0.0
  0
ARC
  5
21E
330
1F
100
AcDbEntity
  8
SLD-0
  6
Continuous
370
    15
100
AcDbCircle
 10
52.7986300998
 20
87.2250145688
 30
0.0
 40
0.0390000000000015
100
AcDbArc
 50
180.0
 51
340.0
  0
ARC
  5
21F
330
1F
100
AcDbEntity
  8
SLD-0
  6
Continuous
370
    15
100
AcDbCircle
 10
52.7986300998
 20
87.2250145688
 30
0.0
 40
0.0050000000000078
100
AcDbArc
 50
180.0
 51
339.9999999999
  0
LINE
  5
220
330
1F
100
AcDbEntity
  8
SLD-0
  6
Continuous
370
    15
100
AcDbLine
 10
58.3796894409
 20
88.1860145628
 30
0.0
 11
58.3796894409
 21
88.2200145833
 31
0.0
  0
LINE
  5
221
330
1F
100
AcDbEntity
  8
SLD-0
  6
Continuous
370
    15
100
AcDbLine
 10
58.5046890636
 20
88.2200145833
 30
0.0
 11
58.5046890636
 21
88.1860145628
 31
0.0
  0
LINE
  5
222
330
1F
100
AcDbEntity
  8
SLD-0
  6
Continuous
370
    15
100
AcDbLine
 10
58.3796894409
 20
88.2200145833
 30
0.0
 11
58.5046890636
 21
88.2200145833
 31
0.0
  0
LINE
  5
223
330
1F
100
AcDbEntity
  8
SLD-0
  6
Continuous
370
    15
100
AcDbLine
 10
58.5046890636
 20
88.1860145628
 30
0.0
 11
58.3796894409
 21
88.1860145628
 31
0.0
  0
LINE
  5
224
330
1F
100
AcDbEntity
  8
SLD-0
  6
Continuous
370
    15
100
AcDbLine
 10
92.812571136
 20
88.1860145628
 30
0.0
 11
92.812571136
 21
88.2200145833
 31
0.0
  0
LINE
  5
225
330
1F
100
AcDbEntity
  8
SLD-0
  6
Continuous
370
    15
100
AcDbLine
 10
92.812571136
 20
88.2200145833
 30
0.0
 11
58.5046890636
 21
88.2200145833
 31
0.0
  0
LINE
  5
226
330
1F
100
AcDbEntity
  8
SLD-0
  6
Continuous
370
    15
100
AcDbLine
 10
92.812571136
 20
88.1860145628
 30
0.0
 11
58.5046890636
 21
88.1860145628
 31
0.0
  0
LINE
  5
227
330
1F
100
AcDbEntity
  8
SLD-0
  6
Continuous
370
    15
100
AcDbLine
 10
92.9375707587
 20
88.2200145833
 30
0.0
 11
92.9375707587
 21
88.1860145628
 31
0.0
  0
LINE
  5
228
330
1F
100
AcDbEntity
  8
SLD-0
  6
Continuous
370
    15
100
AcDbLine
 10
92.812571136
 20
88.2200145833
 30
0.0
 11
92.9375707587
 21
88.2200145833
 31
0.0
  0
LINE
  5
229
330
1F
100
AcDbEntity
  8
SLD-0
  6
Continuous
370
    15
100
AcDbLine
 10
92.9375707587
 20
88.1860145628
 30
0.0
 11
92.812571136
 21
88.1860145628
 31
0.0
  0
LINE
  5
22A
330
1F
100
AcDbEntity
  8
SLD-0
  6
Continuous
370
    15
100
AcDbLine
 10
58.1847001201
 20
95.0610145989
 30
0.0
 11
58.153288003
 21
95.0610145989
 31
0.0
  0
LWPOLYLINE
  5
22B
330
1F
100
AcDbEntity
  8
SLD-0
  6
Continuous
370
    15
100
AcDbPolyline
 90
        9
 70
   128
 43
0.0
 10
58.153288003
 20
95.0610145989
 10
58.1542078857
 20
95.0854008772
 10
58.1569299876
 20
95.1088502596
 10
58.1613498832
 20
95.1304610499
 10
58.1672986145
 20
95.1494031245
 10
58.1745473841
 20
95.1649484382
 10
58.1828181152
 20
95.1764997714
 10
58.1917916649
 20
95.1836124359
 10
58.2011242504
 20
95.1860148082
  0
LINE
  5
22C
330
1F
100
AcDbEntity
  8
SLD-0
  6
Continuous
370
    15
100
AcDbLine
 10
58.2011242504
 20
95.1860148082
 30
0.0
 11
58.2325351942
 21
95.1860148082
 31
0.0
  0
LWPOLYLINE
  5
22D
330
1F
100
AcDbEntity
  8
SLD-0
  6
Continuous
370
    15
100
AcDbPolyline
 90
        9
 70
   128
 43
0.0
 10
58.2325351942
 20
95.1860148082
 10
58.223203782
 20
95.1836124359
 10
58.2142302323
 20
95.1764997714
 10
58.2059595012
 20
95.1649484382
 10
58.1987107316
 20
95.1494031245
 10
58.1927620003
 20
95.1304610499
 10
58.1883421047
 20
95.1088502596
 10
58.1856200028
 20
95.0854008772
 10
58.1847001201
 20
95.0610145989
  0
LINE
  5
22E
330
1F
100
AcDbEntity
  8
SLD-0
  6
Continuous
370
    15
100
AcDbLine
 10
58.1847001201
 20
95.0610145989
 30
0.0
 11
58.1847001201
 21
88.3910145379
 31
0.0
  0
LINE
  5
22F
330
1F
100
AcDbEntity
  8
SLD-0
  6
Continuous
370
    15
100
AcDbLine
 10
58.153288003
 20
88.3910145379
 30
0.0
 11
58.1847001201
 21
88.3910145379
 31
0.0
  0
LINE
  5
230
330
1F
100
AcDbEntity
  8
SLD-0
  6
Continuous
370
    15
100
AcDbLine
 10
58.153288003
 20
95.0610145989
 30
0.0
 11
58.153288003
 21
88.3910145379
 31
0.0
  0
LWPOLYLINE
  5
231
330
1F
100
AcDbEntity
  8
SLD-0
  6
Continuous
370
    15
100
AcDbPolyline
 90
        9
 70
   128
 43
0.0
 10
58.1847001201
 20
88.3910145379
 10
58.1856200028
 20
88.3666282597
 10
58.1883421047
 20
88.3431791705
 10
58.1927620003
 20
88.3215683069
 10
58.1987107316
 20
88.3026262323
 10
58.2059595012
 20
88.2870808819
 10
58.2142302323
 20
88.275529622
 10
58.223203782
 20
88.2684164075
 10
58.2325351942
 20
88.2660145853
  0
LINE
  5
232
330
1F
100
AcDbEntity
  8
SLD-0
  6
Continuous
370
    15
100
AcDbLine
 10
58.2325351942
 20
88.2660145853
 30
0.0
 11
58.2011242504
 21
88.2660145853
 31
0.0
  0
LWPOLYLINE
  5
233
330
1F
100
AcDbEntity
  8
SLD-0
  6
Continuous
370
    15
100
AcDbPolyline
 90
        9
 70
   128
 43
0.0
 10
58.2011242504
 20
88.2660145853
 10
58.1917916649
 20
88.2684164075
 10
58.1828181152
 20
88.275529622
 10
58.1745473841
 20
88.2870808819
 10
58.1672986145
 20
88.3026262323
 10
58.1613498832
 20
88.3215683069
 10
58.1569299876
 20
88.3431791705
 10
58.1542078857
 20
88.3666282597
 10
58.153288003
 20
88.3910145379
  0
LINE
  5
234
330
1F
100
AcDbEntity
  8
SLD-0
  6
Continuous
370
    15
100
AcDbLine
 10
58.2325351942
 20
95.1860148082
 30
0.0
 11
58.3660695449
 21
95.1860148082
 31
0.0
  0
LINE
  5
235
330
1F
100
AcDbEntity
  8
SLD-0
  6
Continuous
370
    15
100
AcDbLine
 10
58.3660695449
 20
95.1860148082
 30
0.0
 11
58.3660695449
 21
88.2660145853
 31
0.0
  0
LINE
  5
236
330
1F
100
AcDbEntity
  8
SLD-0
  6
Continuous
370
    15
100
AcDbLine
 10
58.2325351942
 20
88.2660145853
 30
0.0
 11
58.3660695449
 21
88.2660145853
 31
0.0
  0
LWPOLYLINE
  5
237
330
1F
100
AcDbEntity
  8
SLD-0
  6
Continuous
370
    15
100
AcDbPolyline
 90
       30
 70
   128
 43
0.0
 10
58.2650643118
 20
92.5300145305
 10
58.2573309611
 20
92.5278169026
 10
58.2499589929
 20
92.5213266842
 10
58.2432945366
 20
92.5108471786
 10
58.2376473485
 20
92.4968688334
 10
58.2332814256
 20
92.4800448944
 10
58.2304032722
 20
92.4611623659
 10
58.2291443
 20
92.4411035843
 10
58.2295655218
 20
92.4208072054
 10
58.2316469911
 20
92.401221565
 10
58.235290149
 20
92.3832630258
 10
58.2403260375
 20
92.3677710981
 10
58.246517646
 20
92.3554700135
 10
58.2535775111
 20
92.3469352855
 10
58.2611747567
 20
92.3425655493
 10
58.2689526935
 20
92.3425655493
 10
58.2765499391
 20
92.3469352855
 10
58.2836098042
 20
92.3554700135
 10
58.2898014127
 20
92.3677710981
 10
58.2948373011
 20
92.3832630258
 10
58.2984816324
 20
92.401221565
 10
58.3005619283
 20
92.4208072054
 10
58.3009831501
 20
92.4411035843
 10
58.2997253513
 20
92.4611623659
 10
58.2968460246
 20
92.4800448944
 10
58.2924801017
 20
92.4968688334
 10
58.2868329136
 20
92.5108471786
 10
58.2801684573
 20
92.5213266842
 10
58.2727964891
 20
92.5278169026
 10
58.2650643118
 20
92.5300145305
  0
LWPOLYLINE
  5
238
330
1F
100
AcDbEntity
  8
SLD-0
  6
Continuous
370
    15
100
AcDbPolyline
 90
       30
 70
   128
 43
0.0
 10
58.2650643118
 20
88.8420145346
 10
58.2727964891
 20
88.8442122359
 10
58.2801684573
 20
88.8507024543
 10
58.2868329136
 20
88.8611818132
 10
58.2924801017
 20
88.8751602317
 10
58.2968460246
 20
88.8919841707
 10
58.2997253513
 20
88.9108669192
 10
58.3009831501
 20
88.9309254808
 10
58.3005619283
 20
88.9512220064
 10
58.2984816324
 20
88.9708075001
 10
58.2948373011
 20
88.988766186
 10
58.2898014127
 20
89.0042581137
 10
58.2836098042
 20
89.0165591983
 10
58.2765499391
 20
89.0250939263
 10
58.2689526935
 20
89.0294635159
 10
58.2611747567
 20
89.0294635159
 10
58.2535775111
 20
89.0250939263
 10
58.246517646
 20
89.0165591983
 10
58.2403260375
 20
89.0042581137
 10
58.235290149
 20
88.988766186
 10
58.2316469911
 20
88.9708075001
 10
58.2295655218
 20
88.9512220064
 10
58.2291443
 20
88.9309254808
 10
58.2304032722
 20
88.9108669192
 10
58.2332814256
 20
88.8919841707
 10
58.2376473485
 20
88.8751602317
 10
58.2432945366
 20
88.8611818132
 10
58.2499589929
 20
88.8507024543
 10
58.2573309611
 20
88.8442122359
 10
58.2650643118
 20
88.8420145346
  0
LINE
  5
239
330
1F
100
AcDbEntity
  8
SLD-0
  6
Continuous
370
    15
100
AcDbLine
 10
92.9511906547
 20
95.1860148082
 30
0.0
 11
92.9511906547
 21
88.2660145853
 31
0.0
  0
LINE
  5
23A
330
1F
100
AcDbEntity
  8
SLD-0
  6
Continuous
370
    15
100
AcDbLine
 10
92.9511906547
 20
95.1860148082
 30
0.0
 11
93.0847250054
 21
95.1860148082
 31
0.0
  0
LWPOLYLINE
  5
23B
330
1F
100
AcDbEntity
  8
SLD-0
  6
Continuous
370
    15
100
AcDbPolyline
 90
        9
 70
   128
 43
0.0
 10
93.1325600795
 20
95.0610145989
 10
93.1316401968
 20
95.0854008772
 10
93.1289180949
 20
95.1088502596
 10
93.1244981993
 20
95.1304610499
 10
93.118549468
 20
95.1494031245
 10
93.1113006984
 20
95.1649484382
 10
93.1030299673
 20
95.1764997714
 10
93.0940564176
 20
95.1836124359
 10
93.0847250054
 20
95.1860148082
  0
LINE
  5
23C
330
1F
100
AcDbEntity
  8
SLD-0
  6
Continuous
370
    15
100
AcDbLine
 10
93.1325600795
 20
95.0610145989
 30
0.0
 11
93.1325600795
 21
88.3910145379
 31
0.0
  0
LWPOLYLINE
  5
23D
330
1F
100
AcDbEntity
  8
SLD-0
  6
Continuous
370
    15
100
AcDbPolyline
 90
        9
 70
   128
 43
0.0
 10
93.0847250054
 20
88.2660145853
 10
93.0940564176
 20
88.2684164075
 10
93.1030299673
 20
88.275529622
 10
93.1113006984
 20
88.2870808819
 10
93.118549468
 20
88.3026262323
 10
93.1244981993
 20
88.3215683069
 10
93.1289180949
 20
88.3431791705
 10
93.1316401968
 20
88.3666282597
 10
93.1325600795
 20
88.3910145379
  0
LINE
  5
23E
330
1F
100
AcDbEntity
  8
SLD-0
  6
Continuous
370
    15
100
AcDbLine
 10
93.0847250054
 20
88.2660145853
 30
0.0
 11
92.9511906547
 21
88.2660145853
 31
0.0
  0
LWPOLYLINE
  5
23F
330
1F
100
AcDbEntity
  8
SLD-0
  6
Continuous
370
    15
100
AcDbPolyline
 90
       30
 70
   128
 43
0.0
 10
93.0521958878
 20
89.0300145362
 10
93.0444637105
 20
89.0278169082
 10
93.0370917423
 20
89.0213266899
 10
93.030427286
 20
89.0108473309
 10
93.0247800979
 20
88.9968688391
 10
93.020414175
 20
88.9800449001
 10
93.0175348482
 20
88.9611622249
 10
93.0162770494
 20
88.9411035899
 10
93.0166982712
 20
88.9208070644
 10
93.0187785672
 20
88.9012215707
 10
93.0224228984
 20
88.8832629581
 10
93.0274587869
 20
88.8677709571
 10
93.0336503954
 20
88.8554700192
 10
93.0407102605
 20
88.8469351444
 10
93.0483075061
 20
88.8425656283
 10
93.0560854429
 20
88.8425656283
 10
93.0636826885
 20
88.8469351444
 10
93.0707425536
 20
88.8554700192
 10
93.0769341621
 20
88.8677709571
 10
93.0819700506
 20
88.8832629581
 10
93.0856132085
 20
88.9012215707
 10
93.0876946778
 20
88.9208070644
 10
93.0881158996
 20
88.9411035899
 10
93.0868569274
 20
88.9611622249
 10
93.083978774
 20
88.9800449001
 10
93.0796128511
 20
88.9968688391
 10
93.073965663
 20
89.0108473309
 10
93.0673012067
 20
89.0213266899
 10
93.0599292385
 20
89.0278169082
 10
93.0521958878
 20
89.0300145362
  0
LWPOLYLINE
  5
240
330
1F
100
AcDbEntity
  8
SLD-0
  6
Continuous
370
    15
100
AcDbPolyline
 90
       30
 70
   128
 43
0.0
 10
93.0521958878
 20
92.3420146757
 10
93.0599292385
 20
92.3442123036
 10
93.0673012067
 20
92.350702522
 10
93.073965663
 20
92.3611817342
 10
93.0796128511
 20
92.3751603727
 10
93.083978774
 20
92.3919843117
 10
93.0868569274
 20
92.4108668403
 10
93.0881158996
 20
92.4309256219
 10
93.0876946778
 20
92.4512220007
 10
93.0856132085
 20
92.4708076412
 10
93.0819700506
 20
92.4887661804
 10
93.0769341621
 20
92.5042581081
 10
93.0707425536
 20
92.5165591926
 10
93.0636826885
 20
92.5250939207
 10
93.0560854429
 20
92.5294636569
 10
93.0483075061
 20
92.5294636569
 10
93.0407102605
 20
92.5250939207
 10
93.0336503954
 20
92.5165591926
 10
93.0274587869
 20
92.5042581081
 10
93.0224228984
 20
92.4887661804
 10
93.0187785672
 20
92.4708076412
 10
93.0166982712
 20
92.4512220007
 10
93.0162770494
 20
92.4309256219
 10
93.0175348482
 20
92.4108668403
 10
93.020414175
 20
92.3919843117
 10
93.0247800979
 20
92.3751603727
 10
93.030427286
 20
92.3611817342
 10
93.0370917423
 20
92.350702522
 10
93.0444637105
 20
92.3442123036
 10
93.0521958878
 20
92.3420146757
  0
LINE
  5
241
330
1F
100
AcDbEntity
  8
SLD-0
  6
Continuous
370
    15
100
AcDbLine
 10
93.1639721966
 20
95.0610145989
 30
0.0
 11
93.1325600795
 21
95.0610145989
 31
0.0
  0
LINE
  5
242
330
1F
100
AcDbEntity
  8
SLD-0
  6
Continuous
370
    15
100
AcDbLine
 10
93.1639721966
 20
95.0610145989
 30
0.0
 11
93.1639721966
 21
88.3910145379
 31
0.0
  0
LINE
  5
243
330
1F
100
AcDbEntity
  8
SLD-0
  6
Continuous
370
    15
100
AcDbLine
 10
93.1325600795
 20
88.3910145379
 30
0.0
 11
93.1639721966
 21
88.3910145379
 31
0.0
  0
LINE
  5
244
330
1F
100
AcDbEntity
  8
SLD-0
  6
Continuous
370
    15
100
AcDbLine
 10
93.0847250054
 20
95.1860148082
 30
0.0
 11
93.1161359492
 21
95.1860148082
 31
0.0
  0
LWPOLYLINE
  5
245
330
1F
100
AcDbEntity
  8
SLD-0
  6
Continuous
370
    15
100
AcDbPolyline
 90
        9
 70
   128
 43
0.0
 10
93.1161359492
 20
95.1860148082
 10
93.1254685347
 20
95.1836124359
 10
93.1344420844
 20
95.1764997714
 10
93.1427128155
 20
95.1649484382
 10
93.1499615851
 20
95.1494031245
 10
93.1559103164
 20
95.1304610499
 10
93.160330212
 20
95.1088502596
 10
93.1630523139
 20
95.0854008772
 10
93.1639721966
 20
95.0610145989
  0
LINE
  5
246
330
1F
100
AcDbEntity
  8
SLD-0
  6
Continuous
370
    15
100
AcDbLine
 10
93.1161359492
 20
88.2660145853
 30
0.0
 11
93.0847250054
 21
88.2660145853
 31
0.0
  0
LWPOLYLINE
  5
247
330
1F
100
AcDbEntity
  8
SLD-0
  6
Continuous
370
    15
100
AcDbPolyline
 90
        9
 70
   128
 43
0.0
 10
93.1639721966
 20
88.3910145379
 10
93.1630523139
 20
88.3666282597
 10
93.160330212
 20
88.3431791705
 10
93.1559103164
 20
88.3215683069
 10
93.1499615851
 20
88.3026262323
 10
93.1427128155
 20
88.2870808819
 10
93.1344420844
 20
88.275529622
 10
93.1254685347
 20
88.2684164075
 10
93.1161359492
 20
88.2660145853
  0
ARC
  5
248
330
1F
100
AcDbEntity
  8
SLD-0
  6
Continuous
370
    15
100
AcDbCircle
 10
58.0978323977
 20
88.9360145721
 30
0.0
 40
0.1735271519761081
100
AcDbArc
 50
330.8339754575
 51
29.1660245425
  0
ARC
  5
249
330
1F
100
AcDbEntity
  8
SLD-0
  6
Continuous
370
    15
100
AcDbCircle
 10
58.0978327555
 20
92.4360146031
 30
0.0
 40
0.1735268216824379
100
AcDbArc
 50
330.8339284565
 51
29.1660715435
  0
ARC
  5
24A
330
1F
100
AcDbEntity
  8
SLD-0
  6
Continuous
370
    15
100
AcDbCircle
 10
93.1884227876
 20
88.9250407734
 30
0.0
 40
0.1412134598295771
100
AcDbArc
 50
175.542995563
 51
211.4093594019
  0
ARC
  5
24B
330
1F
100
AcDbEntity
  8
SLD-0
  6
Continuous
370
    15
100
AcDbCircle
 10
93.18842275
 20
88.9469883893
 30
0.0
 40
0.1412134180743745
100
AcDbArc
 50
148.5906390616
 51
184.4569834541
  0
ARC
  5
24C
330
1F
100
AcDbEntity
  8
SLD-0
  6
Continuous
370
    15
100
AcDbCircle
 10
93.1884187667
 20
92.425039868
 30
0.0
 40
0.1412095210255715
100
AcDbArc
 50
175.5425048112
 51
211.409872673
  0
ARC
  5
24D
330
1F
100
AcDbEntity
  8
SLD-0
  6
Continuous
370
    15
100
AcDbCircle
 10
93.1884187667
 20
92.4469893382
 30
0.0
 40
0.1412095210255467
100
AcDbArc
 50
148.590127327
 51
184.4574951888
  0
LINE
  5
24E
330
1F
100
AcDbEntity
  8
SLD-0
  6
Continuous
370
    15
100
AcDbLine
 10
92.9375707587
 20
88.2200145833
 30
0.0
 11
92.9375707587
 21
88.2250145756
 31
0.0
  0
LINE
  5
24F
330
1F
100
AcDbEntity
  8
SLD-0
  6
Continuous
370
    15
100
AcDbLine
 10
92.9375707587
 20
88.2250145756
 30
0.0
 11
58.3796894409
 21
88.2250145756
 31
0.0
  0
LINE
  5
250
330
1F
100
AcDbEntity
  8
SLD-0
  6
Continuous
370
    15
100
AcDbLine
 10
58.3796894409
 20
88.2250145756
 30
0.0
 11
58.3796894409
 21
88.2200145833
 31
0.0
  0
LINE
  5
251
330
1F
100
AcDbEntity
  8
SLD-0
  6
Continuous
370
    15
100
AcDbLine
 10
92.9511906547
 20
88.2660145853
 30
0.0
 11
92.9465712947
 21
88.2660145853
 31
0.0
  0
LINE
  5
252
330
1F
100
AcDbEntity
  8
SLD-0
  6
Continuous
370
    15
100
AcDbLine
 10
92.9465712947
 20
95.1860148082
 30
0.0
 11
92.9465712947
 21
88.2660145853
 31
0.0
  0
LINE
  5
253
330
1F
100
AcDbEntity
  8
SLD-0
  6
Continuous
370
    15
100
AcDbLine
 10
92.9465712947
 20
95.1860148082
 30
0.0
 11
92.9511906547
 21
95.1860148082
 31
0.0
  0
LINE
  5
254
330
1F
100
AcDbEntity
  8
SLD-0
  6
Continuous
370
    15
100
AcDbLine
 10
58.3706889049
 20
95.1860148082
 30
0.0
 11
58.3706889049
 21
88.2660145853
 31
0.0
  0
LINE
  5
255
330
1F
100
AcDbEntity
  8
SLD-0
  6
Continuous
370
    15
100
AcDbLine
 10
58.3706889049
 20
88.2660145853
 30
0.0
 11
58.3660695449
 21
88.2660145853
 31
0.0
  0
LINE
  5
256
330
1F
100
AcDbEntity
  8
SLD-0
  6
Continuous
370
    15
100
AcDbLine
 10
58.3660695449
 20
95.1860148082
 30
0.0
 11
58.3706889049
 21
95.1860148082
 31
0.0
  0
LINE
  5
257
330
1F
100
AcDbEntity
  8
SLD-0
  6
Continuous
370
    15
100
AcDbLine
 10
58.3706889049
 20
95.1860148082
 30
0.0
 11
92.9465712947
 21
95.1860148082
 31
0.0
  0
LINE
  5
258
330
1F
100
AcDbEntity
  8
SLD-0
  6
Continuous
370
    15
100
AcDbLine
 10
92.9465712947
 20
88.2660145853
 30
0.0
 11
92.9375707587
 21
88.2660145853
 31
0.0
  0
LINE
  5
259
330
1F
100
AcDbEntity
  8
SLD-0
  6
Continuous
370
    15
100
AcDbLine
 10
92.9375707587
 20
88.2660145853
 30
0.0
 11
92.9375707587
 21
88.2250145756
 31
0.0
  0
LINE
  5
25A
330
1F
100
AcDbEntity
  8
SLD-0
  6
Continuous
370
    15
100
AcDbLine
 10
58.3796894409
 20
88.2250145756
 30
0.0
 11
58.3796894409
 21
88.2660145853
 31
0.0
  0
LINE
  5
25B
330
1F
100
AcDbEntity
  8
SLD-0
  6
Continuous
370
    15
100
AcDbLine
 10
58.3796894409
 20
88.2660145853
 30
0.0
 11
58.3706889049
 21
88.2660145853
 31
0.0
  0
LINE
  5
25C
330
1F
100
AcDbEntity
  8
SLD-0
  6
Continuous
370
    15
100
AcDbLine
 10
93.7008457812
 20
88.4360145781
 30
0.0
 11
93.6168947511
 21
88.4360145781
 31
0.0
  0
LINE
  5
25D
330
1F
100
AcDbEntity
  8
SLD-0
  6
Continuous
370
    15
100
AcDbLine
 10
93.7008457812
 20
89.5610146287
 30
0.0
 11
93.7008457812
 21
88.4360145781
 31
0.0
  0
LINE
  5
25E
330
1F
100
AcDbEntity
  8
SLD-0
  6
Continuous
370
    15
100
AcDbLine
 10
93.6168947511
 20
89.5610146287
 30
0.0
 11
93.7008457812
 21
89.5610146287
 31
0.0
  0
LINE
  5
25F
330
1F
100
AcDbEntity
  8
SLD-0
  6
Continuous
370
    15
100
AcDbLine
 10
93.6168947511
 20
88.4360145781
 30
0.0
 11
93.6168947511
 21
89.5610146287
 31
0.0
  0
LINE
  5
260
330
1F
100
AcDbEntity
  8
SLD-0
  6
Continuous
370
    15
100
AcDbLine
 10
93.5923512479
 20
93.1860143924
 30
0.0
 11
93.5923512479
 21
88.1860145628
 31
0.0
  0
LINE
  5
261
330
1F
100
AcDbEntity
  8
SLD-0
  6
Continuous
370
    15
100
AcDbLine
 10
93.7253892844
 20
93.1860143924
 30
0.0
 11
93.5923512479
 21
93.1860143924
 31
0.0
  0
LINE
  5
262
330
1F
100
AcDbEntity
  8
SLD-0
  6
Continuous
370
    15
100
AcDbLine
 10
93.7253892844
 20
93.1860143924
 30
0.0
 11
93.7253892844
 21
88.1860145628
 31
0.0
  0
LINE
  5
263
330
1F
100
AcDbEntity
  8
SLD-0
  6
Continuous
370
    15
100
AcDbLine
 10
93.5923512479
 20
88.1860145628
 30
0.0
 11
93.7253892844
 21
88.1860145628
 31
0.0
  0
LINE
  5
264
330
1F
100
AcDbEntity
  8
SLD-0
  6
Continuous
370
    15
100
AcDbLine
 10
93.7008457812
 20
92.9360145604
 30
0.0
 11
93.7008457812
 21
91.8110144365
 31
0.0
  0
LINE
  5
265
330
1F
100
AcDbEntity
  8
SLD-0
  6
Continuous
370
    15
100
AcDbLine
 10
93.6168947511
 20
92.9360145604
 30
0.0
 11
93.7008457812
 21
92.9360145604
 31
0.0
  0
LINE
  5
266
330
1F
100
AcDbEntity
  8
SLD-0
  6
Continuous
370
    15
100
AcDbLine
 10
93.6168947511
 20
91.8110144365
 30
0.0
 11
93.6168947511
 21
92.9360145604
 31
0.0
  0
LINE
  5
267
330
1F
100
AcDbEntity
  8
SLD-0
  6
Continuous
370
    15
100
AcDbLine
 10
93.7008457812
 20
91.8110144365
 30
0.0
 11
93.6168947511
 21
91.8110144365
 31
0.0
  0
LINE
  5
268
330
1F
100
AcDbEntity
  8
SLD-0
  6
Continuous
370
    15
100
AcDbLine
 10
93.6367168154
 20
91.8110144365
 30
0.0
 11
93.6367168154
 21
92.9360145604
 31
0.0
  0
LINE
  5
269
330
1F
100
AcDbEntity
  8
SLD-0
  6
Continuous
370
    15
100
AcDbLine
 10
93.6810237169
 20
92.9360145604
 30
0.0
 11
93.6810237169
 21
91.8110144365
 31
0.0
  0
LINE
  5
26A
330
1F
100
AcDbEntity
  8
SLD-0
  6
Continuous
370
    15
100
AcDbLine
 10
93.6367168154
 20
88.4360145781
 30
0.0
 11
93.6367168154
 21
89.5610146287
 31
0.0
  0
LINE
  5
26B
330
1F
100
AcDbEntity
  8
SLD-0
  6
Continuous
370
    15
100
AcDbLine
 10
93.6810237169
 20
89.5610146287
 30
0.0
 11
93.6810237169
 21
88.4360145781
 31
0.0
  0
LWPOLYLINE
  5
26C
330
1F
100
AcDbEntity
  8
SLD-0
  6
Continuous
370
    15
100
AcDbPolyline
 90
       12
 70
   128
 43
0.0
 10
93.0806301194
 20
88.9935936636
 10
93.0758664411
 20
88.9906656441
 10
93.0704996764
 20
88.9833988347
 10
93.0660821274
 20
88.9726176392
 10
93.0629411504
 20
88.9591218218
 10
93.0613102359
 20
88.9439122242
 10
93.0613102359
 20
88.9281168466
 10
93.0629411504
 20
88.9129073223
 10
93.0660821274
 20
88.8994114316
 10
93.0704996764
 20
88.8886303094
 10
93.0758664411
 20
88.8813634267
 10
93.0806301194
 20
88.8784354805
  0
LWPOLYLINE
  5
26D
330
1F
100
AcDbEntity
  8
SLD-0
  6
Continuous
370
    15
100
AcDbPolyline
 90
        7
 70
   128
 43
0.0
 10
93.0611037316
 20
92.4360146031
 10
93.0619262288
 20
92.4203663305
 10
93.0643350543
 20
92.4058787646
 10
93.0681495169
 20
92.3936260794
 10
93.0730880198
 20
92.3845173047
 10
93.078783314
 20
92.3792276858
 10
93.0806301194
 20
92.3784354016
  0
LWPOLYLINE
  5
26E
330
1F
100
AcDbEntity
  8
SLD-0
  6
Continuous
370
    15
100
AcDbPolyline
 90
        7
 70
   128
 43
0.0
 10
93.0806301194
 20
92.4935938046
 10
93.078783314
 20
92.4928015204
 10
93.0730880198
 20
92.4875119015
 10
93.0681495169
 20
92.4784031267
 10
93.0643350543
 20
92.4661504416
 10
93.0619262288
 20
92.4516628757
 10
93.0611037316
 20
92.4360146031
  0
LINE
  5
26F
330
1F
100
AcDbEntity
  8
SLD-0
  6
Continuous
370
    15
100
AcDbLine
 10
93.5923512479
 20
93.1860143924
 30
0.0
 11
93.1639721966
 21
93.1860143924
 31
0.0
  0
LINE
  5
270
330
1F
100
AcDbEntity
  8
SLD-0
  6
Continuous
370
    15
100
AcDbLine
 10
93.5923512479
 20
88.1860145628
 30
0.0
 11
92.9375707587
 21
88.1860145628
 31
0.0
  0
LINE
  5
271
330
1F
100
AcDbEntity
  8
SLD-0
  6
Continuous
370
    15
100
AcDbLine
 10
98.6532971568
 20
92.9360145604
 30
0.0
 11
98.6532971568
 21
91.8110144365
 31
0.0
  0
LINE
  5
272
330
1F
100
AcDbEntity
  8
SLD-0
  6
Continuous
370
    15
100
AcDbLine
 10
98.6532971568
 20
91.8110144365
 30
0.0
 11
98.6613508237
 21
91.8110144365
 31
0.0
  0
LINE
  5
273
330
1F
100
AcDbEntity
  8
SLD-0
  6
Continuous
370
    15
100
AcDbLine
 10
98.6613508237
 20
91.8110144365
 30
0.0
 11
98.6613508237
 21
89.5610146287
 31
0.0
  0
LINE
  5
274
330
1F
100
AcDbEntity
  8
SLD-0
  6
Continuous
370
    15
100
AcDbLine
 10
98.6613508237
 20
89.5610146287
 30
0.0
 11
98.6532971568
 21
89.5610146287
 31
0.0
  0
LINE
  5
275
330
1F
100
AcDbEntity
  8
SLD-0
  6
Continuous
370
    15
100
AcDbLine
 10
98.6532971568
 20
89.5610146287
 30
0.0
 11
98.6532971568
 21
88.4360145781
 31
0.0
  0
LINE
  5
276
330
1F
100
AcDbEntity
  8
SLD-0
  6
Continuous
370
    15
100
AcDbLine
 10
98.6532971568
 20
88.4360145781
 30
0.0
 11
98.6613508237
 21
88.4360145781
 31
0.0
  0
LINE
  5
277
330
1F
100
AcDbEntity
  8
SLD-0
  6
Continuous
370
    15
100
AcDbLine
 10
98.6613508237
 20
88.4360145781
 30
0.0
 11
98.6613508237
 21
88.1860145628
 31
0.0
  0
LINE
  5
278
330
1F
100
AcDbEntity
  8
SLD-0
  6
Continuous
370
    15
100
AcDbLine
 10
98.6613508237
 20
88.1860145628
 30
0.0
 11
93.7253892844
 21
88.1860145628
 31
0.0
  0
LINE
  5
279
330
1F
100
AcDbEntity
  8
SLD-0
  6
Continuous
370
    15
100
AcDbLine
 10
98.6613508237
 20
93.1860143924
 30
0.0
 11
98.6613508237
 21
92.9360145604
 31
0.0
  0
LINE
  5
27A
330
1F
100
AcDbEntity
  8
SLD-0
  6
Continuous
370
    15
100
AcDbLine
 10
98.6613508237
 20
92.9360145604
 30
0.0
 11
98.6532971568
 21
92.9360145604
 31
0.0
  0
LINE
  5
27B
330
1F
100
AcDbEntity
  8
SLD-0
  6
Continuous
370
    15
100
AcDbLine
 10
98.6613508237
 20
93.1860143924
 30
0.0
 11
93.7253892844
 21
93.1860143924
 31
0.0
  0
LINE
  5
27C
330
1F
100
AcDbEntity
  8
SLD-0
  6
Continuous
370
    15
100
AcDbLine
 10
98.665971357
 20
93.1860143924
 30
0.0
 11
98.665971357
 21
92.9360145604
 31
0.0
  0
LINE
  5
27D
330
1F
100
AcDbEntity
  8
SLD-0
  6
Continuous
370
    15
100
AcDbLine
 10
98.6613508237
 20
92.9360145604
 30
0.0
 11
98.665971357
 21
92.9360145604
 31
0.0
  0
LINE
  5
27E
330
1F
100
AcDbEntity
  8
SLD-0
  6
Continuous
370
    15
100
AcDbLine
 10
98.665971357
 20
93.1860143924
 30
0.0
 11
98.6613508237
 21
93.1860143924
 31
0.0
  0
LINE
  5
27F
330
1F
100
AcDbEntity
  8
SLD-0
  6
Continuous
370
    15
100
AcDbLine
 10
98.665971357
 20
91.8110144365
 30
0.0
 11
98.6613508237
 21
91.8110144365
 31
0.0
  0
LINE
  5
280
330
1F
100
AcDbEntity
  8
SLD-0
  6
Continuous
370
    15
100
AcDbLine
 10
98.665971357
 20
91.8110144365
 30
0.0
 11
98.665971357
 21
89.5610146287
 31
0.0
  0
LINE
  5
281
330
1F
100
AcDbEntity
  8
SLD-0
  6
Continuous
370
    15
100
AcDbLine
 10
98.6613508237
 20
89.5610146287
 30
0.0
 11
98.665971357
 21
89.5610146287
 31
0.0
  0
LINE
  5
282
330
1F
100
AcDbEntity
  8
SLD-0
  6
Continuous
370
    15
100
AcDbLine
 10
98.665971357
 20
88.4360145781
 30
0.0
 11
98.6613508237
 21
88.4360145781
 31
0.0
  0
LINE
  5
283
330
1F
100
AcDbEntity
  8
SLD-0
  6
Continuous
370
    15
100
AcDbLine
 10
98.665971357
 20
88.4360145781
 30
0.0
 11
98.665971357
 21
88.1860145628
 31
0.0
  0
LINE
  5
284
330
1F
100
AcDbEntity
  8
SLD-0
  6
Continuous
370
    15
100
AcDbLine
 10
98.6613508237
 20
88.1860145628
 30
0.0
 11
98.665971357
 21
88.1860145628
 31
0.0
  0
LINE
  5
285
330
1F
100
AcDbEntity
  8
SLD-0
  6
Continuous
370
    15
100
AcDbLine
 10
98.665971357
 20
88.4360145781
 30
0.0
 11
98.6870183672
 21
88.4360145781
 31
0.0
  0
LINE
  5
286
330
1F
100
AcDbEntity
  8
SLD-0
  6
Continuous
370
    15
100
AcDbLine
 10
98.6870183672
 20
88.4360145781
 30
0.0
 11
98.6870183672
 21
89.5610146287
 31
0.0
  0
LINE
  5
287
330
1F
100
AcDbEntity
  8
SLD-0
  6
Continuous
370
    15
100
AcDbLine
 10
98.6870183672
 20
89.5610146287
 30
0.0
 11
98.665971357
 21
89.5610146287
 31
0.0
  0
LINE
  5
288
330
1F
100
AcDbEntity
  8
SLD-0
  6
Continuous
370
    15
100
AcDbLine
 10
98.665971357
 20
91.8110144365
 30
0.0
 11
98.6870183672
 21
91.8110144365
 31
0.0
  0
LINE
  5
289
330
1F
100
AcDbEntity
  8
SLD-0
  6
Continuous
370
    15
100
AcDbLine
 10
98.6870183672
 20
91.8110144365
 30
0.0
 11
98.6870183672
 21
92.9360145604
 31
0.0
  0
ARC
  5
28A
330
1F
100
AcDbEntity
  8
SLD-0
  6
Continuous
370
    15
100
AcDbCircle
 10
99.1876300998
 20
93.0860145688
 30
0.0
 40
0.0999999999999943
100
AcDbArc
 50
0.0
 51
90.0
  0
LINE
  5
28B
330
1F
100
AcDbEntity
  8
SLD-0
  6
Continuous
370
    15
100
AcDbLine
 10
99.2876290289
 20
93.0860146942
 30
0.0
 11
99.2876290289
 21
88.2860145542
 31
0.0
  0
ARC
  5
28C
330
1F
100
AcDbEntity
  8
SLD-0
  6
Continuous
370
    15
100
AcDbCircle
 10
99.1876300998
 20
88.2860145688
 30
0.0
 40
0.0999999999999943
100
AcDbArc
 50
270.0
 51
0.0
  0
LINE
  5
28D
330
1F
100
AcDbEntity
  8
SLD-0
  6
Continuous
370
    15
100
AcDbLine
 10
99.1876293308
 20
88.1860145628
 30
0.0
 11
98.665971357
 21
88.1860145628
 31
0.0
  0
LINE
  5
28E
330
1F
100
AcDbEntity
  8
SLD-0
  6
Continuous
370
    15
100
AcDbLine
 10
98.6870183672
 20
92.9360145604
 30
0.0
 11
98.665971357
 21
92.9360145604
 31
0.0
  0
LINE
  5
28F
330
1F
100
AcDbEntity
  8
SLD-0
  6
Continuous
370
    15
100
AcDbLine
 10
99.1876293308
 20
93.1860143924
 30
0.0
 11
98.665971357
 21
93.1860143924
 31
0.0
  0
LINE
  5
290
330
1F
100
AcDbEntity
  8
SLD-0
  6
Continuous
370
    15
100
AcDbLine
 10
57.6164144183
 20
92.9360145604
 30
0.0
 11
57.7003654485
 21
92.9360145604
 31
0.0
  0
LINE
  5
291
330
1F
100
AcDbEntity
  8
SLD-0
  6
Continuous
370
    15
100
AcDbLine
 10
57.6164144183
 20
91.8110144365
 30
0.0
 11
57.6164144183
 21
92.9360145604
 31
0.0
  0
LINE
  5
292
330
1F
100
AcDbEntity
  8
SLD-0
  6
Continuous
370
    15
100
AcDbLine
 10
57.7003654485
 20
91.8110144365
 30
0.0
 11
57.6164144183
 21
91.8110144365
 31
0.0
  0
LINE
  5
293
330
1F
100
AcDbEntity
  8
SLD-0
  6
Continuous
370
    15
100
AcDbLine
 10
57.7003654485
 20
92.9360145604
 30
0.0
 11
57.7003654485
 21
91.8110144365
 31
0.0
  0
LINE
  5
294
330
1F
100
AcDbEntity
  8
SLD-0
  6
Continuous
370
    15
100
AcDbLine
 10
57.7249089517
 20
88.1860145628
 30
0.0
 11
57.7249089517
 21
93.1860143924
 31
0.0
  0
LINE
  5
295
330
1F
100
AcDbEntity
  8
SLD-0
  6
Continuous
370
    15
100
AcDbLine
 10
57.5918709152
 20
88.1860145628
 30
0.0
 11
57.7249089517
 21
88.1860145628
 31
0.0
  0
LINE
  5
296
330
1F
100
AcDbEntity
  8
SLD-0
  6
Continuous
370
    15
100
AcDbLine
 10
57.5918709152
 20
88.1860145628
 30
0.0
 11
57.5918709152
 21
93.1860143924
 31
0.0
  0
LINE
  5
297
330
1F
100
AcDbEntity
  8
SLD-0
  6
Continuous
370
    15
100
AcDbLine
 10
57.7249089517
 20
93.1860143924
 30
0.0
 11
57.5918709152
 21
93.1860143924
 31
0.0
  0
LINE
  5
298
330
1F
100
AcDbEntity
  8
SLD-0
  6
Continuous
370
    15
100
AcDbLine
 10
57.6164144183
 20
88.4360145781
 30
0.0
 11
57.6164144183
 21
89.5610146287
 31
0.0
  0
LINE
  5
299
330
1F
100
AcDbEntity
  8
SLD-0
  6
Continuous
370
    15
100
AcDbLine
 10
57.7003654485
 20
88.4360145781
 30
0.0
 11
57.6164144183
 21
88.4360145781
 31
0.0
  0
LINE
  5
29A
330
1F
100
AcDbEntity
  8
SLD-0
  6
Continuous
370
    15
100
AcDbLine
 10
57.7003654485
 20
89.5610146287
 30
0.0
 11
57.7003654485
 21
88.4360145781
 31
0.0
  0
LINE
  5
29B
330
1F
100
AcDbEntity
  8
SLD-0
  6
Continuous
370
    15
100
AcDbLine
 10
57.6164144183
 20
89.5610146287
 30
0.0
 11
57.7003654485
 21
89.5610146287
 31
0.0
  0
LINE
  5
29C
330
1F
100
AcDbEntity
  8
SLD-0
  6
Continuous
370
    15
100
AcDbLine
 10
57.6362364827
 20
91.8110144365
 30
0.0
 11
57.6362364827
 21
92.9360145604
 31
0.0
  0
LINE
  5
29D
330
1F
100
AcDbEntity
  8
SLD-0
  6
Continuous
370
    15
100
AcDbLine
 10
57.6805433842
 20
92.9360145604
 30
0.0
 11
57.6805433842
 21
91.8110144365
 31
0.0
  0
LINE
  5
29E
330
1F
100
AcDbEntity
  8
SLD-0
  6
Continuous
370
    15
100
AcDbLine
 10
57.6362364827
 20
88.4360145781
 30
0.0
 11
57.6362364827
 21
89.5610146287
 31
0.0
  0
LINE
  5
29F
330
1F
100
AcDbEntity
  8
SLD-0
  6
Continuous
370
    15
100
AcDbLine
 10
57.6805433842
 20
89.5610146287
 30
0.0
 11
57.6805433842
 21
88.4360145781
 31
0.0
  0
LWPOLYLINE
  5
2A0
330
1F
100
AcDbEntity
  8
SLD-0
  6
Continuous
370
    15
100
AcDbPolyline
 90
       12
 70
   128
 43
0.0
 10
58.2366300802
 20
92.3784354016
 10
58.2413937585
 20
92.3813634211
 10
58.2467605232
 20
92.3886303771
 10
58.2511780722
 20
92.3994114259
 10
58.2543190492
 20
92.4129072434
 10
58.2559499637
 20
92.4281169877
 10
58.2559499637
 20
92.4439122185
 10
58.2543190492
 20
92.4591219628
 10
58.2511780722
 20
92.4726177802
 10
58.2467605232
 20
92.483398829
 10
58.2413937585
 20
92.4906657851
 10
58.2366300802
 20
92.4935938046
  0
LWPOLYLINE
  5
2A1
330
1F
100
AcDbEntity
  8
SLD-0
  6
Continuous
370
    15
100
AcDbPolyline
 90
        7
 70
   128
 43
0.0
 10
58.256156468
 20
88.9360146087
 10
58.2553339708
 20
88.9516627346
 10
58.2529251453
 20
88.9661504473
 10
58.2491106827
 20
88.9784029857
 10
58.2441721798
 20
88.9875119072
 10
58.2384768856
 20
88.9928013794
 10
58.2366300802
 20
88.9935936636
  0
LWPOLYLINE
  5
2A2
330
1F
100
AcDbEntity
  8
SLD-0
  6
Continuous
370
    15
100
AcDbPolyline
 90
        7
 70
   128
 43
0.0
 10
58.2366300802
 20
88.8784354805
 10
58.2384768856
 20
88.8792276914
 10
58.2441721798
 20
88.884517237
 10
58.2491106827
 20
88.8936260851
 10
58.2529251453
 20
88.9058786969
 10
58.2553339708
 20
88.9203663362
 10
58.256156468
 20
88.9360146087
  0
LINE
  5
2A3
330
1F
100
AcDbEntity
  8
SLD-0
  6
Continuous
370
    15
100
AcDbLine
 10
57.7249089517
 20
88.1860145628
 30
0.0
 11
58.3796894409
 21
88.1860145628
 31
0.0
  0
LINE
  5
2A4
330
1F
100
AcDbEntity
  8
SLD-0
  6
Continuous
370
    15
100
AcDbLine
 10
57.7249089517
 20
93.1860143924
 30
0.0
 11
58.153288003
 21
93.1860143924
 31
0.0
  0
LINE
  5
2A5
330
1F
100
AcDbEntity
  8
SLD-0
  6
Continuous
370
    15
100
AcDbLine
 10
52.6639630428
 20
88.4360145781
 30
0.0
 11
52.6639630428
 21
89.5610146287
 31
0.0
  0
LINE
  5
2A6
330
1F
100
AcDbEntity
  8
SLD-0
  6
Continuous
370
    15
100
AcDbLine
 10
52.6639630428
 20
89.5610146287
 30
0.0
 11
52.6559093759
 21
89.5610146287
 31
0.0
  0
LINE
  5
2A7
330
1F
100
AcDbEntity
  8
SLD-0
  6
Continuous
370
    15
100
AcDbLine
 10
52.6559093759
 20
89.5610146287
 30
0.0
 11
52.6559093759
 21
91.8110144365
 31
0.0
  0
LINE
  5
2A8
330
1F
100
AcDbEntity
  8
SLD-0
  6
Continuous
370
    15
100
AcDbLine
 10
52.6559093759
 20
91.8110144365
 30
0.0
 11
52.6639630428
 21
91.8110144365
 31
0.0
  0
LINE
  5
2A9
330
1F
100
AcDbEntity
  8
SLD-0
  6
Continuous
370
    15
100
AcDbLine
 10
52.6639630428
 20
91.8110144365
 30
0.0
 11
52.6639630428
 21
92.9360145604
 31
0.0
  0
LINE
  5
2AA
330
1F
100
AcDbEntity
  8
SLD-0
  6
Continuous
370
    15
100
AcDbLine
 10
52.6639630428
 20
92.9360145604
 30
0.0
 11
52.6559093759
 21
92.9360145604
 31
0.0
  0
LINE
  5
2AB
330
1F
100
AcDbEntity
  8
SLD-0
  6
Continuous
370
    15
100
AcDbLine
 10
52.6559093759
 20
92.9360145604
 30
0.0
 11
52.6559093759
 21
93.1860143924
 31
0.0
  0
LINE
  5
2AC
330
1F
100
AcDbEntity
  8
SLD-0
  6
Continuous
370
    15
100
AcDbLine
 10
52.6559093759
 20
88.1860145628
 30
0.0
 11
57.5918709152
 21
88.1860145628
 31
0.0
  0
LINE
  5
2AD
330
1F
100
AcDbEntity
  8
SLD-0
  6
Continuous
370
    15
100
AcDbLine
 10
52.6559093759
 20
88.1860145628
 30
0.0
 11
52.6559093759
 21
88.4360145781
 31
0.0
  0
LINE
  5
2AE
330
1F
100
AcDbEntity
  8
SLD-0
  6
Continuous
370
    15
100
AcDbLine
 10
52.6559093759
 20
88.4360145781
 30
0.0
 11
52.6639630428
 21
88.4360145781
 31
0.0
  0
LINE
  5
2AF
330
1F
100
AcDbEntity
  8
SLD-0
  6
Continuous
370
    15
100
AcDbLine
 10
52.6559093759
 20
93.1860143924
 30
0.0
 11
57.5918709152
 21
93.1860143924
 31
0.0
  0
LINE
  5
2B0
330
1F
100
AcDbEntity
  8
SLD-0
  6
Continuous
370
    15
100
AcDbLine
 10
52.6512888426
 20
89.5610146287
 30
0.0
 11
52.6559093759
 21
89.5610146287
 31
0.0
  0
LINE
  5
2B1
330
1F
100
AcDbEntity
  8
SLD-0
  6
Continuous
370
    15
100
AcDbLine
 10
52.6512888426
 20
89.5610146287
 30
0.0
 11
52.6512888426
 21
91.8110144365
 31
0.0
  0
LINE
  5
2B2
330
1F
100
AcDbEntity
  8
SLD-0
  6
Continuous
370
    15
100
AcDbLine
 10
52.6559093759
 20
91.8110144365
 30
0.0
 11
52.6512888426
 21
91.8110144365
 31
0.0
  0
LINE
  5
2B3
330
1F
100
AcDbEntity
  8
SLD-0
  6
Continuous
370
    15
100
AcDbLine
 10
52.6512888426
 20
92.9360145604
 30
0.0
 11
52.6559093759
 21
92.9360145604
 31
0.0
  0
LINE
  5
2B4
330
1F
100
AcDbEntity
  8
SLD-0
  6
Continuous
370
    15
100
AcDbLine
 10
52.6512888426
 20
92.9360145604
 30
0.0
 11
52.6512888426
 21
93.1860143924
 31
0.0
  0
LINE
  5
2B5
330
1F
100
AcDbEntity
  8
SLD-0
  6
Continuous
370
    15
100
AcDbLine
 10
52.6559093759
 20
93.1860143924
 30
0.0
 11
52.6512888426
 21
93.1860143924
 31
0.0
  0
LINE
  5
2B6
330
1F
100
AcDbEntity
  8
SLD-0
  6
Continuous
370
    15
100
AcDbLine
 10
52.6512888426
 20
88.1860145628
 30
0.0
 11
52.6512888426
 21
88.4360145781
 31
0.0
  0
LINE
  5
2B7
330
1F
100
AcDbEntity
  8
SLD-0
  6
Continuous
370
    15
100
AcDbLine
 10
52.6512888426
 20
88.1860145628
 30
0.0
 11
52.6559093759
 21
88.1860145628
 31
0.0
  0
LINE
  5
2B8
330
1F
100
AcDbEntity
  8
SLD-0
  6
Continuous
370
    15
100
AcDbLine
 10
52.6559093759
 20
88.4360145781
 30
0.0
 11
52.6512888426
 21
88.4360145781
 31
0.0
  0
LINE
  5
2B9
330
1F
100
AcDbEntity
  8
SLD-0
  6
Continuous
370
    15
100
AcDbLine
 10
52.6302418324
 20
92.9360145604
 30
0.0
 11
52.6302418324
 21
91.8110144365
 31
0.0
  0
LINE
  5
2BA
330
1F
100
AcDbEntity
  8
SLD-0
  6
Continuous
370
    15
100
AcDbLine
 10
52.6512888426
 20
89.5610146287
 30
0.0
 11
52.6302418324
 21
89.5610146287
 31
0.0
  0
LINE
  5
2BB
330
1F
100
AcDbEntity
  8
SLD-0
  6
Continuous
370
    15
100
AcDbLine
 10
52.6302418324
 20
89.5610146287
 30
0.0
 11
52.6302418324
 21
88.4360145781
 31
0.0
  0
LINE
  5
2BC
330
1F
100
AcDbEntity
  8
SLD-0
  6
Continuous
370
    15
100
AcDbLine
 10
52.6302418324
 20
88.4360145781
 30
0.0
 11
52.6512888426
 21
88.4360145781
 31
0.0
  0
LINE
  5
2BD
330
1F
100
AcDbEntity
  8
SLD-0
  6
Continuous
370
    15
100
AcDbLine
 10
52.1296308688
 20
88.1860145628
 30
0.0
 11
52.6512888426
 21
88.1860145628
 31
0.0
  0
ARC
  5
2BE
330
1F
100
AcDbEntity
  8
SLD-0
  6
Continuous
370
    15
100
AcDbCircle
 10
52.1296300998
 20
88.2860145688
 30
0.0
 40
0.1000000000000085
100
AcDbArc
 50
180.0
 51
270.0
  0
LINE
  5
2BF
330
1F
100
AcDbEntity
  8
SLD-0
  6
Continuous
370
    15
100
AcDbLine
 10
52.6302418324
 20
91.8110144365
 30
0.0
 11
52.6512888426
 21
91.8110144365
 31
0.0
  0
ARC
  5
2C0
330
1F
100
AcDbEntity
  8
SLD-0
  6
Continuous
370
    15
100
AcDbCircle
 10
52.1296300998
 20
93.0860145688
 30
0.0
 40
0.1000000000000085
100
AcDbArc
 50
90.0
 51
180.0
  0
LINE
  5
2C1
330
1F
100
AcDbEntity
  8
SLD-0
  6
Continuous
370
    15
100
AcDbLine
 10
52.1296308688
 20
93.1860143924
 30
0.0
 11
52.6512888426
 21
93.1860143924
 31
0.0
  0
LINE
  5
2C2
330
1F
100
AcDbEntity
  8
SLD-0
  6
Continuous
370
    15
100
AcDbLine
 10
52.0296311707
 20
88.2860145542
 30
0.0
 11
52.0296311707
 21
93.0860146942
 31
0.0
  0
LINE
  5
2C3
330
1F
100
AcDbEntity
  8
SLD-0
  6
Continuous
370
    15
100
AcDbLine
 10
52.6512888426
 20
92.9360145604
 30
0.0
 11
52.6302418324
 21
92.9360145604
 31
0.0
  0
LWPOLYLINE
  5
2C4
330
1F
100
AcDbEntity
  8
SLD-0
  6
Continuous
370
    15
100
AcDbPolyline
 90
       10
 70
   128
 43
0.0
 10
106.1296297762
 20
109.6410147028
 10
106.1346656647
 20
109.6406556669
 10
106.1395490216
 20
109.6403060176
 10
106.144129662
 20
109.6399798347
 10
106.1482714809
 20
109.6396841582
 10
106.1518454129
 20
109.6394283745
 10
106.1547458594
 20
109.6392218702
 10
106.1568813014
 20
109.6390693386
 10
106.1581883796
 20
109.638975473
 10
106.1586295479
 20
109.6389426201
  0
LINE
  5
2C5
330
1F
100
AcDbEntity
  8
SLD-0
  6
Continuous
370
    15
100
AcDbLine
 10
106.1586295479
 20
87.7150145697
 30
0.0
 11
106.1586295479
 21
109.6389426201
 31
0.0
  0
LINE
  5
2C6
330
1F
100
AcDbEntity
  8
SLD-0
  6
Continuous
370
    15
100
AcDbLine
 10
106.1586295479
 20
87.7150145697
 30
0.0
 11
106.1296297762
 21
87.7150145697
 31
0.0
  0
LINE
  5
2C7
330
1F
100
AcDbEntity
  8
SLD-0
  6
Continuous
370
    15
100
AcDbLine
 10
106.1296297762
 20
87.7150145697
 30
0.0
 11
106.1296297762
 21
109.6410147028
 31
0.0
  0
LWPOLYLINE
  5
2C8
330
1F
100
AcDbEntity
  8
SLD-0
  6
Continuous
370
    15
100
AcDbPolyline
 90
       10
 70
   128
 43
0.0
 10
45.1876304234
 20
109.6410147028
 10
45.1879894592
 20
109.6460505913
 10
45.1883391085
 20
109.6509339482
 10
45.1886652914
 20
109.6555145886
 10
45.188960968
 20
109.6596564074
 10
45.1892167517
 20
109.6632303395
 10
45.189423256
 20
109.6661284393
 10
45.1895757876
 20
109.668266228
 10
45.1896696532
 20
109.6695733062
 10
45.1897001595
 20
109.6700144745
  0
LINE
  5
2C9
330
1F
100
AcDbEntity
  8
SLD-0
  6
Continuous
370
    15
100
AcDbLine
 10
106.1275600401
 20
109.6700144745
 30
0.0
 11
45.1897001595
 21
109.6700144745
 31
0.0
  0
LWPOLYLINE
  5
2CA
330
1F
100
AcDbEntity
  8
SLD-0
  6
Continuous
370
    15
100
AcDbPolyline
 90
       10
 70
   128
 43
0.0
 10
106.1275600401
 20
109.6700144745
 10
106.1275905464
 20
109.6695733062
 10
106.127684412
 20
109.668266228
 10
106.1278369436
 20
109.6661284393
 10
106.1280434479
 20
109.6632303395
 10
106.1282992316
 20
109.6596564074
 10
106.1285949082
 20
109.6555145886
 10
106.1289210911
 20
109.6509339482
 10
106.1292707404
 20
109.6460505913
 10
106.1296297762
 20
109.6410147028
  0
LINE
  5
2CB
330
1F
100
AcDbEntity
  8
SLD-0
  6
Continuous
370
    15
100
AcDbLine
 10
106.1296297762
 20
109.6410147028
 30
0.0
 11
45.1876304234
 21
109.6410147028
 31
0.0
  0
LWPOLYLINE
  5
2CC
330
1F
100
AcDbEntity
  8
SLD-0
  6
Continuous
370
    15
100
AcDbPolyline
 90
        9
 70
   128
 43
0.0
 10
45.1586306517
 20
109.6389426201
 10
45.1591868053
 20
109.6389825129
 10
45.1608364929
 20
109.6391021916
 10
45.1635163553
 20
109.6392922694
 10
45.1671231403
 20
109.6395503997
 10
45.1715183962
 20
109.6398648494
 10
45.1765331649
 20
109.6402215386
 10
45.1819726754
 20
109.6406110808
 10
45.1876304234
 20
109.6410147028
  0
LINE
  5
2CD
330
1F
100
AcDbEntity
  8
SLD-0
  6
Continuous
370
    15
100
AcDbLine
 10
45.1876304234
 20
87.7150145697
 30
0.0
 11
106.1296297762
 21
87.7150145697
 31
0.0
  0
LINE
  5
2CE
330
1F
100
AcDbEntity
  8
SLD-0
  6
Continuous
370
    15
100
AcDbLine
 10
45.1876304234
 20
109.6410147028
 30
0.0
 11
45.1876304234
 21
87.7150145697
 31
0.0
  0
CIRCLE
  5
2CF
330
1F
100
AcDbEntity
  8
SLD-0
  6
Continuous
370
    15
100
AcDbCircle
 10
75.6586300998
 20
102.9320145688
 30
0.0
 40
4.5
  0
LINE
  5
2D0
330
1F
100
AcDbEntity
  8
SLD-0
  6
Continuous
370
    15
100
AcDbLine
 10
45.1876304234
 20
87.7150145697
 30
0.0
 11
45.1586306517
 21
87.7150145697
 31
0.0
  0
LINE
  5
2D1
330
1F
100
AcDbEntity
  8
SLD-0
  6
Continuous
370
    15
100
AcDbLine
 10
45.1586306517
 20
109.6389426201
 30
0.0
 11
45.1586306517
 21
87.7150145697
 31
0.0
  0
LINE
  5
2D2
330
1F
100
AcDbEntity
  8
SLD-0
  6
Continuous
370
    15
100
AcDbLine
 10
106.1296297762
 20
87.7150145697
 30
0.0
 11
106.1296297762
 21
87.6860145688
 31
0.0
  0
LINE
  5
2D3
330
1F
100
AcDbEntity
  8
SLD-0
  6
Continuous
370
    15
100
AcDbLine
 10
45.1876304234
 20
87.6860145688
 30
0.0
 11
106.1296297762
 21
87.6860145688
 31
0.0
  0
LINE
  5
2D4
330
1F
100
AcDbEntity
  8
SLD-0
  6
Continuous
370
    15
100
AcDbLine
 10
45.1876304234
 20
87.6860145688
 30
0.0
 11
45.1876304234
 21
87.7150145697
 31
0.0
  0
LINE
  5
2D5
330
1F
100
AcDbEntity
  8
SLD-0
  6
Continuous
370
    15
100
AcDbLine
 10
52.7706295439
 20
87.6810145686
 30
0.0
 11
98.5466306557
 21
87.6810145686
 31
0.0
  0
LINE
  5
2D6
330
1F
100
AcDbEntity
  8
SLD-0
  6
Continuous
370
    15
100
AcDbLine
 10
98.5466306557
 20
87.6810145686
 30
0.0
 11
98.5466306557
 21
87.6860145688
 31
0.0
  0
LINE
  5
2D7
330
1F
100
AcDbEntity
  8
SLD-0
  6
Continuous
370
    15
100
AcDbLine
 10
52.7706295439
 20
87.6860145688
 30
0.0
 11
52.7706295439
 21
87.6810145686
 31
0.0
  0
LINE
  5
2D8
330
1F
100
AcDbEntity
  8
SLD-0
  6
Continuous
370
    15
100
AcDbLine
 10
52.7706295439
 20
87.3110145642
 30
0.0
 11
52.8956303399
 21
87.1860145749
 31
0.0
  0
LINE
  5
2D9
330
1F
100
AcDbEntity
  8
SLD-0
  6
Continuous
370
    15
100
AcDbLine
 10
98.4216298597
 20
87.1860145749
 30
0.0
 11
98.5466306557
 21
87.3110145642
 31
0.0
  0
LINE
  5
2DA
330
1F
100
AcDbEntity
  8
SLD-0
  6
Continuous
370
    15
100
AcDbLine
 10
52.8956303399
 20
87.1860145749
 30
0.0
 11
98.4216298597
 21
87.1860145749
 31
0.0
  0
LINE
  5
2DB
330
1F
100
AcDbEntity
  8
SLD-0
  6
Continuous
370
    15
100
AcDbLine
 10
52.7706295439
 20
87.6810145686
 30
0.0
 11
52.7706295439
 21
87.3110145642
 31
0.0
  0
LINE
  5
2DC
330
1F
100
AcDbEntity
  8
SLD-0
  6
Continuous
370
    15
100
AcDbLine
 10
98.5466306557
 20
87.3110145642
 30
0.0
 11
98.5466306557
 21
87.6810145686
 31
0.0
  0
CIRCLE
  5
2DD
330
1F
100
AcDbEntity
  8
SLD-0
  6
Continuous
370
    15
100
AcDbCircle
 10
75.6586300998
 20
102.9320145688
 30
0.0
 40
3.999999999999986
  0
CIRCLE
  5
2DE
330
1F
100
AcDbEntity
  8
SLD-0
  6
Continuous
370
    15
100
AcDbCircle
 10
75.6586300998
 20
102.9320145688
 30
0.0
 40
2.497893621736765
  0
CIRCLE
  5
2DF
330
1F
100
AcDbEntity
  8
SLD-0
  6
Continuous
370
    15
100
AcDbCircle
 10
75.6586300998
 20
102.9320145688
 30
0.0
 40
2.416373405054557
  0
LINE
  5
2E0
330
1F
100
AcDbEntity
  8
SLD-0
  6
Continuous
370
    15
100
AcDbLine
 10
98.5926294843
 20
87.3110145642
 30
0.0
 11
98.6166309137
 21
87.3110145642
 31
0.0
  0
LINE
  5
2E1
330
1F
100
AcDbEntity
  8
SLD-0
  6
Continuous
370
    15
100
AcDbLine
 10
98.5926294843
 20
87.6860145688
 30
0.0
 11
98.5926294843
 21
87.3110145642
 31
0.0
  0
LINE
  5
2E2
330
1F
100
AcDbEntity
  8
SLD-0
  6
Continuous
370
    15
100
AcDbLine
 10
98.6166309137
 20
87.6860145688
 30
0.0
 11
98.6166309137
 21
87.3110145642
 31
0.0
  0
LINE
  5
2E3
330
1F
100
AcDbEntity
  8
SLD-0
  6
Continuous
370
    15
100
AcDbLine
 10
98.6166309137
 20
87.1860145749
 30
0.0
 11
98.5926294843
 21
87.1860145749
 31
0.0
  0
LINE
  5
2E4
330
1F
100
AcDbEntity
  8
SLD-0
  6
Continuous
370
    15
100
AcDbLine
 10
98.5926294843
 20
87.1860145749
 30
0.0
 11
98.5926294843
 21
87.3110145642
 31
0.0
  0
LINE
  5
2E5
330
1F
100
AcDbEntity
  8
SLD-0
  6
Continuous
370
    15
100
AcDbLine
 10
98.6166309137
 20
87.3110145642
 30
0.0
 11
98.6166309137
 21
87.1860145749
 31
0.0
  0
LINE
  5
2E6
330
1F
100
AcDbEntity
  8
SLD-0
  6
Continuous
370
    15
100
AcDbLine
 10
52.7246307153
 20
87.1860145749
 30
0.0
 11
52.7006292859
 21
87.1860145749
 31
0.0
  0
LINE
  5
2E7
330
1F
100
AcDbEntity
  8
SLD-0
  6
Continuous
370
    15
100
AcDbLine
 10
52.7006292859
 20
87.1860145749
 30
0.0
 11
52.7006292859
 21
87.3110145642
 31
0.0
  0
LINE
  5
2E8
330
1F
100
AcDbEntity
  8
SLD-0
  6
Continuous
370
    15
100
AcDbLine
 10
52.7006292859
 20
87.3110145642
 30
0.0
 11
52.7246307153
 21
87.3110145642
 31
0.0
  0
LINE
  5
2E9
330
1F
100
AcDbEntity
  8
SLD-0
  6
Continuous
370
    15
100
AcDbLine
 10
52.7246307153
 20
87.3110145642
 30
0.0
 11
52.7246307153
 21
87.1860145749
 31
0.0
  0
LINE
  5
2EA
330
1F
100
AcDbEntity
  8
SLD-0
  6
Continuous
370
    15
100
AcDbLine
 10
52.7246307153
 20
87.3110145642
 30
0.0
 11
52.7246307153
 21
87.6860145688
 31
0.0
  0
LINE
  5
2EB
330
1F
100
AcDbEntity
  8
SLD-0
  6
Continuous
370
    15
100
AcDbLine
 10
52.7006292859
 20
87.3110145642
 30
0.0
 11
52.7006292859
 21
87.6860145688
 31
0.0
  0
LINE
  5
2EC
330
1F
100
AcDbEntity
  8
SLD-0
  6
Continuous
370
    15
100
AcDbLine
 10
98.5706297384
 20
87.6860145688
 30
0.0
 11
98.5706297384
 21
87.6810145686
 31
0.0
  0
LINE
  5
2ED
330
1F
100
AcDbEntity
  8
SLD-0
  6
Continuous
370
    15
100
AcDbLine
 10
52.7466304612
 20
87.6810145686
 30
0.0
 11
52.7466304612
 21
87.6860145688
 31
0.0
  0
LINE
  5
2EE
330
1F
100
AcDbEntity
  8
SLD-0
  6
Continuous
370
    15
100
AcDbLine
 10
98.5706297384
 20
87.6810145686
 30
0.0
 11
98.5706297384
 21
87.3110145642
 31
0.0
  0
LINE
  5
2EF
330
1F
100
AcDbEntity
  8
SLD-0
  6
Continuous
370
    15
100
AcDbLine
 10
98.5140898049
 20
87.2544733474
 30
0.0
 11
98.5236312414
 21
87.2640145638
 31
0.0
  0
LINE
  5
2F0
330
1F
100
AcDbEntity
  8
SLD-0
  6
Continuous
370
    15
100
AcDbLine
 10
98.5576293553
 20
87.2980145844
 30
0.0
 11
98.5706297384
 21
87.3110145642
 31
0.0
  0
LINE
  5
2F1
330
1F
100
AcDbEntity
  8
SLD-0
  6
Continuous
370
    15
100
AcDbLine
 10
98.4456289424
 20
87.1860145749
 30
0.0
 11
98.4216298597
 21
87.1860145749
 31
0.0
  0
LINE
  5
2F2
330
1F
100
AcDbEntity
  8
SLD-0
  6
Continuous
370
    15
100
AcDbLine
 10
52.8956303399
 20
87.1860145749
 30
0.0
 11
52.8716312572
 21
87.1860145749
 31
0.0
  0
LINE
  5
2F3
330
1F
100
AcDbEntity
  8
SLD-0
  6
Continuous
370
    15
100
AcDbLine
 10
52.7466304612
 20
87.3110145642
 30
0.0
 11
52.7596308443
 21
87.2980145844
 31
0.0
  0
LINE
  5
2F4
330
1F
100
AcDbEntity
  8
SLD-0
  6
Continuous
370
    15
100
AcDbLine
 10
52.7936289582
 20
87.2640145638
 30
0.0
 11
52.8031703947
 21
87.2544733474
 31
0.0
  0
LINE
  5
2F5
330
1F
100
AcDbEntity
  8
SLD-0
  6
Continuous
370
    15
100
AcDbLine
 10
52.7466304612
 20
87.3110145642
 30
0.0
 11
52.7466304612
 21
87.6810145686
 31
0.0
  0
LINE
  5
2F6
330
1F
100
AcDbEntity
  8
SLD-0
  6
Continuous
370
    15
100
AcDbLine
 10
98.4822412128
 20
87.2109862297
 30
0.0
 11
98.4466027979
 21
87.2109862297
 31
0.0
  0
LINE
  5
2F7
330
1F
100
AcDbEntity
  8
SLD-0
  6
Continuous
370
    15
100
AcDbLine
 10
52.8706574017
 20
87.2109862297
 30
0.0
 11
52.8350189868
 21
87.2109862297
 31
0.0
  0
LINE
  5
2F8
330
1F
100
AcDbEntity
  8
SLD-0
  6
Continuous
370
    15
100
AcDbLine
 10
98.5706297384
 20
87.6810145686
 30
0.0
 11
98.5576293553
 21
87.6810145686
 31
0.0
  0
LINE
  5
2F9
330
1F
100
AcDbEntity
  8
SLD-0
  6
Continuous
370
    15
100
AcDbLine
 10
52.7596308443
 20
87.6810145686
 30
0.0
 11
52.7466304612
 21
87.6810145686
 31
0.0
  0
DIMENSION
  5
2FA
330
1F
100
AcDbEntity
  8
DIM
100
AcDbDimension
  2
_D_6
 10
45.1876300998
 20
112.6700145688
 30
0.0
 11
60.4231300998
 21
112.6700145688
 31
0.0
 70
   160
  1
<>
 71
     2
 42
-1.0
  3
SLDDIMSTYLE0
100
AcDbAlignedDimension
 13
75.6586300998
 23
105.4468131707
 33
0.0
 14
45.1876300998
 24
109.6410145688
 34
0.0
100
AcDbRotatedDimension
  0
DIMENSION
  5
309
330
1F
100
AcDbEntity
  8
DIM
100
AcDbDimension
  2
_D_7
 10
111.1586300998
 20
102.9320145688
 30
0.0
 11
111.1586300998
 21
106.3010145688
 31
0.0
 70
   160
  1
<>
 71
     2
 42
-1.0
  3
SLDDIMSTYLE0
100
AcDbAlignedDimension
 13
106.127559032
 23
109.6700145688
 33
0.0
 14
78.1734287017
 24
102.9320145688
 34
0.0
 50
90.0
100
AcDbRotatedDimension
  0
DIMENSION
  5
318
330
1F
100
AcDbEntity
  8
DIM
100
AcDbDimension
  2
_D_8
 10
111.1586300998
 20
102.9320145688
 30
0.0
 11
111.1586300998
 21
95.3090145688
 31
0.0
 70
   160
  1
<>
 71
     2
 42
-1.0
  3
SLDDIMSTYLE0
100
AcDbAlignedDimension
 13
106.1296300998
 23
87.6860145688
 33
0.0
 14
78.1734287017
 24
102.9320145688
 34
0.0
 50
90.0
100
AcDbRotatedDimension
  0
DIMENSION
  5
327
330
1F
100
AcDbEntity
  8
DIM
100
AcDbDimension
  2
_D_9
 10
116.1586300998
 20
109.6700145688
 30
0.0
 11
116.1586300998
 21
98.6780145688
 31
0.0
 70
   160
  1
<>
 71
     2
 42
-1.0
  3
SLDDIMSTYLE0
100
AcDbAlignedDimension
 13
106.1296300998
 23
87.6860145688
 33
0.0
 14
106.127559032
 24
109.6700145688
 34
0.0
 50
90.0
100
AcDbRotatedDimension
  0
DIMENSION
  5
332
330
1F
100
AcDbEntity
  8
DIM
100
AcDbDimension
  2
_D_10
 10
45.1586300998
 20
83.9676404277
 30
0.0
 11
75.6586300998
 21
83.9676404277
 31
0.0
 70
   160
  1
<>
 71
     2
 42
-1.0
  3
SLDDIMSTYLE0
100
AcDbAlignedDimension
 13
106.1586300998
 23
87.7150145688
 33
0.0
 14
45.1586300998
 24
87.7150145688
 34
0.0
 50
0.0
100
AcDbRotatedDimension
  0
DIMENSION
  5
33D
330
1F
100
AcDbEntity
  8
DIM
100
AcDbDimension
  2
_D_11
 10
75.2972591406
 20
100.4603989888
 30
0.0
 11
80.3875547468
 21
112.6700145688
 31
0.0
 70
   163
  1
<>
 71
     1
 42
-1.0
  3
SLDDIMSTYLE1
100
AcDbDiametricDimension
 15
76.0200010589
 25
105.4036301488
 35
0.0
 40
0.0
  0
DIMENSION
  5
347
330
1F
100
AcDbEntity
  8
DIM
100
AcDbDimension
  2
_D_12
 10
73.3619316346
 20
99.6570830947
 30
0.0
 11
85.7163097282
 21
112.6700145688
 31
0.0
 70
   163
  1
<>
 71
     1
 42
-1.0
  3
SLDDIMSTYLE1
100
AcDbDiametricDimension
 15
77.955328565
 25
106.2069460429
 35
0.0
 40
0.0
  0
INSERT
  5
35B
330
1F
100
AcDbEntity
  8
DIM
100
AcDbBlockReference
  2
SW_CENTERMARKSYMBOL_0
 10
75.6586300998
 20
102.9320145688
 30
0.0
  0
LINE
  5
35C
330
1F
100
AcDbEntity
  8
SLD-0
  6
Continuous
370
    15
100
AcDbLine
 10
121.7261946553
 20
51.5704683878
 30
0.0
 11
121.7261946553
 21
51.5089676583
 31
0.0
  0
LINE
  5
35D
330
1F
100
AcDbEntity
  8
SLD-0
  6
Continuous
370
    15
100
AcDbLine
 10
121.7261946553
 20
12.9079693803
 30
0.0
 11
121.7261946553
 21
12.8829693825
 31
0.0
  0
LINE
  5
35E
330
1F
100
AcDbEntity
  8
SLD-0
  6
Continuous
370
    15
100
AcDbLine
 10
122.9761946586
 20
69.080970745
 30
0.0
 11
122.7261946433
 21
69.080970745
 31
0.0
  0
LINE
  5
35F
330
1F
100
AcDbEntity
  8
SLD-0
  6
Continuous
370
    15
100
AcDbLine
 10
126.351194517
 20
69.080970745
 30
0.0
 11
124.1011947091
 21
69.080970745
 31
0.0
  0
LINE
  5
360
330
1F
100
AcDbEntity
  8
SLD-0
  6
Continuous
370
    15
100
AcDbLine
 10
127.7261944728
 20
69.080970745
 30
0.0
 11
127.4761946409
 21
69.080970745
 31
0.0
  0
LINE
  5
361
330
1F
100
AcDbEntity
  8
SLD-0
  6
Continuous
370
    15
100
AcDbLine
 10
121.7651946315
 20
51.5704683878
 30
0.0
 11
121.7876946516
 21
51.5704683878
 31
0.0
  0
LINE
  5
362
330
1F
100
AcDbEntity
  8
SLD-0
  6
Continuous
370
    15
100
AcDbLine
 10
121.7261946553
 20
51.5704683878
 30
0.0
 11
121.7651946315
 21
51.5704683878
 31
0.0
  0
LINE
  5
363
330
1F
100
AcDbEntity
  8
SLD-0
  6
Continuous
370
    15
100
AcDbLine
 10
121.7261946553
 20
12.8829693825
 30
0.0
 11
121.7511946532
 21
12.8829693825
 31
0.0
  0
LINE
  5
364
330
1F
100
AcDbEntity
  8
SLD-0
  6
Continuous
370
    15
100
AcDbLine
 10
121.7711946588
 20
12.8229694023
 30
0.0
 11
121.7711946588
 21
12.782969391
 31
0.0
  0
SPLINE
  5
365
330
1F
100
AcDbEntity
  8
SLD-0
  6
Continuous
370
    15
100
AcDbSpline
210
0.0
220
0.0
230
1.0
 70
     8
 71
     3
 72
    15
 73
    11
 74
     0
 42
0.00000001
 43
0.00000001
 12
1.0
 22
0.0
 32
0.0
 13
1.0
 23
0.0
 33
0.0
 40
0.0
 40
0.0
 40
0.0
 40
0.0
 40
0.1249985515247748
 40
0.2500011830224312
 40
0.3749995170935342
 40
0.4999977188336848
 40
0.6250004369986313
 40
0.749998672221626
 40
0.8749976160751356
 40
0.9999999999999999
 40
0.9999999999999999
 40
0.9999999999999999
 40
0.9999999999999999
 10
121.7711946588392
 20
12.78296939100527
 30
0.0
 10
121.7661693234656
 20
12.78346008623946
 30
0.0
 10
121.7561184886906
 20
12.7844414927242
 30
0.0
 10
121.7427199742437
 20
12.79209431047084
 30
0.0
 10
121.7324863301764
 20
12.80337941667488
 30
0.0
 10
121.7265607171581
 20
12.81748941080551
 30
0.0
 10
121.7255872736137
 20
12.83276117105084
 30
0.0
 10
121.7297284470582
 20
12.84742176611706
 30
0.0
 10
121.7383213274338
 20
12.86023882850626
 30
0.0
 10
121.7468846100059
 20
12.86559069093936
 30
0.0
 10
121.7511663102084
 20
12.86826665897729
 30
0.0
  0
LINE
  5
366
330
1F
100
AcDbEntity
  8
SLD-0
  6
Continuous
370
    15
100
AcDbLine
 10
121.7689692745
 20
12.8324468928
 30
0.0
 11
121.7511663102
 21
12.868266659
 31
0.0
  0
SPLINE
  5
367
330
1F
100
AcDbEntity
  8
SLD-0
  6
Continuous
370
    15
100
AcDbSpline
210
0.0
220
0.0
230
1.0
 70
     8
 71
     3
 72
    11
 73
     7
 74
     0
 42
0.00000001
 43
0.00000001
 12
1.0
 22
0.0
 32
0.0
 13
1.0
 23
0.0
 33
0.0
 40
0.0
 40
0.0
 40
0.0
 40
0.0
 40
0.250017698858044
 40
0.49996442598065
 40
0.7499822080177335
 40
1.0
 40
1.0
 40
1.0
 40
1.0
 10
121.7711946588392
 20
12.82296940225506
 30
0.0
 10
121.7700781824999
 20
12.82319559843779
 30
0.0
 10
121.7678455467519
 20
12.82364792659364
 30
0.0
 10
121.7659610772648
 20
12.82674119372583
 30
0.0
 10
121.7662719911137
 20
12.83034805375313
 30
0.0
 10
121.7680701800573
 20
12.83174727975529
 30
0.0
 10
121.768969274547
 20
12.83244689277028
 30
0.0
  0
LINE
  5
368
330
1F
100
AcDbEntity
  8
SLD-0
  6
Continuous
370
    15
100
AcDbLine
 10
121.7689692745
 20
12.8324468928
 30
0.0
 11
121.7908447585
 21
12.8433193138
 31
0.0
  0
LINE
  5
369
330
1F
100
AcDbEntity
  8
SLD-0
  6
Continuous
370
    15
100
AcDbLine
 10
121.7511663102
 20
12.868266659
 30
0.0
 11
121.7610066499
 21
12.8731574225
 31
0.0
  0
LINE
  5
36A
330
1F
100
AcDbEntity
  8
SLD-0
  6
Continuous
370
    15
100
AcDbLine
 10
121.7753424909
 20
12.782969391
 30
0.0
 11
121.7711946588
 21
12.782969391
 31
0.0
  0
LINE
  5
36B
330
1F
100
AcDbEntity
  8
SLD-0
  6
Continuous
370
    15
100
AcDbLine
 10
121.8111946334
 20
12.8229694023
 30
0.0
 11
121.7711946588
 21
12.8229694023
 31
0.0
  0
LINE
  5
36C
330
1F
100
AcDbEntity
  8
SLD-0
  6
Continuous
370
    15
100
AcDbLine
 10
129.6011946793
 20
68.0089084629
 30
0.0
 11
129.6011946793
 21
68.0219182326
 31
0.0
  0
ARC
  5
36D
330
1F
100
AcDbEntity
  8
SLD-0
  6
Continuous
370
    15
100
AcDbCircle
 10
129.6057716494
 20
67.901480017
 30
0.0
 40
0.120525152715634
100
AcDbArc
 50
2.3563792458
 51
92.1763435577
  0
LINE
  5
36E
330
1F
100
AcDbEntity
  8
SLD-0
  6
Continuous
370
    15
100
AcDbLine
 10
129.7261948887
 20
67.9064354067
 30
0.0
 11
129.7261948887
 21
67.893425637
 31
0.0
  0
ARC
  5
36F
330
1F
100
AcDbEntity
  8
SLD-0
  6
Continuous
370
    15
100
AcDbCircle
 10
129.6057716494
 20
67.8884702473
 30
0.0
 40
0.1205251527156103
100
AcDbArc
 50
2.3563792458
 51
92.1763435577
  0
LINE
  5
370
330
1F
100
AcDbEntity
  8
SLD-0
  6
Continuous
370
    15
100
AcDbLine
 10
129.7261948887
 20
67.5710442945
 30
0.0
 11
129.7261948887
 21
67.893425637
 31
0.0
  0
LINE
  5
371
330
1F
100
AcDbEntity
  8
SLD-0
  6
Continuous
370
    15
100
AcDbLine
 10
129.6011946793
 20
68.0089084629
 30
0.0
 11
127.7261944728
 21
68.0089084629
 31
0.0
  0
LINE
  5
372
330
1F
100
AcDbEntity
  8
SLD-0
  6
Continuous
370
    15
100
AcDbLine
 10
129.6011946793
 20
68.0219182326
 30
0.0
 11
127.7261944728
 21
68.0219182326
 31
0.0
  0
LINE
  5
373
330
1F
100
AcDbEntity
  8
SLD-0
  6
Continuous
370
    15
100
AcDbLine
 10
129.7261948887
 20
67.5469677726
 30
0.0
 11
127.7261944728
 21
67.5469677726
 31
0.0
  0
LINE
  5
374
330
1F
100
AcDbEntity
  8
SLD-0
  6
Continuous
370
    15
100
AcDbLine
 10
129.7261948887
 20
67.5469677726
 30
0.0
 11
129.7261948887
 21
67.5710442945
 31
0.0
  0
ARC
  5
375
330
1F
100
AcDbEntity
  8
SLD-0
  6
Continuous
370
    15
100
AcDbCircle
 10
129.6057717742
 20
63.4244722322
 30
0.0
 40
0.1205248213077112
100
AcDbArc
 50
2.353992674
 51
92.1764089269
  0
LINE
  5
376
330
1F
100
AcDbEntity
  8
SLD-0
  6
Continuous
370
    15
100
AcDbLine
 10
129.7261948887
 20
63.1272927491
 30
0.0
 11
129.7261948887
 21
63.4294225922
 31
0.0
  0
LINE
  5
377
330
1F
100
AcDbEntity
  8
SLD-0
  6
Continuous
370
    15
100
AcDbLine
 10
129.6011946793
 20
63.5449101114
 30
0.0
 11
127.7261944728
 21
63.5449101114
 31
0.0
  0
LINE
  5
378
330
1F
100
AcDbEntity
  8
SLD-0
  6
Continuous
370
    15
100
AcDbLine
 10
129.6011946793
 20
63.5449101114
 30
0.0
 11
129.6011946793
 21
63.5586473394
 31
0.0
  0
LINE
  5
379
330
1F
100
AcDbEntity
  8
SLD-0
  6
Continuous
370
    15
100
AcDbLine
 10
129.6011946793
 20
63.5586473394
 30
0.0
 11
127.7261944728
 21
63.5586473394
 31
0.0
  0
ARC
  5
37A
330
1F
100
AcDbEntity
  8
SLD-0
  6
Continuous
370
    15
100
AcDbCircle
 10
129.6057716494
 20
63.4382091238
 30
0.0
 40
0.1205251527156343
100
AcDbArc
 50
2.3563792458
 51
92.1763435577
  0
LINE
  5
37B
330
1F
100
AcDbEntity
  8
SLD-0
  6
Continuous
370
    15
100
AcDbLine
 10
129.7261948887
 20
63.4431645134
 30
0.0
 11
129.7261948887
 21
63.4294225922
 31
0.0
  0
LINE
  5
37C
330
1F
100
AcDbEntity
  8
SLD-0
  6
Continuous
370
    15
100
AcDbLine
 10
129.7261948887
 20
63.0829694211
 30
0.0
 11
127.7261944728
 21
63.0829694211
 31
0.0
  0
LINE
  5
37D
330
1F
100
AcDbEntity
  8
SLD-0
  6
Continuous
370
    15
100
AcDbLine
 10
129.7261948887
 20
63.0829694211
 30
0.0
 11
129.7261948887
 21
63.1272927491
 31
0.0
  0
LINE
  5
37E
330
1F
100
AcDbEntity
  8
SLD-0
  6
Continuous
370
    15
100
AcDbLine
 10
127.6261947747
 20
57.0829687603
 30
0.0
 11
127.6261947747
 21
57.1169715675
 31
0.0
  0
LINE
  5
37F
330
1F
100
AcDbEntity
  8
SLD-0
  6
Continuous
370
    15
100
AcDbLine
 10
122.8261946347
 20
57.1169715675
 30
0.0
 11
122.8261946347
 21
57.0829687603
 31
0.0
  0
LINE
  5
380
330
1F
100
AcDbEntity
  8
SLD-0
  6
Continuous
370
    15
100
AcDbLine
 10
127.6261947747
 20
57.1169715675
 30
0.0
 11
122.8261946347
 21
57.1169715675
 31
0.0
  0
LINE
  5
381
330
1F
100
AcDbEntity
  8
SLD-0
  6
Continuous
370
    15
100
AcDbLine
 10
122.7261946433
 20
57.0829687603
 30
0.0
 11
122.7261946433
 21
57.1169715675
 31
0.0
  0
LINE
  5
382
330
1F
100
AcDbEntity
  8
SLD-0
  6
Continuous
370
    15
100
AcDbLine
 10
122.7261946433
 20
57.1169715675
 30
0.0
 11
122.8261946347
 21
57.1169715675
 31
0.0
  0
LINE
  5
383
330
1F
100
AcDbEntity
  8
SLD-0
  6
Continuous
370
    15
100
AcDbLine
 10
127.7261944728
 20
57.1169715675
 30
0.0
 11
127.7261944728
 21
57.0829687603
 31
0.0
  0
LINE
  5
384
330
1F
100
AcDbEntity
  8
SLD-0
  6
Continuous
370
    15
100
AcDbLine
 10
127.6261947747
 20
57.1169715675
 30
0.0
 11
127.7261944728
 21
57.1169715675
 31
0.0
  0
LINE
  5
385
330
1F
100
AcDbEntity
  8
SLD-0
  6
Continuous
370
    15
100
AcDbLine
 10
122.9761946586
 20
57.1200550519
 30
0.0
 11
122.7261946433
 21
57.1200550519
 31
0.0
  0
LINE
  5
386
330
1F
100
AcDbEntity
  8
SLD-0
  6
Continuous
370
    15
100
AcDbLine
 10
122.9761946586
 20
57.1169715675
 30
0.0
 11
122.9761946586
 21
57.1200550519
 31
0.0
  0
LINE
  5
387
330
1F
100
AcDbEntity
  8
SLD-0
  6
Continuous
370
    15
100
AcDbLine
 10
122.7261946433
 20
57.1200550519
 30
0.0
 11
122.7261946433
 21
57.1169715675
 31
0.0
  0
LINE
  5
388
330
1F
100
AcDbEntity
  8
SLD-0
  6
Continuous
370
    15
100
AcDbLine
 10
126.351194517
 20
57.1200550519
 30
0.0
 11
124.1011947091
 21
57.1200550519
 31
0.0
  0
LINE
  5
389
330
1F
100
AcDbEntity
  8
SLD-0
  6
Continuous
370
    15
100
AcDbLine
 10
126.351194517
 20
57.1169715675
 30
0.0
 11
126.351194517
 21
57.1200550519
 31
0.0
  0
LINE
  5
38A
330
1F
100
AcDbEntity
  8
SLD-0
  6
Continuous
370
    15
100
AcDbLine
 10
124.1011947091
 20
57.1200550519
 30
0.0
 11
124.1011947091
 21
57.1169715675
 31
0.0
  0
LINE
  5
38B
330
1F
100
AcDbEntity
  8
SLD-0
  6
Continuous
370
    15
100
AcDbLine
 10
127.4761946409
 20
57.1200550519
 30
0.0
 11
127.4761946409
 21
57.1169715675
 31
0.0
  0
LINE
  5
38C
330
1F
100
AcDbEntity
  8
SLD-0
  6
Continuous
370
    15
100
AcDbLine
 10
127.7261944728
 20
57.1200550519
 30
0.0
 11
127.4761946409
 21
57.1200550519
 31
0.0
  0
LINE
  5
38D
330
1F
100
AcDbEntity
  8
SLD-0
  6
Continuous
370
    15
100
AcDbLine
 10
127.7261944728
 20
57.1169715675
 30
0.0
 11
127.7261944728
 21
57.1200550519
 31
0.0
  0
LINE
  5
38E
330
1F
100
AcDbEntity
  8
SLD-0
  6
Continuous
370
    15
100
AcDbLine
 10
127.4761946409
 20
57.1394993073
 30
0.0
 11
126.351194517
 21
57.1394993073
 31
0.0
  0
LINE
  5
38F
330
1F
100
AcDbEntity
  8
SLD-0
  6
Continuous
370
    15
100
AcDbLine
 10
126.351194517
 20
57.1394993073
 30
0.0
 11
126.351194517
 21
57.1200550519
 31
0.0
  0
LINE
  5
390
330
1F
100
AcDbEntity
  8
SLD-0
  6
Continuous
370
    15
100
AcDbLine
 10
124.1011947091
 20
57.1200550519
 30
0.0
 11
124.1011947091
 21
57.1394993073
 31
0.0
  0
LINE
  5
391
330
1F
100
AcDbEntity
  8
SLD-0
  6
Continuous
370
    15
100
AcDbLine
 10
124.1011947091
 20
57.1394993073
 30
0.0
 11
122.9761946586
 21
57.1394993073
 31
0.0
  0
LINE
  5
392
330
1F
100
AcDbEntity
  8
SLD-0
  6
Continuous
370
    15
100
AcDbLine
 10
122.9761946586
 20
57.1394993073
 30
0.0
 11
122.9761946586
 21
57.1200550519
 31
0.0
  0
LINE
  5
393
330
1F
100
AcDbEntity
  8
SLD-0
  6
Continuous
370
    15
100
AcDbLine
 10
122.7261946433
 20
57.1200550519
 30
0.0
 11
122.7261946433
 21
69.0365206985
 31
0.0
  0
LINE
  5
394
330
1F
100
AcDbEntity
  8
SLD-0
  6
Continuous
370
    15
100
AcDbLine
 10
127.7261944728
 20
69.0365206985
 30
0.0
 11
122.7261946433
 21
69.0365206985
 31
0.0
  0
LINE
  5
395
330
1F
100
AcDbEntity
  8
SLD-0
  6
Continuous
370
    15
100
AcDbLine
 10
127.7261944728
 20
57.1200550519
 30
0.0
 11
127.7261944728
 21
69.0365206985
 31
0.0
  0
LINE
  5
396
330
1F
100
AcDbEntity
  8
SLD-0
  6
Continuous
370
    15
100
AcDbLine
 10
127.4761946409
 20
57.1200550519
 30
0.0
 11
127.4761946409
 21
57.1394993073
 31
0.0
  0
LINE
  5
397
330
1F
100
AcDbEntity
  8
SLD-0
  6
Continuous
370
    15
100
AcDbLine
 10
126.351194517
 20
57.1264895375
 30
0.0
 11
127.4761946409
 21
57.1264895375
 31
0.0
  0
LINE
  5
398
330
1F
100
AcDbEntity
  8
SLD-0
  6
Continuous
370
    15
100
AcDbLine
 10
122.9761946586
 20
57.1264895375
 30
0.0
 11
124.1011947091
 21
57.1264895375
 31
0.0
  0
LINE
  5
399
330
1F
100
AcDbEntity
  8
SLD-0
  6
Continuous
370
    15
100
AcDbLine
 10
122.9761946586
 20
69.067468181
 30
0.0
 11
122.9761946586
 21
69.080970745
 31
0.0
  0
LINE
  5
39A
330
1F
100
AcDbEntity
  8
SLD-0
  6
Continuous
370
    15
100
AcDbLine
 10
124.1011947091
 20
69.067468181
 30
0.0
 11
122.9761946586
 21
69.067468181
 31
0.0
  0
LINE
  5
39B
330
1F
100
AcDbEntity
  8
SLD-0
  6
Continuous
370
    15
100
AcDbLine
 10
124.1011947091
 20
69.080970745
 30
0.0
 11
124.1011947091
 21
69.067468181
 31
0.0
  0
LINE
  5
39C
330
1F
100
AcDbEntity
  8
SLD-0
  6
Continuous
370
    15
100
AcDbLine
 10
127.7261944728
 20
69.0365206985
 30
0.0
 11
127.7261944728
 21
69.080970745
 31
0.0
  0
LINE
  5
39D
330
1F
100
AcDbEntity
  8
SLD-0
  6
Continuous
370
    15
100
AcDbLine
 10
122.7261946433
 20
69.080970745
 30
0.0
 11
122.7261946433
 21
69.0365206985
 31
0.0
  0
LINE
  5
39E
330
1F
100
AcDbEntity
  8
SLD-0
  6
Continuous
370
    15
100
AcDbLine
 10
127.4761946409
 20
69.067468181
 30
0.0
 11
126.351194517
 21
69.067468181
 31
0.0
  0
LINE
  5
39F
330
1F
100
AcDbEntity
  8
SLD-0
  6
Continuous
370
    15
100
AcDbLine
 10
127.4761946409
 20
69.080970745
 30
0.0
 11
127.4761946409
 21
69.067468181
 31
0.0
  0
LINE
  5
3A0
330
1F
100
AcDbEntity
  8
SLD-0
  6
Continuous
370
    15
100
AcDbLine
 10
126.351194517
 20
69.067468181
 30
0.0
 11
126.351194517
 21
69.080970745
 31
0.0
  0
LINE
  5
3A1
330
1F
100
AcDbEntity
  8
SLD-0
  6
Continuous
370
    15
100
AcDbLine
 10
122.2551946501
 20
56.1839711456
 30
0.0
 11
122.3801946486
 21
56.0589703496
 31
0.0
  0
LINE
  5
3A2
330
1F
100
AcDbEntity
  8
SLD-0
  6
Continuous
370
    15
100
AcDbLine
 10
122.2551946501
 20
56.1839711456
 30
0.0
 11
122.2551946501
 21
57.0539689886
 31
0.0
  0
LINE
  5
3A3
330
1F
100
AcDbEntity
  8
SLD-0
  6
Continuous
370
    15
100
AcDbLine
 10
122.2551946501
 20
57.0539689886
 30
0.0
 11
144.1791227005
 21
57.0539689886
 31
0.0
  0
LINE
  5
3A4
330
1F
100
AcDbEntity
  8
SLD-0
  6
Continuous
370
    15
100
AcDbLine
 10
144.1791227005
 20
57.0539689886
 30
0.0
 11
144.1791227005
 21
56.1839711456
 31
0.0
  0
LINE
  5
3A5
330
1F
100
AcDbEntity
  8
SLD-0
  6
Continuous
370
    15
100
AcDbLine
 10
144.0541242512
 20
56.0589703496
 30
0.0
 11
144.1791227005
 21
56.1839711456
 31
0.0
  0
LINE
  5
3A6
330
1F
100
AcDbEntity
  8
SLD-0
  6
Continuous
370
    15
100
AcDbLine
 10
122.3801946486
 20
56.0589703496
 30
0.0
 11
144.0541242512
 21
56.0589703496
 31
0.0
  0
LINE
  5
3A7
330
1F
100
AcDbEntity
  8
SLD-0
  6
Continuous
370
    15
100
AcDbLine
 10
144.1811947833
 20
57.0829687603
 30
0.0
 11
144.1811947833
 21
57.0589673309
 31
0.0
  0
ELLIPSE
  5
3A8
330
1F
100
AcDbEntity
  8
SLD-0
  6
Continuous
370
    15
100
AcDbEllipse
 10
144.1811946493
 20
57.0539694032
 30
0.0
 11
0.0
 21
0.02899999999999636
 31
0.0
210
0.0
220
0.0
230
1.0
 40
0.0714161315
 41
0.0
 42
1.570796326794897
  0
LINE
  5
3A9
330
1F
100
AcDbEntity
  8
SLD-0
  6
Continuous
370
    15
100
AcDbLine
 10
122.2551946501
 20
57.0539689886
 30
0.0
 11
122.2551946501
 21
57.0829687603
 31
0.0
  0
LINE
  5
3AA
330
1F
100
AcDbEntity
  8
SLD-0
  6
Continuous
370
    15
100
AcDbLine
 10
122.2551946501
 20
57.0829687603
 30
0.0
 11
144.1811947833
 21
57.0829687603
 31
0.0
  0
LINE
  5
3AB
330
1F
100
AcDbEntity
  8
SLD-0
  6
Continuous
370
    15
100
AcDbLine
 10
122.2261946493
 20
51.808971446
 30
0.0
 11
122.2501946487
 21
51.808971446
 31
0.0
  0
LINE
  5
3AC
330
1F
100
AcDbEntity
  8
SLD-0
  6
Continuous
370
    15
100
AcDbLine
 10
122.2501946487
 20
51.68397065
 30
0.0
 11
122.2261946493
 21
51.68397065
 31
0.0
  0
LINE
  5
3AD
330
1F
100
AcDbEntity
  8
SLD-0
  6
Continuous
370
    15
100
AcDbLine
 10
122.2261946493
 20
51.68397065
 30
0.0
 11
122.2261946493
 21
51.808971446
 31
0.0
  0
LINE
  5
3AE
330
1F
100
AcDbEntity
  8
SLD-0
  6
Continuous
370
    15
100
AcDbLine
 10
122.2501946487
 20
51.808971446
 30
0.0
 11
122.2501946487
 21
51.7849700166
 31
0.0
  0
LINE
  5
3AF
330
1F
100
AcDbEntity
  8
SLD-0
  6
Continuous
370
    15
100
AcDbLine
 10
122.2501946487
 20
57.0539689886
 30
0.0
 11
122.2261946493
 21
57.0539689886
 31
0.0
  0
LINE
  5
3B0
330
1F
100
AcDbEntity
  8
SLD-0
  6
Continuous
370
    15
100
AcDbLine
 10
122.2261946493
 20
51.808971446
 30
0.0
 11
122.2261946493
 21
57.0539689886
 31
0.0
  0
LINE
  5
3B1
330
1F
100
AcDbEntity
  8
SLD-0
  6
Continuous
370
    15
100
AcDbLine
 10
122.2501946487
 20
51.808971446
 30
0.0
 11
122.2501946487
 21
57.0539689886
 31
0.0
  0
ARC
  5
3B2
330
1F
100
AcDbEntity
  8
SLD-0
  6
Continuous
370
    15
100
AcDbCircle
 10
144.1811946493
 20
57.0539694032
 30
0.0
 40
0.0050000000042587
100
AcDbArc
 50
0.0
 51
90.0
  0
ARC
  5
3B3
330
1F
100
AcDbEntity
  8
SLD-0
  6
Continuous
370
    15
100
AcDbCircle
 10
144.1811946493
 20
57.0539694032
 30
0.0
 40
0.0290000000042596
100
AcDbArc
 50
0.0
 51
90.0
  0
LINE
  5
3B4
330
1F
100
AcDbEntity
  8
SLD-0
  6
Continuous
370
    15
100
AcDbLine
 10
144.2101945549
 20
57.0539689886
 30
0.0
 11
144.1861954722
 21
57.0539689886
 31
0.0
  0
ARC
  5
3B5
330
1F
100
AcDbEntity
  8
SLD-0
  6
Continuous
370
    15
100
AcDbCircle
 10
122.2551946493
 20
57.0539694032
 30
0.0
 40
0.0049999999995975
100
AcDbArc
 50
90.0
 51
180.0
  0
ARC
  5
3B6
330
1F
100
AcDbEntity
  8
SLD-0
  6
Continuous
370
    15
100
AcDbCircle
 10
122.2551946493
 20
57.0539694032
 30
0.0
 40
0.0289999999999964
100
AcDbArc
 50
89.9999999991
 51
180.0
  0
LINE
  5
3B7
330
1F
100
AcDbEntity
  8
SLD-0
  6
Continuous
370
    15
100
AcDbLine
 10
144.2101945549
 20
56.1839711456
 30
0.0
 11
144.2101945549
 21
57.0539689886
 31
0.0
  0
LINE
  5
3B8
330
1F
100
AcDbEntity
  8
SLD-0
  6
Continuous
370
    15
100
AcDbLine
 10
144.1861954722
 20
56.1839711456
 30
0.0
 11
144.2101945549
 21
56.1839711456
 31
0.0
  0
LINE
  5
3B9
330
1F
100
AcDbEntity
  8
SLD-0
  6
Continuous
370
    15
100
AcDbLine
 10
144.1861954722
 20
56.1839711456
 30
0.0
 11
144.1861954722
 21
57.0539689886
 31
0.0
  0
LINE
  5
3BA
330
1F
100
AcDbEntity
  8
SLD-0
  6
Continuous
370
    15
100
AcDbLine
 10
144.2101945549
 20
56.0589703496
 30
0.0
 11
144.1861954722
 21
56.0589703496
 31
0.0
  0
LINE
  5
3BB
330
1F
100
AcDbEntity
  8
SLD-0
  6
Continuous
370
    15
100
AcDbLine
 10
144.2101945549
 20
56.1839711456
 30
0.0
 11
144.2101945549
 21
56.0589703496
 31
0.0
  0
LINE
  5
3BC
330
1F
100
AcDbEntity
  8
SLD-0
  6
Continuous
370
    15
100
AcDbLine
 10
144.1861954722
 20
56.0589703496
 30
0.0
 11
144.1861954722
 21
56.1839711456
 31
0.0
  0
ARC
  5
3BD
330
1F
100
AcDbEntity
  8
SLD-0
  6
Continuous
370
    15
100
AcDbCircle
 10
122.2211946493
 20
51.6839694032
 30
0.0
 40
0.0289999999999964
100
AcDbArc
 50
270.0
 51
0.0
  0
LINE
  5
3BE
330
1F
100
AcDbEntity
  8
SLD-0
  6
Continuous
370
    15
100
AcDbLine
 10
122.221194649
 20
51.6789676144
 30
0.0
 11
122.221194649
 21
51.6549708783
 31
0.0
  0
ARC
  5
3BF
330
1F
100
AcDbEntity
  8
SLD-0
  6
Continuous
370
    15
100
AcDbCircle
 10
122.2211946493
 20
51.6839694032
 30
0.0
 40
0.0049999999999955
100
AcDbArc
 50
270.0
 51
0.0
  0
LINE
  5
3C0
330
1F
100
AcDbEntity
  8
SLD-0
  6
Continuous
370
    15
100
AcDbLine
 10
121.7261946553
 20
51.6549708783
 30
0.0
 11
121.7261946553
 21
51.6789676144
 31
0.0
  0
LINE
  5
3C1
330
1F
100
AcDbEntity
  8
SLD-0
  6
Continuous
370
    15
100
AcDbLine
 10
121.7261946553
 20
51.6789676144
 30
0.0
 11
121.8511946447
 21
51.6789676144
 31
0.0
  0
LINE
  5
3C2
330
1F
100
AcDbEntity
  8
SLD-0
  6
Continuous
370
    15
100
AcDbLine
 10
121.8511946447
 20
51.6789676144
 30
0.0
 11
121.8511946447
 21
51.6549708783
 31
0.0
  0
LINE
  5
3C3
330
1F
100
AcDbEntity
  8
SLD-0
  6
Continuous
370
    15
100
AcDbLine
 10
121.8511946447
 20
51.6549708783
 30
0.0
 11
121.7261946553
 21
51.6549708783
 31
0.0
  0
LINE
  5
3C4
330
1F
100
AcDbEntity
  8
SLD-0
  6
Continuous
370
    15
100
AcDbLine
 10
121.8511946447
 20
51.6549708783
 30
0.0
 11
122.221194649
 21
51.6549708783
 31
0.0
  0
LINE
  5
3C5
330
1F
100
AcDbEntity
  8
SLD-0
  6
Continuous
370
    15
100
AcDbLine
 10
121.8511946447
 20
51.6789676144
 30
0.0
 11
122.221194649
 21
51.6789676144
 31
0.0
  0
LINE
  5
3C6
330
1F
100
AcDbEntity
  8
SLD-0
  6
Continuous
370
    15
100
AcDbLine
 10
144.1461946543
 20
12.6998272915
 30
0.0
 11
144.1461946543
 21
56.151038406
 31
0.0
  0
LINE
  5
3C7
330
1F
100
AcDbEntity
  8
SLD-0
  6
Continuous
370
    15
100
AcDbLine
 10
122.2551946501
 20
11.8069694025
 30
0.0
 11
122.2516265526
 21
11.8069694025
 31
0.0
  0
LINE
  5
3C8
330
1F
100
AcDbEntity
  8
SLD-0
  6
Continuous
370
    15
100
AcDbLine
 10
122.2501946487
 20
12.6379694327
 30
0.0
 11
122.2501946487
 21
51.7849700166
 31
0.0
  0
LINE
  5
3C9
330
1F
100
AcDbEntity
  8
SLD-0
  6
Continuous
370
    15
100
AcDbLine
 10
122.2501946487
 20
57.0169671761
 30
0.0
 11
122.2551946501
 21
57.0169671761
 31
0.0
  0
LINE
  5
3CA
330
1F
100
AcDbEntity
  8
SLD-0
  6
Continuous
370
    15
100
AcDbLine
 10
122.2451946496
 20
12.782969391
 30
0.0
 11
122.2501946487
 21
12.782969391
 31
0.0
  0
LINE
  5
3CB
330
1F
100
AcDbEntity
  8
SLD-0
  6
Continuous
370
    15
100
AcDbLine
 10
122.2451946496
 20
51.6339684543
 30
0.0
 11
122.2451946496
 21
12.782969391
 31
0.0
  0
LINE
  5
3CC
330
1F
100
AcDbEntity
  8
SLD-0
  6
Continuous
370
    15
100
AcDbLine
 10
122.2501946487
 20
51.6339684543
 30
0.0
 11
122.2451946496
 21
51.6339684543
 31
0.0
  0
LINE
  5
3CD
330
1F
100
AcDbEntity
  8
SLD-0
  6
Continuous
370
    15
100
AcDbLine
 10
121.8511946447
 20
51.6339684543
 30
0.0
 11
121.7261946553
 21
51.5089676583
 31
0.0
  0
LINE
  5
3CE
330
1F
100
AcDbEntity
  8
SLD-0
  6
Continuous
370
    15
100
AcDbLine
 10
122.2451946496
 20
51.6339684543
 30
0.0
 11
121.8511946447
 21
51.6339684543
 31
0.0
  0
LINE
  5
3CF
330
1F
100
AcDbEntity
  8
SLD-0
  6
Continuous
370
    15
100
AcDbLine
 10
121.8511946447
 20
12.782969391
 30
0.0
 11
122.2451946496
 21
12.782969391
 31
0.0
  0
LINE
  5
3D0
330
1F
100
AcDbEntity
  8
SLD-0
  6
Continuous
370
    15
100
AcDbLine
 10
121.7261946553
 20
12.9079693803
 30
0.0
 11
121.8511946447
 21
12.782969391
 31
0.0
  0
LINE
  5
3D1
330
1F
100
AcDbEntity
  8
SLD-0
  6
Continuous
370
    15
100
AcDbLine
 10
121.7261946553
 20
51.5089676583
 30
0.0
 11
121.7261946553
 21
12.9079693803
 31
0.0
  0
LINE
  5
3D2
330
1F
100
AcDbEntity
  8
SLD-0
  6
Continuous
370
    15
100
AcDbLine
 10
144.1640525813
 20
11.931969401
 30
0.0
 11
144.1781957779
 21
11.931969401
 31
0.0
  0
LINE
  5
3D3
330
1F
100
AcDbEntity
  8
SLD-0
  6
Continuous
370
    15
100
AcDbLine
 10
144.1781957779
 20
11.8119694039
 30
0.0
 11
144.1781957779
 21
11.8069694025
 31
0.0
  0
LINE
  5
3D4
330
1F
100
AcDbEntity
  8
SLD-0
  6
Continuous
370
    15
100
AcDbLine
 10
144.1781957779
 20
11.8069694025
 30
0.0
 11
144.173195089
 21
11.8069694025
 31
0.0
  0
LINE
  5
3D5
330
1F
100
AcDbEntity
  8
SLD-0
  6
Continuous
370
    15
100
AcDbLine
 10
144.1781957779
 20
12.7258272511
 30
0.0
 11
144.1781957779
 21
56.1830418763
 31
0.0
  0
LINE
  5
3D6
330
1F
100
AcDbEntity
  8
SLD-0
  6
Continuous
370
    15
100
AcDbLine
 10
122.2551946501
 20
11.8119694039
 30
0.0
 11
144.1640525813
 21
11.8119694039
 31
0.0
  0
LINE
  5
3D7
330
1F
100
AcDbEntity
  8
SLD-0
  6
Continuous
370
    15
100
AcDbLine
 10
122.2551946501
 20
12.6819694378
 30
0.0
 11
122.2551946501
 21
11.8119694039
 31
0.0
  0
LINE
  5
3D8
330
1F
100
AcDbEntity
  8
SLD-0
  6
Continuous
370
    15
100
AcDbLine
 10
122.3801946486
 20
12.8069694271
 30
0.0
 11
122.2551946501
 21
12.6819694378
 31
0.0
  0
LINE
  5
3D9
330
1F
100
AcDbEntity
  8
SLD-0
  6
Continuous
370
    15
100
AcDbLine
 10
122.3801946486
 20
12.8069694271
 30
0.0
 11
144.0390517853
 21
12.8069694271
 31
0.0
  0
LINE
  5
3DA
330
1F
100
AcDbEntity
  8
SLD-0
  6
Continuous
370
    15
100
AcDbLine
 10
144.1640525813
 20
11.8119694039
 30
0.0
 11
144.1640525813
 21
12.6819694378
 31
0.0
  0
LINE
  5
3DB
330
1F
100
AcDbEntity
  8
SLD-0
  6
Continuous
370
    15
100
AcDbLine
 10
144.1640525813
 20
12.6819694378
 30
0.0
 11
144.0390517853
 21
12.8069694271
 31
0.0
  0
LINE
  5
3DC
330
1F
100
AcDbEntity
  8
SLD-0
  6
Continuous
370
    15
100
AcDbLine
 10
122.2551946501
 20
11.8119694039
 30
0.0
 11
122.2551946501
 21
11.7829694031
 31
0.0
  0
ELLIPSE
  5
3DD
330
1F
100
AcDbEntity
  8
SLD-0
  6
Continuous
370
    15
100
AcDbEllipse
 10
144.1731946493
 20
11.8119694031
 30
0.0
 11
0.0
 21
0.02899999999999991
 31
0.0
210
0.0
220
0.0
230
1.0
 40
0.3152460559
 41
1.570796326795019
 42
3.141592653508963
  0
LINE
  5
3DE
330
1F
100
AcDbEntity
  8
SLD-0
  6
Continuous
370
    15
100
AcDbLine
 10
122.2551946501
 20
11.7829694031
 30
0.0
 11
144.173195089
 21
11.7829694031
 31
0.0
  0
ELLIPSE
  5
3DF
330
1F
100
AcDbEntity
  8
SLD-0
  6
Continuous
370
    15
100
AcDbEllipse
 10
144.1731946493
 20
11.8119694031
 30
0.0
 11
0.009142135621829084
 21
0.0
 31
0.0
210
0.0
220
0.0
230
1.0
 40
0.5469181608
 41
3.141592653589793
 42
4.712388980303867
  0
LINE
  5
3E0
330
1F
100
AcDbEntity
  8
SLD-0
  6
Continuous
370
    15
100
AcDbLine
 10
144.173195089
 20
11.8069694025
 30
0.0
 11
144.173195089
 21
11.7829694031
 31
0.0
  0
ARC
  5
3E1
330
1F
100
AcDbEntity
  8
SLD-0
  6
Continuous
370
    15
100
AcDbCircle
 10
144.1731946493
 20
11.8119694031
 30
0.0
 40
0.0289999999999981
100
AcDbArc
 50
270.0
 51
360.0
  0
ARC
  5
3E2
330
1F
100
AcDbEntity
  8
SLD-0
  6
Continuous
370
    15
100
AcDbCircle
 10
144.1731946493
 20
11.8119694031
 30
0.0
 40
0.004999999999999
100
AcDbArc
 50
270.0
 51
0.0
  0
LINE
  5
3E3
330
1F
100
AcDbEntity
  8
SLD-0
  6
Continuous
370
    15
100
AcDbLine
 10
144.2021948607
 20
11.8119694039
 30
0.0
 11
144.1781957779
 21
11.8119694039
 31
0.0
  0
LINE
  5
3E4
330
1F
100
AcDbEntity
  8
SLD-0
  6
Continuous
370
    15
100
AcDbLine
 10
144.1781957779
 20
12.6819694378
 30
0.0
 11
144.1781957779
 21
11.8119694039
 31
0.0
  0
LINE
  5
3E5
330
1F
100
AcDbEntity
  8
SLD-0
  6
Continuous
370
    15
100
AcDbLine
 10
144.2021948607
 20
12.6819694378
 30
0.0
 11
144.1781957779
 21
12.6819694378
 31
0.0
  0
LINE
  5
3E6
330
1F
100
AcDbEntity
  8
SLD-0
  6
Continuous
370
    15
100
AcDbLine
 10
144.2021948607
 20
12.6819694378
 30
0.0
 11
144.2021948607
 21
11.8119694039
 31
0.0
  0
LINE
  5
3E7
330
1F
100
AcDbEntity
  8
SLD-0
  6
Continuous
370
    15
100
AcDbLine
 10
144.1781957779
 20
12.8069694271
 30
0.0
 11
144.2021948607
 21
12.8069694271
 31
0.0
  0
LINE
  5
3E8
330
1F
100
AcDbEntity
  8
SLD-0
  6
Continuous
370
    15
100
AcDbLine
 10
144.1781957779
 20
12.6819694378
 30
0.0
 11
144.1781957779
 21
12.7258272511
 31
0.0
  0
LINE
  5
3E9
330
1F
100
AcDbEntity
  8
SLD-0
  6
Continuous
370
    15
100
AcDbLine
 10
144.2021948607
 20
12.8069694271
 30
0.0
 11
144.2021948607
 21
12.6819694378
 31
0.0
  0
ARC
  5
3EA
330
1F
100
AcDbEntity
  8
SLD-0
  6
Continuous
370
    15
100
AcDbCircle
 10
122.2551946493
 20
11.8119694031
 30
0.0
 40
0.0289999999996269
100
AcDbArc
 50
180.0
 51
269.9999999992
  0
LINE
  5
3EB
330
1F
100
AcDbEntity
  8
SLD-0
  6
Continuous
370
    15
100
AcDbLine
 10
122.2501946487
 20
11.8119694039
 30
0.0
 11
122.2261946493
 21
11.8119694039
 31
0.0
  0
ARC
  5
3EC
330
1F
100
AcDbEntity
  8
SLD-0
  6
Continuous
370
    15
100
AcDbCircle
 10
122.2551946493
 20
11.8119694031
 30
0.0
 40
0.004999999999626
100
AcDbArc
 50
180.0
 51
224.4698238068
  0
LINE
  5
3ED
330
1F
100
AcDbEntity
  8
SLD-0
  6
Continuous
370
    15
100
AcDbLine
 10
122.2261946493
 20
12.7539693993
 30
0.0
 11
122.2501946487
 21
12.7539693993
 31
0.0
  0
LINE
  5
3EE
330
1F
100
AcDbEntity
  8
SLD-0
  6
Continuous
370
    15
100
AcDbLine
 10
122.2501946487
 20
12.6379694327
 30
0.0
 11
122.2501946487
 21
12.62896941
 31
0.0
  0
LINE
  5
3EF
330
1F
100
AcDbEntity
  8
SLD-0
  6
Continuous
370
    15
100
AcDbLine
 10
122.2501946487
 20
12.62896941
 30
0.0
 11
122.2261946493
 21
12.62896941
 31
0.0
  0
LINE
  5
3F0
330
1F
100
AcDbEntity
  8
SLD-0
  6
Continuous
370
    15
100
AcDbLine
 10
122.2261946493
 20
12.62896941
 30
0.0
 11
122.2261946493
 21
12.7539693993
 31
0.0
  0
LINE
  5
3F1
330
1F
100
AcDbEntity
  8
SLD-0
  6
Continuous
370
    15
100
AcDbLine
 10
122.2501946487
 20
12.62896941
 30
0.0
 11
122.2501946487
 21
11.8119694039
 31
0.0
  0
LINE
  5
3F2
330
1F
100
AcDbEntity
  8
SLD-0
  6
Continuous
370
    15
100
AcDbLine
 10
122.2261946493
 20
12.62896941
 30
0.0
 11
122.2261946493
 21
11.8119694039
 31
0.0
  0
LINE
  5
3F3
330
1F
100
AcDbEntity
  8
SLD-0
  6
Continuous
370
    15
100
AcDbLine
 10
122.221194649
 20
12.7589694283
 30
0.0
 11
122.221194649
 21
12.782969391
 31
0.0
  0
ARC
  5
3F4
330
1F
100
AcDbEntity
  8
SLD-0
  6
Continuous
370
    15
100
AcDbCircle
 10
122.2211946493
 20
12.7539694031
 30
0.0
 40
0.0290000000000106
100
AcDbArc
 50
0.0
 51
90.0
  0
ARC
  5
3F5
330
1F
100
AcDbEntity
  8
SLD-0
  6
Continuous
370
    15
100
AcDbCircle
 10
122.2211946493
 20
12.7539694031
 30
0.0
 40
0.0050000000000097
100
AcDbArc
 50
0.0
 51
90.0
  0
LINE
  5
3F6
330
1F
100
AcDbEntity
  8
SLD-0
  6
Continuous
370
    15
100
AcDbLine
 10
122.221194649
 20
12.7589694283
 30
0.0
 11
121.8511946447
 21
12.7589694283
 31
0.0
  0
LINE
  5
3F7
330
1F
100
AcDbEntity
  8
SLD-0
  6
Continuous
370
    15
100
AcDbLine
 10
121.8511946447
 20
12.782969391
 30
0.0
 11
121.8511946447
 21
12.7589694283
 31
0.0
  0
LINE
  5
3F8
330
1F
100
AcDbEntity
  8
SLD-0
  6
Continuous
370
    15
100
AcDbLine
 10
121.7261946553
 20
12.7589694283
 30
0.0
 11
121.7261946553
 21
12.782969391
 31
0.0
  0
LINE
  5
3F9
330
1F
100
AcDbEntity
  8
SLD-0
  6
Continuous
370
    15
100
AcDbLine
 10
121.7261946553
 20
12.782969391
 30
0.0
 11
121.7711946588
 21
12.782969391
 31
0.0
  0
LINE
  5
3FA
330
1F
100
AcDbEntity
  8
SLD-0
  6
Continuous
370
    15
100
AcDbLine
 10
121.7753424909
 20
12.782969391
 30
0.0
 11
121.8511946447
 21
12.782969391
 31
0.0
  0
LINE
  5
3FB
330
1F
100
AcDbEntity
  8
SLD-0
  6
Continuous
370
    15
100
AcDbLine
 10
121.8511946447
 20
12.7589694283
 30
0.0
 11
121.7261946553
 21
12.7589694283
 31
0.0
  0
LINE
  5
3FC
330
1F
100
AcDbEntity
  8
SLD-0
  6
Continuous
370
    15
100
AcDbLine
 10
121.7651946315
 20
51.5479688078
 30
0.0
 11
121.7651946315
 21
51.5704683878
 31
0.0
  0
LINE
  5
3FD
330
1F
100
AcDbEntity
  8
SLD-0
  6
Continuous
370
    15
100
AcDbLine
 10
129.7261948887
 20
67.5710442945
 30
0.0
 11
127.7261944728
 21
67.5710442945
 31
0.0
  0
LINE
  5
3FE
330
1F
100
AcDbEntity
  8
SLD-0
  6
Continuous
370
    15
100
AcDbLine
 10
129.7261948887
 20
63.1272927491
 30
0.0
 11
127.7261944728
 21
63.1272927491
 31
0.0
  0
LINE
  5
3FF
330
1F
100
AcDbEntity
  8
SLD-0
  6
Continuous
370
    15
100
AcDbLine
 10
144.1171948826
 20
12.7288272831
 30
0.0
 11
144.1171948826
 21
56.1220386344
 31
0.0
  0
LINE
  5
400
330
1F
100
AcDbEntity
  8
SLD-0
  6
Continuous
370
    15
100
AcDbLine
 10
122.2791946495
 20
56.1599697162
 30
0.0
 11
122.2791946495
 21
12.7059694005
 31
0.0
  0
DIMENSION
  5
401
330
1F
100
AcDbEntity
  8
DIM
100
AcDbDimension
  2
_D_13
 10
133.071420286
 20
57.0829694032
 30
0.0
 11
133.071420286
 21
63.0819694032
 31
0.0
 70
   160
  1
<>
 71
     2
 42
-1.0
  3
SLDDIMSTYLE0
100
AcDbAlignedDimension
 13
127.7261946493
 23
69.0809694032
 33
0.0
 14
122.2551946493
 24
57.0829694032
 34
0.0
 50
90.0
100
AcDbRotatedDimension
  0
DIMENSION
  5
40B
330
1F
100
AcDbEntity
  8
DIM
100
AcDbDimension
  2
_D_14
 10
144.2021946493
 20
8.7829674346
 30
0.0
 11
133.2141946493
 21
8.7829674346
 31
0.0
 70
   160
  1
<>
 71
     2
 42
-1.0
  3
SLDDIMSTYLE0
100
AcDbAlignedDimension
 13
122.2261946493
 23
11.8119694031
 33
0.0
 14
144.2021946493
 24
11.8119694031
 34
0.0
 50
0.0
100
AcDbRotatedDimension
  0
DIMENSION
  5
416
330
1F
100
AcDbEntity
  8
DIM
100
AcDbDimension
  2
_D_15
 10
122.2261946493
 20
8.7829674346
 30
0.0
 11
117.094217721
 21
8.7829674346
 31
0.0
 70
   160
  1
<>
 71
     2
 42
-1.0
  3
SLDDIMSTYLE2
100
AcDbAlignedDimension
 13
121.7261946493
 23
12.7589694031
 33
0.0
 14
122.2261946493
 24
11.8119694031
 34
0.0
 50
0.0
100
AcDbRotatedDimension
  0
DIMENSION
  5
425
330
1F
100
AcDbEntity
  8
DIM
100
AcDbDimension
  2
_D_16
 10
113.7463183853
 20
57.0829694032
 30
0.0
 11
113.7463183853
 21
34.4329694031
 31
0.0
 70
   160
  1
<>
 71
     2
 42
-1.0
  3
SLDDIMSTYLE0
100
AcDbAlignedDimension
 13
122.2551946493
 23
11.7829694031
 33
0.0
 14
122.2551946493
 24
57.0829694032
 34
0.0
 50
90.0
100
AcDbRotatedDimension
  0
LINE
  5
434
330
1F
100
AcDbEntity
  8
SLD-0
  6
Continuous
370
    15
100
AcDbLine
 10
27.6675832851
 20
12.8829693825
 30
0.0
 11
27.6675832851
 21
12.9079693803
 31
0.0
  0
LINE
  5
435
330
1F
100
AcDbEntity
  8
SLD-0
  6
Continuous
370
    15
100
AcDbLine
 10
27.6675832851
 20
51.5089676583
 30
0.0
 11
27.6675832851
 21
51.5704683878
 31
0.0
  0
LINE
  5
436
330
1F
100
AcDbEntity
  8
SLD-0
  6
Continuous
370
    15
100
AcDbLine
 10
21.9175832996
 20
69.080970745
 30
0.0
 11
21.6675834676
 21
69.080970745
 31
0.0
  0
LINE
  5
437
330
1F
100
AcDbEntity
  8
SLD-0
  6
Continuous
370
    15
100
AcDbLine
 10
25.2925832313
 20
69.080970745
 30
0.0
 11
23.0425834235
 21
69.080970745
 31
0.0
  0
LINE
  5
438
330
1F
100
AcDbEntity
  8
SLD-0
  6
Continuous
370
    15
100
AcDbLine
 10
26.6675832971
 20
69.080970745
 30
0.0
 11
26.4175832818
 21
69.080970745
 31
0.0
  0
LINE
  5
439
330
1F
100
AcDbEntity
  8
SLD-0
  6
Continuous
370
    15
100
AcDbLine
 10
27.6225832816
 20
12.8229694023
 30
0.0
 11
27.6225832816
 21
12.782969391
 31
0.0
  0
LINE
  5
43A
330
1F
100
AcDbEntity
  8
SLD-0
  6
Continuous
370
    15
100
AcDbLine
 10
27.6248086659
 20
12.8324468928
 30
0.0
 11
27.6426116302
 21
12.868266659
 31
0.0
  0
SPLINE
  5
43B
330
1F
100
AcDbEntity
  8
SLD-0
  6
Continuous
370
    15
100
AcDbSpline
210
0.0
220
0.0
230
1.0
 70
     8
 71
     3
 72
    11
 73
     7
 74
     0
 42
0.00000001
 43
0.00000001
 12
1.0
 22
0.0
 32
0.0
 13
1.0
 23
0.0
 33
0.0
 40
0.0
 40
0.0
 40
0.0
 40
0.0
 40
0.2500177919822665
 40
0.5000355740193502
 40
0.749982301141956
 40
1.0
 40
1.0
 40
1.0
 40
1.0
 10
27.62480866586337
 20
12.83244689277028
 30
0.0
 10
27.62570776035306
 20
12.83174727975529
 30
0.0
 10
27.62750594929669
 20
12.83034805375313
 30
0.0
 10
27.62781686314554
 20
12.82674119372583
 30
0.0
 10
27.6259323936585
 20
12.82364792659364
 30
0.0
 10
27.6236997579105
 20
12.82319559843779
 30
0.0
 10
27.6225832815712
 20
12.82296940225506
 30
0.0
  0
SPLINE
  5
43C
330
1F
100
AcDbEntity
  8
SLD-0
  6
Continuous
370
    15
100
AcDbSpline
210
0.0
220
0.0
230
1.0
 70
     8
 71
     3
 72
    15
 73
    11
 74
     0
 42
0.00000001
 43
0.00000001
 12
1.0
 22
0.0
 32
0.0
 13
1.0
 23
0.0
 33
0.0
 40
0.0
 40
0.0
 40
0.0
 40
0.0
 40
0.1250023839248643
 40
0.2500013277783739
 40
0.3749995630013686
 40
0.5000022811663152
 40
0.6250004829064657
 40
0.7499988169775688
 40
0.8750014484752252
 40
1.0
 40
1.0
 40
1.0
 40
1.0
 10
27.642611630202
 20
12.86826665897729
 30
0.0
 10
27.6468933304044
 20
12.86559069093936
 30
0.0
 10
27.65545661297661
 20
12.86023882850626
 30
0.0
 10
27.6640494933522
 20
12.84742176611706
 30
0.0
 10
27.66819066679669
 20
12.83276117105084
 30
0.0
 10
27.66721722325227
 20
12.81748941080551
 30
0.0
 10
27.66129161023395
 20
12.80337941667488
 30
0.0
 10
27.65105796616663
 20
12.79209431047084
 30
0.0
 10
27.63765945171976
 20
12.7844414927242
 30
0.0
 10
27.6276086169448
 20
12.78346008623946
 30
0.0
 10
27.6225832815712
 20
12.78296939100527
 30
0.0
  0
LINE
  5
43D
330
1F
100
AcDbEntity
  8
SLD-0
  6
Continuous
370
    15
100
AcDbLine
 10
27.6327712905
 20
12.8731574225
 30
0.0
 11
27.6426116302
 21
12.868266659
 31
0.0
  0
LINE
  5
43E
330
1F
100
AcDbEntity
  8
SLD-0
  6
Continuous
370
    15
100
AcDbLine
 10
27.6029331819
 20
12.8433193138
 30
0.0
 11
27.6248086659
 21
12.8324468928
 31
0.0
  0
LINE
  5
43F
330
1F
100
AcDbEntity
  8
SLD-0
  6
Continuous
370
    15
100
AcDbLine
 10
27.6225832816
 20
12.8229694023
 30
0.0
 11
27.582583307
 21
12.8229694023
 31
0.0
  0
LINE
  5
440
330
1F
100
AcDbEntity
  8
SLD-0
  6
Continuous
370
    15
100
AcDbLine
 10
27.6225832816
 20
12.782969391
 30
0.0
 11
27.6184354495
 21
12.782969391
 31
0.0
  0
LINE
  5
441
330
1F
100
AcDbEntity
  8
SLD-0
  6
Continuous
370
    15
100
AcDbLine
 10
27.6060832888
 20
51.5704683878
 30
0.0
 11
27.6285833089
 21
51.5704683878
 31
0.0
  0
LINE
  5
442
330
1F
100
AcDbEntity
  8
SLD-0
  6
Continuous
370
    15
100
AcDbLine
 10
27.6285833089
 20
51.5704683878
 30
0.0
 11
27.6675832851
 21
51.5704683878
 31
0.0
  0
LINE
  5
443
330
1F
100
AcDbEntity
  8
SLD-0
  6
Continuous
370
    15
100
AcDbLine
 10
27.6425832872
 20
12.8829693825
 30
0.0
 11
27.6675832851
 21
12.8829693825
 31
0.0
  0
LINE
  5
444
330
1F
100
AcDbEntity
  8
SLD-0
  6
Continuous
370
    15
100
AcDbLine
 10
19.7925832611
 20
68.0219182326
 30
0.0
 11
19.7925832611
 21
68.0089084629
 31
0.0
  0
LINE
  5
445
330
1F
100
AcDbEntity
  8
SLD-0
  6
Continuous
370
    15
100
AcDbLine
 10
19.7925832611
 20
68.0219182326
 30
0.0
 11
21.6675834676
 21
68.0219182326
 31
0.0
  0
LINE
  5
446
330
1F
100
AcDbEntity
  8
SLD-0
  6
Continuous
370
    15
100
AcDbLine
 10
19.7925832611
 20
68.0089084629
 30
0.0
 11
21.6675834676
 21
68.0089084629
 31
0.0
  0
LINE
  5
447
330
1F
100
AcDbEntity
  8
SLD-0
  6
Continuous
370
    15
100
AcDbLine
 10
19.6675830517
 20
67.893425637
 30
0.0
 11
19.6675830517
 21
67.5710442945
 31
0.0
  0
ARC
  5
448
330
1F
100
AcDbEntity
  8
SLD-0
  6
Continuous
370
    15
100
AcDbCircle
 10
19.788006291
 20
67.8884702473
 30
0.0
 40
0.1205251527156525
100
AcDbArc
 50
87.8236564423
 51
177.6436207542
  0
LINE
  5
449
330
1F
100
AcDbEntity
  8
SLD-0
  6
Continuous
370
    15
100
AcDbLine
 10
19.6675830517
 20
67.893425637
 30
0.0
 11
19.6675830517
 21
67.9064354067
 31
0.0
  0
ARC
  5
44A
330
1F
100
AcDbEntity
  8
SLD-0
  6
Continuous
370
    15
100
AcDbCircle
 10
19.788006291
 20
67.901480017
 30
0.0
 40
0.1205251527156656
100
AcDbArc
 50
87.8236564423
 51
177.6436207542
  0
LINE
  5
44B
330
1F
100
AcDbEntity
  8
SLD-0
  6
Continuous
370
    15
100
AcDbLine
 10
19.6675830517
 20
67.5469677726
 30
0.0
 11
21.6675834676
 21
67.5469677726
 31
0.0
  0
LINE
  5
44C
330
1F
100
AcDbEntity
  8
SLD-0
  6
Continuous
370
    15
100
AcDbLine
 10
19.6675830517
 20
67.5710442945
 30
0.0
 11
19.6675830517
 21
67.5469677726
 31
0.0
  0
LINE
  5
44D
330
1F
100
AcDbEntity
  8
SLD-0
  6
Continuous
370
    15
100
AcDbLine
 10
19.6675830517
 20
63.4294225922
 30
0.0
 11
19.6675830517
 21
63.1272927491
 31
0.0
  0
ARC
  5
44E
330
1F
100
AcDbEntity
  8
SLD-0
  6
Continuous
370
    15
100
AcDbCircle
 10
19.7880061662
 20
63.4244722322
 30
0.0
 40
0.1205248213077393
100
AcDbArc
 50
87.8235910731
 51
177.646007326
  0
LINE
  5
44F
330
1F
100
AcDbEntity
  8
SLD-0
  6
Continuous
370
    15
100
AcDbLine
 10
19.7925832611
 20
63.5449101114
 30
0.0
 11
21.6675834676
 21
63.5449101114
 31
0.0
  0
LINE
  5
450
330
1F
100
AcDbEntity
  8
SLD-0
  6
Continuous
370
    15
100
AcDbLine
 10
19.7925832611
 20
63.5586473394
 30
0.0
 11
19.7925832611
 21
63.5449101114
 31
0.0
  0
LINE
  5
451
330
1F
100
AcDbEntity
  8
SLD-0
  6
Continuous
370
    15
100
AcDbLine
 10
19.6675830517
 20
63.4294225922
 30
0.0
 11
19.6675830517
 21
63.4431645134
 31
0.0
  0
ARC
  5
452
330
1F
100
AcDbEntity
  8
SLD-0
  6
Continuous
370
    15
100
AcDbCircle
 10
19.788006291
 20
63.4382091238
 30
0.0
 40
0.1205251527156493
100
AcDbArc
 50
87.8236564423
 51
177.6436207542
  0
LINE
  5
453
330
1F
100
AcDbEntity
  8
SLD-0
  6
Continuous
370
    15
100
AcDbLine
 10
19.7925832611
 20
63.5586473394
 30
0.0
 11
21.6675834676
 21
63.5586473394
 31
0.0
  0
LINE
  5
454
330
1F
100
AcDbEntity
  8
SLD-0
  6
Continuous
370
    15
100
AcDbLine
 10
19.6675830517
 20
63.0829694211
 30
0.0
 11
21.6675834676
 21
63.0829694211
 31
0.0
  0
LINE
  5
455
330
1F
100
AcDbEntity
  8
SLD-0
  6
Continuous
370
    15
100
AcDbLine
 10
19.6675830517
 20
63.1272927491
 30
0.0
 11
19.6675830517
 21
63.0829694211
 31
0.0
  0
LINE
  5
456
330
1F
100
AcDbEntity
  8
SLD-0
  6
Continuous
370
    15
100
AcDbLine
 10
21.6675834676
 20
57.0829687603
 30
0.0
 11
21.6675834676
 21
57.1169715675
 31
0.0
  0
LINE
  5
457
330
1F
100
AcDbEntity
  8
SLD-0
  6
Continuous
370
    15
100
AcDbLine
 10
21.6675834676
 20
57.1169715675
 30
0.0
 11
21.7675831657
 21
57.1169715675
 31
0.0
  0
LINE
  5
458
330
1F
100
AcDbEntity
  8
SLD-0
  6
Continuous
370
    15
100
AcDbLine
 10
21.7675831657
 20
57.1169715675
 30
0.0
 11
21.7675831657
 21
57.0829687603
 31
0.0
  0
LINE
  5
459
330
1F
100
AcDbEntity
  8
SLD-0
  6
Continuous
370
    15
100
AcDbLine
 10
26.5675833057
 20
57.0829687603
 30
0.0
 11
26.5675833057
 21
57.1169715675
 31
0.0
  0
LINE
  5
45A
330
1F
100
AcDbEntity
  8
SLD-0
  6
Continuous
370
    15
100
AcDbLine
 10
26.5675833057
 20
57.1169715675
 30
0.0
 11
21.7675831657
 21
57.1169715675
 31
0.0
  0
LINE
  5
45B
330
1F
100
AcDbEntity
  8
SLD-0
  6
Continuous
370
    15
100
AcDbLine
 10
26.6675832971
 20
57.1169715675
 30
0.0
 11
26.6675832971
 21
57.0829687603
 31
0.0
  0
LINE
  5
45C
330
1F
100
AcDbEntity
  8
SLD-0
  6
Continuous
370
    15
100
AcDbLine
 10
26.5675833057
 20
57.1169715675
 30
0.0
 11
26.6675832971
 21
57.1169715675
 31
0.0
  0
LINE
  5
45D
330
1F
100
AcDbEntity
  8
SLD-0
  6
Continuous
370
    15
100
AcDbLine
 10
21.9175832996
 20
57.1200550519
 30
0.0
 11
21.6675834676
 21
57.1200550519
 31
0.0
  0
LINE
  5
45E
330
1F
100
AcDbEntity
  8
SLD-0
  6
Continuous
370
    15
100
AcDbLine
 10
21.9175832996
 20
57.1169715675
 30
0.0
 11
21.9175832996
 21
57.1200550519
 31
0.0
  0
LINE
  5
45F
330
1F
100
AcDbEntity
  8
SLD-0
  6
Continuous
370
    15
100
AcDbLine
 10
21.6675834676
 20
57.1200550519
 30
0.0
 11
21.6675834676
 21
57.1169715675
 31
0.0
  0
LINE
  5
460
330
1F
100
AcDbEntity
  8
SLD-0
  6
Continuous
370
    15
100
AcDbLine
 10
25.2925832313
 20
57.1200550519
 30
0.0
 11
23.0425834235
 21
57.1200550519
 31
0.0
  0
LINE
  5
461
330
1F
100
AcDbEntity
  8
SLD-0
  6
Continuous
370
    15
100
AcDbLine
 10
25.2925832313
 20
57.1169715675
 30
0.0
 11
25.2925832313
 21
57.1200550519
 31
0.0
  0
LINE
  5
462
330
1F
100
AcDbEntity
  8
SLD-0
  6
Continuous
370
    15
100
AcDbLine
 10
23.0425834235
 20
57.1200550519
 30
0.0
 11
23.0425834235
 21
57.1169715675
 31
0.0
  0
LINE
  5
463
330
1F
100
AcDbEntity
  8
SLD-0
  6
Continuous
370
    15
100
AcDbLine
 10
26.4175832818
 20
57.1200550519
 30
0.0
 11
26.4175832818
 21
57.1169715675
 31
0.0
  0
LINE
  5
464
330
1F
100
AcDbEntity
  8
SLD-0
  6
Continuous
370
    15
100
AcDbLine
 10
26.6675832971
 20
57.1200550519
 30
0.0
 11
26.4175832818
 21
57.1200550519
 31
0.0
  0
LINE
  5
465
330
1F
100
AcDbEntity
  8
SLD-0
  6
Continuous
370
    15
100
AcDbLine
 10
26.6675832971
 20
57.1169715675
 30
0.0
 11
26.6675832971
 21
57.1200550519
 31
0.0
  0
LINE
  5
466
330
1F
100
AcDbEntity
  8
SLD-0
  6
Continuous
370
    15
100
AcDbLine
 10
26.4175832818
 20
57.1394993073
 30
0.0
 11
25.2925832313
 21
57.1394993073
 31
0.0
  0
LINE
  5
467
330
1F
100
AcDbEntity
  8
SLD-0
  6
Continuous
370
    15
100
AcDbLine
 10
25.2925832313
 20
57.1394993073
 30
0.0
 11
25.2925832313
 21
57.1200550519
 31
0.0
  0
LINE
  5
468
330
1F
100
AcDbEntity
  8
SLD-0
  6
Continuous
370
    15
100
AcDbLine
 10
23.0425834235
 20
57.1200550519
 30
0.0
 11
23.0425834235
 21
57.1394993073
 31
0.0
  0
LINE
  5
469
330
1F
100
AcDbEntity
  8
SLD-0
  6
Continuous
370
    15
100
AcDbLine
 10
23.0425834235
 20
57.1394993073
 30
0.0
 11
21.9175832996
 21
57.1394993073
 31
0.0
  0
LINE
  5
46A
330
1F
100
AcDbEntity
  8
SLD-0
  6
Continuous
370
    15
100
AcDbLine
 10
21.9175832996
 20
57.1394993073
 30
0.0
 11
21.9175832996
 21
57.1200550519
 31
0.0
  0
LINE
  5
46B
330
1F
100
AcDbEntity
  8
SLD-0
  6
Continuous
370
    15
100
AcDbLine
 10
21.6675834676
 20
57.1200550519
 30
0.0
 11
21.6675834676
 21
69.0365206985
 31
0.0
  0
LINE
  5
46C
330
1F
100
AcDbEntity
  8
SLD-0
  6
Continuous
370
    15
100
AcDbLine
 10
26.6675832971
 20
69.0365206985
 30
0.0
 11
21.6675834676
 21
69.0365206985
 31
0.0
  0
LINE
  5
46D
330
1F
100
AcDbEntity
  8
SLD-0
  6
Continuous
370
    15
100
AcDbLine
 10
26.6675832971
 20
57.1200550519
 30
0.0
 11
26.6675832971
 21
69.0365206985
 31
0.0
  0
LINE
  5
46E
330
1F
100
AcDbEntity
  8
SLD-0
  6
Continuous
370
    15
100
AcDbLine
 10
26.4175832818
 20
57.1200550519
 30
0.0
 11
26.4175832818
 21
57.1394993073
 31
0.0
  0
LINE
  5
46F
330
1F
100
AcDbEntity
  8
SLD-0
  6
Continuous
370
    15
100
AcDbLine
 10
25.2925832313
 20
57.1264895375
 30
0.0
 11
26.4175832818
 21
57.1264895375
 31
0.0
  0
LINE
  5
470
330
1F
100
AcDbEntity
  8
SLD-0
  6
Continuous
370
    15
100
AcDbLine
 10
21.9175832996
 20
57.1264895375
 30
0.0
 11
23.0425834235
 21
57.1264895375
 31
0.0
  0
LINE
  5
471
330
1F
100
AcDbEntity
  8
SLD-0
  6
Continuous
370
    15
100
AcDbLine
 10
21.9175832996
 20
69.067468181
 30
0.0
 11
21.9175832996
 21
69.080970745
 31
0.0
  0
LINE
  5
472
330
1F
100
AcDbEntity
  8
SLD-0
  6
Continuous
370
    15
100
AcDbLine
 10
23.0425834235
 20
69.067468181
 30
0.0
 11
21.9175832996
 21
69.067468181
 31
0.0
  0
LINE
  5
473
330
1F
100
AcDbEntity
  8
SLD-0
  6
Continuous
370
    15
100
AcDbLine
 10
23.0425834235
 20
69.080970745
 30
0.0
 11
23.0425834235
 21
69.067468181
 31
0.0
  0
LINE
  5
474
330
1F
100
AcDbEntity
  8
SLD-0
  6
Continuous
370
    15
100
AcDbLine
 10
26.6675832971
 20
69.0365206985
 30
0.0
 11
26.6675832971
 21
69.080970745
 31
0.0
  0
LINE
  5
475
330
1F
100
AcDbEntity
  8
SLD-0
  6
Continuous
370
    15
100
AcDbLine
 10
21.6675834676
 20
69.080970745
 30
0.0
 11
21.6675834676
 21
69.0365206985
 31
0.0
  0
LINE
  5
476
330
1F
100
AcDbEntity
  8
SLD-0
  6
Continuous
370
    15
100
AcDbLine
 10
26.4175832818
 20
69.067468181
 30
0.0
 11
25.2925832313
 21
69.067468181
 31
0.0
  0
LINE
  5
477
330
1F
100
AcDbEntity
  8
SLD-0
  6
Continuous
370
    15
100
AcDbLine
 10
26.4175832818
 20
69.080970745
 30
0.0
 11
26.4175832818
 21
69.067468181
 31
0.0
  0
LINE
  5
478
330
1F
100
AcDbEntity
  8
SLD-0
  6
Continuous
370
    15
100
AcDbLine
 10
25.2925832313
 20
69.067468181
 30
0.0
 11
25.2925832313
 21
69.080970745
 31
0.0
  0
LINE
  5
479
330
1F
100
AcDbEntity
  8
SLD-0
  6
Continuous
370
    15
100
AcDbLine
 10
5.2146552399
 20
56.1839711456
 30
0.0
 11
5.3396536892
 21
56.0589703496
 31
0.0
  0
LINE
  5
47A
330
1F
100
AcDbEntity
  8
SLD-0
  6
Continuous
370
    15
100
AcDbLine
 10
5.2146552399
 20
56.1839711456
 30
0.0
 11
5.2146552399
 21
57.0539689886
 31
0.0
  0
LINE
  5
47B
330
1F
100
AcDbEntity
  8
SLD-0
  6
Continuous
370
    15
100
AcDbLine
 10
5.2146552399
 20
57.0539689886
 30
0.0
 11
27.1385832903
 21
57.0539689886
 31
0.0
  0
LINE
  5
47C
330
1F
100
AcDbEntity
  8
SLD-0
  6
Continuous
370
    15
100
AcDbLine
 10
27.1385832903
 20
57.0539689886
 30
0.0
 11
27.1385832903
 21
56.1839711456
 31
0.0
  0
LINE
  5
47D
330
1F
100
AcDbEntity
  8
SLD-0
  6
Continuous
370
    15
100
AcDbLine
 10
27.0135832918
 20
56.0589703496
 30
0.0
 11
27.1385832903
 21
56.1839711456
 31
0.0
  0
LINE
  5
47E
330
1F
100
AcDbEntity
  8
SLD-0
  6
Continuous
370
    15
100
AcDbLine
 10
5.3396536892
 20
56.0589703496
 30
0.0
 11
27.0135832918
 21
56.0589703496
 31
0.0
  0
LINE
  5
47F
330
1F
100
AcDbEntity
  8
SLD-0
  6
Continuous
370
    15
100
AcDbLine
 10
27.1385832903
 20
57.0829687603
 30
0.0
 11
27.1385832903
 21
57.0539689886
 31
0.0
  0
ELLIPSE
  5
480
330
1F
100
AcDbEntity
  8
SLD-0
  6
Continuous
370
    15
100
AcDbEllipse
 10
5.2125832911
 20
57.0539694032
 30
0.0
 11
0.0
 21
0.02899999999999636
 31
0.0
210
0.0
220
0.0
230
1.0
 40
0.0714161312
 41
4.712388980384691
 42
6.283185307179586
  0
LINE
  5
481
330
1F
100
AcDbEntity
  8
SLD-0
  6
Continuous
370
    15
100
AcDbLine
 10
5.2125831571
 20
57.0829687603
 30
0.0
 11
27.1385832903
 21
57.0829687603
 31
0.0
  0
ELLIPSE
  5
482
330
1F
100
AcDbEntity
  8
SLD-0
  6
Continuous
370
    15
100
AcDbEllipse
 10
5.2125832911
 20
57.0539694032
 30
0.0
 11
0.0
 21
0.005000000000002558
 31
0.0
210
0.0
220
0.0
230
1.0
 40
0.4142135608
 41
4.712388980384695
 42
6.283185307179586
  0
LINE
  5
483
330
1F
100
AcDbEntity
  8
SLD-0
  6
Continuous
370
    15
100
AcDbLine
 10
5.2125831571
 20
57.0829687603
 30
0.0
 11
5.2125831571
 21
57.0589673309
 31
0.0
  0
ARC
  5
484
330
1F
100
AcDbEntity
  8
SLD-0
  6
Continuous
370
    15
100
AcDbCircle
 10
5.2125832911
 20
57.0539694032
 30
0.0
 40
0.0050000000042827
100
AcDbArc
 50
89.9999999915
 51
180.0
  0
LINE
  5
485
330
1F
100
AcDbEntity
  8
SLD-0
  6
Continuous
370
    15
100
AcDbLine
 10
5.1835833855
 20
57.0539689886
 30
0.0
 11
5.2075824682
 21
57.0539689886
 31
0.0
  0
ARC
  5
486
330
1F
100
AcDbEntity
  8
SLD-0
  6
Continuous
370
    15
100
AcDbCircle
 10
5.2125832911
 20
57.0539694032
 30
0.0
 40
0.028999999999999
100
AcDbArc
 50
89.9999999983
 51
180.0
  0
ARC
  5
487
330
1F
100
AcDbEntity
  8
SLD-0
  6
Continuous
370
    15
100
AcDbCircle
 10
27.1385832911
 20
57.0539694032
 30
0.0
 40
0.029000000000412
100
AcDbArc
 50
0.0
 51
90.0
  0
LINE
  5
488
330
1F
100
AcDbEntity
  8
SLD-0
  6
Continuous
370
    15
100
AcDbLine
 10
27.1435832917
 20
57.0539689886
 30
0.0
 11
27.1675832911
 21
57.0539689886
 31
0.0
  0
ARC
  5
489
330
1F
100
AcDbEntity
  8
SLD-0
  6
Continuous
370
    15
100
AcDbCircle
 10
27.1385832911
 20
57.0539694032
 30
0.0
 40
0.0049999999995904
100
AcDbArc
 50
0.0
 51
90.0
  0
LINE
  5
48A
330
1F
100
AcDbEntity
  8
SLD-0
  6
Continuous
370
    15
100
AcDbLine
 10
27.1675832911
 20
57.0539689886
 30
0.0
 11
27.1675832911
 21
51.808971446
 31
0.0
  0
LINE
  5
48B
330
1F
100
AcDbEntity
  8
SLD-0
  6
Continuous
370
    15
100
AcDbLine
 10
27.1435832917
 20
51.808971446
 30
0.0
 11
27.1675832911
 21
51.808971446
 31
0.0
  0
LINE
  5
48C
330
1F
100
AcDbEntity
  8
SLD-0
  6
Continuous
370
    15
100
AcDbLine
 10
27.1435832917
 20
57.0539689886
 30
0.0
 11
27.1435832917
 21
51.808971446
 31
0.0
  0
LINE
  5
48D
330
1F
100
AcDbEntity
  8
SLD-0
  6
Continuous
370
    15
100
AcDbLine
 10
27.1675832911
 20
51.68397065
 30
0.0
 11
27.1435832917
 21
51.68397065
 31
0.0
  0
LINE
  5
48E
330
1F
100
AcDbEntity
  8
SLD-0
  6
Continuous
370
    15
100
AcDbLine
 10
27.1435832917
 20
51.7849700166
 30
0.0
 11
27.1435832917
 21
51.808971446
 31
0.0
  0
LINE
  5
48F
330
1F
100
AcDbEntity
  8
SLD-0
  6
Continuous
370
    15
100
AcDbLine
 10
27.1675832911
 20
51.808971446
 30
0.0
 11
27.1675832911
 21
51.68397065
 31
0.0
  0
LINE
  5
490
330
1F
100
AcDbEntity
  8
SLD-0
  6
Continuous
370
    15
100
AcDbLine
 10
5.2075824682
 20
57.0539689886
 30
0.0
 11
5.2075824682
 21
56.1839711456
 31
0.0
  0
LINE
  5
491
330
1F
100
AcDbEntity
  8
SLD-0
  6
Continuous
370
    15
100
AcDbLine
 10
5.1835833855
 20
56.1839711456
 30
0.0
 11
5.2075824682
 21
56.1839711456
 31
0.0
  0
LINE
  5
492
330
1F
100
AcDbEntity
  8
SLD-0
  6
Continuous
370
    15
100
AcDbLine
 10
5.1835833855
 20
57.0539689886
 30
0.0
 11
5.1835833855
 21
56.1839711456
 31
0.0
  0
LINE
  5
493
330
1F
100
AcDbEntity
  8
SLD-0
  6
Continuous
370
    15
100
AcDbLine
 10
5.2075824682
 20
56.1839711456
 30
0.0
 11
5.2075824682
 21
56.0589703496
 31
0.0
  0
LINE
  5
494
330
1F
100
AcDbEntity
  8
SLD-0
  6
Continuous
370
    15
100
AcDbLine
 10
5.2075824682
 20
56.0589703496
 30
0.0
 11
5.1835833855
 21
56.0589703496
 31
0.0
  0
LINE
  5
495
330
1F
100
AcDbEntity
  8
SLD-0
  6
Continuous
370
    15
100
AcDbLine
 10
5.1835833855
 20
56.0589703496
 30
0.0
 11
5.1835833855
 21
56.1839711456
 31
0.0
  0
ARC
  5
496
330
1F
100
AcDbEntity
  8
SLD-0
  6
Continuous
370
    15
100
AcDbCircle
 10
27.1725832911
 20
51.6839694032
 30
0.0
 40
0.004999999999999
100
AcDbArc
 50
180.0
 51
270.0
  0
LINE
  5
497
330
1F
100
AcDbEntity
  8
SLD-0
  6
Continuous
370
    15
100
AcDbLine
 10
27.1725832914
 20
51.6789676144
 30
0.0
 11
27.1725832914
 21
51.6549708783
 31
0.0
  0
ARC
  5
498
330
1F
100
AcDbEntity
  8
SLD-0
  6
Continuous
370
    15
100
AcDbCircle
 10
27.1725832911
 20
51.6839694032
 30
0.0
 40
0.0289999999999964
100
AcDbArc
 50
180.0
 51
270.0
  0
LINE
  5
499
330
1F
100
AcDbEntity
  8
SLD-0
  6
Continuous
370
    15
100
AcDbLine
 10
27.1725832914
 20
51.6789676144
 30
0.0
 11
27.5425832957
 21
51.6789676144
 31
0.0
  0
LINE
  5
49A
330
1F
100
AcDbEntity
  8
SLD-0
  6
Continuous
370
    15
100
AcDbLine
 10
27.5425832957
 20
51.6549708783
 30
0.0
 11
27.5425832957
 21
51.6789676144
 31
0.0
  0
LINE
  5
49B
330
1F
100
AcDbEntity
  8
SLD-0
  6
Continuous
370
    15
100
AcDbLine
 10
27.1725832914
 20
51.6549708783
 30
0.0
 11
27.5425832957
 21
51.6549708783
 31
0.0
  0
LINE
  5
49C
330
1F
100
AcDbEntity
  8
SLD-0
  6
Continuous
370
    15
100
AcDbLine
 10
27.6675832851
 20
51.6789676144
 30
0.0
 11
27.6675832851
 21
51.6549708783
 31
0.0
  0
LINE
  5
49D
330
1F
100
AcDbEntity
  8
SLD-0
  6
Continuous
370
    15
100
AcDbLine
 10
27.6675832851
 20
51.6549708783
 30
0.0
 11
27.5425832957
 21
51.6549708783
 31
0.0
  0
LINE
  5
49E
330
1F
100
AcDbEntity
  8
SLD-0
  6
Continuous
370
    15
100
AcDbLine
 10
27.5425832957
 20
51.6789676144
 30
0.0
 11
27.6675832851
 21
51.6789676144
 31
0.0
  0
CIRCLE
  5
49F
330
1F
100
AcDbEntity
  8
SLD-0
  6
Continuous
370
    15
100
AcDbCircle
 10
22.1915832911
 20
26.4119694031
 30
0.0
 40
1.250000000000004
  0
LINE
  5
4A0
330
1F
100
AcDbEntity
  8
SLD-0
  6
Continuous
370
    15
100
AcDbLine
 10
21.3935833795
 20
12.8069694271
 30
0.0
 11
21.3935833795
 21
17.3069694827
 31
0.0
  0
LINE
  5
4A1
330
1F
100
AcDbEntity
  8
SLD-0
  6
Continuous
370
    15
100
AcDbLine
 10
21.3935833795
 20
17.3069694827
 30
0.0
 11
18.8935832997
 21
17.3069694827
 31
0.0
  0
LINE
  5
4A2
330
1F
100
AcDbEntity
  8
SLD-0
  6
Continuous
370
    15
100
AcDbLine
 10
18.8935832997
 20
17.3069694827
 30
0.0
 11
18.8935832997
 21
12.8069694271
 31
0.0
  0
LINE
  5
4A3
330
1F
100
AcDbEntity
  8
SLD-0
  6
Continuous
370
    15
100
AcDbLine
 10
5.2475832861
 20
56.151038406
 30
0.0
 11
5.2475832861
 21
12.6998272915
 31
0.0
  0
LINE
  5
4A4
330
1F
100
AcDbEntity
  8
SLD-0
  6
Continuous
370
    15
100
AcDbLine
 10
27.1385832903
 20
57.0169671761
 30
0.0
 11
27.1435832917
 21
57.0169671761
 31
0.0
  0
LINE
  5
4A5
330
1F
100
AcDbEntity
  8
SLD-0
  6
Continuous
370
    15
100
AcDbLine
 10
27.1435832917
 20
12.6379694327
 30
0.0
 11
27.1435832917
 21
51.7849700166
 31
0.0
  0
LINE
  5
4A6
330
1F
100
AcDbEntity
  8
SLD-0
  6
Continuous
370
    15
100
AcDbLine
 10
27.1421513878
 20
11.8069694025
 30
0.0
 11
27.1385832903
 21
11.8069694025
 31
0.0
  0
LINE
  5
4A7
330
1F
100
AcDbEntity
  8
SLD-0
  6
Continuous
370
    15
100
AcDbLine
 10
27.1485832908
 20
12.782969391
 30
0.0
 11
27.1485832908
 21
51.6339684543
 31
0.0
  0
LINE
  5
4A8
330
1F
100
AcDbEntity
  8
SLD-0
  6
Continuous
370
    15
100
AcDbLine
 10
27.1435832917
 20
12.782969391
 30
0.0
 11
27.1485832908
 21
12.782969391
 31
0.0
  0
LINE
  5
4A9
330
1F
100
AcDbEntity
  8
SLD-0
  6
Continuous
370
    15
100
AcDbLine
 10
27.1485832908
 20
51.6339684543
 30
0.0
 11
27.1435832917
 21
51.6339684543
 31
0.0
  0
LINE
  5
4AA
330
1F
100
AcDbEntity
  8
SLD-0
  6
Continuous
370
    15
100
AcDbLine
 10
27.5425832957
 20
51.6339684543
 30
0.0
 11
27.1485832908
 21
51.6339684543
 31
0.0
  0
LINE
  5
4AB
330
1F
100
AcDbEntity
  8
SLD-0
  6
Continuous
370
    15
100
AcDbLine
 10
27.6675832851
 20
51.5089676583
 30
0.0
 11
27.5425832957
 21
51.6339684543
 31
0.0
  0
LINE
  5
4AC
330
1F
100
AcDbEntity
  8
SLD-0
  6
Continuous
370
    15
100
AcDbLine
 10
27.6675832851
 20
12.9079693803
 30
0.0
 11
27.6675832851
 21
51.5089676583
 31
0.0
  0
LINE
  5
4AD
330
1F
100
AcDbEntity
  8
SLD-0
  6
Continuous
370
    15
100
AcDbLine
 10
27.5425832957
 20
12.782969391
 30
0.0
 11
27.6675832851
 21
12.9079693803
 31
0.0
  0
LINE
  5
4AE
330
1F
100
AcDbEntity
  8
SLD-0
  6
Continuous
370
    15
100
AcDbLine
 10
27.1485832908
 20
12.782969391
 30
0.0
 11
27.5425832957
 21
12.782969391
 31
0.0
  0
LINE
  5
4AF
330
1F
100
AcDbEntity
  8
SLD-0
  6
Continuous
370
    15
100
AcDbLine
 10
5.2205828514
 20
11.8069694025
 30
0.0
 11
5.2155821625
 21
11.8069694025
 31
0.0
  0
LINE
  5
4B0
330
1F
100
AcDbEntity
  8
SLD-0
  6
Continuous
370
    15
100
AcDbLine
 10
5.2155821625
 20
11.8069694025
 30
0.0
 11
5.2155821625
 21
11.8119694039
 31
0.0
  0
LINE
  5
4B1
330
1F
100
AcDbEntity
  8
SLD-0
  6
Continuous
370
    15
100
AcDbLine
 10
5.2155821625
 20
11.931969401
 30
0.0
 11
5.2297253591
 21
11.931969401
 31
0.0
  0
LINE
  5
4B2
330
1F
100
AcDbEntity
  8
SLD-0
  6
Continuous
370
    15
100
AcDbLine
 10
5.2155821625
 20
56.1830418763
 30
0.0
 11
5.2155821625
 21
12.7258272511
 31
0.0
  0
LINE
  5
4B3
330
1F
100
AcDbEntity
  8
SLD-0
  6
Continuous
370
    15
100
AcDbLine
 10
5.2297253591
 20
11.8119694039
 30
0.0
 11
27.1385832903
 21
11.8119694039
 31
0.0
  0
LINE
  5
4B4
330
1F
100
AcDbEntity
  8
SLD-0
  6
Continuous
370
    15
100
AcDbLine
 10
5.2297253591
 20
12.6819694378
 30
0.0
 11
5.2297253591
 21
11.8119694039
 31
0.0
  0
LINE
  5
4B5
330
1F
100
AcDbEntity
  8
SLD-0
  6
Continuous
370
    15
100
AcDbLine
 10
5.3547261551
 20
12.8069694271
 30
0.0
 11
5.2297253591
 21
12.6819694378
 31
0.0
  0
LINE
  5
4B6
330
1F
100
AcDbEntity
  8
SLD-0
  6
Continuous
370
    15
100
AcDbLine
 10
5.3547261551
 20
12.8069694271
 30
0.0
 11
27.0135832918
 21
12.8069694271
 31
0.0
  0
LINE
  5
4B7
330
1F
100
AcDbEntity
  8
SLD-0
  6
Continuous
370
    15
100
AcDbLine
 10
27.1385832903
 20
12.6819694378
 30
0.0
 11
27.0135832918
 21
12.8069694271
 31
0.0
  0
LINE
  5
4B8
330
1F
100
AcDbEntity
  8
SLD-0
  6
Continuous
370
    15
100
AcDbLine
 10
27.1385832903
 20
11.8119694039
 30
0.0
 11
27.1385832903
 21
12.6819694378
 31
0.0
  0
ELLIPSE
  5
4B9
330
1F
100
AcDbEntity
  8
SLD-0
  6
Continuous
370
    15
100
AcDbEllipse
 10
5.2205832911
 20
11.8119694031
 30
0.0
 11
0.0
 21
0.02899999999999991
 31
0.0
210
0.0
220
0.0
230
1.0
 40
0.315246056
 41
3.141592653589793
 42
4.712388980384572
  0
LINE
  5
4BA
330
1F
100
AcDbEntity
  8
SLD-0
  6
Continuous
370
    15
100
AcDbLine
 10
27.1385832903
 20
11.7829694031
 30
0.0
 11
27.1385832903
 21
11.8119694039
 31
0.0
  0
LINE
  5
4BB
330
1F
100
AcDbEntity
  8
SLD-0
  6
Continuous
370
    15
100
AcDbLine
 10
5.2205828514
 20
11.7829694031
 30
0.0
 11
27.1385832903
 21
11.7829694031
 31
0.0
  0
LINE
  5
4BC
330
1F
100
AcDbEntity
  8
SLD-0
  6
Continuous
370
    15
100
AcDbLine
 10
5.2205828514
 20
11.8069694025
 30
0.0
 11
5.2205828514
 21
11.7829694031
 31
0.0
  0
ELLIPSE
  5
4BD
330
1F
100
AcDbEntity
  8
SLD-0
  6
Continuous
370
    15
100
AcDbEllipse
 10
5.2205832911
 20
11.8119694031
 30
0.0
 11
0.009142135623721792
 21
0.0
 31
0.0
210
0.0
220
0.0
230
1.0
 40
0.5469181607
 41
4.712388980384697
 42
6.283185307179586
  0
LINE
  5
4BE
330
1F
100
AcDbEntity
  8
SLD-0
  6
Continuous
370
    15
100
AcDbLine
 10
5.1915830797
 20
11.8119694039
 30
0.0
 11
5.2155821625
 21
11.8119694039
 31
0.0
  0
ARC
  5
4BF
330
1F
100
AcDbEntity
  8
SLD-0
  6
Continuous
370
    15
100
AcDbCircle
 10
5.2205832911
 20
11.8119694031
 30
0.0
 40
0.0290000000000168
100
AcDbArc
 50
180.0
 51
270.0000000001
  0
ARC
  5
4C0
330
1F
100
AcDbEntity
  8
SLD-0
  6
Continuous
370
    15
100
AcDbCircle
 10
5.2205832911
 20
11.8119694031
 30
0.0
 40
0.0049999999999999
100
AcDbArc
 50
180.0
 51
270.0000000004
  0
LINE
  5
4C1
330
1F
100
AcDbEntity
  8
SLD-0
  6
Continuous
370
    15
100
AcDbLine
 10
5.1915830797
 20
12.8069694271
 30
0.0
 11
5.2155821625
 21
12.8069694271
 31
0.0
  0
LINE
  5
4C2
330
1F
100
AcDbEntity
  8
SLD-0
  6
Continuous
370
    15
100
AcDbLine
 10
5.2155821625
 20
12.7258272511
 30
0.0
 11
5.2155821625
 21
12.6819694378
 31
0.0
  0
LINE
  5
4C3
330
1F
100
AcDbEntity
  8
SLD-0
  6
Continuous
370
    15
100
AcDbLine
 10
5.2155821625
 20
12.6819694378
 30
0.0
 11
5.1915830797
 21
12.6819694378
 31
0.0
  0
LINE
  5
4C4
330
1F
100
AcDbEntity
  8
SLD-0
  6
Continuous
370
    15
100
AcDbLine
 10
5.1915830797
 20
12.6819694378
 30
0.0
 11
5.1915830797
 21
12.8069694271
 31
0.0
  0
LINE
  5
4C5
330
1F
100
AcDbEntity
  8
SLD-0
  6
Continuous
370
    15
100
AcDbLine
 10
5.1915830797
 20
11.8119694039
 30
0.0
 11
5.1915830797
 21
12.6819694378
 31
0.0
  0
LINE
  5
4C6
330
1F
100
AcDbEntity
  8
SLD-0
  6
Continuous
370
    15
100
AcDbLine
 10
5.2155821625
 20
11.8119694039
 30
0.0
 11
5.2155821625
 21
12.6819694378
 31
0.0
  0
ARC
  5
4C7
330
1F
100
AcDbEntity
  8
SLD-0
  6
Continuous
370
    15
100
AcDbCircle
 10
27.1385832911
 20
11.8119694031
 30
0.0
 40
0.028999999999618
100
AcDbArc
 50
270.0
 51
360.0
  0
ARC
  5
4C8
330
1F
100
AcDbEntity
  8
SLD-0
  6
Continuous
370
    15
100
AcDbCircle
 10
27.1385832911
 20
11.8119694031
 30
0.0
 40
0.0049999999996194
100
AcDbArc
 50
315.5301761884
 51
360.0
  0
LINE
  5
4C9
330
1F
100
AcDbEntity
  8
SLD-0
  6
Continuous
370
    15
100
AcDbLine
 10
27.1435832917
 20
11.8119694039
 30
0.0
 11
27.1675832911
 21
11.8119694039
 31
0.0
  0
LINE
  5
4CA
330
1F
100
AcDbEntity
  8
SLD-0
  6
Continuous
370
    15
100
AcDbLine
 10
27.1675832911
 20
12.62896941
 30
0.0
 11
27.1435832917
 21
12.62896941
 31
0.0
  0
LINE
  5
4CB
330
1F
100
AcDbEntity
  8
SLD-0
  6
Continuous
370
    15
100
AcDbLine
 10
27.1435832917
 20
11.8119694039
 30
0.0
 11
27.1435832917
 21
12.62896941
 31
0.0
  0
LINE
  5
4CC
330
1F
100
AcDbEntity
  8
SLD-0
  6
Continuous
370
    15
100
AcDbLine
 10
27.1675832911
 20
11.8119694039
 30
0.0
 11
27.1675832911
 21
12.62896941
 31
0.0
  0
LINE
  5
4CD
330
1F
100
AcDbEntity
  8
SLD-0
  6
Continuous
370
    15
100
AcDbLine
 10
27.1435832917
 20
12.7539693993
 30
0.0
 11
27.1675832911
 21
12.7539693993
 31
0.0
  0
LINE
  5
4CE
330
1F
100
AcDbEntity
  8
SLD-0
  6
Continuous
370
    15
100
AcDbLine
 10
27.1435832917
 20
12.62896941
 30
0.0
 11
27.1435832917
 21
12.6379694327
 31
0.0
  0
LINE
  5
4CF
330
1F
100
AcDbEntity
  8
SLD-0
  6
Continuous
370
    15
100
AcDbLine
 10
27.1675832911
 20
12.7539693993
 30
0.0
 11
27.1675832911
 21
12.62896941
 31
0.0
  0
ARC
  5
4D0
330
1F
100
AcDbEntity
  8
SLD-0
  6
Continuous
370
    15
100
AcDbCircle
 10
27.1725832911
 20
12.7539694031
 30
0.0
 40
0.0289999999999981
100
AcDbArc
 50
90.0
 51
180.0
  0
LINE
  5
4D1
330
1F
100
AcDbEntity
  8
SLD-0
  6
Continuous
370
    15
100
AcDbLine
 10
27.1725832914
 20
12.7589694283
 30
0.0
 11
27.1725832914
 21
12.782969391
 31
0.0
  0
ARC
  5
4D2
330
1F
100
AcDbEntity
  8
SLD-0
  6
Continuous
370
    15
100
AcDbCircle
 10
27.1725832911
 20
12.7539694031
 30
0.0
 40
0.004999999999999
100
AcDbArc
 50
90.0
 51
180.0
  0
LINE
  5
4D3
330
1F
100
AcDbEntity
  8
SLD-0
  6
Continuous
370
    15
100
AcDbLine
 10
27.5425832957
 20
12.7589694283
 30
0.0
 11
27.5425832957
 21
12.782969391
 31
0.0
  0
LINE
  5
4D4
330
1F
100
AcDbEntity
  8
SLD-0
  6
Continuous
370
    15
100
AcDbLine
 10
27.5425832957
 20
12.7589694283
 30
0.0
 11
27.1725832914
 21
12.7589694283
 31
0.0
  0
LINE
  5
4D5
330
1F
100
AcDbEntity
  8
SLD-0
  6
Continuous
370
    15
100
AcDbLine
 10
27.6675832851
 20
12.782969391
 30
0.0
 11
27.6675832851
 21
12.7589694283
 31
0.0
  0
LINE
  5
4D6
330
1F
100
AcDbEntity
  8
SLD-0
  6
Continuous
370
    15
100
AcDbLine
 10
27.5425832957
 20
12.782969391
 30
0.0
 11
27.6184354495
 21
12.782969391
 31
0.0
  0
LINE
  5
4D7
330
1F
100
AcDbEntity
  8
SLD-0
  6
Continuous
370
    15
100
AcDbLine
 10
27.6225832816
 20
12.782969391
 30
0.0
 11
27.6675832851
 21
12.782969391
 31
0.0
  0
LINE
  5
4D8
330
1F
100
AcDbEntity
  8
SLD-0
  6
Continuous
370
    15
100
AcDbLine
 10
27.6675832851
 20
12.7589694283
 30
0.0
 11
27.5425832957
 21
12.7589694283
 31
0.0
  0
LINE
  5
4D9
330
1F
100
AcDbEntity
  8
SLD-0
  6
Continuous
370
    15
100
AcDbLine
 10
27.6285833089
 20
51.5479688078
 30
0.0
 11
27.6285833089
 21
51.5704683878
 31
0.0
  0
LINE
  5
4DA
330
1F
100
AcDbEntity
  8
SLD-0
  6
Continuous
370
    15
100
AcDbLine
 10
19.6675830517
 20
67.5710442945
 30
0.0
 11
21.6675834676
 21
67.5710442945
 31
0.0
  0
LINE
  5
4DB
330
1F
100
AcDbEntity
  8
SLD-0
  6
Continuous
370
    15
100
AcDbLine
 10
19.6675830517
 20
63.1272927491
 30
0.0
 11
21.6675834676
 21
63.1272927491
 31
0.0
  0
LINE
  5
4DC
330
1F
100
AcDbEntity
  8
SLD-0
  6
Continuous
370
    15
100
AcDbLine
 10
5.2765830578
 20
12.7288272831
 30
0.0
 11
5.2765830578
 21
56.1220386344
 31
0.0
  0
LINE
  5
4DD
330
1F
100
AcDbEntity
  8
SLD-0
  6
Continuous
370
    15
100
AcDbLine
 10
27.1145832909
 20
12.7059694005
 30
0.0
 11
27.1145832909
 21
56.1599697162
 31
0.0
  0
LINE
  5
4DE
330
1F
100
AcDbEntity
  8
DIM
100
AcDbLine
 10
20.1435832911
 20
15.8810620236
 30
0.0
 11
20.1435832911
 21
14.2328767826
 31
0.0
  0
LINE
  5
4DF
330
1F
100
AcDbEntity
  8
DIM
100
AcDbLine
 10
19.3194906706
 20
15.0569694031
 30
0.0
 11
20.9676759116
 21
15.0569694031
 31
0.0
  0
DIMENSION
  5
4E0
330
1F
100
AcDbEntity
  8
DIM
100
AcDbDimension
  2
_D_17
 10
15.2457193631
 20
11.7829694031
 30
0.0
 11
15.2457193631
 21
8.7829674346
 31
0.0
 70
   160
  1
<>
 71
     2
 42
-1.0
  3
SLDDIMSTYLE2
100
AcDbAlignedDimension
 13
19.3194906706
 23
15.0569694031
 33
0.0
 14
5.2205832911
 24
11.7829694031
 34
0.0
 50
90.0
100
AcDbRotatedDimension
  0
DIMENSION
  5
4EF
330
1F
100
AcDbEntity
  8
DIM
100
AcDbDimension
  2
_D_18
 10
20.1435832911
 20
8.7829674346
 30
0.0
 11
23.8867920072
 21
8.7829674346
 31
0.0
 70
   160
  1
<>
 71
     2
 42
-1.0
  3
SLDDIMSTYLE0
100
AcDbAlignedDimension
 13
27.6675832911
 23
12.9079694031
 33
0.0
 14
20.1435832911
 24
14.2328767826
 34
0.0
100
AcDbRotatedDimension
  0
ENDSEC
  0
SECTION
  2
OBJECTS
  0
DICTIONARY
  5
C
330
0
100
AcDbDictionary
281
     1
  3
ACAD_GROUP
350
D
  3
ACAD_LAYOUT
350
1A
  3
ACAD_MATERIAL
350
3B
  3
ACAD_MLEADERSTYLE
350
4FF
  3
ACAD_MLINESTYLE
350
17
  3
ACAD_PLOTSETTINGS
350
19
  3
ACAD_PLOTSTYLENAME
350
E
  3
ACAD_TABLESTYLE
350
4FE
  0
DICTIONARY
  5
D
102
{ACAD_REACTORS
330
C
102
}
330
C
100
AcDbDictionary
281
     1
  0
DICTIONARY
  5
1A
102
{ACAD_REACTORS
330
C
102
}
330
C
100
AcDbDictionary
281
     1
  3
Layout1
350
1E
  3
Layout2
350
26
  3
Model
350
22
  0
DICTIONARY
  5
3B
102
{ACAD_REACTORS
330
C
102
}
330
C
100
AcDbDictionary
281
     1
  3
ByBlock
350
3D
  3
ByLayer
350
3C
  3
Global
350
3E
  0
DICTIONARY
  5
4FF
102
{ACAD_REACTORS
330
C
102
}
330
C
100
AcDbDictionary
281
     1
  0
DICTIONARY
  5
17
102
{ACAD_REACTORS
330
C
102
}
330
C
100
AcDbDictionary
281
     1
  3
Standard
350
18
  0
DICTIONARY
  5
19
102
{ACAD_REACTORS
330
C
102
}
330
C
100
AcDbDictionary
281
     1
  0
ACDBDICTIONARYWDFLT
  5
E
102
{ACAD_REACTORS
330
C
102
}
330
C
100
AcDbDictionary
281
     1
  3
Normal
350
F
100
AcDbDictionaryWithDefault
340
F
  0
DICTIONARY
  5
4FE
102
{ACAD_REACTORS
330
C
102
}
330
C
100
AcDbDictionary
281
     1
  0
LAYOUT
  5
1E
102
{ACAD_REACTORS
330
1A
102
}
330
1A
100
AcDbPlotSettings
  1

  2
none_device
  4

  6

 40
0.0
 41
0.0
 42
0.0
 43
0.0
 44
0.0
 45
0.0
 46
0.0
 47
0.0
 48
0.0
 49
0.0
140
0.0
141
0.0
142
1.0
143
1.0
 70
   688
 72
     0
 73
     0
 74
     5
  7

 75
    16
 76
     0
 77
     2
 78
   300
147
1.0
148
0.0
149
0.0
100
AcDbLayout
  1
Layout1
 70
     1
 71
     1
 10
0.0
 20
0.0
 11
12.0
 21
9.0
 12
0.0
 22
0.0
 32
0.0
 14
1.0000000000E+20
 24
1.0000000000E+20
 34
1.0000000000E+20
 15
-1.0000000000E+20
 25
-1.0000000000E+20
 35
-1.0000000000E+20
146
0.0
 13
0.0
 23
0.0
 33
0.0
 16
1.0
 26
0.0
 36
0.0
 17
0.0
 27
1.0
 37
0.0
 76
     0
330
1B
  0
LAYOUT
  5
26
102
{ACAD_REACTORS
330
1A
102
}
330
1A
100
AcDbPlotSettings
  1

  2
none_device
  4

  6

 40
0.0
 41
0.0
 42
0.0
 43
0.0
 44
0.0
 45
0.0
 46
0.0
 47
0.0
 48
0.0
 49
0.0
140
0.0
141
0.0
142
1.0
143
1.0
 70
   688
 72
     0
 73
     0
 74
     5
  7

 75
    16
 76
     0
 77
     2
 78
   300
147
1.0
148
0.0
149
0.0
100
AcDbLayout
  1
Layout2
 70
     1
 71
     2
 10
0.0
 20
0.0
 11
0.0
 21
0.0
 12
0.0
 22
0.0
 32
0.0
 14
0.0
 24
0.0
 34
0.0
 15
0.0
 25
0.0
 35
0.0
146
0.0
 13
0.0
 23
0.0
 33
0.0
 16
1.0
 26
0.0
 36
0.0
 17
0.0
 27
1.0
 37
0.0
 76
     0
330
23
  0
LAYOUT
  5
22
102
{ACAD_REACTORS
330
1A
102
}
330
1A
100
AcDbPlotSettings
  1

  2
none_device
  4

  6

 40
0.0
 41
0.0
 42
0.0
 43
0.0
 44
0.0
 45
0.0
 46
0.0
 47
0.0
 48
0.0
 49
0.0
140
0.0
141
0.0
142
1.0
143
1.0
 70
  1712
 72
     0
 73
     0
 74
     0
  7

 75
     0
 76
     0
 77
     2
 78
   300
147
1.0
148
0.0
149
0.0
100
AcDbLayout
  1
Model
 70
     1
 71
     0
 10
0.0
 20
0.0
 11
150.0
 21
120.0
 12
0.0
 22
0.0
 32
0.0
 14
0.0
 24
0.0
 34
0.0
 15
150.0
 25
120.0
 35
0.0
146
0.0
 13
0.0
 23
0.0
 33
0.0
 16
1.0
 26
0.0
 36
0.0
 17
0.0
 27
1.0
 37
0.0
 76
     0
330
1F
331
29
  0
MATERIAL
  5
3D
102
{ACAD_REACTORS
330
3B
102
}
330
3B
100
AcDbMaterial
  1
ByBlock
  0
MATERIAL
  5
3C
102
{ACAD_REACTORS
330
3B
102
}
330
3B
100
AcDbMaterial
  1
ByLayer
  0
MATERIAL
  5
3E
102
{ACAD_REACTORS
330
3B
102
}
330
3B
100
AcDbMaterial
  1
Global
  0
MLINESTYLE
  5
18
102
{ACAD_REACTORS
330
17
102
}
330
17
100
AcDbMlineStyle
  2
Standard
 70
     0
  3

 62
   256
 51
90.0
 52
90.0
 71
     2
 49
0.5
 62
   256
  6
BYLAYER
 49
-0.5
 62
   256
  6
BYLAYER
  0
ACDBPLACEHOLDER
  5
F
102
{ACAD_REACTORS
330
E
102
}
330
E
  0
ENDSEC
  0
EOF
