  0
SECTION
  2
HEADER
  9
$ACADVER
  1
AC1018
  9
$ACADMAINTVER
 70
     0
  9
$DWGCODEPAGE
  3
ANSI_1252
  9
$INSBASE
 10
0.0
 20
0.0
 30
0.0
  9
$EXTMIN
 10
0.0
 20
0.0
 30
0.0
  9
$EXTMAX
 10
130.0
 20
105.0
 30
0.0
  9
$LIMMIN
 10
0.0
 20
0.0
  9
$LIMMAX
 10
130.0
 20
105.0
  9
$ORTHOMODE
 70
     0
  9
$REGENMODE
 70
     1
  9
$FILLMODE
 70
     1
  9
$QTEXTMODE
 70
     0
  9
$MIRRTEXT
 70
     1
  9
$LTSCALE
 40
1.0
  9
$ATTMODE
 70
     1
  9
$TEXTSIZE
 40
0.1388888889
  9
$TRACEWID
 40
0.05
  9
$TEXTSTYLE
  7
Standard
  9
$CLAYER
  8
0
  9
$CELTYPE
  6
ByLayer
  9
$CECOLOR
 62
   256
  9
$CELTSCALE
 40
1.0
  9
$DISPSILH
 70
     0
  9
$DIMSCALE
 40
1.0
  9
$DIMASZ
 40
1.0
  9
$DIMEXO
 40
0.0393700787
  9
$DIMDLI
 40
0.38
  9
$DIMRND
 40
0.0
  9
$DIMDLE
 40
0.0
  9
$DIMEXE
 40
0.0393700787
  9
$DIMTP
 40
0.0
  9
$DIMTM
 40
0.0
  9
$DIMTXT
 40
1.25
  9
$DIMCEN
 40
0.09
  9
$DIMTSZ
 40
0.0
  9
$DIMTOL
 70
     0
  9
$DIMLIM
 70
     0
  9
$DIMTIH
 70
     1
  9
$DIMTOH
 70
     1
  9
$DIMSE1
 70
     0
  9
$DIMSE2
 70
     0
  9
$DIMTAD
 70
     0
  9
$DIMZIN
 70
     0
  9
$DIMBLK
  1

  9
$DIMASO
 70
     1
  9
$DIMSHO
 70
     1
  9
$DIMPOST
  1

  9
$DIMAPOST
  1

  9
$DIMALT
 70
     0
  9
$DIMALTD
 70
     2
  9
$DIMALTF
 40
25.4
  9
$DIMLFAC
 40
1.0
  9
$DIMTOFL
 70
     0
  9
$DIMTVP
 40
0.0
  9
$DIMTIX
 70
     0
  9
$DIMSOXD
 70
     0
  9
$DIMSAH
 70
     0
  9
$DIMBLK1
  1

  9
$DIMBLK2
  1

  9
$DIMSTYLE
  2
Standard
  9
$DIMCLRD
 70
     0
  9
$DIMCLRE
 70
     0
  9
$DIMCLRT
 70
     0
  9
$DIMTFAC
 40
1.0
  9
$DIMGAP
 40
0.06
  9
$DIMJUST
 70
     0
  9
$DIMSD1
 70
     0
  9
$DIMSD2
 70
     0
  9
$DIMTOLJ
 70
     1
  9
$DIMTZIN
 70
     0
  9
$DIMALTZ
 70
     0
  9
$DIMALTTZ
 70
     0
  9
$DIMUPT
 70
     0
  9
$DIMDEC
 70
     3
  9
$DIMTDEC
 70
     2
  9
$DIMALTU
 70
     2
  9
$DIMALTTD
 70
     2
  9
$DIMTXSTY
  7
Standard
  9
$DIMAUNIT
 70
     0
  9
$DIMADEC
 70
     2
  9
$DIMALTRND
 40
0.0
  9
$DIMAZIN
 70
     0
  9
$DIMDSEP
 70
    46
  9
$DIMATFIT
 70
     3
  9
$DIMFRAC
 70
     0
  9
$DIMLDRBLK
  1

  9
$DIMLUNIT
 70
     2
  9
$DIMLWD
 70
    -2
  9
$DIMLWE
 70
    -2
  9
$DIMTMOVE
 70
     0
  9
$LUNITS
 70
     2
  9
$LUPREC
 70
     3
  9
$SKETCHINC
 40
0.1
  9
$FILLETRAD
 40
0.5
  9
$AUNITS
 70
     0
  9
$AUPREC
 70
     2
  9
$MENU
  1
.
  9
$ELEVATION
 40
0.0
  9
$PELEVATION
 40
0.0
  9
$THICKNESS
 40
0.0
  9
$LIMCHECK
 70
     0
  9
$CHAMFERA
 40
0.5
  9
$CHAMFERB
 40
0.5
  9
$CHAMFERC
 40
1.0
  9
$CHAMFERD
 40
0.0
  9
$SKPOLY
 70
     0
  9
$TDCREATE
 40
2456594.378613044
  9
$TDUCREATE
 40
2456594.586946378
  9
$TDUPDATE
 40
2456594.378618831
  9
$TDUUPDATE
 40
2456594.586952164
  9
$TDINDWG
 40
0.0000000116
  9
$TDUSRTIMER
 40
0.0000000116
  9
$USRTIMER
 70
     1
  9
$ANGBASE
 50
0.0
  9
$ANGDIR
 70
     0
  9
$PDMODE
 70
     0
  9
$PDSIZE
 40
-1.0
  9
$PLINEWID
 40
0.0
  9
$SPLFRAME
 70
     0
  9
$SPLINETYPE
 70
     6
  9
$SPLINESEGS
 70
     8
  9
$HANDSEED
  5
473
  9
$SURFTAB1
 70
     6
  9
$SURFTAB2
 70
     6
  9
$SURFTYPE
 70
     6
  9
$SURFU
 70
     6
  9
$SURFV
 70
     6
  9
$UCSBASE
  2

  9
$UCSNAME
  2

  9
$UCSORG
 10
0.0
 20
0.0
 30
0.0
  9
$UCSXDIR
 10
1.0
 20
0.0
 30
0.0
  9
$UCSYDIR
 10
0.0
 20
1.0
 30
0.0
  9
$UCSORTHOREF
  2

  9
$UCSORTHOVIEW
 70
     0
  9
$UCSORGTOP
 10
0.0
 20
0.0
 30
0.0
  9
$UCSORGBOTTOM
 10
0.0
 20
0.0
 30
0.0
  9
$UCSORGLEFT
 10
0.0
 20
0.0
 30
0.0
  9
$UCSORGRIGHT
 10
0.0
 20
0.0
 30
0.0
  9
$UCSORGFRONT
 10
0.0
 20
0.0
 30
0.0
  9
$UCSORGBACK
 10
0.0
 20
0.0
 30
0.0
  9
$PUCSBASE
  2

  9
$PUCSNAME
  2

  9
$PUCSORG
 10
0.0
 20
0.0
 30
0.0
  9
$PUCSXDIR
 10
1.0
 20
0.0
 30
0.0
  9
$PUCSYDIR
 10
0.0
 20
1.0
 30
0.0
  9
$PUCSORTHOREF
  2

  9
$PUCSORTHOVIEW
 70
     0
  9
$PUCSORGTOP
 10
0.0
 20
0.0
 30
0.0
  9
$PUCSORGBOTTOM
 10
0.0
 20
0.0
 30
0.0
  9
$PUCSORGLEFT
 10
0.0
 20
0.0
 30
0.0
  9
$PUCSORGRIGHT
 10
0.0
 20
0.0
 30
0.0
  9
$PUCSORGFRONT
 10
0.0
 20
0.0
 30
0.0
  9
$PUCSORGBACK
 10
0.0
 20
0.0
 30
0.0
  9
$USERI1
 70
     0
  9
$USERI2
 70
     0
  9
$USERI3
 70
     0
  9
$USERI4
 70
     0
  9
$USERI5
 70
     0
  9
$USERR1
 40
0.0
  9
$USERR2
 40
0.0
  9
$USERR3
 40
0.0
  9
$USERR4
 40
0.0
  9
$USERR5
 40
0.0
  9
$WORLDVIEW
 70
     1
  9
$SHADEDGE
 70
     3
  9
$SHADEDIF
 70
    70
  9
$TILEMODE
 70
     1
  9
$MAXACTVP
 70
    64
  9
$PINSBASE
 10
0.0
 20
0.0
 30
0.0
  9
$PLIMCHECK
 70
     0
  9
$PEXTMIN
 10
1.0000000000E+20
 20
1.0000000000E+20
 30
1.0000000000E+20
  9
$PEXTMAX
 10
-1.0000000000E+20
 20
-1.0000000000E+20
 30
-1.0000000000E+20
  9
$PLIMMIN
 10
0.0
 20
0.0
  9
$PLIMMAX
 10
12.0
 20
9.0
  9
$UNITMODE
 70
     0
  9
$VISRETAIN
 70
     1
  9
$PLINEGEN
 70
     0
  9
$PSLTSCALE
 70
     1
  9
$TREEDEPTH
 70
  3020
  9
$CMLSTYLE
  2
Standard
  9
$CMLJUST
 70
     0
  9
$CMLSCALE
 40
1.0
  9
$PROXYGRAPHICS
 70
     1
  9
$MEASUREMENT
 70
     0
  9
$CELWEIGHT
370
    -1
  9
$ENDCAPS
280
     0
  9
$JOINSTYLE
280
     0
  9
$LWDISPLAY
290
     1
  9
$INSUNITS
 70
     1
  9
$HYPERLINKBASE
  1

  9
$STYLESHEET
  1

  9
$XEDIT
290
     1
  9
$CEPSNTYPE
380
     0
  9
$PSTYLEMODE
290
     1
  9
$FINGERPRINTGUID
  2
{15FCC55F-8CA0-4C22-969C-1F25701A779E}
  9
$VERSIONGUID
  2
{FAEB1C32-E019-11D5-929B-00C0DF256EC4}
  9
$EXTNAMES
290
     1
  9
$PSVPSCALE
 40
0.0
  9
$OLESTARTUP
290
     0
  9
$SORTENTS
280
   127
  9
$INDEXCTL
280
     0
  9
$HIDETEXT
280
     1
  9
$XCLIPFRAME
290
     0
  9
$HALOGAP
280
     0
  9
$OBSCOLOR
 70
   257
  9
$OBSLTYPE
280
     0
  9
$INTERSECTIONDISPLAY
280
     0
  9
$INTERSECTIONCOLOR
 70
   257
  9
$DIMASSOC
280
     2
  9
$PROJECTNAME
  1

  0
ENDSEC
  0
SECTION
  2
CLASSES
  0
CLASS
  1
ACDBDICTIONARYWDFLT
  2
AcDbDictionaryWithDefault
  3
ObjectDBX Classes
 90
        0
 91
        4
280
     0
281
     0
  0
CLASS
  1
VISUALSTYLE
  2
AcDbVisualStyle
  3
ObjectDBX Classes
 90
     4095
 91
        4
280
     0
281
     0
  0
CLASS
  1
MATERIAL
  2
AcDbMaterial
  3
ObjectDBX Classes
 90
     1153
 91
        4
280
     0
281
     0
  0
ENDSEC
  0
SECTION
  2
TABLES
  0
TABLE
  2
VPORT
  5
8
330
0
100
AcDbSymbolTable
 70
     1
  0
VPORT
  5
29
330
8
100
AcDbSymbolTableRecord
100
AcDbViewportTableRecord
  2
*Active
 70
     0
 10
0.0
 20
0.0
 11
1.0
 21
1.0
 12
65.0
 22
52.5
 13
0.0
 23
0.0
 14
0.5
 24
0.5
 15
0.5
 25
0.5
 16
0.0
 26
0.0
 36
1.0
 17
0.0
 27
0.0
 37
0.0
 40
105.0
 41
1.2380952381
 42
50.0
 43
0.0
 44
0.0
 50
0.0
 51
0.0
 71
     0
 72
  2000
 73
     1
 74
     3
 75
     0
 76
     0
 77
     0
 78
     0
281
     0
 65
     1
110
0.0
120
0.0
130
0.0
111
1.0
121
0.0
131
0.0
112
0.0
122
1.0
132
0.0
 79
     0
146
0.0
  0
ENDTAB
  0
TABLE
  2
LTYPE
  5
5
330
0
100
AcDbSymbolTable
 70
     6
  0
LTYPE
  5
14
330
5
100
AcDbSymbolTableRecord
100
AcDbLinetypeTableRecord
  2
ByBlock
 70
     0
  3

 72
    65
 73
     0
 40
0.0
  0
LTYPE
  5
15
330
5
100
AcDbSymbolTableRecord
100
AcDbLinetypeTableRecord
  2
ByLayer
 70
     0
  3

 72
    65
 73
     0
 40
0.0
  0
LTYPE
  5
16
330
5
100
AcDbSymbolTableRecord
100
AcDbLinetypeTableRecord
  2
Continuous
 70
     0
  3
Solid line
 72
    65
 73
     0
 40
0.0
  0
LTYPE
  5
3F
330
5
100
AcDbSymbolTableRecord
100
AcDbLinetypeTableRecord
  2
HIDDEN
 70
     0
  3
Hidden __ __ __ __ __ __ __ __ __ __ __ __ __ __
 72
    65
 73
     2
 40
0.075
 49
0.05
 74
     0
 49
-0.025
 74
     0
  0
LTYPE
  5
40
330
5
100
AcDbSymbolTableRecord
100
AcDbLinetypeTableRecord
  2
PHANTOM
 70
     0
  3
Phantom ______  __  __  ______  __  __  ______
 72
    65
 73
     6
 40
0.5
 49
0.25
 74
     0
 49
-0.05
 74
     0
 49
0.05
 74
     0
 49
-0.05
 74
     0
 49
0.05
 74
     0
 49
-0.05
 74
     0
  0
LTYPE
  5
41
330
5
100
AcDbSymbolTableRecord
100
AcDbLinetypeTableRecord
  2
CENTER
 70
     0
  3
Center ____ _ ____ _ ____ _ ____ _ ____ _ ____
 72
    65
 73
     4
 40
0.4
 49
0.25
 74
     0
 49
-0.05
 74
     0
 49
0.05
 74
     0
 49
-0.05
 74
     0
  0
LTYPE
  5
42
330
5
100
AcDbSymbolTableRecord
100
AcDbLinetypeTableRecord
  2
CENTERX2
 70
     0
  3
Center (2x) ________  __  ________  __  _____
 72
    65
 73
     4
 40
0.8
 49
0.5
 74
     0
 49
-0.1
 74
     0
 49
0.1
 74
     0
 49
-0.1
 74
     0
  0
LTYPE
  5
43
330
5
100
AcDbSymbolTableRecord
100
AcDbLinetypeTableRecord
  2
DOT2
 70
     0
  3
Dot (.5x) ........................................
 72
    65
 73
     2
 40
0.025
 49
0.0
 74
     0
 49
-0.025
 74
     0
  0
ENDTAB
  0
TABLE
  2
LAYER
  5
2
330
0
100
AcDbSymbolTable
 70
     4
  0
LAYER
  5
10
330
2
100
AcDbSymbolTableRecord
100
AcDbLayerTableRecord
  2
0
 70
     0
 62
     7
  6
Continuous
370
    -3
390
F
  0
LAYER
  5
44
330
2
100
AcDbSymbolTableRecord
100
AcDbLayerTableRecord
  2
SLD-0
 70
     0
 62
     7
  6
Continuous
370
    -3
390
F
  0
LAYER
  5
45
330
2
100
AcDbSymbolTableRecord
100
AcDbLayerTableRecord
  2
NOTES
 70
     0
 62
     1
  6
Continuous
370
    -3
390
F
  0
LAYER
  5
46
330
2
100
AcDbSymbolTableRecord
100
AcDbLayerTableRecord
  2
DIM
 70
     0
 62
   100
  6
Continuous
370
    -3
390
F
  0
ENDTAB
  0
TABLE
  2
STYLE
  5
3
330
0
100
AcDbSymbolTable
 70
     2
  0
STYLE
  5
11
330
3
100
AcDbSymbolTableRecord
100
AcDbTextStyleTableRecord
  2
Standard
 70
     0
 40
0.0
 41
1.0
 50
0.0
 71
     0
 42
0.1388888889
  3
txt
  4

  0
STYLE
  5
47
330
3
100
AcDbSymbolTableRecord
100
AcDbTextStyleTableRecord
  2
SLDTEXTSTYLE0
 70
     0
 40
0.0
 41
0.75
 50
0.0
 71
     0
 42
0.2
  3
TXT
  4

  0
ENDTAB
  0
TABLE
  2
VIEW
  5
6
330
0
100
AcDbSymbolTable
 70
     0
  0
ENDTAB
  0
TABLE
  2
UCS
  5
7
330
0
100
AcDbSymbolTable
 70
     0
  0
ENDTAB
  0
TABLE
  2
APPID
  5
9
330
0
100
AcDbSymbolTable
 70
     1
  0
APPID
  5
12
330
9
100
AcDbSymbolTableRecord
100
AcDbRegAppTableRecord
  2
ACAD
 70
     0
  0
ENDTAB
  0
TABLE
  2
DIMSTYLE
  5
A
330
0
100
AcDbSymbolTable
 70
     4
100
AcDbDimStyleTable
  0
DIMSTYLE
105
27
330
A
100
AcDbSymbolTableRecord
100
AcDbDimStyleTableRecord
  2
Standard
 70
     0
178
     0
340
11
  0
DIMSTYLE
105
166
102
{ACAD_REACTORS
330
165
330
175
330
184
330
18F
330
19E
330
1AB
330
281
330
290
330
29F
330
2AE
330
2B9
330
37E
330
388
330
3A2
330
453
102
}
330
A
100
AcDbSymbolTableRecord
100
AcDbDimStyleTableRecord
  2
SLDDIMSTYLE0
 70
     0
 41
1.0
 44
0.0
 45
0.000000001
 78
    12
 79
     3
140
1.25
147
0.3125
173
     1
178
     0
271
     3
272
     2
276
     2
277
     5
284
    12
340
47
  0
DIMSTYLE
105
2C5
102
{ACAD_REACTORS
330
2C4
330
2CE
102
}
330
A
100
AcDbSymbolTableRecord
100
AcDbDimStyleTableRecord
  2
SLDDIMSTYLE1
 70
     0
 41
1.0
 44
0.0
 45
0.000000001
 78
    12
 79
     3
140
1.25
141
0.0
147
0.3125
173
     1
178
     0
271
     3
272
     2
276
     2
277
     5
284
    12
340
47
  0
DIMSTYLE
105
394
102
{ACAD_REACTORS
330
393
330
462
102
}
330
A
100
AcDbSymbolTableRecord
100
AcDbDimStyleTableRecord
  2
SLDDIMSTYLE2
 70
     0
 41
1.0
 44
0.0
 45
0.000000001
 78
    12
 79
     3
140
1.25
147
0.3125
172
     1
173
     1
178
     0
271
     3
272
     2
276
     2
277
     5
284
    12
289
     0
340
47
  0
ENDTAB
  0
TABLE
  2
BLOCK_RECORD
  5
1
330
0
100
AcDbSymbolTable
 70
    21
  0
BLOCK_RECORD
  5
1F
330
1
100
AcDbSymbolTableRecord
100
AcDbBlockTableRecord
  2
*Model_Space
340
22
  0
BLOCK_RECORD
  5
1B
330
1
100
AcDbSymbolTableRecord
100
AcDbBlockTableRecord
  2
*Paper_Space
340
1E
  0
BLOCK_RECORD
  5
23
330
1
100
AcDbSymbolTableRecord
100
AcDbBlockTableRecord
  2
*Paper_Space0
340
26
  0
BLOCK_RECORD
  5
167
330
1
100
AcDbSymbolTableRecord
100
AcDbBlockTableRecord
  2
_D
340
0
  0
BLOCK_RECORD
  5
176
330
1
100
AcDbSymbolTableRecord
100
AcDbBlockTableRecord
  2
_D_1
340
0
  0
BLOCK_RECORD
  5
185
330
1
100
AcDbSymbolTableRecord
100
AcDbBlockTableRecord
  2
_D_2
340
0
  0
BLOCK_RECORD
  5
190
330
1
100
AcDbSymbolTableRecord
100
AcDbBlockTableRecord
  2
_D_3
340
0
  0
BLOCK_RECORD
  5
19F
330
1
100
AcDbSymbolTableRecord
100
AcDbBlockTableRecord
  2
_D_4
340
0
  0
BLOCK_RECORD
  5
1AC
330
1
100
AcDbSymbolTableRecord
100
AcDbBlockTableRecord
  2
_D_5
340
0
  0
BLOCK_RECORD
  5
282
330
1
100
AcDbSymbolTableRecord
100
AcDbBlockTableRecord
  2
_D_6
340
0
  0
BLOCK_RECORD
  5
291
330
1
100
AcDbSymbolTableRecord
100
AcDbBlockTableRecord
  2
_D_7
340
0
  0
BLOCK_RECORD
  5
2A0
330
1
100
AcDbSymbolTableRecord
100
AcDbBlockTableRecord
  2
_D_8
340
0
  0
BLOCK_RECORD
  5
2AF
330
1
100
AcDbSymbolTableRecord
100
AcDbBlockTableRecord
  2
_D_9
340
0
  0
BLOCK_RECORD
  5
2BA
330
1
100
AcDbSymbolTableRecord
100
AcDbBlockTableRecord
  2
_D_10
340
0
  0
BLOCK_RECORD
  5
2C6
330
1
100
AcDbSymbolTableRecord
100
AcDbBlockTableRecord
  2
_D_11
340
0
  0
BLOCK_RECORD
  5
2CF
330
1
100
AcDbSymbolTableRecord
100
AcDbBlockTableRecord
  2
_D_12
340
0
  0
BLOCK_RECORD
  5
2D7
330
1
100
AcDbSymbolTableRecord
100
AcDbBlockTableRecord
  2
SW_CENTERMARKSYMBOL_0
340
0
102
{BLKREFS
331
2E2
102
}
  0
BLOCK_RECORD
  5
37F
330
1
100
AcDbSymbolTableRecord
100
AcDbBlockTableRecord
  2
_D_13
340
0
  0
BLOCK_RECORD
  5
389
330
1
100
AcDbSymbolTableRecord
100
AcDbBlockTableRecord
  2
_D_14
340
0
  0
BLOCK_RECORD
  5
395
330
1
100
AcDbSymbolTableRecord
100
AcDbBlockTableRecord
  2
_D_15
340
0
  0
BLOCK_RECORD
  5
3A3
330
1
100
AcDbSymbolTableRecord
100
AcDbBlockTableRecord
  2
_D_16
340
0
  0
BLOCK_RECORD
  5
454
330
1
100
AcDbSymbolTableRecord
100
AcDbBlockTableRecord
  2
_D_17
340
0
  0
BLOCK_RECORD
  5
463
330
1
100
AcDbSymbolTableRecord
100
AcDbBlockTableRecord
  2
_D_18
340
0
  0
ENDTAB
  0
ENDSEC
  0
SECTION
  2
BLOCKS
  0
BLOCK
  5
20
330
1F
100
AcDbEntity
  8
0
100
AcDbBlockBegin
  2
*Model_Space
 70
     0
 10
0.0
 20
0.0
 30
0.0
  3
*Model_Space
  1

  0
ENDBLK
  5
21
330
1F
100
AcDbEntity
  8
0
100
AcDbBlockEnd
  0
BLOCK
  5
1C
330
1B
100
AcDbEntity
 67
     1
  8
0
100
AcDbBlockBegin
  2
*Paper_Space
 70
     0
 10
0.0
 20
0.0
 30
0.0
  3
*Paper_Space
  1

  0
ENDBLK
  5
1D
330
1B
100
AcDbEntity
 67
     1
  8
0
100
AcDbBlockEnd
  0
BLOCK
  5
24
330
23
100
AcDbEntity
  8
0
100
AcDbBlockBegin
  2
*Paper_Space0
 70
     0
 10
0.0
 20
0.0
 30
0.0
  3
*Paper_Space0
  1

  0
ENDBLK
  5
25
330
23
100
AcDbEntity
  8
0
100
AcDbBlockEnd
  0
BLOCK
  5
168
330
167
100
AcDbEntity
  8
0
100
AcDbBlockBegin
  2
_D
 70
     0
 10
0.0
 20
0.0
 30
0.0
  3
_D
  1

  0
SOLID
  5
16A
330
167
100
AcDbEntity
  8
DIM
100
AcDbTrace
 10
28.5915591846
 20
60.3561577981
 30
0.0
 11
28.3415591846
 21
59.3561577981
 31
0.0
 12
28.8415591846
 22
59.3561577981
 32
0.0
 13
28.8415591846
 23
59.3561577981
 33
0.0
  0
SOLID
  5
16B
330
167
100
AcDbEntity
  8
DIM
100
AcDbTrace
 10
28.5915591846
 20
9.1301577982
 30
0.0
 11
28.8415591846
 21
10.1301577982
 31
0.0
 12
28.3415591846
 22
10.1301577982
 32
0.0
 13
28.3415591846
 23
10.1301577982
 33
0.0
  0
LINE
  5
16C
330
167
100
AcDbEntity
  8
DIM
100
AcDbLine
 10
29.4995453968
 20
37.3472949725
 30
0.0
 11
27.9995453489
 21
34.8472948927
 31
0.0
  0
LINE
  5
16D
330
167
100
AcDbEntity
  8
DIM
100
AcDbLine
 10
48.051949028
 20
60.3561577981
 30
0.0
 11
28.5521891058
 21
60.3561577981
 31
0.0
  0
LINE
  5
16E
330
167
100
AcDbEntity
  8
DIM
100
AcDbLine
 10
38.5811891058
 20
9.1301577982
 30
0.0
 11
28.5521891058
 21
9.1301577982
 31
0.0
  0
LINE
  5
16F
330
167
100
AcDbEntity
  8
DIM
100
AcDbLine
 10
28.5915591846
 20
60.3561577981
 30
0.0
 11
28.5915591846
 21
37.7136144274
 31
0.0
  0
LINE
  5
170
330
167
100
AcDbEntity
  8
DIM
100
AcDbLine
 10
28.5915591846
 20
9.1301577982
 30
0.0
 11
28.5915591846
 21
34.4809755845
 31
0.0
  0
MTEXT
  5
171
330
167
100
AcDbEntity
  8
DIM
100
AcDbMText
 10
25.9787121417
 20
36.8136643994
 30
10.5963031952
 40
1.25
 41
0.0
 71
     1
 72
     1
  1
51
  7
SLDTEXTSTYLE0
 73
     1
 44
1.0
  0
MTEXT
  5
172
330
167
100
AcDbEntity
  8
DIM
100
AcDbMText
 10
27.8259342958
 20
37.708629534
 30
10.5963031952
 40
1.25
 41
0.0
 71
     1
 72
     1
  1
1
  7
SLDTEXTSTYLE0
 73
     1
 44
1.0
  0
MTEXT
  5
173
330
167
100
AcDbEntity
  8
DIM
100
AcDbMText
 10
28.7495453728
 20
36.0923101125
 30
10.5963031952
 40
1.25
 41
0.0
 71
     1
 72
     1
  1
4
  7
SLDTEXTSTYLE0
 73
     1
 44
1.0
  0
MTEXT
  5
174
330
167
100
AcDbEntity
  8
DIM
100
AcDbMText
 10
29.6731564499
 20
36.8136643994
 30
10.5963031952
 40
1.25
 41
0.0
 71
     1
 72
     1
  1
"
  7
SLDTEXTSTYLE0
 73
     1
 44
1.0
  0
ENDBLK
  5
169
330
167
100
AcDbEntity
  8
0
100
AcDbBlockEnd
  0
BLOCK
  5
177
330
176
100
AcDbEntity
  8
0
100
AcDbBlockBegin
  2
_D_1
 70
     0
 10
0.0
 20
0.0
 30
0.0
  3
_D_1
  1

  0
SOLID
  5
179
330
176
100
AcDbEntity
  8
DIM
100
AcDbTrace
 10
33.5915591846
 20
43.0311577981
 30
0.0
 11
33.3415591846
 21
42.0311577981
 31
0.0
 12
33.8415591846
 22
42.0311577981
 32
0.0
 13
33.8415591846
 23
42.0311577981
 33
0.0
  0
SOLID
  5
17A
330
176
100
AcDbEntity
  8
DIM
100
AcDbTrace
 10
33.5915591846
 20
10.1011577982
 30
0.0
 11
33.8415591846
 21
11.1011577982
 31
0.0
 12
33.3415591846
 22
11.1011577982
 32
0.0
 13
33.3415591846
 23
11.1011577982
 33
0.0
  0
LINE
  5
17B
330
176
100
AcDbEntity
  8
DIM
100
AcDbLine
 10
34.4995452501
 20
28.8031577647
 30
0.0
 11
32.9995452022
 21
26.3031576849
 31
0.0
  0
LINE
  5
17C
330
176
100
AcDbEntity
  8
DIM
100
AcDbLine
 10
38.7061891059
 20
43.0311577981
 30
0.0
 11
33.5521891058
 21
43.0311577981
 31
0.0
  0
LINE
  5
17D
330
176
100
AcDbEntity
  8
DIM
100
AcDbLine
 10
38.7211891058
 20
10.1011577982
 30
0.0
 11
33.5521891058
 21
10.1011577982
 31
0.0
  0
LINE
  5
17E
330
176
100
AcDbEntity
  8
DIM
100
AcDbLine
 10
33.5915591846
 20
43.0311577981
 30
0.0
 11
33.5915591846
 21
29.1694772196
 31
0.0
  0
LINE
  5
17F
330
176
100
AcDbEntity
  8
DIM
100
AcDbLine
 10
33.5915591846
 20
10.1011577982
 30
0.0
 11
33.5915591846
 21
25.9368383767
 31
0.0
  0
MTEXT
  5
180
330
176
100
AcDbEntity
  8
DIM
100
AcDbMText
 10
30.055100918
 20
28.2695271916
 30
10.5963031952
 40
1.25
 41
0.0
 71
     1
 72
     1
  1
32
  7
SLDTEXTSTYLE0
 73
     1
 44
1.0
  0
MTEXT
  5
181
330
176
100
AcDbEntity
  8
DIM
100
AcDbMText
 10
31.9023230721
 20
29.1644923262
 30
10.5963031952
 40
1.25
 41
0.0
 71
     1
 72
     1
  1
15
  7
SLDTEXTSTYLE0
 73
     1
 44
1.0
  0
MTEXT
  5
182
330
176
100
AcDbEntity
  8
DIM
100
AcDbMText
 10
33.7495452262
 20
27.5481729047
 30
10.5963031952
 40
1.25
 41
0.0
 71
     1
 72
     1
  1
16
  7
SLDTEXTSTYLE0
 73
     1
 44
1.0
  0
MTEXT
  5
183
330
176
100
AcDbEntity
  8
DIM
100
AcDbMText
 10
35.5967676736
 20
28.2695271916
 30
10.5963031952
 40
1.25
 41
0.0
 71
     1
 72
     1
  1
"
  7
SLDTEXTSTYLE0
 73
     1
 44
1.0
  0
ENDBLK
  5
178
330
176
100
AcDbEntity
  8
0
100
AcDbBlockEnd
  0
BLOCK
  5
186
330
185
100
AcDbEntity
  8
0
100
AcDbBlockBegin
  2
_D_2
 70
     0
 10
0.0
 20
0.0
 30
0.0
  3
_D_2
  1

  0
SOLID
  5
188
330
185
100
AcDbEntity
  8
DIM
100
AcDbTrace
 10
93.5915591846
 20
2.6301558296
 30
0.0
 11
92.5915591846
 21
2.8801558296
 31
0.0
 12
92.5915591846
 22
2.3801558296
 32
0.0
 13
92.5915591846
 23
2.3801558296
 33
0.0
  0
SOLID
  5
189
330
185
100
AcDbEntity
  8
DIM
100
AcDbTrace
 10
38.5915591846
 20
2.6301558297
 30
0.0
 11
39.5915591846
 21
2.3801558297
 31
0.0
 12
39.5915591846
 22
2.8801558297
 32
0.0
 13
39.5915591846
 23
2.8801558297
 33
0.0
  0
LINE
  5
18A
330
185
100
AcDbEntity
  8
DIM
100
AcDbLine
 10
93.5915591846
 20
9.1197877194
 30
0.0
 11
93.5915591846
 21
2.5907857509
 31
0.0
  0
LINE
  5
18B
330
185
100
AcDbEntity
  8
DIM
100
AcDbLine
 10
38.5915591846
 20
9.1197877194
 30
0.0
 11
38.5915591846
 21
2.5907857509
 31
0.0
  0
LINE
  5
18C
330
185
100
AcDbEntity
  8
DIM
100
AcDbLine
 10
93.5915591846
 20
2.6301558296
 30
0.0
 11
67.780795297
 21
2.6301558297
 31
0.0
  0
LINE
  5
18D
330
185
100
AcDbEntity
  8
DIM
100
AcDbLine
 10
38.5915591846
 20
2.6301558297
 30
0.0
 11
64.4023230721
 21
2.6301558297
 31
0.0
  0
MTEXT
  5
18E
330
185
100
AcDbEntity
  8
DIM
100
AcDbMText
 10
64.4023230721
 20
3.2493030662
 30
10.5963031952
 40
1.25
 41
0.0
 71
     1
 72
     1
  1
55"
  7
SLDTEXTSTYLE0
 73
     1
 44
1.0
  0
ENDBLK
  5
187
330
185
100
AcDbEntity
  8
0
100
AcDbBlockEnd
  0
BLOCK
  5
191
330
190
100
AcDbEntity
  8
0
100
AcDbBlockBegin
  2
_D_3
 70
     0
 10
0.0
 20
0.0
 30
0.0
  3
_D_3
  1

  0
SOLID
  5
193
330
190
100
AcDbEntity
  8
DIM
100
AcDbTrace
 10
46.1285591846
 20
6.1301558297
 30
0.0
 11
47.1285591846
 21
5.8801558297
 31
0.0
 12
47.1285591846
 22
6.3801558297
 32
0.0
 13
47.1285591846
 23
6.3801558297
 33
0.0
  0
SOLID
  5
194
330
190
100
AcDbEntity
  8
DIM
100
AcDbTrace
 10
86.0545591846
 20
6.1301558297
 30
0.0
 11
85.0545591846
 21
6.3801558297
 31
0.0
 12
85.0545591846
 22
5.8801558297
 32
0.0
 13
85.0545591846
 23
5.8801558297
 33
0.0
  0
LINE
  5
195
330
190
100
AcDbEntity
  8
DIM
100
AcDbLine
 10
66.9995452501
 20
7.3801557962
 30
0.0
 11
65.4995452022
 21
4.8801557164
 31
0.0
  0
LINE
  5
196
330
190
100
AcDbEntity
  8
DIM
100
AcDbLine
 10
46.1285591846
 20
10.0907877194
 30
0.0
 11
46.1285591846
 21
6.0907857509
 31
0.0
  0
LINE
  5
197
330
190
100
AcDbEntity
  8
DIM
100
AcDbLine
 10
86.0545591846
 20
10.0907877194
 30
0.0
 11
86.0545591846
 21
6.0907857509
 31
0.0
  0
LINE
  5
198
330
190
100
AcDbEntity
  8
DIM
100
AcDbLine
 10
46.1285591846
 20
6.1301558297
 30
0.0
 11
62.555100918
 21
6.1301558297
 31
0.0
  0
LINE
  5
199
330
190
100
AcDbEntity
  8
DIM
100
AcDbLine
 10
86.0545591846
 20
6.1301558297
 30
0.0
 11
69.6280174511
 21
6.1301558297
 31
0.0
  0
MTEXT
  5
19A
330
190
100
AcDbEntity
  8
DIM
100
AcDbMText
 10
62.555100918
 20
6.8465252231
 30
10.5963031952
 40
1.25
 41
0.0
 71
     1
 72
     1
  1
39
  7
SLDTEXTSTYLE0
 73
     1
 44
1.0
  0
MTEXT
  5
19B
330
190
100
AcDbEntity
  8
DIM
100
AcDbMText
 10
64.4023230721
 20
7.7414903577
 30
10.5963031952
 40
1.25
 41
0.0
 71
     1
 72
     1
  1
15
  7
SLDTEXTSTYLE0
 73
     1
 44
1.0
  0
MTEXT
  5
19C
330
190
100
AcDbEntity
  8
DIM
100
AcDbMText
 10
66.2495452261
 20
6.1251709362
 30
10.5963031952
 40
1.25
 41
0.0
 71
     1
 72
     1
  1
16
  7
SLDTEXTSTYLE0
 73
     1
 44
1.0
  0
MTEXT
  5
19D
330
190
100
AcDbEntity
  8
DIM
100
AcDbMText
 10
68.0967676735
 20
6.8465252231
 30
10.5963031952
 40
1.25
 41
0.0
 71
     1
 72
     1
  1
"
  7
SLDTEXTSTYLE0
 73
     1
 44
1.0
  0
ENDBLK
  5
192
330
190
100
AcDbEntity
  8
0
100
AcDbBlockEnd
  0
BLOCK
  5
1A0
330
19F
100
AcDbEntity
  8
0
100
AcDbBlockBegin
  2
_D_4
 70
     0
 10
0.0
 20
0.0
 30
0.0
  3
_D_4
  1

  0
SOLID
  5
1A2
330
19F
100
AcDbEntity
  8
DIM
100
AcDbTrace
 10
48.5725194291
 20
17.0233872765
 30
0.0
 11
49.5725194291
 21
16.7733872765
 31
0.0
 12
49.5725194291
 22
17.2733872765
 32
0.0
 13
49.5725194291
 23
17.2733872765
 33
0.0
  0
SOLID
  5
1A3
330
19F
100
AcDbEntity
  8
DIM
100
AcDbTrace
 10
83.6105989399
 20
17.0233872765
 30
0.0
 11
82.6105989399
 21
17.2733872765
 31
0.0
 12
82.6105989399
 22
16.7733872765
 32
0.0
 13
82.6105989399
 23
16.7733872765
 33
0.0
  0
LINE
  5
1A4
330
19F
100
AcDbEntity
  8
DIM
100
AcDbLine
 10
66.5377396382
 20
18.2733872431
 30
0.0
 11
65.0377395903
 21
15.7733871633
 31
0.0
  0
LINE
  5
1A5
330
19F
100
AcDbEntity
  8
DIM
100
AcDbLine
 10
48.5725194291
 20
17.0233872765
 30
0.0
 11
63.0169063832
 21
17.0233872765
 31
0.0
  0
LINE
  5
1A6
330
19F
100
AcDbEntity
  8
DIM
100
AcDbLine
 10
83.6105989399
 20
17.0233872765
 30
0.0
 11
69.1662119859
 21
17.0233872765
 31
0.0
  0
MTEXT
  5
1A7
330
19F
100
AcDbEntity
  8
DIM
100
AcDbMText
 10
63.0169063832
 20
17.73975667
 30
10.5963031952
 40
1.25
 41
0.0
 71
     1
 72
     1
  1
35
  7
SLDTEXTSTYLE0
 73
     1
 44
1.0
  0
MTEXT
  5
1A8
330
19F
100
AcDbEntity
  8
DIM
100
AcDbMText
 10
64.8641285372
 20
18.6347218046
 30
10.5963031952
 40
1.25
 41
0.0
 71
     1
 72
     1
  1
1
  7
SLDTEXTSTYLE0
 73
     1
 44
1.0
  0
MTEXT
  5
1A9
330
19F
100
AcDbEntity
  8
DIM
100
AcDbMText
 10
65.7877396143
 20
17.0184023831
 30
10.5963031952
 40
1.25
 41
0.0
 71
     1
 72
     1
  1
16
  7
SLDTEXTSTYLE0
 73
     1
 44
1.0
  0
MTEXT
  5
1AA
330
19F
100
AcDbEntity
  8
DIM
100
AcDbMText
 10
67.634961915
 20
17.73975667
 30
10.5963031952
 40
1.25
 41
0.0
 71
     1
 72
     1
  1
"
  7
SLDTEXTSTYLE0
 73
     1
 44
1.0
  0
ENDBLK
  5
1A1
330
19F
100
AcDbEntity
  8
0
100
AcDbBlockEnd
  0
BLOCK
  5
1AD
330
1AC
100
AcDbEntity
  8
0
100
AcDbBlockBegin
  2
_D_5
 70
     0
 10
0.0
 20
0.0
 30
0.0
  3
_D_5
  1

  0
SOLID
  5
1AF
330
1AC
100
AcDbEntity
  8
DIM
100
AcDbTrace
 10
78.6959313901
 20
43.0021577981
 30
0.0
 11
78.4459313901
 21
42.0021577981
 31
0.0
 12
78.9459313901
 22
42.0021577981
 32
0.0
 13
78.9459313901
 23
42.0021577981
 33
0.0
  0
SOLID
  5
1B0
330
1AC
100
AcDbEntity
  8
DIM
100
AcDbTrace
 10
78.6959313901
 20
12.1041577982
 30
0.0
 11
78.9459313901
 21
13.1041577982
 31
0.0
 12
78.4459313901
 22
13.1041577982
 32
0.0
 13
78.4459313901
 23
13.1041577982
 33
0.0
  0
LINE
  5
1B1
330
1AC
100
AcDbEntity
  8
DIM
100
AcDbLine
 10
79.6039176023
 20
28.8031577647
 30
0.0
 11
78.1039175544
 21
26.3031576849
 31
0.0
  0
LINE
  5
1B2
330
1AC
100
AcDbEntity
  8
DIM
100
AcDbLine
 10
78.6959313901
 20
43.0021577981
 30
0.0
 11
78.6959313901
 21
29.1694772196
 31
0.0
  0
LINE
  5
1B3
330
1AC
100
AcDbEntity
  8
DIM
100
AcDbLine
 10
78.6959313901
 20
12.1041577982
 30
0.0
 11
78.6959313901
 21
25.9368383767
 31
0.0
  0
MTEXT
  5
1B4
330
1AC
100
AcDbEntity
  8
DIM
100
AcDbMText
 10
76.0830843472
 20
28.2695271916
 30
10.5963031952
 40
1.25
 41
0.0
 71
     1
 72
     1
  1
30
  7
SLDTEXTSTYLE0
 73
     1
 44
1.0
  0
MTEXT
  5
1B5
330
1AC
100
AcDbEntity
  8
DIM
100
AcDbMText
 10
77.9303065013
 20
29.1644923262
 30
10.5963031952
 40
1.25
 41
0.0
 71
     1
 72
     1
  1
7
  7
SLDTEXTSTYLE0
 73
     1
 44
1.0
  0
MTEXT
  5
1B6
330
1AC
100
AcDbEntity
  8
DIM
100
AcDbMText
 10
78.8539175783
 20
27.5481729047
 30
10.5963031952
 40
1.25
 41
0.0
 71
     1
 72
     1
  1
8
  7
SLDTEXTSTYLE0
 73
     1
 44
1.0
  0
MTEXT
  5
1B7
330
1AC
100
AcDbEntity
  8
DIM
100
AcDbMText
 10
79.7775286554
 20
28.2695271916
 30
10.5963031952
 40
1.25
 41
0.0
 71
     1
 72
     1
  1
"
  7
SLDTEXTSTYLE0
 73
     1
 44
1.0
  0
ENDBLK
  5
1AE
330
1AC
100
AcDbEntity
  8
0
100
AcDbBlockEnd
  0
BLOCK
  5
283
330
282
100
AcDbEntity
  8
0
100
AcDbBlockBegin
  2
_D_6
 70
     0
 10
0.0
 20
0.0
 30
0.0
  3
_D_6
  1

  0
SOLID
  5
285
330
282
100
AcDbEntity
  8
DIM
100
AcDbTrace
 10
38.5915591846
 20
100.1405711534
 30
0.0
 11
39.5915591846
 21
99.8905711534
 31
0.0
 12
39.5915591846
 22
100.3905711534
 32
0.0
 13
39.5915591846
 23
100.3905711534
 33
0.0
  0
SOLID
  5
286
330
282
100
AcDbEntity
  8
DIM
100
AcDbTrace
 10
66.0915591846
 20
100.1405711535
 30
0.0
 11
65.0915591846
 21
100.3905711535
 31
0.0
 12
65.0915591846
 22
99.8905711535
 32
0.0
 13
65.0915591846
 23
99.8905711535
 33
0.0
  0
LINE
  5
287
330
282
100
AcDbEntity
  8
DIM
100
AcDbLine
 10
53.2495453968
 20
101.39057112
 30
0.0
 11
51.7495453489
 21
98.8905710402
 31
0.0
  0
LINE
  5
288
330
282
100
AcDbEntity
  8
DIM
100
AcDbLine
 10
38.5915591846
 20
97.1488701644
 30
0.0
 11
38.5915591846
 21
100.1799412322
 31
0.0
  0
LINE
  5
289
330
282
100
AcDbEntity
  8
DIM
100
AcDbLine
 10
66.0915591846
 20
92.8877398341
 30
0.0
 11
66.0915591846
 21
100.1799412322
 31
0.0
  0
LINE
  5
28A
330
282
100
AcDbEntity
  8
DIM
100
AcDbLine
 10
38.5915591846
 20
100.1405711534
 30
0.0
 11
49.7287121417
 21
100.1405711535
 31
0.0
  0
LINE
  5
28B
330
282
100
AcDbEntity
  8
DIM
100
AcDbLine
 10
66.0915591846
 20
100.1405711535
 30
0.0
 11
54.9544062274
 21
100.1405711535
 31
0.0
  0
MTEXT
  5
28C
330
282
100
AcDbEntity
  8
DIM
100
AcDbMText
 10
49.7287121417
 20
100.8569405469
 30
-25.5759645472
 40
1.25
 41
0.0
 71
     1
 72
     1
  1
27
  7
SLDTEXTSTYLE0
 73
     1
 44
1.0
  0
MTEXT
  5
28D
330
282
100
AcDbEntity
  8
DIM
100
AcDbMText
 10
51.5759342958
 20
101.7519056815
 30
-25.5759645472
 40
1.25
 41
0.0
 71
     1
 72
     1
  1
1
  7
SLDTEXTSTYLE0
 73
     1
 44
1.0
  0
MTEXT
  5
28E
330
282
100
AcDbEntity
  8
DIM
100
AcDbMText
 10
52.4995453728
 20
100.13558626
 30
-25.5759645472
 40
1.25
 41
0.0
 71
     1
 72
     1
  1
2
  7
SLDTEXTSTYLE0
 73
     1
 44
1.0
  0
MTEXT
  5
28F
330
282
100
AcDbEntity
  8
DIM
100
AcDbMText
 10
53.4231564499
 20
100.8569405469
 30
-25.5759645472
 40
1.25
 41
0.0
 71
     1
 72
     1
  1
"
  7
SLDTEXTSTYLE0
 73
     1
 44
1.0
  0
ENDBLK
  5
284
330
282
100
AcDbEntity
  8
0
100
AcDbBlockEnd
  0
BLOCK
  5
292
330
291
100
AcDbEntity
  8
0
100
AcDbBlockBegin
  2
_D_7
 70
     0
 10
0.0
 20
0.0
 30
0.0
  3
_D_7
  1

  0
SOLID
  5
294
330
291
100
AcDbEntity
  8
DIM
100
AcDbTrace
 10
97.9586324968
 20
97.1405711535
 30
0.0
 11
97.7086324968
 21
96.1405711535
 31
0.0
 12
98.2086324968
 22
96.1405711535
 32
0.0
 13
98.2086324968
 23
96.1405711535
 33
0.0
  0
SOLID
  5
295
330
291
100
AcDbEntity
  8
DIM
100
AcDbTrace
 10
97.9586324968
 20
90.3335711534
 30
0.0
 11
98.2086324968
 21
91.3335711534
 31
0.0
 12
97.7086324968
 22
91.3335711534
 32
0.0
 13
97.7086324968
 23
91.3335711534
 33
0.0
  0
LINE
  5
296
330
291
100
AcDbEntity
  8
DIM
100
AcDbLine
 10
98.4048132438
 20
94.98707112
 30
0.0
 11
96.9048131959
 21
92.4870710402
 31
0.0
  0
LINE
  5
297
330
291
100
AcDbEntity
  8
DIM
100
AcDbLine
 10
93.5998581955
 20
97.1405711535
 30
0.0
 11
97.9980025755
 21
97.1405711535
 31
0.0
  0
LINE
  5
298
330
291
100
AcDbEntity
  8
DIM
100
AcDbLine
 10
68.6457278652
 20
90.3335711534
 30
0.0
 11
97.9980025755
 21
90.3335711534
 31
0.0
  0
LINE
  5
299
330
291
100
AcDbEntity
  8
DIM
100
AcDbLine
 10
97.9586324968
 20
97.1405711535
 30
0.0
 11
97.9586324968
 21
95.3533905749
 31
0.0
  0
LINE
  5
29A
330
291
100
AcDbEntity
  8
DIM
100
AcDbLine
 10
97.9586324968
 20
90.3335711534
 30
0.0
 11
97.9586324968
 21
92.120751732
 31
0.0
  0
MTEXT
  5
29B
330
291
100
AcDbEntity
  8
DIM
100
AcDbMText
 10
94.8839799888
 20
94.4534405469
 30
-25.5759645472
 40
1.25
 41
0.0
 71
     1
 72
     1
  1
6
  7
SLDTEXTSTYLE0
 73
     1
 44
1.0
  0
MTEXT
  5
29C
330
291
100
AcDbEntity
  8
DIM
100
AcDbMText
 10
95.8075910658
 20
95.3484056815
 30
-25.5759645472
 40
1.25
 41
0.0
 71
     1
 72
     1
  1
13
  7
SLDTEXTSTYLE0
 73
     1
 44
1.0
  0
MTEXT
  5
29D
330
291
100
AcDbEntity
  8
DIM
100
AcDbMText
 10
97.6548132198
 20
93.73208626
 30
-25.5759645472
 40
1.25
 41
0.0
 71
     1
 72
     1
  1
16
  7
SLDTEXTSTYLE0
 73
     1
 44
1.0
  0
MTEXT
  5
29E
330
291
100
AcDbEntity
  8
DIM
100
AcDbMText
 10
99.5020352272
 20
94.4534405469
 30
-25.5759645472
 40
1.25
 41
0.0
 71
     1
 72
     1
  1
"
  7
SLDTEXTSTYLE0
 73
     1
 44
1.0
  0
ENDBLK
  5
293
330
291
100
AcDbEntity
  8
0
100
AcDbBlockEnd
  0
BLOCK
  5
2A1
330
2A0
100
AcDbEntity
  8
0
100
AcDbBlockBegin
  2
_D_8
 70
     0
 10
0.0
 20
0.0
 30
0.0
  3
_D_8
  1

  0
SOLID
  5
2A3
330
2A0
100
AcDbEntity
  8
DIM
100
AcDbTrace
 10
97.9586324968
 20
75.1565711534
 30
0.0
 11
98.2086324968
 21
76.1565711534
 31
0.0
 12
97.7086324968
 22
76.1565711534
 32
0.0
 13
97.7086324968
 23
76.1565711534
 33
0.0
  0
SOLID
  5
2A4
330
2A0
100
AcDbEntity
  8
DIM
100
AcDbTrace
 10
97.9586324968
 20
90.3335711534
 30
0.0
 11
97.7086324968
 21
89.3335711534
 31
0.0
 12
98.2086324968
 22
89.3335711534
 32
0.0
 13
98.2086324968
 23
89.3335711534
 33
0.0
  0
LINE
  5
2A5
330
2A0
100
AcDbEntity
  8
DIM
100
AcDbLine
 10
98.4048129505
 20
83.99507112
 30
0.0
 11
96.9048129026
 21
81.4950710402
 31
0.0
  0
LINE
  5
2A6
330
2A0
100
AcDbEntity
  8
DIM
100
AcDbLine
 10
93.6019292633
 20
75.1565711534
 30
0.0
 11
97.9980025755
 21
75.1565711534
 31
0.0
  0
LINE
  5
2A7
330
2A0
100
AcDbEntity
  8
DIM
100
AcDbLine
 10
68.6457278652
 20
90.3335711534
 30
0.0
 11
97.9980025755
 21
90.3335711534
 31
0.0
  0
LINE
  5
2A8
330
2A0
100
AcDbEntity
  8
DIM
100
AcDbLine
 10
97.9586324968
 20
75.1565711534
 30
0.0
 11
97.9586324968
 21
81.128751732
 31
0.0
  0
LINE
  5
2A9
330
2A0
100
AcDbEntity
  8
DIM
100
AcDbLine
 10
97.9586324968
 20
90.3335711534
 30
0.0
 11
97.9586324968
 21
84.3613905749
 31
0.0
  0
MTEXT
  5
2AA
330
2A0
100
AcDbEntity
  8
DIM
100
AcDbMText
 10
94.8839796954
 20
83.4614405469
 30
-25.5759645472
 40
1.25
 41
0.0
 71
     1
 72
     1
  1
15
  7
SLDTEXTSTYLE0
 73
     1
 44
1.0
  0
MTEXT
  5
2AB
330
2A0
100
AcDbEntity
  8
DIM
100
AcDbMText
 10
96.7312018495
 20
84.3564056815
 30
-25.5759645472
 40
1.25
 41
0.0
 71
     1
 72
     1
  1
3
  7
SLDTEXTSTYLE0
 73
     1
 44
1.0
  0
MTEXT
  5
2AC
330
2A0
100
AcDbEntity
  8
DIM
100
AcDbMText
 10
97.6548129265
 20
82.74008626
 30
-25.5759645472
 40
1.25
 41
0.0
 71
     1
 72
     1
  1
16
  7
SLDTEXTSTYLE0
 73
     1
 44
1.0
  0
MTEXT
  5
2AD
330
2A0
100
AcDbEntity
  8
DIM
100
AcDbMText
 10
99.5020352272
 20
83.4614405469
 30
-25.5759645472
 40
1.25
 41
0.0
 71
     1
 72
     1
  1
"
  7
SLDTEXTSTYLE0
 73
     1
 44
1.0
  0
ENDBLK
  5
2A2
330
2A0
100
AcDbEntity
  8
0
100
AcDbBlockEnd
  0
BLOCK
  5
2B0
330
2AF
100
AcDbEntity
  8
0
100
AcDbBlockBegin
  2
_D_9
 70
     0
 10
0.0
 20
0.0
 30
0.0
  3
_D_9
  1

  0
SOLID
  5
2B2
330
2AF
100
AcDbEntity
  8
DIM
100
AcDbTrace
 10
102.0688806477
 20
75.1565711534
 30
0.0
 11
102.3188806477
 21
76.1565711534
 31
0.0
 12
101.8188806477
 22
76.1565711534
 32
0.0
 13
101.8188806477
 23
76.1565711534
 33
0.0
  0
SOLID
  5
2B3
330
2AF
100
AcDbEntity
  8
DIM
100
AcDbTrace
 10
102.0688806477
 20
97.1405711535
 30
0.0
 11
101.8188806477
 21
96.1405711535
 31
0.0
 12
102.3188806477
 22
96.1405711535
 32
0.0
 13
102.3188806477
 23
96.1405711535
 33
0.0
  0
LINE
  5
2B4
330
2AF
100
AcDbEntity
  8
DIM
100
AcDbLine
 10
93.6019292633
 20
75.1565711534
 30
0.0
 11
102.1082507264
 21
75.1565711534
 31
0.0
  0
LINE
  5
2B5
330
2AF
100
AcDbEntity
  8
DIM
100
AcDbLine
 10
93.5998581955
 20
97.1405711535
 30
0.0
 11
102.1082507264
 21
97.1405711535
 31
0.0
  0
LINE
  5
2B6
330
2AF
100
AcDbEntity
  8
DIM
100
AcDbLine
 10
102.0688806477
 20
75.1565711534
 30
0.0
 11
102.0688806477
 21
85.156383642
 31
0.0
  0
LINE
  5
2B7
330
2AF
100
AcDbEntity
  8
DIM
100
AcDbLine
 10
102.0688806477
 20
97.1405711535
 30
0.0
 11
102.0688806477
 21
87.1407586649
 31
0.0
  0
MTEXT
  5
2B8
330
2AF
100
AcDbEntity
  8
DIM
100
AcDbMText
 10
100.3796445352
 20
86.76771839
 30
-25.5759645472
 40
1.25
 41
0.0
 71
     1
 72
     1
  1
22"
  7
SLDTEXTSTYLE0
 73
     1
 44
1.0
  0
ENDBLK
  5
2B1
330
2AF
100
AcDbEntity
  8
0
100
AcDbBlockEnd
  0
BLOCK
  5
2BB
330
2BA
100
AcDbEntity
  8
0
100
AcDbBlockBegin
  2
_D_10
 70
     0
 10
0.0
 20
0.0
 30
0.0
  3
_D_10
  1

  0
SOLID
  5
2BD
330
2BA
100
AcDbEntity
  8
DIM
100
AcDbTrace
 10
38.5915591846
 20
71.357303528
 30
0.0
 11
39.5915591846
 21
71.107303528
 31
0.0
 12
39.5915591846
 22
71.607303528
 32
0.0
 13
39.5915591846
 23
71.607303528
 33
0.0
  0
SOLID
  5
2BE
330
2BA
100
AcDbEntity
  8
DIM
100
AcDbTrace
 10
93.5915591846
 20
71.357303528
 30
0.0
 11
92.5915591846
 21
71.607303528
 31
0.0
 12
92.5915591846
 22
71.107303528
 32
0.0
 13
92.5915591846
 23
71.107303528
 33
0.0
  0
LINE
  5
2BF
330
2BA
100
AcDbEntity
  8
DIM
100
AcDbLine
 10
38.5915591846
 20
75.1462010747
 30
0.0
 11
38.5915591846
 21
71.3179334493
 31
0.0
  0
LINE
  5
2C0
330
2BA
100
AcDbEntity
  8
DIM
100
AcDbLine
 10
93.5915591846
 20
75.1462010747
 30
0.0
 11
93.5915591846
 21
71.3179334493
 31
0.0
  0
LINE
  5
2C1
330
2BA
100
AcDbEntity
  8
DIM
100
AcDbLine
 10
38.5915591846
 20
71.357303528
 30
0.0
 11
64.9728046717
 21
71.357303528
 31
0.0
  0
LINE
  5
2C2
330
2BA
100
AcDbEntity
  8
DIM
100
AcDbLine
 10
93.5915591846
 20
71.357303528
 30
0.0
 11
68.3512768966
 21
71.357303528
 31
0.0
  0
MTEXT
  5
2C3
330
2BA
100
AcDbEntity
  8
DIM
100
AcDbMText
 10
64.9728046717
 20
71.9764507646
 30
-25.5759645472
 40
1.25
 41
0.0
 71
     1
 72
     1
  1
55"
  7
SLDTEXTSTYLE0
 73
     1
 44
1.0
  0
ENDBLK
  5
2BC
330
2BA
100
AcDbEntity
  8
0
100
AcDbBlockEnd
  0
BLOCK
  5
2C7
330
2C6
100
AcDbEntity
  8
0
100
AcDbBlockBegin
  2
_D_11
 70
     0
 10
0.0
 20
0.0
 30
0.0
  3
_D_11
  1

  0
SOLID
  5
2C9
330
2C6
100
AcDbEntity
  8
DIM
100
AcDbTrace
 10
66.6193348993
 20
92.7750717863
 30
0.0
 11
67.0749791521
 21
93.6996734924
 31
0.0
 12
66.5862672607
 22
93.805317646
 32
0.0
 13
66.5862672607
 23
93.805317646
 33
0.0
  0
LINE
  5
2CA
330
2C6
100
AcDbEntity
  8
DIM
100
AcDbLine
 10
66.6193348993
 20
92.7750717863
 30
0.0
 11
68.2115244077
 21
100.1405711535
 31
0.0
  0
LINE
  5
2CB
330
2C6
100
AcDbEntity
  8
DIM
100
AcDbLine
 10
68.2115244077
 20
100.1405711535
 30
0.0
 11
68.9442974927
 21
100.1405711535
 31
0.0
  0
MTEXT
  5
2CC
330
2C6
100
AcDbEntity
  8
DIM
100
AcDbMText
 10
68.9442974927
 20
100.750169767
 30
-25.5759645472
 40
1.25
 41
0.0
 71
     1
 72
     1
  1
%%c
  7
SLDTEXTSTYLE0
 73
     1
 44
1.0
  0
MTEXT
  5
2CD
330
2C6
100
AcDbEntity
  8
DIM
100
AcDbMText
 10
70.8294538086
 20
100.769267013
 30
-25.5759645472
 40
1.25
 41
0.0
 71
     1
 72
     1
  1
5"
  7
SLDTEXTSTYLE0
 73
     1
 44
1.0
  0
ENDBLK
  5
2C8
330
2C6
100
AcDbEntity
  8
0
100
AcDbBlockEnd
  0
BLOCK
  5
2D0
330
2CF
100
AcDbEntity
  8
0
100
AcDbBlockBegin
  2
_D_12
 70
     0
 10
0.0
 20
0.0
 30
0.0
  3
_D_12
  1

  0
SOLID
  5
2D2
330
2CF
100
AcDbEntity
  8
DIM
100
AcDbTrace
 10
68.5385055114
 20
93.5658172997
 30
0.0
 11
69.3480074772
 21
94.2039446908
 31
0.0
 12
68.9524767089
 22
94.5098129816
 32
0.0
 13
68.9524767089
 23
94.5098129816
 33
0.0
  0
LINE
  5
2D3
330
2CF
100
AcDbEntity
  8
DIM
100
AcDbLine
 10
68.5385055114
 20
93.5658172997
 30
0.0
 11
73.6228349373
 21
100.1405711535
 31
0.0
  0
LINE
  5
2D4
330
2CF
100
AcDbEntity
  8
DIM
100
AcDbLine
 10
73.6228349373
 20
100.1405711535
 30
0.0
 11
74.5985649349
 21
100.1405711535
 31
0.0
  0
MTEXT
  5
2D5
330
2CF
100
AcDbEntity
  8
DIM
100
AcDbMText
 10
74.5985649349
 20
100.750169767
 30
-25.5759645472
 40
1.25
 41
0.0
 71
     1
 72
     1
  1
%%c
  7
SLDTEXTSTYLE0
 73
     1
 44
1.0
  0
MTEXT
  5
2D6
330
2CF
100
AcDbEntity
  8
DIM
100
AcDbMText
 10
76.4837212508
 20
100.769267013
 30
-25.5759645472
 40
1.25
 41
0.0
 71
     1
 72
     1
  1
8"
  7
SLDTEXTSTYLE0
 73
     1
 44
1.0
  0
ENDBLK
  5
2D1
330
2CF
100
AcDbEntity
  8
0
100
AcDbBlockEnd
  0
BLOCK
  5
2D8
330
2D7
100
AcDbEntity
  8
0
100
AcDbBlockBegin
  2
SW_CENTERMARKSYMBOL_0
 70
     0
 10
0.0
 20
0.0
 30
0.0
  3
SW_CENTERMARKSYMBOL_0
  1

  0
LINE
  5
2DA
330
2D7
100
AcDbEntity
  8
DIM
 62
     0
100
AcDbLine
 10
0.0
 20
0.0
 30
0.0
 11
0.0
 21
0.0984251969
 31
0.0
  0
LINE
  5
2DB
330
2D7
100
AcDbEntity
  8
DIM
 62
     0
100
AcDbLine
 10
0.0
 20
0.0
 30
0.0
 11
-0.0984251969
 21
0.0
 31
0.0
  0
LINE
  5
2DC
330
2D7
100
AcDbEntity
  8
DIM
 62
     0
100
AcDbLine
 10
0.0
 20
0.0
 30
0.0
 11
0.0
 21
-0.0984251969
 31
0.0
  0
LINE
  5
2DD
330
2D7
100
AcDbEntity
  8
DIM
 62
     0
100
AcDbLine
 10
0.0
 20
0.0
 30
0.0
 11
0.0984251969
 21
0.0
 31
0.0
  0
LINE
  5
2DE
330
2D7
100
AcDbEntity
  8
DIM
 62
     0
100
AcDbLine
 10
0.0
 20
0.1968503937
 30
0.0
 11
0.0
 21
2.5147986019
 31
0.0
  0
LINE
  5
2DF
330
2D7
100
AcDbEntity
  8
DIM
 62
     0
100
AcDbLine
 10
-0.1968503937
 20
0.0
 30
0.0
 11
-2.5147986019
 21
0.0
 31
0.0
  0
LINE
  5
2E0
330
2D7
100
AcDbEntity
  8
DIM
 62
     0
100
AcDbLine
 10
0.0
 20
-0.1968503937
 30
0.0
 11
0.0
 21
-2.5147986019
 31
0.0
  0
LINE
  5
2E1
330
2D7
100
AcDbEntity
  8
DIM
 62
     0
100
AcDbLine
 10
0.1968503937
 20
0.0
 30
0.0
 11
2.5147986019
 21
0.0
 31
0.0
  0
ENDBLK
  5
2D9
330
2D7
100
AcDbEntity
  8
0
100
AcDbBlockEnd
  0
BLOCK
  5
380
330
37F
100
AcDbEntity
  8
0
100
AcDbBlockBegin
  2
_D_13
 70
     0
 10
0.0
 20
0.0
 30
0.0
  3
_D_13
  1

  0
SOLID
  5
382
330
37F
100
AcDbEntity
  8
DIM
100
AcDbTrace
 10
115.1585326798
 20
60.4281577981
 30
0.0
 11
114.9085326798
 21
59.4281577981
 31
0.0
 12
115.4085326798
 22
59.4281577981
 32
0.0
 13
115.4085326798
 23
59.4281577981
 33
0.0
  0
SOLID
  5
383
330
37F
100
AcDbEntity
  8
DIM
100
AcDbTrace
 10
115.1585326798
 20
48.4301577981
 30
0.0
 11
115.4085326798
 21
49.4301577981
 31
0.0
 12
114.9085326798
 22
49.4301577981
 32
0.0
 13
114.9085326798
 23
49.4301577981
 33
0.0
  0
LINE
  5
384
330
37F
100
AcDbEntity
  8
DIM
100
AcDbLine
 10
110.4849149194
 20
60.4281577981
 30
0.0
 11
115.1979027586
 21
60.4281577981
 31
0.0
  0
LINE
  5
385
330
37F
100
AcDbEntity
  8
DIM
100
AcDbLine
 10
115.1585326798
 20
60.4281577981
 30
0.0
 11
115.1585326798
 21
55.579254387
 31
0.0
  0
LINE
  5
386
330
37F
100
AcDbEntity
  8
DIM
100
AcDbLine
 10
115.1585326798
 20
48.4301577981
 30
0.0
 11
115.1585326798
 21
53.594879364
 31
0.0
  0
MTEXT
  5
387
330
37F
100
AcDbEntity
  8
DIM
100
AcDbMText
 10
113.4692965674
 20
55.206214112
 30
0.0039370079
 40
1.25
 41
0.0
 71
     1
 72
     1
  1
12"
  7
SLDTEXTSTYLE0
 73
     1
 44
1.0
  0
ENDBLK
  5
381
330
37F
100
AcDbEntity
  8
0
100
AcDbBlockEnd
  0
BLOCK
  5
38A
330
389
100
AcDbEntity
  8
0
100
AcDbBlockBegin
  2
_D_14
 70
     0
 10
0.0
 20
0.0
 30
0.0
  3
_D_14
  1

  0
SOLID
  5
38C
330
389
100
AcDbEntity
  8
DIM
100
AcDbTrace
 10
126.9215448407
 20
4.1301558297
 30
0.0
 11
125.9215448407
 21
4.3801558297
 31
0.0
 12
125.9215448407
 22
3.8801558297
 32
0.0
 13
125.9215448407
 23
3.8801558297
 33
0.0
  0
SOLID
  5
38D
330
389
100
AcDbEntity
  8
DIM
100
AcDbTrace
 10
104.9455448407
 20
4.1301558296
 30
0.0
 11
105.9455448407
 21
3.8801558296
 31
0.0
 12
105.9455448407
 22
4.3801558296
 32
0.0
 13
105.9455448407
 23
4.3801558296
 33
0.0
  0
LINE
  5
38E
330
389
100
AcDbEntity
  8
DIM
100
AcDbLine
 10
126.9215448407
 20
9.1197877194
 30
0.0
 11
126.9215448407
 21
4.0907857509
 31
0.0
  0
LINE
  5
38F
330
389
100
AcDbEntity
  8
DIM
100
AcDbLine
 10
104.9455448407
 20
9.1197877194
 30
0.0
 11
104.9455448407
 21
4.0907857509
 31
0.0
  0
LINE
  5
390
330
389
100
AcDbEntity
  8
DIM
100
AcDbLine
 10
126.9215448407
 20
4.1301558297
 30
0.0
 11
117.2177328549
 21
4.1301558297
 31
0.0
  0
LINE
  5
391
330
389
100
AcDbEntity
  8
DIM
100
AcDbLine
 10
104.9455448407
 20
4.1301558296
 30
0.0
 11
113.83926063
 21
4.1301558297
 31
0.0
  0
MTEXT
  5
392
330
389
100
AcDbEntity
  8
DIM
100
AcDbMText
 10
113.83926063
 20
4.7493030662
 30
0.0039370079
 40
1.25
 41
0.0
 71
     1
 72
     1
  1
22"
  7
SLDTEXTSTYLE0
 73
     1
 44
1.0
  0
ENDBLK
  5
38B
330
389
100
AcDbEntity
  8
0
100
AcDbBlockEnd
  0
BLOCK
  5
396
330
395
100
AcDbEntity
  8
0
100
AcDbBlockBegin
  2
_D_15
 70
     0
 10
0.0
 20
0.0
 30
0.0
  3
_D_15
  1

  0
SOLID
  5
398
330
395
100
AcDbEntity
  8
DIM
100
AcDbTrace
 10
104.4455448407
 20
4.1301558297
 30
0.0
 11
103.4455448407
 21
4.3801558297
 31
0.0
 12
103.4455448407
 22
3.8801558297
 32
0.0
 13
103.4455448407
 23
3.8801558297
 33
0.0
  0
SOLID
  5
399
330
395
100
AcDbEntity
  8
DIM
100
AcDbTrace
 10
104.9455448407
 20
4.1301558297
 30
0.0
 11
105.9455448407
 21
3.8801558297
 31
0.0
 12
105.9455448407
 22
4.3801558297
 32
0.0
 13
105.9455448407
 23
4.3801558297
 33
0.0
  0
LINE
  5
39A
330
395
100
AcDbEntity
  8
DIM
100
AcDbLine
 10
101.2705527072
 20
5.3801557962
 30
0.0
 11
99.7705526593
 21
2.8801557164
 31
0.0
  0
LINE
  5
39B
330
395
100
AcDbEntity
  8
DIM
100
AcDbLine
 10
104.4455448407
 20
10.0907877194
 30
0.0
 11
104.4455448407
 21
4.0907857509
 31
0.0
  0
LINE
  5
39C
330
395
100
AcDbEntity
  8
DIM
100
AcDbLine
 10
104.9455448407
 20
9.1197877194
 30
0.0
 11
104.9455448407
 21
4.0907857509
 31
0.0
  0
LINE
  5
39D
330
395
100
AcDbEntity
  8
DIM
100
AcDbLine
 10
104.4455448407
 20
4.1301558297
 30
0.0
 11
102.9754138312
 21
4.1301558297
 31
0.0
  0
LINE
  5
39E
330
395
100
AcDbEntity
  8
DIM
100
AcDbLine
 10
104.9455448407
 20
4.1301558297
 30
0.0
 11
106.4455448407
 21
4.1301558297
 31
0.0
  0
MTEXT
  5
39F
330
395
100
AcDbEntity
  8
DIM
100
AcDbMText
 10
99.5969416062
 20
5.7414903577
 30
0.0039370079
 40
1.25
 41
0.0
 71
     1
 72
     1
  1
1
  7
SLDTEXTSTYLE0
 73
     1
 44
1.0
  0
MTEXT
  5
3A0
330
395
100
AcDbEntity
  8
DIM
100
AcDbMText
 10
100.5205526833
 20
4.1251709362
 30
0.0039370079
 40
1.25
 41
0.0
 71
     1
 72
     1
  1
2
  7
SLDTEXTSTYLE0
 73
     1
 44
1.0
  0
MTEXT
  5
3A1
330
395
100
AcDbEntity
  8
DIM
100
AcDbMText
 10
101.4441637603
 20
4.8465252231
 30
0.0039370079
 40
1.25
 41
0.0
 71
     1
 72
     1
  1
"
  7
SLDTEXTSTYLE0
 73
     1
 44
1.0
  0
ENDBLK
  5
397
330
395
100
AcDbEntity
  8
0
100
AcDbBlockEnd
  0
BLOCK
  5
3A4
330
3A3
100
AcDbEntity
  8
0
100
AcDbBlockBegin
  2
_D_16
 70
     0
 10
0.0
 20
0.0
 30
0.0
  3
_D_16
  1

  0
SOLID
  5
3A6
330
3A3
100
AcDbEntity
  8
DIM
100
AcDbTrace
 10
99.1462772153
 20
9.1301577982
 30
0.0
 11
99.3962772153
 21
10.1301577982
 31
0.0
 12
98.8962772153
 22
10.1301577982
 32
0.0
 13
98.8962772153
 23
10.1301577982
 33
0.0
  0
SOLID
  5
3A7
330
3A3
100
AcDbEntity
  8
DIM
100
AcDbTrace
 10
99.1462772153
 20
48.4301577981
 30
0.0
 11
98.8962772153
 21
47.4301577981
 31
0.0
 12
99.3962772153
 22
47.4301577981
 32
0.0
 13
99.3962772153
 23
47.4301577981
 33
0.0
  0
LINE
  5
3A8
330
3A3
100
AcDbEntity
  8
DIM
100
AcDbLine
 10
99.592457669
 20
28.2854981761
 30
0.0
 11
98.0924576211
 21
25.7854980963
 31
0.0
  0
LINE
  5
3A9
330
3A3
100
AcDbEntity
  8
DIM
100
AcDbLine
 10
104.935174762
 20
9.1301577982
 30
0.0
 11
99.1069071365
 21
9.1301577982
 31
0.0
  0
LINE
  5
3AA
330
3A3
100
AcDbEntity
  8
DIM
100
AcDbLine
 10
104.935174762
 20
48.4301577981
 30
0.0
 11
99.1069071365
 21
48.4301577981
 31
0.0
  0
LINE
  5
3AB
330
3A3
100
AcDbEntity
  8
DIM
100
AcDbLine
 10
99.1462772153
 20
9.1301577982
 30
0.0
 11
99.1462772153
 21
25.4191787881
 31
0.0
  0
LINE
  5
3AC
330
3A3
100
AcDbEntity
  8
DIM
100
AcDbLine
 10
99.1462772153
 20
48.4301577981
 30
0.0
 11
99.1462772153
 21
28.651817631
 31
0.0
  0
MTEXT
  5
3AD
330
3A3
100
AcDbEntity
  8
DIM
100
AcDbMText
 10
96.0716244139
 20
27.751867603
 30
0.0039370079
 40
1.25
 41
0.0
 71
     1
 72
     1
  1
39
  7
SLDTEXTSTYLE0
 73
     1
 44
1.0
  0
MTEXT
  5
3AE
330
3A3
100
AcDbEntity
  8
DIM
100
AcDbMText
 10
97.918846568
 20
28.6468327376
 30
0.0039370079
 40
1.25
 41
0.0
 71
     1
 72
     1
  1
5
  7
SLDTEXTSTYLE0
 73
     1
 44
1.0
  0
MTEXT
  5
3AF
330
3A3
100
AcDbEntity
  8
DIM
100
AcDbMText
 10
98.842457645
 20
27.0305133161
 30
0.0039370079
 40
1.25
 41
0.0
 71
     1
 72
     1
  1
16
  7
SLDTEXTSTYLE0
 73
     1
 44
1.0
  0
MTEXT
  5
3B0
330
3A3
100
AcDbEntity
  8
DIM
100
AcDbMText
 10
100.6896799458
 20
27.751867603
 30
0.0039370079
 40
1.25
 41
0.0
 71
     1
 72
     1
  1
"
  7
SLDTEXTSTYLE0
 73
     1
 44
1.0
  0
ENDBLK
  5
3A5
330
3A3
100
AcDbEntity
  8
0
100
AcDbBlockEnd
  0
BLOCK
  5
455
330
454
100
AcDbEntity
  8
0
100
AcDbBlockBegin
  2
_D_17
 70
     0
 10
0.0
 20
0.0
 30
0.0
  3
_D_17
  1

  0
SOLID
  5
457
330
454
100
AcDbEntity
  8
DIM
100
AcDbTrace
 10
24.8621675134
 20
6.1301558297
 30
0.0
 11
23.8621675134
 21
6.3801558297
 31
0.0
 12
23.8621675134
 22
5.8801558297
 32
0.0
 13
23.8621675134
 23
5.8801558297
 33
0.0
  0
SOLID
  5
458
330
454
100
AcDbEntity
  8
DIM
100
AcDbTrace
 10
17.3381675134
 20
6.1301558297
 30
0.0
 11
18.3381675134
 21
5.8801558297
 31
0.0
 12
18.3381675134
 22
6.3801558297
 32
0.0
 13
18.3381675134
 23
6.3801558297
 33
0.0
  0
LINE
  5
459
330
454
100
AcDbEntity
  8
DIM
100
AcDbLine
 10
21.5463479671
 20
7.3801557962
 30
0.0
 11
20.0463479193
 21
4.8801557164
 31
0.0
  0
LINE
  5
45A
330
454
100
AcDbEntity
  8
DIM
100
AcDbLine
 10
24.8621675134
 20
10.2157877194
 30
0.0
 11
24.8621675134
 21
6.0907857509
 31
0.0
  0
LINE
  5
45B
330
454
100
AcDbEntity
  8
DIM
100
AcDbLine
 10
17.3381675134
 20
11.4590723982
 30
0.0
 11
17.3381675134
 21
6.0907857509
 31
0.0
  0
LINE
  5
45C
330
454
100
AcDbEntity
  8
DIM
100
AcDbLine
 10
24.8621675134
 20
6.1301558297
 30
0.0
 11
23.2512092378
 21
6.1301558297
 31
0.0
  0
LINE
  5
45D
330
454
100
AcDbEntity
  8
DIM
100
AcDbLine
 10
17.3381675134
 20
6.1301558297
 30
0.0
 11
18.9491257891
 21
6.1301558297
 31
0.0
  0
MTEXT
  5
45E
330
454
100
AcDbEntity
  8
DIM
100
AcDbMText
 10
18.9491257891
 20
6.8465252231
 30
0.0039370079
 40
1.25
 41
0.0
 71
     1
 72
     1
  1
7
  7
SLDTEXTSTYLE0
 73
     1
 44
1.0
  0
MTEXT
  5
45F
330
454
100
AcDbEntity
  8
DIM
100
AcDbMText
 10
19.8727368662
 20
7.7414903577
 30
0.0039370079
 40
1.25
 41
0.0
 71
     1
 72
     1
  1
1
  7
SLDTEXTSTYLE0
 73
     1
 44
1.0
  0
MTEXT
  5
460
330
454
100
AcDbEntity
  8
DIM
100
AcDbMText
 10
20.7963479432
 20
6.1251709362
 30
0.0039370079
 40
1.25
 41
0.0
 71
     1
 72
     1
  1
2
  7
SLDTEXTSTYLE0
 73
     1
 44
1.0
  0
MTEXT
  5
461
330
454
100
AcDbEntity
  8
DIM
100
AcDbMText
 10
21.7199591669
 20
6.8465252231
 30
0.0039370079
 40
1.25
 41
0.0
 71
     1
 72
     1
  1
"
  7
SLDTEXTSTYLE0
 73
     1
 44
1.0
  0
ENDBLK
  5
456
330
454
100
AcDbEntity
  8
0
100
AcDbBlockEnd
  0
BLOCK
  5
464
330
463
100
AcDbEntity
  8
0
100
AcDbBlockBegin
  2
_D_18
 70
     0
 10
0.0
 20
0.0
 30
0.0
  3
_D_18
  1

  0
SOLID
  5
466
330
463
100
AcDbEntity
  8
DIM
100
AcDbTrace
 10
13.226115042
 20
12.4041577982
 30
0.0
 11
13.476115042
 21
13.4041577982
 31
0.0
 12
12.976115042
 22
13.4041577982
 32
0.0
 13
12.976115042
 23
13.4041577982
 33
0.0
  0
SOLID
  5
467
330
463
100
AcDbEntity
  8
DIM
100
AcDbTrace
 10
13.226115042
 20
9.1301577982
 30
0.0
 11
12.976115042
 21
8.1301577982
 31
0.0
 12
13.476115042
 22
8.1301577982
 32
0.0
 13
13.476115042
 23
8.1301577982
 33
0.0
  0
LINE
  5
468
330
463
100
AcDbEntity
  8
DIM
100
AcDbLine
 10
10.6714307024
 20
7.3801557962
 30
0.0
 11
9.1714306546
 21
4.8801557164
 31
0.0
  0
LINE
  5
469
330
463
100
AcDbEntity
  8
DIM
100
AcDbLine
 10
16.3930821134
 20
12.4041577982
 30
0.0
 11
13.1867449633
 21
12.4041577982
 31
0.0
  0
LINE
  5
46A
330
463
100
AcDbEntity
  8
DIM
100
AcDbLine
 10
12.3762919731
 20
6.1301558297
 30
0.0
 11
13.226115042
 21
6.1301558297
 31
0.0
  0
LINE
  5
46B
330
463
100
AcDbEntity
  8
DIM
100
AcDbLine
 10
13.226115042
 20
6.1301558297
 30
0.0
 11
13.226115042
 21
9.1301577982
 31
0.0
  0
LINE
  5
46C
330
463
100
AcDbEntity
  8
DIM
100
AcDbLine
 10
13.226115042
 20
12.4041577982
 30
0.0
 11
13.226115042
 21
13.9041577982
 31
0.0
  0
MTEXT
  5
46D
330
463
100
AcDbEntity
  8
DIM
100
AcDbMText
 10
8.0742085244
 20
6.8465252231
 30
0.0039370079
 40
1.25
 41
0.0
 71
     1
 72
     1
  1
3
  7
SLDTEXTSTYLE0
 73
     1
 44
1.0
  0
MTEXT
  5
46E
330
463
100
AcDbEntity
  8
DIM
100
AcDbMText
 10
8.9978196015
 20
7.7414903577
 30
0.0039370079
 40
1.25
 41
0.0
 71
     1
 72
     1
  1
1
  7
SLDTEXTSTYLE0
 73
     1
 44
1.0
  0
MTEXT
  5
46F
330
463
100
AcDbEntity
  8
DIM
100
AcDbMText
 10
9.9214306785
 20
6.1251709362
 30
0.0039370079
 40
1.25
 41
0.0
 71
     1
 72
     1
  1
4
  7
SLDTEXTSTYLE0
 73
     1
 44
1.0
  0
MTEXT
  5
470
330
463
100
AcDbEntity
  8
DIM
100
AcDbMText
 10
10.8450419022
 20
6.8465252231
 30
0.0039370079
 40
1.25
 41
0.0
 71
     1
 72
     1
  1
"
  7
SLDTEXTSTYLE0
 73
     1
 44
1.0
  0
ENDBLK
  5
465
330
463
100
AcDbEntity
  8
0
100
AcDbBlockEnd
  0
ENDSEC
  0
SECTION
  2
ENTITIES
  0
MTEXT
  5
48
330
1F
100
AcDbEntity
  8
NOTES
100
AcDbMText
 10
1.9812005021
 20
101.668228453
 30
0.0
 40
2.0
 41
0.0
 71
     1
 72
     1
  1
DVTT36FP92(N,P)
  7
SLDTEXTSTYLE0
 73
     1
 44
1.0
  0
ELLIPSE
  5
49
330
1F
100
AcDbEntity
  8
SLD-0
  6
Continuous
370
    15
100
AcDbEllipse
 10
85.0411801799
 20
10.1751577982
 30
0.0
 11
0.0
 21
0.04500000000000171
 31
0.0
210
0.0
220
0.0
230
1.0
 40
0.3639778813
 41
3.141592653589793
 42
5.849226838483272
  0
LINE
  5
4A
330
1F
100
AcDbEntity
  8
SLD-0
  6
Continuous
370
    15
100
AcDbLine
 10
85.048066704
 20
10.2159867146
 30
0.0
 11
47.1350516651
 21
10.2159867146
 31
0.0
  0
ELLIPSE
  5
4B
330
1F
100
AcDbEntity
  8
SLD-0
  6
Continuous
370
    15
100
AcDbEllipse
 10
47.1419381892
 20
10.1751577982
 30
0.0
 11
0.0
 21
0.04500000000000171
 31
0.0
210
0.0
220
0.0
230
1.0
 40
0.3639778813
 41
0.4339584686959245
 42
3.141592653589793
  0
LINE
  5
4C
330
1F
100
AcDbEntity
  8
SLD-0
  6
Continuous
370
    15
100
AcDbLine
 10
85.0094574434
 20
10.26514412
 30
0.0
 11
85.048066704
 21
10.2159867146
 31
0.0
  0
LINE
  5
4D
330
1F
100
AcDbEntity
  8
SLD-0
  6
Continuous
370
    15
100
AcDbLine
 10
47.1350516651
 20
10.2159867146
 30
0.0
 11
47.1736609257
 21
10.26514412
 31
0.0
  0
LINE
  5
4E
330
1F
100
AcDbEntity
  8
SLD-0
  6
Continuous
370
    15
100
AcDbLine
 10
46.253950697
 20
43.0021586126
 30
0.0
 11
46.253950697
 21
10.1301577861
 31
0.0
  0
LINE
  5
4F
330
1F
100
AcDbEntity
  8
SLD-0
  6
Continuous
370
    15
100
AcDbLine
 10
46.835002118
 20
10.1301577861
 30
0.0
 11
46.835002118
 21
43.0021586126
 31
0.0
  0
LINE
  5
50
330
1F
100
AcDbEntity
  8
SLD-0
  6
Continuous
370
    15
100
AcDbLine
 10
46.835002118
 20
43.0021586126
 30
0.0
 11
46.253950697
 21
43.0021586126
 31
0.0
  0
LINE
  5
51
330
1F
100
AcDbEntity
  8
SLD-0
  6
Continuous
370
    15
100
AcDbLine
 10
46.253950697
 20
10.1301577861
 30
0.0
 11
46.835002118
 21
10.1301577861
 31
0.0
  0
LINE
  5
52
330
1F
100
AcDbEntity
  8
SLD-0
  6
Continuous
370
    15
100
AcDbLine
 10
48.5725197527
 20
43.0021586126
 30
0.0
 11
48.5725197527
 21
11.970409174
 31
0.0
  0
LINE
  5
53
330
1F
100
AcDbEntity
  8
SLD-0
  6
Continuous
370
    15
100
AcDbLine
 10
85.3481162512
 20
10.1301577861
 30
0.0
 11
85.3481162512
 21
43.0021586126
 31
0.0
  0
LINE
  5
54
330
1F
100
AcDbEntity
  8
SLD-0
  6
Continuous
370
    15
100
AcDbLine
 10
85.9291676722
 20
43.0021586126
 30
0.0
 11
85.9291676722
 21
10.1301577861
 31
0.0
  0
LINE
  5
55
330
1F
100
AcDbEntity
  8
SLD-0
  6
Continuous
370
    15
100
AcDbLine
 10
85.9291676722
 20
43.0021586126
 30
0.0
 11
85.3481162512
 21
43.0021586126
 31
0.0
  0
LINE
  5
56
330
1F
100
AcDbEntity
  8
SLD-0
  6
Continuous
370
    15
100
AcDbLine
 10
85.3481162512
 20
10.1301577861
 30
0.0
 11
85.9291676722
 21
10.1301577861
 31
0.0
  0
LINE
  5
57
330
1F
100
AcDbEntity
  8
SLD-0
  6
Continuous
370
    15
100
AcDbLine
 10
83.6105986165
 20
43.0021586126
 30
0.0
 11
83.6105986165
 21
11.970409174
 31
0.0
  0
LINE
  5
58
330
1F
100
AcDbEntity
  8
SLD-0
  6
Continuous
370
    15
100
AcDbLine
 10
46.2514820322
 20
11.1936578404
 30
0.0
 11
46.253950697
 21
11.1936578404
 31
0.0
  0
LINE
  5
59
330
1F
100
AcDbEntity
  8
SLD-0
  6
Continuous
370
    15
100
AcDbLine
 10
46.253950697
 20
11.1906460752
 30
0.0
 11
46.2514820322
 21
11.1936578404
 31
0.0
  0
LINE
  5
5A
330
1F
100
AcDbEntity
  8
SLD-0
  6
Continuous
370
    15
100
AcDbLine
 10
46.2514820322
 20
11.1936578404
 30
0.0
 11
46.2514820322
 21
43.0021586126
 31
0.0
  0
LINE
  5
5B
330
1F
100
AcDbEntity
  8
SLD-0
  6
Continuous
370
    15
100
AcDbLine
 10
85.931636337
 20
43.0021586126
 30
0.0
 11
85.931636337
 21
11.1936578404
 31
0.0
  0
LINE
  5
5C
330
1F
100
AcDbEntity
  8
SLD-0
  6
Continuous
370
    15
100
AcDbLine
 10
85.9291676722
 20
11.1936578404
 30
0.0
 11
85.931636337
 21
11.1936578404
 31
0.0
  0
LINE
  5
5D
330
1F
100
AcDbEntity
  8
SLD-0
  6
Continuous
370
    15
100
AcDbLine
 10
85.931636337
 20
11.1936578404
 30
0.0
 11
85.9291676722
 21
11.1906460752
 31
0.0
  0
LINE
  5
5E
330
1F
100
AcDbEntity
  8
SLD-0
  6
Continuous
370
    15
100
AcDbLine
 10
48.5725197527
 20
12.1041576556
 30
0.0
 11
83.6105986165
 21
12.1041576556
 31
0.0
  0
LINE
  5
5F
330
1F
100
AcDbEntity
  8
SLD-0
  6
Continuous
370
    15
100
AcDbLine
 10
46.1575601305
 20
39.2596580596
 30
0.0
 11
46.2090172427
 21
39.2596580596
 31
0.0
  0
LINE
  5
60
330
1F
100
AcDbEntity
  8
SLD-0
  6
Continuous
370
    15
100
AcDbLine
 10
46.2090172427
 20
39.2596580596
 30
0.0
 11
46.2090172427
 21
36.2596577292
 31
0.0
  0
LINE
  5
61
330
1F
100
AcDbEntity
  8
SLD-0
  6
Continuous
370
    15
100
AcDbLine
 10
46.1575601305
 20
36.2596577292
 30
0.0
 11
46.2090172427
 21
36.2596577292
 31
0.0
  0
LINE
  5
62
330
1F
100
AcDbEntity
  8
SLD-0
  6
Continuous
370
    15
100
AcDbLine
 10
46.2090172427
 20
36.2596577292
 30
0.0
 11
46.2514820322
 21
36.2596577292
 31
0.0
  0
LINE
  5
63
330
1F
100
AcDbEntity
  8
SLD-0
  6
Continuous
370
    15
100
AcDbLine
 10
46.2090172427
 20
39.2596580596
 30
0.0
 11
46.2514820322
 21
39.2596580596
 31
0.0
  0
LINE
  5
64
330
1F
100
AcDbEntity
  8
SLD-0
  6
Continuous
370
    15
100
AcDbLine
 10
46.1575601305
 20
18.9556578931
 30
0.0
 11
46.2090172427
 21
18.9556578931
 31
0.0
  0
LINE
  5
65
330
1F
100
AcDbEntity
  8
SLD-0
  6
Continuous
370
    15
100
AcDbLine
 10
46.2090172427
 20
18.9556578931
 30
0.0
 11
46.2090172427
 21
15.9556575627
 31
0.0
  0
LINE
  5
66
330
1F
100
AcDbEntity
  8
SLD-0
  6
Continuous
370
    15
100
AcDbLine
 10
46.1575601305
 20
15.9556575627
 30
0.0
 11
46.2090172427
 21
15.9556575627
 31
0.0
  0
LINE
  5
67
330
1F
100
AcDbEntity
  8
SLD-0
  6
Continuous
370
    15
100
AcDbLine
 10
46.2090172427
 20
15.9556575627
 30
0.0
 11
46.2514820322
 21
15.9556575627
 31
0.0
  0
LINE
  5
68
330
1F
100
AcDbEntity
  8
SLD-0
  6
Continuous
370
    15
100
AcDbLine
 10
46.2090172427
 20
18.9556578931
 30
0.0
 11
46.2514820322
 21
18.9556578931
 31
0.0
  0
LINE
  5
69
330
1F
100
AcDbEntity
  8
SLD-0
  6
Continuous
370
    15
100
AcDbLine
 10
85.9534624315
 20
36.2596577292
 30
0.0
 11
85.9534624315
 21
39.2596580596
 31
0.0
  0
LINE
  5
6A
330
1F
100
AcDbEntity
  8
SLD-0
  6
Continuous
370
    15
100
AcDbLine
 10
86.0255582386
 20
36.2596577292
 30
0.0
 11
85.9534624315
 21
36.2596577292
 31
0.0
  0
LINE
  5
6B
330
1F
100
AcDbEntity
  8
SLD-0
  6
Continuous
370
    15
100
AcDbLine
 10
86.0255582386
 20
39.2596580596
 30
0.0
 11
85.9534624315
 21
39.2596580596
 31
0.0
  0
LINE
  5
6C
330
1F
100
AcDbEntity
  8
SLD-0
  6
Continuous
370
    15
100
AcDbLine
 10
85.9534624315
 20
36.2596577292
 30
0.0
 11
85.931636337
 21
36.2596577292
 31
0.0
  0
LINE
  5
6D
330
1F
100
AcDbEntity
  8
SLD-0
  6
Continuous
370
    15
100
AcDbLine
 10
85.9534624315
 20
39.2596580596
 30
0.0
 11
85.931636337
 21
39.2596580596
 31
0.0
  0
LINE
  5
6E
330
1F
100
AcDbEntity
  8
SLD-0
  6
Continuous
370
    15
100
AcDbLine
 10
85.9534624315
 20
15.9556575627
 30
0.0
 11
85.9534624315
 21
18.9556578931
 31
0.0
  0
LINE
  5
6F
330
1F
100
AcDbEntity
  8
SLD-0
  6
Continuous
370
    15
100
AcDbLine
 10
86.0255582386
 20
15.9556575627
 30
0.0
 11
85.9534624315
 21
15.9556575627
 31
0.0
  0
LINE
  5
70
330
1F
100
AcDbEntity
  8
SLD-0
  6
Continuous
370
    15
100
AcDbLine
 10
86.0255582386
 20
18.9556578931
 30
0.0
 11
85.9534624315
 21
18.9556578931
 31
0.0
  0
LINE
  5
71
330
1F
100
AcDbEntity
  8
SLD-0
  6
Continuous
370
    15
100
AcDbLine
 10
85.9534624315
 20
15.9556575627
 30
0.0
 11
85.931636337
 21
15.9556575627
 31
0.0
  0
LINE
  5
72
330
1F
100
AcDbEntity
  8
SLD-0
  6
Continuous
370
    15
100
AcDbLine
 10
85.9534624315
 20
18.9556578931
 30
0.0
 11
85.931636337
 21
18.9556578931
 31
0.0
  0
ARC
  5
73
330
1F
100
AcDbEntity
  8
SLD-0
  6
Continuous
370
    15
100
AcDbCircle
 10
83.2455002177
 20
59.5391577981
 30
0.0
 40
0.125
100
AcDbArc
 50
0.0
 51
90.0
  0
LINE
  5
74
330
1F
100
AcDbEntity
  8
SLD-0
  6
Continuous
370
    15
100
AcDbLine
 10
83.3704998434
 20
58.9331566563
 30
0.0
 11
83.3704998434
 21
59.5391575491
 31
0.0
  0
LINE
  5
75
330
1F
100
AcDbEntity
  8
SLD-0
  6
Continuous
370
    15
100
AcDbLine
 10
83.3704998434
 20
58.9331566563
 30
0.0
 11
48.8126185257
 21
58.9331566563
 31
0.0
  0
LINE
  5
76
330
1F
100
AcDbEntity
  8
SLD-0
  6
Continuous
370
    15
100
AcDbLine
 10
48.8126185257
 20
59.5391575491
 30
0.0
 11
48.8126185257
 21
58.9331566563
 31
0.0
  0
ARC
  5
77
330
1F
100
AcDbEntity
  8
SLD-0
  6
Continuous
370
    15
100
AcDbCircle
 10
48.9376181515
 20
59.5391577981
 30
0.0
 40
0.1250000000000071
100
AcDbArc
 50
90.0
 51
180.0
  0
LINE
  5
78
330
1F
100
AcDbEntity
  8
SLD-0
  6
Continuous
370
    15
100
AcDbLine
 10
83.2455002208
 20
59.6641583451
 30
0.0
 11
48.9376181484
 21
59.6641583451
 31
0.0
  0
LINE
  5
79
330
1F
100
AcDbEntity
  8
SLD-0
  6
Continuous
370
    15
100
AcDbLine
 10
48.8126185257
 20
58.8941555069
 30
0.0
 11
48.8126185257
 21
58.9331566563
 31
0.0
  0
LINE
  5
7A
330
1F
100
AcDbEntity
  8
SLD-0
  6
Continuous
370
    15
100
AcDbLine
 10
83.3704998434
 20
58.9331566563
 30
0.0
 11
83.3704998434
 21
58.8941555069
 31
0.0
  0
LINE
  5
7B
330
1F
100
AcDbEntity
  8
SLD-0
  6
Continuous
370
    15
100
AcDbLine
 10
83.3704998434
 20
58.8941555069
 30
0.0
 11
48.8126185257
 21
58.8941555069
 31
0.0
  0
LINE
  5
7C
330
1F
100
AcDbEntity
  8
SLD-0
  6
Continuous
370
    15
100
AcDbLine
 10
48.8036179897
 20
58.8941555069
 30
0.0
 11
48.8036179897
 21
58.9281583141
 31
0.0
  0
LINE
  5
7D
330
1F
100
AcDbEntity
  8
SLD-0
  6
Continuous
370
    15
100
AcDbLine
 10
48.8126185257
 20
58.8941555069
 30
0.0
 11
48.8036179897
 21
58.8941555069
 31
0.0
  0
LINE
  5
7E
330
1F
100
AcDbEntity
  8
SLD-0
  6
Continuous
370
    15
100
AcDbLine
 10
48.8126185257
 20
58.9281583141
 30
0.0
 11
48.8036179897
 21
58.9281583141
 31
0.0
  0
LINE
  5
7F
330
1F
100
AcDbEntity
  8
SLD-0
  6
Continuous
370
    15
100
AcDbLine
 10
48.7989986297
 20
58.9312464917
 30
0.0
 11
48.7675865126
 21
58.9182320287
 31
0.0
  0
LINE
  5
80
330
1F
100
AcDbEntity
  8
SLD-0
  6
Continuous
370
    15
100
AcDbLine
 10
48.7675865126
 20
58.9182320287
 30
0.0
 11
48.6340533352
 21
59.2406133712
 31
0.0
  0
LINE
  5
81
330
1F
100
AcDbEntity
  8
SLD-0
  6
Continuous
370
    15
100
AcDbLine
 10
48.665464279
 20
59.2536231409
 30
0.0
 11
48.6340533352
 21
59.2406133712
 31
0.0
  0
LINE
  5
82
330
1F
100
AcDbEntity
  8
SLD-0
  6
Continuous
370
    15
100
AcDbLine
 10
48.665464279
 20
59.2536231409
 30
0.0
 11
48.7989986297
 21
58.9312464917
 31
0.0
  0
ARC
  5
83
330
1F
100
AcDbEntity
  8
SLD-0
  6
Continuous
370
    15
100
AcDbCircle
 10
48.8036181515
 20
58.9331577981
 30
0.0
 40
0.0390000000000022
100
AcDbArc
 50
202.5
 51
270.0
  0
ARC
  5
84
330
1F
100
AcDbEntity
  8
SLD-0
  6
Continuous
370
    15
100
AcDbCircle
 10
48.8036181515
 20
58.9331577981
 30
0.0
 40
0.0050000000000118
100
AcDbArc
 50
202.4999999998
 51
270.0
  0
LINE
  5
85
330
1F
100
AcDbEntity
  8
SLD-0
  6
Continuous
370
    15
100
AcDbLine
 10
83.3795003795
 20
58.9281583141
 30
0.0
 11
83.3795003795
 21
58.8941555069
 31
0.0
  0
LINE
  5
86
330
1F
100
AcDbEntity
  8
SLD-0
  6
Continuous
370
    15
100
AcDbLine
 10
83.4155318566
 20
58.9182320287
 30
0.0
 11
83.3841197394
 21
58.9312464917
 31
0.0
  0
ARC
  5
87
330
1F
100
AcDbEntity
  8
SLD-0
  6
Continuous
370
    15
100
AcDbCircle
 10
83.3795002177
 20
58.9331577981
 30
0.0
 40
0.0389999999999946
100
AcDbArc
 50
270.0
 51
337.5
  0
ARC
  5
88
330
1F
100
AcDbEntity
  8
SLD-0
  6
Continuous
370
    15
100
AcDbCircle
 10
83.3795002177
 20
58.9331577981
 30
0.0
 40
0.0049999999976649
100
AcDbArc
 50
270.0
 51
337.5
  0
LINE
  5
89
330
1F
100
AcDbEntity
  8
SLD-0
  6
Continuous
370
    15
100
AcDbLine
 10
83.3795003795
 20
58.8941555069
 30
0.0
 11
83.3704998434
 21
58.8941555069
 31
0.0
  0
LINE
  5
8A
330
1F
100
AcDbEntity
  8
SLD-0
  6
Continuous
370
    15
100
AcDbLine
 10
83.3795003795
 20
58.9281583141
 30
0.0
 11
83.3704998434
 21
58.9281583141
 31
0.0
  0
LINE
  5
8B
330
1F
100
AcDbEntity
  8
SLD-0
  6
Continuous
370
    15
100
AcDbLine
 10
83.549065034
 20
59.2406133712
 30
0.0
 11
83.5176540902
 21
59.2536231409
 31
0.0
  0
LINE
  5
8C
330
1F
100
AcDbEntity
  8
SLD-0
  6
Continuous
370
    15
100
AcDbLine
 10
83.5176540902
 20
59.2536231409
 30
0.0
 11
83.3841197394
 21
58.9312464917
 31
0.0
  0
LINE
  5
8D
330
1F
100
AcDbEntity
  8
SLD-0
  6
Continuous
370
    15
100
AcDbLine
 10
83.549065034
 20
59.2406133712
 30
0.0
 11
83.4155318566
 21
58.9182320287
 31
0.0
  0
LINE
  5
8E
330
1F
100
AcDbEntity
  8
SLD-0
  6
Continuous
370
    15
100
AcDbLine
 10
48.5862170878
 20
59.3560961972
 30
0.0
 11
48.6176292049
 21
59.3691106602
 31
0.0
  0
LWPOLYLINE
  5
8F
330
1F
100
AcDbEntity
  8
SLD-0
  6
Continuous
370
    15
100
AcDbPolyline
 90
       10
 70
   128
 43
0.0
 10
48.6176292049
 20
59.3691106602
 10
48.6183566632
 20
59.3673553738
 10
48.6205143982
 20
59.3621458339
 10
48.6240378775
 20
59.3536369189
 10
48.6288203289
 20
59.3420914523
 10
48.6347162608
 20
59.3278567367
 10
48.6415473286
 20
59.3113645539
 10
48.6491046813
 20
59.293121778
 10
48.6571583483
 20
59.2736775226
 10
48.665464279
 20
59.2536231409
  0
LWPOLYLINE
  5
90
330
1F
100
AcDbEntity
  8
SLD-0
  6
Continuous
370
    15
100
AcDbPolyline
 90
       10
 70
   128
 43
0.0
 10
48.6340533352
 20
59.2406133712
 10
48.6257462311
 20
59.2606677529
 10
48.6176925642
 20
59.2801120083
 10
48.6101352115
 20
59.2983547842
 10
48.603305317
 20
59.314846967
 10
48.5974093851
 20
59.3290769893
 10
48.5926257604
 20
59.3406271492
 10
48.5891022811
 20
59.349131371
 10
48.586944546
 20
59.3543409108
 10
48.5862170878
 20
59.3560961972
  0
LINE
  5
91
330
1F
100
AcDbEntity
  8
SLD-0
  6
Continuous
370
    15
100
AcDbLine
 10
83.5654891642
 20
59.3691106602
 30
0.0
 11
83.5969012814
 21
59.3560961972
 31
0.0
  0
LWPOLYLINE
  5
92
330
1F
100
AcDbEntity
  8
SLD-0
  6
Continuous
370
    15
100
AcDbPolyline
 90
       10
 70
   128
 43
0.0
 10
83.5176540902
 20
59.2536231409
 10
83.5259600209
 20
59.2736775226
 10
83.5340136878
 20
59.293121778
 10
83.5415710405
 20
59.3113645539
 10
83.5484021083
 20
59.3278567367
 10
83.5542980402
 20
59.3420914523
 10
83.5590804916
 20
59.3536369189
 10
83.5626039709
 20
59.3621458339
 10
83.564761706
 20
59.3673553738
 10
83.5654891642
 20
59.3691106602
  0
LWPOLYLINE
  5
93
330
1F
100
AcDbEntity
  8
SLD-0
  6
Continuous
370
    15
100
AcDbPolyline
 90
       10
 70
   128
 43
0.0
 10
83.5969012814
 20
59.3560961972
 10
83.5961738231
 20
59.3543409108
 10
83.594016088
 20
59.349131371
 10
83.5904926087
 20
59.3406271492
 10
83.585708984
 20
59.3290769893
 10
83.5798130521
 20
59.314846967
 10
83.5729831577
 20
59.2983547842
 10
83.565425805
 20
59.2801120083
 10
83.557372138
 20
59.2606677529
 10
83.549065034
 20
59.2406133712
  0
ARC
  5
94
330
1F
100
AcDbEntity
  8
SLD-0
  6
Continuous
370
    15
100
AcDbCircle
 10
81.3695839584
 20
55.0770577981
 30
0.0
 40
0.1250000000000071
100
AcDbArc
 50
0.0
 51
90.0
  0
LINE
  5
95
330
1F
100
AcDbEntity
  8
SLD-0
  6
Continuous
370
    15
100
AcDbLine
 10
81.4945844475
 20
54.5019596326
 30
0.0
 11
81.4945844475
 21
55.0770599756
 31
0.0
  0
LINE
  5
96
330
1F
100
AcDbEntity
  8
SLD-0
  6
Continuous
370
    15
100
AcDbLine
 10
81.4945844475
 20
54.5019596326
 30
0.0
 11
50.6885339216
 21
54.5019596326
 31
0.0
  0
LINE
  5
97
330
1F
100
AcDbEntity
  8
SLD-0
  6
Continuous
370
    15
100
AcDbLine
 10
50.6885339216
 20
55.0770599756
 30
0.0
 11
50.6885339216
 21
54.5019596326
 31
0.0
  0
LINE
  5
98
330
1F
100
AcDbEntity
  8
SLD-0
  6
Continuous
370
    15
100
AcDbLine
 10
81.3695836515
 20
55.2020560783
 30
0.0
 11
50.8135347176
 21
55.2020560783
 31
0.0
  0
ARC
  5
99
330
1F
100
AcDbEntity
  8
SLD-0
  6
Continuous
370
    15
100
AcDbCircle
 10
50.8135344108
 20
55.0770577981
 30
0.0
 40
0.125
100
AcDbArc
 50
90.0
 51
180.0
  0
LINE
  5
9A
330
1F
100
AcDbEntity
  8
SLD-0
  6
Continuous
370
    15
100
AcDbLine
 10
81.4945844475
 20
54.5019596326
 30
0.0
 11
81.4945844475
 21
54.4301571554
 31
0.0
  0
LINE
  5
9B
330
1F
100
AcDbEntity
  8
SLD-0
  6
Continuous
370
    15
100
AcDbLine
 10
81.4945844475
 20
54.4301571554
 30
0.0
 11
50.6885339216
 21
54.4301571554
 31
0.0
  0
LINE
  5
9C
330
1F
100
AcDbEntity
  8
SLD-0
  6
Continuous
370
    15
100
AcDbLine
 10
50.6885339216
 20
54.4301571554
 30
0.0
 11
50.6885339216
 21
54.5019596326
 31
0.0
  0
LINE
  5
9D
330
1F
100
AcDbEntity
  8
SLD-0
  6
Continuous
370
    15
100
AcDbLine
 10
50.4402172169
 20
54.8920978457
 30
0.0
 11
50.4733846204
 21
54.9058350736
 31
0.0
  0
LWPOLYLINE
  5
9E
330
1F
100
AcDbEntity
  8
SLD-0
  6
Continuous
370
    15
100
AcDbPolyline
 90
       10
 70
   128
 43
0.0
 10
50.4733846204
 20
54.9058350736
 10
50.4741109053
 20
54.9040797872
 10
50.4762698137
 20
54.8988702474
 10
50.479793293
 20
54.8903660257
 10
50.4845757444
 20
54.8788158658
 10
50.4904716763
 20
54.8645811502
 10
50.4973027441
 20
54.8480936607
 10
50.5048589235
 20
54.8298508847
 10
50.5129137637
 20
54.8104066294
 10
50.5212196945
 20
54.7903522477
  0
LINE
  5
9F
330
1F
100
AcDbEntity
  8
SLD-0
  6
Continuous
370
    15
100
AcDbLine
 10
50.5212196945
 20
54.7903522477
 30
0.0
 11
50.4880534643
 21
54.7766103264
 31
0.0
  0
LWPOLYLINE
  5
A0
330
1F
100
AcDbEntity
  8
SLD-0
  6
Continuous
370
    15
100
AcDbPolyline
 90
       10
 70
   128
 43
0.0
 10
50.4880534643
 20
54.7766103264
 10
50.4797463602
 20
54.7966647081
 10
50.4716926933
 20
54.8161089635
 10
50.4641353406
 20
54.8343564327
 10
50.4573054461
 20
54.8508439222
 10
50.4514083409
 20
54.8650786378
 10
50.4466258895
 20
54.8766241044
 10
50.4431024102
 20
54.8851330194
 10
50.4409446751
 20
54.8903425593
 10
50.4402172169
 20
54.8920978457
  0
LINE
  5
A1
330
1F
100
AcDbEntity
  8
SLD-0
  6
Continuous
370
    15
100
AcDbLine
 10
50.6463671554
 20
54.4882177113
 30
0.0
 11
50.6131997519
 21
54.4744804833
 31
0.0
  0
LINE
  5
A2
330
1F
100
AcDbEntity
  8
SLD-0
  6
Continuous
370
    15
100
AcDbLine
 10
50.5212196945
 20
54.7903522477
 30
0.0
 11
50.6463671554
 21
54.4882177113
 31
0.0
  0
LINE
  5
A3
330
1F
100
AcDbEntity
  8
SLD-0
  6
Continuous
370
    15
100
AcDbLine
 10
50.6131997519
 20
54.4744804833
 30
0.0
 11
50.4880534643
 21
54.7766103264
 31
0.0
  0
ARC
  5
A4
330
1F
100
AcDbEntity
  8
SLD-0
  6
Continuous
370
    15
100
AcDbCircle
 10
50.6795344108
 20
54.5019577981
 30
0.0
 40
0.0359000107883034
100
AcDbArc
 50
202.5
 51
270.0
  0
LINE
  5
A5
330
1F
100
AcDbEntity
  8
SLD-0
  6
Continuous
370
    15
100
AcDbLine
 10
50.6795345589
 20
54.4301571554
 30
0.0
 11
50.6795345589
 21
54.4660560473
 31
0.0
  0
ARC
  5
A6
330
1F
100
AcDbEntity
  8
SLD-0
  6
Continuous
370
    15
100
AcDbCircle
 10
50.6795344108
 20
54.5019578089
 30
0.0
 40
0.0718000182467264
100
AcDbArc
 50
202.5000079537
 51
270.0
  0
LINE
  5
A7
330
1F
100
AcDbEntity
  8
SLD-0
  6
Continuous
370
    15
100
AcDbLine
 10
50.6885339216
 20
54.4660560473
 30
0.0
 11
50.6795345589
 21
54.4660560473
 31
0.0
  0
LINE
  5
A8
330
1F
100
AcDbEntity
  8
SLD-0
  6
Continuous
370
    15
100
AcDbLine
 10
50.6885339216
 20
54.4301571554
 30
0.0
 11
50.6795345589
 21
54.4301571554
 31
0.0
  0
LINE
  5
A9
330
1F
100
AcDbEntity
  8
SLD-0
  6
Continuous
370
    15
100
AcDbLine
 10
81.5035838102
 20
54.4660560473
 30
0.0
 11
81.5035838102
 21
54.4301571554
 31
0.0
  0
ARC
  5
AA
330
1F
100
AcDbEntity
  8
SLD-0
  6
Continuous
370
    15
100
AcDbCircle
 10
81.5035839584
 20
54.5019577981
 30
0.0
 40
0.035899999999998
100
AcDbArc
 50
270.0
 51
337.5
  0
LINE
  5
AB
330
1F
100
AcDbEntity
  8
SLD-0
  6
Continuous
370
    15
100
AcDbLine
 10
81.5699186172
 20
54.4744804833
 30
0.0
 11
81.5367512137
 21
54.4882177113
 31
0.0
  0
ARC
  5
AC
330
1F
100
AcDbEntity
  8
SLD-0
  6
Continuous
370
    15
100
AcDbCircle
 10
81.5035839584
 20
54.5019578089
 30
0.0
 40
0.0718000182467193
100
AcDbArc
 50
270.0
 51
337.4999920463
  0
LINE
  5
AD
330
1F
100
AcDbEntity
  8
SLD-0
  6
Continuous
370
    15
100
AcDbLine
 10
81.5035838102
 20
54.4660560473
 30
0.0
 11
81.4945844475
 21
54.4660560473
 31
0.0
  0
LINE
  5
AE
330
1F
100
AcDbEntity
  8
SLD-0
  6
Continuous
370
    15
100
AcDbLine
 10
81.5035838102
 20
54.4301571554
 30
0.0
 11
81.4945844475
 21
54.4301571554
 31
0.0
  0
LINE
  5
AF
330
1F
100
AcDbEntity
  8
SLD-0
  6
Continuous
370
    15
100
AcDbLine
 10
81.6950649049
 20
54.7766103264
 30
0.0
 11
81.6618986747
 21
54.7903522477
 31
0.0
  0
LINE
  5
B0
330
1F
100
AcDbEntity
  8
SLD-0
  6
Continuous
370
    15
100
AcDbLine
 10
81.6950649049
 20
54.7766103264
 30
0.0
 11
81.5699186172
 21
54.4744804833
 31
0.0
  0
LINE
  5
B1
330
1F
100
AcDbEntity
  8
SLD-0
  6
Continuous
370
    15
100
AcDbLine
 10
81.6618986747
 20
54.7903522477
 30
0.0
 11
81.5367512137
 21
54.4882177113
 31
0.0
  0
LINE
  5
B2
330
1F
100
AcDbEntity
  8
SLD-0
  6
Continuous
370
    15
100
AcDbLine
 10
81.7097337487
 20
54.9058350736
 30
0.0
 11
81.7429011523
 21
54.8920978457
 31
0.0
  0
LWPOLYLINE
  5
B3
330
1F
100
AcDbEntity
  8
SLD-0
  6
Continuous
370
    15
100
AcDbPolyline
 90
       10
 70
   128
 43
0.0
 10
81.7429011523
 20
54.8920978457
 10
81.742173694
 20
54.8903425593
 10
81.7400159589
 20
54.8851330194
 10
81.7364924796
 20
54.8766241044
 10
81.7317100282
 20
54.8650786378
 10
81.725812923
 20
54.8508439222
 10
81.7189830286
 20
54.8343564327
 10
81.7114256759
 20
54.8161089635
 10
81.7033720089
 20
54.7966647081
 10
81.6950649049
 20
54.7766103264
  0
LWPOLYLINE
  5
B4
330
1F
100
AcDbEntity
  8
SLD-0
  6
Continuous
370
    15
100
AcDbPolyline
 90
       10
 70
   128
 43
0.0
 10
81.6618986747
 20
54.7903522477
 10
81.6702046054
 20
54.8104066294
 10
81.6782594457
 20
54.8298508847
 10
81.6858156251
 20
54.8480936607
 10
81.6926466928
 20
54.8645811502
 10
81.6985426247
 20
54.8788158658
 10
81.7033250761
 20
54.8903660257
 10
81.7068485554
 20
54.8988702474
 10
81.7090074638
 20
54.9040797872
 10
81.7097337487
 20
54.9058350736
  0
ARC
  5
B5
330
1F
100
AcDbEntity
  8
SLD-0
  6
Continuous
370
    15
100
AcDbCircle
 10
53.0984199221
 20
48.4691577981
 30
0.0
 40
0.0050000000000014
100
AcDbArc
 50
202.5
 51
270.0000000016
  0
LINE
  5
B6
330
1F
100
AcDbEntity
  8
SLD-0
  6
Continuous
370
    15
100
AcDbLine
 10
53.0984201091
 20
48.4641569551
 30
0.0
 11
53.0984201091
 21
48.4301588412
 31
0.0
  0
LINE
  5
B7
330
1F
100
AcDbEntity
  8
SLD-0
  6
Continuous
370
    15
100
AcDbLine
 10
53.062388632
 20
48.4542330164
 30
0.0
 11
53.0938007491
 21
48.4672451328
 31
0.0
  0
ARC
  5
B8
330
1F
100
AcDbEntity
  8
SLD-0
  6
Continuous
370
    15
100
AcDbCircle
 10
53.0984199221
 20
48.4691577981
 30
0.0
 40
0.039000000000101
100
AcDbArc
 50
202.5
 51
270.0000000002
  0
LINE
  5
B9
330
1F
100
AcDbEntity
  8
SLD-0
  6
Continuous
370
    15
100
AcDbLine
 10
48.1578380364
 20
60.383713126
 30
0.0
 11
48.1264270926
 21
60.3706986631
 31
0.0
  0
LINE
  5
BA
330
1F
100
AcDbEntity
  8
SLD-0
  6
Continuous
370
    15
100
AcDbLine
 10
48.1578380364
 20
60.383713126
 30
0.0
 11
53.0938007491
 21
48.4672451328
 31
0.0
  0
LINE
  5
BB
330
1F
100
AcDbEntity
  8
SLD-0
  6
Continuous
370
    15
100
AcDbLine
 10
48.1264270926
 20
60.3706986631
 30
0.0
 11
53.062388632
 21
48.4542330164
 31
0.0
  0
LINE
  5
BC
330
1F
100
AcDbEntity
  8
SLD-0
  6
Continuous
370
    15
100
AcDbLine
 10
53.7200789543
 20
48.4641569551
 30
0.0
 11
53.7200789543
 21
48.4301588412
 31
0.0
  0
LINE
  5
BD
330
1F
100
AcDbEntity
  8
SLD-0
  6
Continuous
370
    15
100
AcDbLine
 10
53.6200792562
 20
48.4301588412
 30
0.0
 11
53.6200792562
 21
48.4641569551
 31
0.0
  0
LINE
  5
BE
330
1F
100
AcDbEntity
  8
SLD-0
  6
Continuous
370
    15
100
AcDbLine
 10
53.6200792562
 20
48.4641569551
 30
0.0
 11
53.7200789543
 21
48.4641569551
 31
0.0
  0
LINE
  5
BF
330
1F
100
AcDbEntity
  8
SLD-0
  6
Continuous
370
    15
100
AcDbLine
 10
48.0562121171
 20
60.3706986631
 30
0.0
 11
48.0248
 21
60.383713126
 31
0.0
  0
LINE
  5
C0
330
1F
100
AcDbEntity
  8
SLD-0
  6
Continuous
370
    15
100
AcDbLine
 10
43.1202505777
 20
48.4542330164
 30
0.0
 11
48.0562121171
 21
60.3706986631
 31
0.0
  0
LINE
  5
C1
330
1F
100
AcDbEntity
  8
SLD-0
  6
Continuous
370
    15
100
AcDbLine
 10
43.0888384606
 20
48.4672451328
 30
0.0
 11
43.1202505777
 21
48.4542330164
 31
0.0
  0
LINE
  5
C2
330
1F
100
AcDbEntity
  8
SLD-0
  6
Continuous
370
    15
100
AcDbLine
 10
43.0888384606
 20
48.4672451328
 30
0.0
 11
48.0248
 21
60.383713126
 31
0.0
  0
LINE
  5
C3
330
1F
100
AcDbEntity
  8
SLD-0
  6
Continuous
370
    15
100
AcDbLine
 10
43.0842179273
 20
48.4301588412
 30
0.0
 11
43.0842179273
 21
48.4641569551
 31
0.0
  0
LINE
  5
C4
330
1F
100
AcDbEntity
  8
SLD-0
  6
Continuous
370
    15
100
AcDbLine
 10
42.5625599536
 20
48.4641569551
 30
0.0
 11
42.5625599536
 21
48.4301588412
 31
0.0
  0
LINE
  5
C5
330
1F
100
AcDbEntity
  8
SLD-0
  6
Continuous
370
    15
100
AcDbLine
 10
42.5625599536
 20
48.4641569551
 30
0.0
 11
43.0842179273
 21
48.4641569551
 31
0.0
  0
ARC
  5
C6
330
1F
100
AcDbEntity
  8
SLD-0
  6
Continuous
370
    15
100
AcDbCircle
 10
48.0913191068
 20
60.3561577981
 30
0.0
 40
0.0720000000000023
100
AcDbArc
 50
22.5
 51
157.5
  0
ARC
  5
C7
330
1F
100
AcDbEntity
  8
SLD-0
  6
Continuous
370
    15
100
AcDbCircle
 10
48.0913191068
 20
60.3561577981
 30
0.0
 40
0.0380000000000053
100
AcDbArc
 50
22.5
 51
157.5
  0
LINE
  5
C8
330
1F
100
AcDbEntity
  8
SLD-0
  6
Continuous
370
    15
100
AcDbLine
 10
42.4625602554
 20
48.4301588412
 30
0.0
 11
42.4625602554
 21
48.4641569551
 31
0.0
  0
LINE
  5
C9
330
1F
100
AcDbEntity
  8
SLD-0
  6
Continuous
370
    15
100
AcDbLine
 10
42.4625602554
 20
48.4641569551
 30
0.0
 11
42.5625599536
 21
48.4641569551
 31
0.0
  0
ARC
  5
CA
330
1F
100
AcDbEntity
  8
SLD-0
  6
Continuous
370
    15
100
AcDbCircle
 10
43.0842182914
 20
48.4691577981
 30
0.0
 40
0.0050000000000026
100
AcDbArc
 50
270.0
 51
337.4999999991
  0
ARC
  5
CB
330
1F
100
AcDbEntity
  8
SLD-0
  6
Continuous
370
    15
100
AcDbCircle
 10
43.0842182914
 20
48.4691577981
 30
0.0
 40
0.0389999999999944
100
AcDbArc
 50
270.0
 51
337.4999999999
  0
LINE
  5
CC
330
1F
100
AcDbEntity
  8
SLD-0
  6
Continuous
370
    15
100
AcDbLine
 10
53.0984201091
 20
48.4641569551
 30
0.0
 11
53.6200792562
 21
48.4641569551
 31
0.0
  0
LINE
  5
CD
330
1F
100
AcDbEntity
  8
SLD-0
  6
Continuous
370
    15
100
AcDbLine
 10
78.563039113
 20
48.4641569551
 30
0.0
 11
78.563039113
 21
48.4301588412
 31
0.0
  0
LINE
  5
CE
330
1F
100
AcDbEntity
  8
SLD-0
  6
Continuous
370
    15
100
AcDbLine
 10
78.4630394148
 20
48.4301588412
 30
0.0
 11
78.4630394148
 21
48.4641569551
 31
0.0
  0
LINE
  5
CF
330
1F
100
AcDbEntity
  8
SLD-0
  6
Continuous
370
    15
100
AcDbLine
 10
78.4630394148
 20
48.4641569551
 30
0.0
 11
78.563039113
 21
48.4641569551
 31
0.0
  0
LINE
  5
D0
330
1F
100
AcDbEntity
  8
SLD-0
  6
Continuous
370
    15
100
AcDbLine
 10
79.08469826
 20
48.4301588412
 30
0.0
 11
79.08469826
 21
48.4641569551
 31
0.0
  0
LINE
  5
D1
330
1F
100
AcDbEntity
  8
SLD-0
  6
Continuous
370
    15
100
AcDbLine
 10
79.08469826
 20
48.4641569551
 30
0.0
 11
78.563039113
 21
48.4641569551
 31
0.0
  0
ARC
  5
D2
330
1F
100
AcDbEntity
  8
SLD-0
  6
Continuous
370
    15
100
AcDbCircle
 10
79.0846984471
 20
48.4691577981
 30
0.0
 40
0.0050000000000107
100
AcDbArc
 50
269.9999999984
 51
337.5
  0
LINE
  5
D3
330
1F
100
AcDbEntity
  8
SLD-0
  6
Continuous
370
    15
100
AcDbLine
 10
79.08931762
 20
48.4672451328
 30
0.0
 11
79.1207297371
 21
48.4542330164
 31
0.0
  0
ARC
  5
D4
330
1F
100
AcDbEntity
  8
SLD-0
  6
Continuous
370
    15
100
AcDbCircle
 10
79.0846984471
 20
48.4691577981
 30
0.0
 40
0.0390000000001081
100
AcDbArc
 50
269.9999999998
 51
337.5
  0
LINE
  5
D5
330
1F
100
AcDbEntity
  8
SLD-0
  6
Continuous
370
    15
100
AcDbLine
 10
84.0566912765
 20
60.3706986631
 30
0.0
 11
84.0252803327
 21
60.383713126
 31
0.0
  0
LINE
  5
D6
330
1F
100
AcDbEntity
  8
SLD-0
  6
Continuous
370
    15
100
AcDbLine
 10
84.0566912765
 20
60.3706986631
 30
0.0
 11
79.1207297371
 21
48.4542330164
 31
0.0
  0
LINE
  5
D7
330
1F
100
AcDbEntity
  8
SLD-0
  6
Continuous
370
    15
100
AcDbLine
 10
84.0252803327
 20
60.383713126
 30
0.0
 11
79.08931762
 21
48.4672451328
 31
0.0
  0
LINE
  5
D8
330
1F
100
AcDbEntity
  8
SLD-0
  6
Continuous
370
    15
100
AcDbLine
 10
84.1583183692
 20
60.383713126
 30
0.0
 11
84.126906252
 21
60.3706986631
 31
0.0
  0
ARC
  5
D9
330
1F
100
AcDbEntity
  8
SLD-0
  6
Continuous
370
    15
100
AcDbCircle
 10
84.0917992624
 20
60.3561577981
 30
0.0
 40
0.0379999999999988
100
AcDbArc
 50
22.5
 51
157.5
  0
ARC
  5
DA
330
1F
100
AcDbEntity
  8
SLD-0
  6
Continuous
370
    15
100
AcDbCircle
 10
84.0917992624
 20
60.3561577981
 30
0.0
 40
0.0720000000000143
100
AcDbArc
 50
22.5
 51
157.5
  0
LINE
  5
DB
330
1F
100
AcDbEntity
  8
SLD-0
  6
Continuous
370
    15
100
AcDbLine
 10
89.0628677914
 20
48.4542330164
 30
0.0
 11
89.0942799085
 21
48.4672451328
 31
0.0
  0
LINE
  5
DC
330
1F
100
AcDbEntity
  8
SLD-0
  6
Continuous
370
    15
100
AcDbLine
 10
89.0942799085
 20
48.4672451328
 30
0.0
 11
84.1583183692
 21
60.383713126
 31
0.0
  0
LINE
  5
DD
330
1F
100
AcDbEntity
  8
SLD-0
  6
Continuous
370
    15
100
AcDbLine
 10
89.0628677914
 20
48.4542330164
 30
0.0
 11
84.126906252
 21
60.3706986631
 31
0.0
  0
ARC
  5
DE
330
1F
100
AcDbEntity
  8
SLD-0
  6
Continuous
370
    15
100
AcDbCircle
 10
89.0989000778
 20
48.4691577981
 30
0.0
 40
0.0050000000000026
100
AcDbArc
 50
202.500000001
 51
270.0
  0
LINE
  5
DF
330
1F
100
AcDbEntity
  8
SLD-0
  6
Continuous
370
    15
100
AcDbLine
 10
89.0989004418
 20
48.4641569551
 30
0.0
 11
89.0989004418
 21
48.4301588412
 31
0.0
  0
ARC
  5
E0
330
1F
100
AcDbEntity
  8
SLD-0
  6
Continuous
370
    15
100
AcDbCircle
 10
89.0989000778
 20
48.4691577981
 30
0.0
 40
0.0390000000000015
100
AcDbArc
 50
202.5000000001
 51
270.0
  0
LINE
  5
E1
330
1F
100
AcDbEntity
  8
SLD-0
  6
Continuous
370
    15
100
AcDbLine
 10
89.6205584156
 20
48.4301588412
 30
0.0
 11
89.6205584156
 21
48.4641569551
 31
0.0
  0
LINE
  5
E2
330
1F
100
AcDbEntity
  8
SLD-0
  6
Continuous
370
    15
100
AcDbLine
 10
89.6205584156
 20
48.4641569551
 30
0.0
 11
89.0989004418
 21
48.4641569551
 31
0.0
  0
LINE
  5
E3
330
1F
100
AcDbEntity
  8
SLD-0
  6
Continuous
370
    15
100
AcDbLine
 10
89.7205581137
 20
48.4641569551
 30
0.0
 11
89.7205581137
 21
48.4301588412
 31
0.0
  0
LINE
  5
E4
330
1F
100
AcDbEntity
  8
SLD-0
  6
Continuous
370
    15
100
AcDbLine
 10
89.6205584156
 20
48.4641569551
 30
0.0
 11
89.7205581137
 21
48.4641569551
 31
0.0
  0
LINE
  5
E5
330
1F
100
AcDbEntity
  8
SLD-0
  6
Continuous
370
    15
100
AcDbLine
 10
46.2035589591
 20
43.0021586126
 30
0.0
 11
46.2035589591
 21
43.0261576953
 31
0.0
  0
LINE
  5
E6
330
1F
100
AcDbEntity
  8
SLD-0
  6
Continuous
370
    15
100
AcDbLine
 10
46.2035589591
 20
43.0261576953
 30
0.0
 11
46.3285597551
 21
43.0261576953
 31
0.0
  0
LINE
  5
E7
330
1F
100
AcDbEntity
  8
SLD-0
  6
Continuous
370
    15
100
AcDbLine
 10
46.3285597551
 20
43.0261576953
 30
0.0
 11
46.3285597551
 21
43.0021586126
 31
0.0
  0
LINE
  5
E8
330
1F
100
AcDbEntity
  8
SLD-0
  6
Continuous
370
    15
100
AcDbLine
 10
46.253950697
 20
43.0021586126
 30
0.0
 11
46.2035589591
 21
43.0021586126
 31
0.0
  0
LINE
  5
E9
330
1F
100
AcDbEntity
  8
SLD-0
  6
Continuous
370
    15
100
AcDbLine
 10
46.3285597551
 20
43.0261576953
 30
0.0
 11
85.854558614
 21
43.0261576953
 31
0.0
  0
LINE
  5
EA
330
1F
100
AcDbEntity
  8
SLD-0
  6
Continuous
370
    15
100
AcDbLine
 10
85.854558614
 20
43.0021586126
 30
0.0
 11
85.854558614
 21
43.0261576953
 31
0.0
  0
LINE
  5
EB
330
1F
100
AcDbEntity
  8
SLD-0
  6
Continuous
370
    15
100
AcDbLine
 10
46.3285597551
 20
43.0021586126
 30
0.0
 11
85.854558614
 21
43.0021586126
 31
0.0
  0
LINE
  5
EC
330
1F
100
AcDbEntity
  8
SLD-0
  6
Continuous
370
    15
100
AcDbLine
 10
85.97955941
 20
43.0261576953
 30
0.0
 11
85.97955941
 21
43.0021586126
 31
0.0
  0
LINE
  5
ED
330
1F
100
AcDbEntity
  8
SLD-0
  6
Continuous
370
    15
100
AcDbLine
 10
85.854558614
 20
43.0261576953
 30
0.0
 11
85.97955941
 21
43.0261576953
 31
0.0
  0
LINE
  5
EE
330
1F
100
AcDbEntity
  8
SLD-0
  6
Continuous
370
    15
100
AcDbLine
 10
85.97955941
 20
43.0021586126
 30
0.0
 11
85.9291676722
 21
43.0021586126
 31
0.0
  0
LINE
  5
EF
330
1F
100
AcDbEntity
  8
SLD-0
  6
Continuous
370
    15
100
AcDbLine
 10
85.97955941
 20
43.0261576953
 30
0.0
 11
85.97955941
 21
43.0311583842
 31
0.0
  0
LINE
  5
F0
330
1F
100
AcDbEntity
  8
SLD-0
  6
Continuous
370
    15
100
AcDbLine
 10
85.97955941
 20
43.0311583842
 30
0.0
 11
46.2035589591
 21
43.0311583842
 31
0.0
  0
LINE
  5
F1
330
1F
100
AcDbEntity
  8
SLD-0
  6
Continuous
370
    15
100
AcDbLine
 10
46.2035589591
 20
43.0311583842
 30
0.0
 11
46.2035589591
 21
43.0261576953
 31
0.0
  0
LINE
  5
F2
330
1F
100
AcDbEntity
  8
SLD-0
  6
Continuous
370
    15
100
AcDbLine
 10
38.6205598386
 20
48.4011567229
 30
0.0
 11
93.5625585306
 21
48.4011567229
 31
0.0
  0
LINE
  5
F3
330
1F
100
AcDbEntity
  8
SLD-0
  6
Continuous
370
    15
100
AcDbLine
 10
93.5625585306
 20
43.1561568336
 30
0.0
 11
93.5625585306
 21
48.4011567229
 31
0.0
  0
LINE
  5
F4
330
1F
100
AcDbEntity
  8
SLD-0
  6
Continuous
370
    15
100
AcDbLine
 10
93.4375600812
 20
43.0311583842
 30
0.0
 11
93.5625585306
 21
43.1561568336
 31
0.0
  0
LINE
  5
F5
330
1F
100
AcDbEntity
  8
SLD-0
  6
Continuous
370
    15
100
AcDbLine
 10
38.7455582879
 20
43.0311583842
 30
0.0
 11
46.2035589591
 21
43.0311583842
 31
0.0
  0
LINE
  5
F6
330
1F
100
AcDbEntity
  8
SLD-0
  6
Continuous
370
    15
100
AcDbLine
 10
38.6205598386
 20
43.1561568336
 30
0.0
 11
38.7455582879
 21
43.0311583842
 31
0.0
  0
LINE
  5
F7
330
1F
100
AcDbEntity
  8
SLD-0
  6
Continuous
370
    15
100
AcDbLine
 10
38.6205598386
 20
48.4011567229
 30
0.0
 11
38.6205598386
 21
43.1561568336
 31
0.0
  0
LINE
  5
F8
330
1F
100
AcDbEntity
  8
SLD-0
  6
Continuous
370
    15
100
AcDbLine
 10
85.97955941
 20
43.0311583842
 30
0.0
 11
93.4375600812
 21
43.0311583842
 31
0.0
  0
LINE
  5
F9
330
1F
100
AcDbEntity
  8
SLD-0
  6
Continuous
370
    15
100
AcDbLine
 10
93.5625585306
 20
48.4301588412
 30
0.0
 11
93.5625585306
 21
48.4011567229
 31
0.0
  0
LINE
  5
FA
330
1F
100
AcDbEntity
  8
SLD-0
  6
Continuous
370
    15
100
AcDbLine
 10
38.6205598386
 20
48.4301588412
 30
0.0
 11
93.5625585306
 21
48.4301588412
 31
0.0
  0
LINE
  5
FB
330
1F
100
AcDbEntity
  8
SLD-0
  6
Continuous
370
    15
100
AcDbLine
 10
38.6205598386
 20
48.4011567229
 30
0.0
 11
38.6205598386
 21
48.4301588412
 31
0.0
  0
LINE
  5
FC
330
1F
100
AcDbEntity
  8
SLD-0
  6
Continuous
370
    15
100
AcDbLine
 10
93.5915583022
 20
48.4011567229
 30
0.0
 11
93.5675592195
 21
48.4011567229
 31
0.0
  0
LINE
  5
FD
330
1F
100
AcDbEntity
  8
SLD-0
  6
Continuous
370
    15
100
AcDbLine
 10
93.5915583022
 20
47.5311588799
 30
0.0
 11
93.5915583022
 21
48.4011567229
 31
0.0
  0
LINE
  5
FE
330
1F
100
AcDbEntity
  8
SLD-0
  6
Continuous
370
    15
100
AcDbLine
 10
93.5675592195
 20
47.5311588799
 30
0.0
 11
93.5915583022
 21
47.5311588799
 31
0.0
  0
LINE
  5
FF
330
1F
100
AcDbEntity
  8
SLD-0
  6
Continuous
370
    15
100
AcDbLine
 10
93.5675592195
 20
47.5311588799
 30
0.0
 11
93.5675592195
 21
48.4011567229
 31
0.0
  0
LINE
  5
100
330
1F
100
AcDbEntity
  8
SLD-0
  6
Continuous
370
    15
100
AcDbLine
 10
93.5915583022
 20
47.4061580839
 30
0.0
 11
93.5675592195
 21
47.4061580839
 31
0.0
  0
LINE
  5
101
330
1F
100
AcDbEntity
  8
SLD-0
  6
Continuous
370
    15
100
AcDbLine
 10
93.5675592195
 20
47.5071574505
 30
0.0
 11
93.5675592195
 21
47.5311588799
 31
0.0
  0
LINE
  5
102
330
1F
100
AcDbEntity
  8
SLD-0
  6
Continuous
370
    15
100
AcDbLine
 10
93.5915583022
 20
47.5311588799
 30
0.0
 11
93.5915583022
 21
47.4061580839
 31
0.0
  0
LINE
  5
103
330
1F
100
AcDbEntity
  8
SLD-0
  6
Continuous
370
    15
100
AcDbLine
 10
38.5915600669
 20
48.4011567229
 30
0.0
 11
38.6155591497
 21
48.4011567229
 31
0.0
  0
LINE
  5
104
330
1F
100
AcDbEntity
  8
SLD-0
  6
Continuous
370
    15
100
AcDbLine
 10
38.6155591497
 20
48.4011567229
 30
0.0
 11
38.6155591497
 21
47.5311588799
 31
0.0
  0
LINE
  5
105
330
1F
100
AcDbEntity
  8
SLD-0
  6
Continuous
370
    15
100
AcDbLine
 10
38.5915600669
 20
47.5311588799
 30
0.0
 11
38.6155591497
 21
47.5311588799
 31
0.0
  0
LINE
  5
106
330
1F
100
AcDbEntity
  8
SLD-0
  6
Continuous
370
    15
100
AcDbLine
 10
38.5915600669
 20
48.4011567229
 30
0.0
 11
38.5915600669
 21
47.5311588799
 31
0.0
  0
LINE
  5
107
330
1F
100
AcDbEntity
  8
SLD-0
  6
Continuous
370
    15
100
AcDbLine
 10
38.6155591497
 20
47.5311588799
 30
0.0
 11
38.6155591497
 21
47.5071574505
 31
0.0
  0
LINE
  5
108
330
1F
100
AcDbEntity
  8
SLD-0
  6
Continuous
370
    15
100
AcDbLine
 10
38.6155591497
 20
47.4061580839
 30
0.0
 11
38.5915600669
 21
47.4061580839
 31
0.0
  0
LINE
  5
109
330
1F
100
AcDbEntity
  8
SLD-0
  6
Continuous
370
    15
100
AcDbLine
 10
38.5915600669
 20
47.4061580839
 30
0.0
 11
38.5915600669
 21
47.5311588799
 31
0.0
  0
ARC
  5
10A
330
1F
100
AcDbEntity
  8
SLD-0
  6
Continuous
370
    15
100
AcDbCircle
 10
38.6205591846
 20
48.4011577981
 30
0.0
 40
0.0050000000077119
100
AcDbArc
 50
89.9999999964
 51
180.0000000084
  0
ARC
  5
10B
330
1F
100
AcDbEntity
  8
SLD-0
  6
Continuous
370
    15
100
AcDbCircle
 10
38.6205591846
 20
48.4011577981
 30
0.0
 40
0.0289999999999964
100
AcDbArc
 50
89.9999999994
 51
180.0000000001
  0
ARC
  5
10C
330
1F
100
AcDbEntity
  8
SLD-0
  6
Continuous
370
    15
100
AcDbCircle
 10
93.5625591846
 20
48.4011577981
 30
0.0
 40
0.0050000000000097
100
AcDbArc
 50
359.9999999983
 51
90.0
  0
ARC
  5
10D
330
1F
100
AcDbEntity
  8
SLD-0
  6
Continuous
370
    15
100
AcDbCircle
 10
93.5625591846
 20
48.4011577981
 30
0.0
 40
0.0290000000000106
100
AcDbArc
 50
359.9999999999
 51
90.0
  0
LINE
  5
10E
330
1F
100
AcDbEntity
  8
SLD-0
  6
Continuous
370
    15
100
AcDbLine
 10
86.0255582386
 20
10.2551577754
 30
0.0
 11
86.049559668
 21
10.2551577754
 31
0.0
  0
LINE
  5
10F
330
1F
100
AcDbEntity
  8
SLD-0
  6
Continuous
370
    15
100
AcDbLine
 10
86.049559668
 20
10.2551577754
 30
0.0
 11
86.049559668
 21
10.1301577861
 31
0.0
  0
LINE
  5
110
330
1F
100
AcDbEntity
  8
SLD-0
  6
Continuous
370
    15
100
AcDbLine
 10
86.049559668
 20
10.1301577861
 30
0.0
 11
86.0255582386
 21
10.1301577861
 31
0.0
  0
LINE
  5
111
330
1F
100
AcDbEntity
  8
SLD-0
  6
Continuous
370
    15
100
AcDbLine
 10
86.0255582386
 20
10.1301577861
 30
0.0
 11
86.0255582386
 21
10.2551577754
 31
0.0
  0
LINE
  5
112
330
1F
100
AcDbEntity
  8
SLD-0
  6
Continuous
370
    15
100
AcDbLine
 10
86.049559668
 20
42.8561577392
 30
0.0
 11
86.0255582386
 21
42.8561577392
 31
0.0
  0
LINE
  5
113
330
1F
100
AcDbEntity
  8
SLD-0
  6
Continuous
370
    15
100
AcDbLine
 10
86.049559668
 20
42.8561577392
 30
0.0
 11
86.049559668
 21
10.2551577754
 31
0.0
  0
LINE
  5
114
330
1F
100
AcDbEntity
  8
SLD-0
  6
Continuous
370
    15
100
AcDbLine
 10
86.0255582386
 20
42.8561577392
 30
0.0
 11
86.0255582386
 21
10.2551577754
 31
0.0
  0
LINE
  5
115
330
1F
100
AcDbEntity
  8
SLD-0
  6
Continuous
370
    15
100
AcDbLine
 10
86.0255582386
 20
42.9811585352
 30
0.0
 11
86.049559668
 21
42.9811585352
 31
0.0
  0
LINE
  5
116
330
1F
100
AcDbEntity
  8
SLD-0
  6
Continuous
370
    15
100
AcDbLine
 10
86.049559668
 20
42.9811585352
 30
0.0
 11
86.049559668
 21
42.8561577392
 31
0.0
  0
LINE
  5
117
330
1F
100
AcDbEntity
  8
SLD-0
  6
Continuous
370
    15
100
AcDbLine
 10
86.0255582386
 20
42.8561577392
 30
0.0
 11
86.0255582386
 21
42.9811585352
 31
0.0
  0
LINE
  5
118
330
1F
100
AcDbEntity
  8
SLD-0
  6
Continuous
370
    15
100
AcDbLine
 10
86.0545603569
 20
10.1301577861
 30
0.0
 11
86.0545603569
 21
42.9811585352
 31
0.0
  0
LINE
  5
119
330
1F
100
AcDbEntity
  8
SLD-0
  6
Continuous
370
    15
100
AcDbLine
 10
86.049559668
 20
10.1301577861
 30
0.0
 11
86.0545603569
 21
10.1301577861
 31
0.0
  0
LINE
  5
11A
330
1F
100
AcDbEntity
  8
SLD-0
  6
Continuous
370
    15
100
AcDbLine
 10
86.0545603569
 20
42.9811585352
 30
0.0
 11
86.049559668
 21
42.9811585352
 31
0.0
  0
LINE
  5
11B
330
1F
100
AcDbEntity
  8
SLD-0
  6
Continuous
370
    15
100
AcDbLine
 10
86.0255582386
 20
10.1011577944
 30
0.0
 11
86.0255582386
 21
10.1301577861
 31
0.0
  0
LINE
  5
11C
330
1F
100
AcDbEntity
  8
SLD-0
  6
Continuous
370
    15
100
AcDbLine
 10
86.0255582386
 20
42.9811585352
 30
0.0
 11
86.0255582386
 21
43.0311583842
 31
0.0
  0
LINE
  5
11D
330
1F
100
AcDbEntity
  8
SLD-0
  6
Continuous
370
    15
100
AcDbLine
 10
93.5675592195
 20
47.5071574505
 30
0.0
 11
93.5675592195
 21
10.0531577956
 31
0.0
  0
LINE
  5
11E
330
1F
100
AcDbEntity
  8
SLD-0
  6
Continuous
370
    15
100
AcDbLine
 10
93.5548380864
 20
9.1541577976
 30
0.0
 11
93.5475588105
 21
9.1541577976
 31
0.0
  0
LINE
  5
11F
330
1F
100
AcDbEntity
  8
SLD-0
  6
Continuous
370
    15
100
AcDbLine
 10
93.5625585306
 20
48.364157257
 30
0.0
 11
93.5675592195
 21
48.364157257
 31
0.0
  0
LINE
  5
120
330
1F
100
AcDbEntity
  8
SLD-0
  6
Continuous
370
    15
100
AcDbLine
 10
46.1575601305
 20
10.1301577861
 30
0.0
 11
46.1335587011
 21
10.1301577861
 31
0.0
  0
LINE
  5
121
330
1F
100
AcDbEntity
  8
SLD-0
  6
Continuous
370
    15
100
AcDbLine
 10
46.1335587011
 20
10.1301577861
 30
0.0
 11
46.1335587011
 21
10.2551577754
 31
0.0
  0
LINE
  5
122
330
1F
100
AcDbEntity
  8
SLD-0
  6
Continuous
370
    15
100
AcDbLine
 10
46.1335587011
 20
10.2551577754
 30
0.0
 11
46.1575601305
 21
10.2551577754
 31
0.0
  0
LINE
  5
123
330
1F
100
AcDbEntity
  8
SLD-0
  6
Continuous
370
    15
100
AcDbLine
 10
46.1575601305
 20
10.2551577754
 30
0.0
 11
46.1575601305
 21
10.1301577861
 31
0.0
  0
LINE
  5
124
330
1F
100
AcDbEntity
  8
SLD-0
  6
Continuous
370
    15
100
AcDbLine
 10
46.1575601305
 20
42.8561577392
 30
0.0
 11
46.1335587011
 21
42.8561577392
 31
0.0
  0
LINE
  5
125
330
1F
100
AcDbEntity
  8
SLD-0
  6
Continuous
370
    15
100
AcDbLine
 10
46.1575601305
 20
10.2551577754
 30
0.0
 11
46.1575601305
 21
42.8561577392
 31
0.0
  0
LINE
  5
126
330
1F
100
AcDbEntity
  8
SLD-0
  6
Continuous
370
    15
100
AcDbLine
 10
46.1335587011
 20
10.2551577754
 30
0.0
 11
46.1335587011
 21
42.8561577392
 31
0.0
  0
LINE
  5
127
330
1F
100
AcDbEntity
  8
SLD-0
  6
Continuous
370
    15
100
AcDbLine
 10
46.1335587011
 20
42.9811585352
 30
0.0
 11
46.1575601305
 21
42.9811585352
 31
0.0
  0
LINE
  5
128
330
1F
100
AcDbEntity
  8
SLD-0
  6
Continuous
370
    15
100
AcDbLine
 10
46.1335587011
 20
42.8561577392
 30
0.0
 11
46.1335587011
 21
42.9811585352
 31
0.0
  0
LINE
  5
129
330
1F
100
AcDbEntity
  8
SLD-0
  6
Continuous
370
    15
100
AcDbLine
 10
46.1575601305
 20
42.9811585352
 30
0.0
 11
46.1575601305
 21
42.8561577392
 31
0.0
  0
LINE
  5
12A
330
1F
100
AcDbEntity
  8
SLD-0
  6
Continuous
370
    15
100
AcDbLine
 10
46.1285580122
 20
42.9811585352
 30
0.0
 11
46.1285580122
 21
10.1301577861
 31
0.0
  0
LINE
  5
12B
330
1F
100
AcDbEntity
  8
SLD-0
  6
Continuous
370
    15
100
AcDbLine
 10
46.1335587011
 20
42.9811585352
 30
0.0
 11
46.1285580122
 21
42.9811585352
 31
0.0
  0
LINE
  5
12C
330
1F
100
AcDbEntity
  8
SLD-0
  6
Continuous
370
    15
100
AcDbLine
 10
46.1285580122
 20
10.1301577861
 30
0.0
 11
46.1335587011
 21
10.1301577861
 31
0.0
  0
LINE
  5
12D
330
1F
100
AcDbEntity
  8
SLD-0
  6
Continuous
370
    15
100
AcDbLine
 10
46.1575601305
 20
42.9811585352
 30
0.0
 11
46.1575601305
 21
43.0311583842
 31
0.0
  0
LINE
  5
12E
330
1F
100
AcDbEntity
  8
SLD-0
  6
Continuous
370
    15
100
AcDbLine
 10
46.1575601305
 20
10.1011577944
 30
0.0
 11
46.1575601305
 21
10.1301577861
 31
0.0
  0
LINE
  5
12F
330
1F
100
AcDbEntity
  8
SLD-0
  6
Continuous
370
    15
100
AcDbLine
 10
38.6155591497
 20
10.0531577956
 30
0.0
 11
38.6155591497
 21
47.5071574505
 31
0.0
  0
LINE
  5
130
330
1F
100
AcDbEntity
  8
SLD-0
  6
Continuous
370
    15
100
AcDbLine
 10
38.6155591497
 20
48.364157257
 30
0.0
 11
38.6205598386
 21
48.364157257
 31
0.0
  0
LINE
  5
131
330
1F
100
AcDbEntity
  8
SLD-0
  6
Continuous
370
    15
100
AcDbLine
 10
38.6355595586
 20
9.1541577976
 30
0.0
 11
38.6282802827
 21
9.1541577976
 31
0.0
  0
LINE
  5
132
330
1F
100
AcDbEntity
  8
SLD-0
  6
Continuous
370
    15
100
AcDbLine
 10
85.8785600434
 20
10.1061578233
 30
0.0
 11
85.8785600434
 21
10.1301577861
 31
0.0
  0
LINE
  5
133
330
1F
100
AcDbEntity
  8
SLD-0
  6
Continuous
370
    15
100
AcDbLine
 10
85.8785600434
 20
10.1061578233
 30
0.0
 11
46.3045583257
 21
10.1061578233
 31
0.0
  0
LINE
  5
134
330
1F
100
AcDbEntity
  8
SLD-0
  6
Continuous
370
    15
100
AcDbLine
 10
46.3045583257
 20
10.1301577861
 30
0.0
 11
46.3045583257
 21
10.1061578233
 31
0.0
  0
LINE
  5
135
330
1F
100
AcDbEntity
  8
SLD-0
  6
Continuous
370
    15
100
AcDbLine
 10
85.8785600434
 20
10.1301577861
 30
0.0
 11
46.3045583257
 21
10.1301577861
 31
0.0
  0
LINE
  5
136
330
1F
100
AcDbEntity
  8
SLD-0
  6
Continuous
370
    15
100
AcDbLine
 10
86.0035584928
 20
10.1301577861
 30
0.0
 11
86.0035584928
 21
10.1061578233
 31
0.0
  0
LINE
  5
137
330
1F
100
AcDbEntity
  8
SLD-0
  6
Continuous
370
    15
100
AcDbLine
 10
86.0035584928
 20
10.1061578233
 30
0.0
 11
85.8785600434
 21
10.1061578233
 31
0.0
  0
LINE
  5
138
330
1F
100
AcDbEntity
  8
SLD-0
  6
Continuous
370
    15
100
AcDbLine
 10
85.9291676722
 20
10.1301577861
 30
0.0
 11
86.0035584928
 21
10.1301577861
 31
0.0
  0
LINE
  5
139
330
1F
100
AcDbEntity
  8
SLD-0
  6
Continuous
370
    15
100
AcDbLine
 10
46.1795598763
 20
10.1061578233
 30
0.0
 11
46.1795598763
 21
10.1301577861
 31
0.0
  0
LINE
  5
13A
330
1F
100
AcDbEntity
  8
SLD-0
  6
Continuous
370
    15
100
AcDbLine
 10
46.1795598763
 20
10.1301577861
 30
0.0
 11
46.253950697
 21
10.1301577861
 31
0.0
  0
LINE
  5
13B
330
1F
100
AcDbEntity
  8
SLD-0
  6
Continuous
370
    15
100
AcDbLine
 10
46.3045583257
 20
10.1061578233
 30
0.0
 11
46.1795598763
 21
10.1061578233
 31
0.0
  0
LINE
  5
13C
330
1F
100
AcDbEntity
  8
SLD-0
  6
Continuous
370
    15
100
AcDbLine
 10
86.0035584928
 20
10.1011577944
 30
0.0
 11
86.0035584928
 21
10.1061578233
 31
0.0
  0
LINE
  5
13D
330
1F
100
AcDbEntity
  8
SLD-0
  6
Continuous
370
    15
100
AcDbLine
 10
46.1795598763
 20
10.1011577944
 30
0.0
 11
86.0035584928
 21
10.1011577944
 31
0.0
  0
LINE
  5
13E
330
1F
100
AcDbEntity
  8
SLD-0
  6
Continuous
370
    15
100
AcDbLine
 10
46.1795598763
 20
10.1061578233
 30
0.0
 11
46.1795598763
 21
10.1011577944
 31
0.0
  0
LINE
  5
13F
330
1F
100
AcDbEntity
  8
SLD-0
  6
Continuous
370
    15
100
AcDbLine
 10
38.6355595586
 20
9.159157799
 30
0.0
 11
93.5475588105
 21
9.159157799
 31
0.0
  0
LINE
  5
140
330
1F
100
AcDbEntity
  8
SLD-0
  6
Continuous
370
    15
100
AcDbLine
 10
38.6355595586
 20
9.159157799
 30
0.0
 11
38.6355595586
 21
9.9761578051
 31
0.0
  0
LINE
  5
141
330
1F
100
AcDbEntity
  8
SLD-0
  6
Continuous
370
    15
100
AcDbLine
 10
38.7605603546
 20
10.1011577944
 30
0.0
 11
38.6355595586
 21
9.9761578051
 31
0.0
  0
LINE
  5
142
330
1F
100
AcDbEntity
  8
SLD-0
  6
Continuous
370
    15
100
AcDbLine
 10
38.7605603546
 20
10.1011577944
 30
0.0
 11
46.1795598763
 21
10.1011577944
 31
0.0
  0
LINE
  5
143
330
1F
100
AcDbEntity
  8
SLD-0
  6
Continuous
370
    15
100
AcDbLine
 10
86.0035584928
 20
10.1011577944
 30
0.0
 11
93.4225580145
 21
10.1011577944
 31
0.0
  0
LINE
  5
144
330
1F
100
AcDbEntity
  8
SLD-0
  6
Continuous
370
    15
100
AcDbLine
 10
93.5475588105
 20
9.9761578051
 30
0.0
 11
93.4225580145
 21
10.1011577944
 31
0.0
  0
LINE
  5
145
330
1F
100
AcDbEntity
  8
SLD-0
  6
Continuous
370
    15
100
AcDbLine
 10
93.5475588105
 20
9.9761578051
 30
0.0
 11
93.5475588105
 21
9.159157799
 31
0.0
  0
LINE
  5
146
330
1F
100
AcDbEntity
  8
SLD-0
  6
Continuous
370
    15
100
AcDbLine
 10
38.6355595586
 20
9.1301577982
 30
0.0
 11
38.6355595586
 21
9.159157799
 31
0.0
  0
LINE
  5
147
330
1F
100
AcDbEntity
  8
SLD-0
  6
Continuous
370
    15
100
AcDbLine
 10
93.5475588105
 20
9.159157799
 30
0.0
 11
93.5475588105
 21
9.1301577982
 31
0.0
  0
LINE
  5
148
330
1F
100
AcDbEntity
  8
SLD-0
  6
Continuous
370
    15
100
AcDbLine
 10
93.5475588105
 20
9.1301577982
 30
0.0
 11
38.6355595586
 21
9.1301577982
 31
0.0
  0
LINE
  5
149
330
1F
100
AcDbEntity
  8
SLD-0
  6
Continuous
370
    15
100
AcDbLine
 10
93.5625585306
 20
9.1301577982
 30
0.0
 11
93.5625585306
 21
9.1541577976
 31
0.0
  0
LINE
  5
14A
330
1F
100
AcDbEntity
  8
SLD-0
  6
Continuous
370
    15
100
AcDbLine
 10
93.5548380864
 20
9.1541577976
 30
0.0
 11
93.5625585306
 21
9.1541577976
 31
0.0
  0
LINE
  5
14B
330
1F
100
AcDbEntity
  8
SLD-0
  6
Continuous
370
    15
100
AcDbLine
 10
93.5475588105
 20
9.1301577982
 30
0.0
 11
93.5625585306
 21
9.1301577982
 31
0.0
  0
LINE
  5
14C
330
1F
100
AcDbEntity
  8
SLD-0
  6
Continuous
370
    15
100
AcDbLine
 10
38.6205598386
 20
9.1301577982
 30
0.0
 11
38.6205598386
 21
9.1541577976
 31
0.0
  0
LINE
  5
14D
330
1F
100
AcDbEntity
  8
SLD-0
  6
Continuous
370
    15
100
AcDbLine
 10
38.6205598386
 20
9.1541577976
 30
0.0
 11
38.6282802827
 21
9.1541577976
 31
0.0
  0
LINE
  5
14E
330
1F
100
AcDbEntity
  8
SLD-0
  6
Continuous
370
    15
100
AcDbLine
 10
38.6205598386
 20
9.1301577982
 30
0.0
 11
38.6355595586
 21
9.1301577982
 31
0.0
  0
ARC
  5
14F
330
1F
100
AcDbEntity
  8
SLD-0
  6
Continuous
370
    15
100
AcDbCircle
 10
93.5625591846
 20
9.1591577982
 30
0.0
 40
0.0289999999999999
100
AcDbArc
 50
270.0
 51
0.0000000001
  0
ARC
  5
150
330
1F
100
AcDbEntity
  8
SLD-0
  6
Continuous
370
    15
100
AcDbCircle
 10
93.5625591846
 20
9.1591577982
 30
0.0
 40
0.0050000000000008
100
AcDbArc
 50
270.0
 51
0.0
  0
LINE
  5
151
330
1F
100
AcDbEntity
  8
SLD-0
  6
Continuous
370
    15
100
AcDbLine
 10
93.5915583022
 20
9.159157799
 30
0.0
 11
93.5675592195
 21
9.159157799
 31
0.0
  0
LINE
  5
152
330
1F
100
AcDbEntity
  8
SLD-0
  6
Continuous
370
    15
100
AcDbLine
 10
93.5915583022
 20
10.0291578328
 30
0.0
 11
93.5675592195
 21
10.0291578328
 31
0.0
  0
LINE
  5
153
330
1F
100
AcDbEntity
  8
SLD-0
  6
Continuous
370
    15
100
AcDbLine
 10
93.5675592195
 20
10.1541578222
 30
0.0
 11
93.5915583022
 21
10.1541578222
 31
0.0
  0
LINE
  5
154
330
1F
100
AcDbEntity
  8
SLD-0
  6
Continuous
370
    15
100
AcDbLine
 10
93.5915583022
 20
10.1541578222
 30
0.0
 11
93.5915583022
 21
10.0291578328
 31
0.0
  0
LINE
  5
155
330
1F
100
AcDbEntity
  8
SLD-0
  6
Continuous
370
    15
100
AcDbLine
 10
93.5675592195
 20
10.0291578328
 30
0.0
 11
93.5675592195
 21
10.0531577956
 31
0.0
  0
LINE
  5
156
330
1F
100
AcDbEntity
  8
SLD-0
  6
Continuous
370
    15
100
AcDbLine
 10
93.5915583022
 20
10.0291578328
 30
0.0
 11
93.5915583022
 21
9.159157799
 31
0.0
  0
LINE
  5
157
330
1F
100
AcDbEntity
  8
SLD-0
  6
Continuous
370
    15
100
AcDbLine
 10
93.5675592195
 20
10.0291578328
 30
0.0
 11
93.5675592195
 21
9.159157799
 31
0.0
  0
LINE
  5
158
330
1F
100
AcDbEntity
  8
SLD-0
  6
Continuous
370
    15
100
AcDbLine
 10
38.5915600669
 20
9.159157799
 30
0.0
 11
38.6155591497
 21
9.159157799
 31
0.0
  0
ARC
  5
159
330
1F
100
AcDbEntity
  8
SLD-0
  6
Continuous
370
    15
100
AcDbCircle
 10
38.6205591846
 20
9.1591577982
 30
0.0
 40
0.0050000000000008
100
AcDbArc
 50
179.9999999998
 51
270.0
  0
ARC
  5
15A
330
1F
100
AcDbEntity
  8
SLD-0
  6
Continuous
370
    15
100
AcDbCircle
 10
38.6205591846
 20
9.1591577982
 30
0.0
 40
0.0290000000000248
100
AcDbArc
 50
179.999999999
 51
270.0
  0
LINE
  5
15B
330
1F
100
AcDbEntity
  8
SLD-0
  6
Continuous
370
    15
100
AcDbLine
 10
38.5915600669
 20
9.159157799
 30
0.0
 11
38.5915600669
 21
10.0291578328
 31
0.0
  0
LINE
  5
15C
330
1F
100
AcDbEntity
  8
SLD-0
  6
Continuous
370
    15
100
AcDbLine
 10
38.6155591497
 20
10.0291578328
 30
0.0
 11
38.5915600669
 21
10.0291578328
 31
0.0
  0
LINE
  5
15D
330
1F
100
AcDbEntity
  8
SLD-0
  6
Continuous
370
    15
100
AcDbLine
 10
38.6155591497
 20
9.159157799
 30
0.0
 11
38.6155591497
 21
10.0291578328
 31
0.0
  0
LINE
  5
15E
330
1F
100
AcDbEntity
  8
SLD-0
  6
Continuous
370
    15
100
AcDbLine
 10
38.5915600669
 20
10.1541578222
 30
0.0
 11
38.6155591497
 21
10.1541578222
 31
0.0
  0
LINE
  5
15F
330
1F
100
AcDbEntity
  8
SLD-0
  6
Continuous
370
    15
100
AcDbLine
 10
38.6155591497
 20
10.0531577956
 30
0.0
 11
38.6155591497
 21
10.0291578328
 31
0.0
  0
LINE
  5
160
330
1F
100
AcDbEntity
  8
SLD-0
  6
Continuous
370
    15
100
AcDbLine
 10
38.5915600669
 20
10.0291578328
 30
0.0
 11
38.5915600669
 21
10.1541578222
 31
0.0
  0
LINE
  5
161
330
1F
100
AcDbEntity
  8
SLD-0
  6
Continuous
370
    15
100
AcDbLine
 10
47.3048486369
 20
10.3563618863
 30
0.0
 11
47.3048486369
 21
43.0021586126
 31
0.0
  0
LINE
  5
162
330
1F
100
AcDbEntity
  8
SLD-0
  6
Continuous
370
    15
100
AcDbLine
 10
84.8782697322
 20
10.3563618863
 30
0.0
 11
84.8782697322
 21
43.0021586126
 31
0.0
  0
LINE
  5
163
330
1F
100
AcDbEntity
  8
SLD-0
  6
Continuous
370
    15
100
AcDbLine
 10
93.5385594478
 20
9.9851578278
 30
0.0
 11
93.5385594478
 21
43.1321577508
 31
0.0
  0
LINE
  5
164
330
1F
100
AcDbEntity
  8
SLD-0
  6
Continuous
370
    15
100
AcDbLine
 10
38.6445589213
 20
9.9851578278
 30
0.0
 11
38.6445589213
 21
43.1321577508
 31
0.0
  0
DIMENSION
  5
165
330
1F
100
AcDbEntity
  8
DIM
100
AcDbDimension
  2
_D
 10
28.5915591846
 20
9.1301577982
 30
0.0
 11
28.5915591846
 21
36.0972950059
 31
0.0
 70
   160
  1
<>
 71
     2
 42
-1.0
  3
SLDDIMSTYLE0
100
AcDbAlignedDimension
 13
48.0913191068
 23
60.3561577981
 33
0.0
 14
38.6205591846
 24
9.1301577982
 34
0.0
 50
90.0
100
AcDbRotatedDimension
  0
DIMENSION
  5
175
330
1F
100
AcDbEntity
  8
DIM
100
AcDbDimension
  2
_D_1
 10
33.5915591846
 20
10.1011577982
 30
0.0
 11
33.5915591846
 21
27.5531577981
 31
0.0
 70
   160
  1
<>
 71
     2
 42
-1.0
  3
SLDDIMSTYLE0
100
AcDbAlignedDimension
 13
38.7455591846
 23
43.0311577981
 33
0.0
 14
38.7605591846
 24
10.1011577982
 34
0.0
 50
90.0
100
AcDbRotatedDimension
  0
DIMENSION
  5
184
330
1F
100
AcDbEntity
  8
DIM
100
AcDbDimension
  2
_D_2
 10
38.5915591846
 20
2.6301558297
 30
0.0
 11
66.0915591846
 21
2.6301558297
 31
0.0
 70
   160
  1
<>
 71
     2
 42
-1.0
  3
SLDDIMSTYLE0
100
AcDbAlignedDimension
 13
93.5915591846
 23
9.1591577982
 33
0.0
 14
38.5915591846
 24
9.1591577982
 34
0.0
 50
-0.0000000001
100
AcDbRotatedDimension
  0
DIMENSION
  5
18F
330
1F
100
AcDbEntity
  8
DIM
100
AcDbDimension
  2
_D_3
 10
86.0545591846
 20
6.1301558297
 30
0.0
 11
66.0915591845
 21
6.1301558297
 31
0.0
 70
   160
  1
<>
 71
     2
 42
-1.0
  3
SLDDIMSTYLE0
100
AcDbAlignedDimension
 13
46.1285591846
 23
10.1301577982
 33
0.0
 14
86.0545591846
 24
10.1301577981
 34
0.0
 50
0.0
100
AcDbRotatedDimension
  0
DIMENSION
  5
19E
330
1F
100
AcDbEntity
  8
DIM
100
AcDbDimension
  2
_D_4
 10
83.6105989399
 20
17.0233872765
 30
0.0
 11
66.0915591845
 21
17.0233872765
 31
0.0
 70
   160
  1
<>
 71
     2
 42
-1.0
  3
SLDDIMSTYLE0
100
AcDbAlignedDimension
 13
48.5725194291
 23
10.1301577982
 33
0.0
 14
83.6105989399
 24
10.1301577982
 34
0.0
 50
0.0
100
AcDbRotatedDimension
  0
DIMENSION
  5
1AB
330
1F
100
AcDbEntity
  8
DIM
100
AcDbDimension
  2
_D_5
 10
78.6959313901
 20
12.1041577982
 30
0.0
 11
78.6959313901
 21
27.5531577981
 31
0.0
 70
   160
  1
<>
 71
     2
 42
-1.0
  3
SLDDIMSTYLE0
100
AcDbAlignedDimension
 13
85.9795591846
 23
43.0021577981
 33
0.0
 14
84.5290591845
 24
12.1041577982
 34
0.0
 50
90.0
100
AcDbRotatedDimension
  0
LINE
  5
1B8
330
1F
100
AcDbEntity
  8
SLD-0
  6
Continuous
370
    15
100
AcDbLine
 10
46.3285597551
 20
74.6565711595
 30
0.0
 11
46.253950697
 21
74.6565711595
 31
0.0
  0
LINE
  5
1B9
330
1F
100
AcDbEntity
  8
SLD-0
  6
Continuous
370
    15
100
AcDbLine
 10
46.273859587
 20
74.7112709609
 30
0.0
 11
46.253950697
 21
74.6565711595
 31
0.0
  0
LINE
  5
1BA
330
1F
100
AcDbEntity
  8
SLD-0
  6
Continuous
370
    15
100
AcDbLine
 10
85.9291676722
 20
74.6565711595
 30
0.0
 11
85.9092587821
 21
74.7112709609
 31
0.0
  0
LINE
  5
1BB
330
1F
100
AcDbEntity
  8
SLD-0
  6
Continuous
370
    15
100
AcDbLine
 10
85.9291676722
 20
74.6565711595
 30
0.0
 11
85.854558614
 21
74.6565711595
 31
0.0
  0
CIRCLE
  5
1BC
330
1F
100
AcDbEntity
  8
SLD-0
  6
Continuous
370
    15
100
AcDbCircle
 10
66.0915591846
 20
90.3335711534
 30
0.0
 40
3.3125
  0
CIRCLE
  5
1BD
330
1F
100
AcDbEntity
  8
SLD-0
  6
Continuous
370
    15
100
AcDbCircle
 10
66.0915591846
 20
90.4015711534
 30
0.0
 40
3.999999999999986
  0
CIRCLE
  5
1BE
330
1F
100
AcDbEntity
  8
SLD-0
  6
Continuous
370
    15
100
AcDbCircle
 10
66.0915591846
 20
90.3335711534
 30
0.0
 40
2.416373405054557
  0
CIRCLE
  5
1BF
330
1F
100
AcDbEntity
  8
SLD-0
  6
Continuous
370
    15
100
AcDbCircle
 10
66.0915591846
 20
90.3335711534
 30
0.0
 40
2.497893621736765
  0
LINE
  5
1C0
330
1F
100
AcDbEntity
  8
SLD-0
  6
Continuous
370
    15
100
AcDbLine
 10
48.8126185257
 20
75.6565711474
 30
0.0
 11
48.8126185257
 21
75.690571168
 31
0.0
  0
LINE
  5
1C1
330
1F
100
AcDbEntity
  8
SLD-0
  6
Continuous
370
    15
100
AcDbLine
 10
48.9376181484
 20
75.690571168
 30
0.0
 11
48.9376181484
 21
75.6565711474
 31
0.0
  0
LINE
  5
1C2
330
1F
100
AcDbEntity
  8
SLD-0
  6
Continuous
370
    15
100
AcDbLine
 10
48.9376181484
 20
75.6565711474
 30
0.0
 11
48.8126185257
 21
75.6565711474
 31
0.0
  0
LINE
  5
1C3
330
1F
100
AcDbEntity
  8
SLD-0
  6
Continuous
370
    15
100
AcDbLine
 10
48.8126185257
 20
75.690571168
 30
0.0
 11
48.9376181484
 21
75.690571168
 31
0.0
  0
LINE
  5
1C4
330
1F
100
AcDbEntity
  8
SLD-0
  6
Continuous
370
    15
100
AcDbLine
 10
83.2455002208
 20
75.6565711474
 30
0.0
 11
83.2455002208
 21
75.690571168
 31
0.0
  0
LINE
  5
1C5
330
1F
100
AcDbEntity
  8
SLD-0
  6
Continuous
370
    15
100
AcDbLine
 10
83.2455002208
 20
75.6565711474
 30
0.0
 11
48.9376181484
 21
75.6565711474
 31
0.0
  0
LINE
  5
1C6
330
1F
100
AcDbEntity
  8
SLD-0
  6
Continuous
370
    15
100
AcDbLine
 10
83.2455002208
 20
75.690571168
 30
0.0
 11
48.9376181484
 21
75.690571168
 31
0.0
  0
LINE
  5
1C7
330
1F
100
AcDbEntity
  8
SLD-0
  6
Continuous
370
    15
100
AcDbLine
 10
83.3704998434
 20
75.690571168
 30
0.0
 11
83.3704998434
 21
75.6565711474
 31
0.0
  0
LINE
  5
1C8
330
1F
100
AcDbEntity
  8
SLD-0
  6
Continuous
370
    15
100
AcDbLine
 10
83.3704998434
 20
75.6565711474
 30
0.0
 11
83.2455002208
 21
75.6565711474
 31
0.0
  0
LINE
  5
1C9
330
1F
100
AcDbEntity
  8
SLD-0
  6
Continuous
370
    15
100
AcDbLine
 10
83.2455002208
 20
75.690571168
 30
0.0
 11
83.3704998434
 21
75.690571168
 31
0.0
  0
LINE
  5
1CA
330
1F
100
AcDbEntity
  8
SLD-0
  6
Continuous
370
    15
100
AcDbLine
 10
48.6176292049
 20
82.5315711835
 30
0.0
 11
48.5862170878
 21
82.5315711835
 31
0.0
  0
LWPOLYLINE
  5
1CB
330
1F
100
AcDbEntity
  8
SLD-0
  6
Continuous
370
    15
100
AcDbPolyline
 90
       10
 70
   128
 43
0.0
 10
48.5862170878
 20
82.5315711835
 10
48.586944546
 20
82.5532770127
 10
48.5891022811
 20
82.5743234363
 10
48.5926257604
 20
82.5940709948
 10
48.5974093851
 20
82.6119195353
 10
48.603305317
 20
82.627326984
 10
48.6101352115
 20
82.6398245996
 10
48.6176925642
 20
82.6490328132
 10
48.6257462311
 20
82.6546723747
 10
48.6340533352
 20
82.6565713928
  0
LINE
  5
1CC
330
1F
100
AcDbEntity
  8
SLD-0
  6
Continuous
370
    15
100
AcDbLine
 10
48.6340533352
 20
82.6565713928
 30
0.0
 11
48.665464279
 21
82.6565713928
 31
0.0
  0
LWPOLYLINE
  5
1CD
330
1F
100
AcDbEntity
  8
SLD-0
  6
Continuous
370
    15
100
AcDbPolyline
 90
       10
 70
   128
 43
0.0
 10
48.665464279
 20
82.6565713928
 10
48.6571583483
 20
82.6546723747
 10
48.6491046813
 20
82.6490328132
 10
48.6415473286
 20
82.6398245996
 10
48.6347162608
 20
82.627326984
 10
48.6288203289
 20
82.6119195353
 10
48.6240378775
 20
82.5940709948
 10
48.6205143982
 20
82.5743234363
 10
48.6183566632
 20
82.5532770127
 10
48.6176292049
 20
82.5315711835
  0
LINE
  5
1CE
330
1F
100
AcDbEntity
  8
SLD-0
  6
Continuous
370
    15
100
AcDbLine
 10
48.6176292049
 20
82.5315711835
 30
0.0
 11
48.6176292049
 21
75.8615711226
 31
0.0
  0
LINE
  5
1CF
330
1F
100
AcDbEntity
  8
SLD-0
  6
Continuous
370
    15
100
AcDbLine
 10
48.5862170878
 20
75.8615711226
 30
0.0
 11
48.6176292049
 21
75.8615711226
 31
0.0
  0
LINE
  5
1D0
330
1F
100
AcDbEntity
  8
SLD-0
  6
Continuous
370
    15
100
AcDbLine
 10
48.5862170878
 20
82.5315711835
 30
0.0
 11
48.5862170878
 21
75.8615711226
 31
0.0
  0
LWPOLYLINE
  5
1D1
330
1F
100
AcDbEntity
  8
SLD-0
  6
Continuous
370
    15
100
AcDbPolyline
 90
       10
 70
   128
 43
0.0
 10
48.6176292049
 20
75.8615711226
 10
48.6183566632
 20
75.8398651466
 10
48.6205143982
 20
75.8188186498
 10
48.6240378775
 20
75.7990711646
 10
48.6288203289
 20
75.7812226974
 10
48.6347162608
 20
75.7658156154
 10
48.6415473286
 20
75.7533179631
 10
48.6491046813
 20
75.7441095662
 10
48.6571583483
 20
75.738470188
 10
48.665464279
 20
75.7365711699
  0
LINE
  5
1D2
330
1F
100
AcDbEntity
  8
SLD-0
  6
Continuous
370
    15
100
AcDbLine
 10
48.665464279
 20
75.7365711699
 30
0.0
 11
48.6340533352
 21
75.7365711699
 31
0.0
  0
LWPOLYLINE
  5
1D3
330
1F
100
AcDbEntity
  8
SLD-0
  6
Continuous
370
    15
100
AcDbPolyline
 90
       10
 70
   128
 43
0.0
 10
48.6340533352
 20
75.7365711699
 10
48.6257462311
 20
75.738470188
 10
48.6176925642
 20
75.7441095662
 10
48.6101352115
 20
75.7533179631
 10
48.603305317
 20
75.7658156154
 10
48.5974093851
 20
75.7812226974
 10
48.5926257604
 20
75.7990711646
 10
48.5891022811
 20
75.8188186498
 10
48.586944546
 20
75.8398651466
 10
48.5862170878
 20
75.8615711226
  0
LINE
  5
1D4
330
1F
100
AcDbEntity
  8
SLD-0
  6
Continuous
370
    15
100
AcDbLine
 10
48.665464279
 20
82.6565713928
 30
0.0
 11
48.7989986297
 21
82.6565713928
 31
0.0
  0
LINE
  5
1D5
330
1F
100
AcDbEntity
  8
SLD-0
  6
Continuous
370
    15
100
AcDbLine
 10
48.7989986297
 20
82.6565713928
 30
0.0
 11
48.7989986297
 21
75.7365711699
 31
0.0
  0
LINE
  5
1D6
330
1F
100
AcDbEntity
  8
SLD-0
  6
Continuous
370
    15
100
AcDbLine
 10
48.665464279
 20
75.7365711699
 30
0.0
 11
48.7989986297
 21
75.7365711699
 31
0.0
  0
LINE
  5
1D7
330
1F
100
AcDbEntity
  8
SLD-0
  6
Continuous
370
    15
100
AcDbLine
 10
83.549065034
 20
75.7365711699
 30
0.0
 11
83.5176540902
 21
75.7365711699
 31
0.0
  0
LWPOLYLINE
  5
1D8
330
1F
100
AcDbEntity
  8
SLD-0
  6
Continuous
370
    15
100
AcDbPolyline
 90
       10
 70
   128
 43
0.0
 10
83.5176540902
 20
75.7365711699
 10
83.5259600209
 20
75.738470188
 10
83.5340136878
 20
75.7441095662
 10
83.5415710405
 20
75.7533179631
 10
83.5484021083
 20
75.7658156154
 10
83.5542980402
 20
75.7812226974
 10
83.5590804916
 20
75.7990711646
 10
83.5626039709
 20
75.8188186498
 10
83.564761706
 20
75.8398651466
 10
83.5654891642
 20
75.8615711226
  0
LINE
  5
1D9
330
1F
100
AcDbEntity
  8
SLD-0
  6
Continuous
370
    15
100
AcDbLine
 10
83.5654891642
 20
75.8615711226
 30
0.0
 11
83.5969012814
 21
75.8615711226
 31
0.0
  0
LWPOLYLINE
  5
1DA
330
1F
100
AcDbEntity
  8
SLD-0
  6
Continuous
370
    15
100
AcDbPolyline
 90
       10
 70
   128
 43
0.0
 10
83.5969012814
 20
75.8615711226
 10
83.5961738231
 20
75.8398651466
 10
83.594016088
 20
75.8188186498
 10
83.5904926087
 20
75.7990711646
 10
83.585708984
 20
75.7812226974
 10
83.5798130521
 20
75.7658156154
 10
83.5729831577
 20
75.7533179631
 10
83.565425805
 20
75.7441095662
 10
83.557372138
 20
75.738470188
 10
83.549065034
 20
75.7365711699
  0
LINE
  5
1DB
330
1F
100
AcDbEntity
  8
SLD-0
  6
Continuous
370
    15
100
AcDbLine
 10
83.3841197394
 20
82.6565713928
 30
0.0
 11
83.3841197394
 21
75.7365711699
 31
0.0
  0
LINE
  5
1DC
330
1F
100
AcDbEntity
  8
SLD-0
  6
Continuous
370
    15
100
AcDbLine
 10
83.3841197394
 20
82.6565713928
 30
0.0
 11
83.5176540902
 21
82.6565713928
 31
0.0
  0
LWPOLYLINE
  5
1DD
330
1F
100
AcDbEntity
  8
SLD-0
  6
Continuous
370
    15
100
AcDbPolyline
 90
       10
 70
   128
 43
0.0
 10
83.5654891642
 20
82.5315711835
 10
83.564761706
 20
82.5532770127
 10
83.5626039709
 20
82.5743234363
 10
83.5590804916
 20
82.5940709948
 10
83.5542980402
 20
82.6119195353
 10
83.5484021083
 20
82.627326984
 10
83.5415710405
 20
82.6398245996
 10
83.5340136878
 20
82.6490328132
 10
83.5259600209
 20
82.6546723747
 10
83.5176540902
 20
82.6565713928
  0
LINE
  5
1DE
330
1F
100
AcDbEntity
  8
SLD-0
  6
Continuous
370
    15
100
AcDbLine
 10
83.5654891642
 20
82.5315711835
 30
0.0
 11
83.5654891642
 21
75.8615711226
 31
0.0
  0
LINE
  5
1DF
330
1F
100
AcDbEntity
  8
SLD-0
  6
Continuous
370
    15
100
AcDbLine
 10
83.5176540902
 20
75.7365711699
 30
0.0
 11
83.3841197394
 21
75.7365711699
 31
0.0
  0
LINE
  5
1E0
330
1F
100
AcDbEntity
  8
SLD-0
  6
Continuous
370
    15
100
AcDbLine
 10
83.5969012814
 20
82.5315711835
 30
0.0
 11
83.5654891642
 21
82.5315711835
 31
0.0
  0
LINE
  5
1E1
330
1F
100
AcDbEntity
  8
SLD-0
  6
Continuous
370
    15
100
AcDbLine
 10
83.5969012814
 20
82.5315711835
 30
0.0
 11
83.5969012814
 21
75.8615711226
 31
0.0
  0
LINE
  5
1E2
330
1F
100
AcDbEntity
  8
SLD-0
  6
Continuous
370
    15
100
AcDbLine
 10
83.5176540902
 20
82.6565713928
 30
0.0
 11
83.549065034
 21
82.6565713928
 31
0.0
  0
LWPOLYLINE
  5
1E3
330
1F
100
AcDbEntity
  8
SLD-0
  6
Continuous
370
    15
100
AcDbPolyline
 90
       10
 70
   128
 43
0.0
 10
83.549065034
 20
82.6565713928
 10
83.557372138
 20
82.6546723747
 10
83.565425805
 20
82.6490328132
 10
83.5729831577
 20
82.6398245996
 10
83.5798130521
 20
82.627326984
 10
83.585708984
 20
82.6119195353
 10
83.5904926087
 20
82.5940709948
 10
83.594016088
 20
82.5743234363
 10
83.5961738231
 20
82.5532770127
 10
83.5969012814
 20
82.5315711835
  0
LINE
  5
1E4
330
1F
100
AcDbEntity
  8
SLD-0
  6
Continuous
370
    15
100
AcDbLine
 10
83.3704998434
 20
75.690571168
 30
0.0
 11
83.3704998434
 21
75.6955711602
 31
0.0
  0
LINE
  5
1E5
330
1F
100
AcDbEntity
  8
SLD-0
  6
Continuous
370
    15
100
AcDbLine
 10
83.3704998434
 20
75.6955711602
 30
0.0
 11
48.8126185257
 21
75.6955711602
 31
0.0
  0
LINE
  5
1E6
330
1F
100
AcDbEntity
  8
SLD-0
  6
Continuous
370
    15
100
AcDbLine
 10
48.8126185257
 20
75.6955711602
 30
0.0
 11
48.8126185257
 21
75.690571168
 31
0.0
  0
LINE
  5
1E7
330
1F
100
AcDbEntity
  8
SLD-0
  6
Continuous
370
    15
100
AcDbLine
 10
83.3795003795
 20
82.6565713928
 30
0.0
 11
83.3795003795
 21
75.7365711699
 31
0.0
  0
LINE
  5
1E8
330
1F
100
AcDbEntity
  8
SLD-0
  6
Continuous
370
    15
100
AcDbLine
 10
83.3795003795
 20
82.6565713928
 30
0.0
 11
83.3841197394
 21
82.6565713928
 31
0.0
  0
LINE
  5
1E9
330
1F
100
AcDbEntity
  8
SLD-0
  6
Continuous
370
    15
100
AcDbLine
 10
83.3841197394
 20
75.7365711699
 30
0.0
 11
83.3795003795
 21
75.7365711699
 31
0.0
  0
LINE
  5
1EA
330
1F
100
AcDbEntity
  8
SLD-0
  6
Continuous
370
    15
100
AcDbLine
 10
48.8036179897
 20
82.6565713928
 30
0.0
 11
48.8036179897
 21
75.7365711699
 31
0.0
  0
LINE
  5
1EB
330
1F
100
AcDbEntity
  8
SLD-0
  6
Continuous
370
    15
100
AcDbLine
 10
48.7989986297
 20
82.6565713928
 30
0.0
 11
48.8036179897
 21
82.6565713928
 31
0.0
  0
LINE
  5
1EC
330
1F
100
AcDbEntity
  8
SLD-0
  6
Continuous
370
    15
100
AcDbLine
 10
48.8036179897
 20
75.7365711699
 30
0.0
 11
48.7989986297
 21
75.7365711699
 31
0.0
  0
LINE
  5
1ED
330
1F
100
AcDbEntity
  8
SLD-0
  6
Continuous
370
    15
100
AcDbLine
 10
48.8036179897
 20
82.6565713928
 30
0.0
 11
83.3795003795
 21
82.6565713928
 31
0.0
  0
LINE
  5
1EE
330
1F
100
AcDbEntity
  8
SLD-0
  6
Continuous
370
    15
100
AcDbLine
 10
83.3795003795
 20
75.7365711699
 30
0.0
 11
83.3704998434
 21
75.7365711699
 31
0.0
  0
LINE
  5
1EF
330
1F
100
AcDbEntity
  8
SLD-0
  6
Continuous
370
    15
100
AcDbLine
 10
83.3704998434
 20
75.7365711699
 30
0.0
 11
83.3704998434
 21
75.6955711602
 31
0.0
  0
LINE
  5
1F0
330
1F
100
AcDbEntity
  8
SLD-0
  6
Continuous
370
    15
100
AcDbLine
 10
48.8126185257
 20
75.6955711602
 30
0.0
 11
48.8126185257
 21
75.7365711699
 31
0.0
  0
LINE
  5
1F1
330
1F
100
AcDbEntity
  8
SLD-0
  6
Continuous
370
    15
100
AcDbLine
 10
48.8126185257
 20
75.7365711699
 30
0.0
 11
48.8036179897
 21
75.7365711699
 31
0.0
  0
LINE
  5
1F2
330
1F
100
AcDbEntity
  8
SLD-0
  6
Continuous
370
    15
100
AcDbLine
 10
48.0493435031
 20
79.2815710211
 30
0.0
 11
48.0493435031
 21
80.406571145
 31
0.0
  0
LINE
  5
1F3
330
1F
100
AcDbEntity
  8
SLD-0
  6
Continuous
370
    15
100
AcDbLine
 10
48.1332945333
 20
79.2815710211
 30
0.0
 11
48.0493435031
 21
79.2815710211
 31
0.0
  0
LINE
  5
1F4
330
1F
100
AcDbEntity
  8
SLD-0
  6
Continuous
370
    15
100
AcDbLine
 10
48.1332945333
 20
80.406571145
 30
0.0
 11
48.1332945333
 21
79.2815710211
 31
0.0
  0
LINE
  5
1F5
330
1F
100
AcDbEntity
  8
SLD-0
  6
Continuous
370
    15
100
AcDbLine
 10
48.1578380364
 20
75.6565711474
 30
0.0
 11
48.1578380364
 21
80.656570977
 31
0.0
  0
LINE
  5
1F6
330
1F
100
AcDbEntity
  8
SLD-0
  6
Continuous
370
    15
100
AcDbLine
 10
48.0248
 20
75.6565711474
 30
0.0
 11
48.1578380364
 21
75.6565711474
 31
0.0
  0
LINE
  5
1F7
330
1F
100
AcDbEntity
  8
SLD-0
  6
Continuous
370
    15
100
AcDbLine
 10
48.0248
 20
75.6565711474
 30
0.0
 11
48.0248
 21
80.656570977
 31
0.0
  0
LINE
  5
1F8
330
1F
100
AcDbEntity
  8
SLD-0
  6
Continuous
370
    15
100
AcDbLine
 10
48.0493435031
 20
75.9065711627
 30
0.0
 11
48.0493435031
 21
77.0315712133
 31
0.0
  0
LINE
  5
1F9
330
1F
100
AcDbEntity
  8
SLD-0
  6
Continuous
370
    15
100
AcDbLine
 10
48.1332945333
 20
75.9065711627
 30
0.0
 11
48.0493435031
 21
75.9065711627
 31
0.0
  0
LINE
  5
1FA
330
1F
100
AcDbEntity
  8
SLD-0
  6
Continuous
370
    15
100
AcDbLine
 10
48.1332945333
 20
77.0315712133
 30
0.0
 11
48.1332945333
 21
75.9065711627
 31
0.0
  0
LINE
  5
1FB
330
1F
100
AcDbEntity
  8
SLD-0
  6
Continuous
370
    15
100
AcDbLine
 10
48.0493435031
 20
77.0315712133
 30
0.0
 11
48.1332945333
 21
77.0315712133
 31
0.0
  0
LINE
  5
1FC
330
1F
100
AcDbEntity
  8
SLD-0
  6
Continuous
370
    15
100
AcDbLine
 10
48.0493435031
 20
80.406571145
 30
0.0
 11
48.1332945333
 21
80.406571145
 31
0.0
  0
LINE
  5
1FD
330
1F
100
AcDbEntity
  8
SLD-0
  6
Continuous
370
    15
100
AcDbLine
 10
48.1578380364
 20
80.656570977
 30
0.0
 11
48.0248
 21
80.656570977
 31
0.0
  0
LINE
  5
1FE
330
1F
100
AcDbEntity
  8
SLD-0
  6
Continuous
370
    15
100
AcDbLine
 10
48.113472469
 20
80.406571145
 30
0.0
 11
48.113472469
 21
79.2815710211
 31
0.0
  0
LINE
  5
1FF
330
1F
100
AcDbEntity
  8
SLD-0
  6
Continuous
370
    15
100
AcDbLine
 10
48.0691655675
 20
79.2815710211
 30
0.0
 11
48.0691655675
 21
80.406571145
 31
0.0
  0
LINE
  5
200
330
1F
100
AcDbEntity
  8
SLD-0
  6
Continuous
370
    15
100
AcDbLine
 10
48.113472469
 20
77.0315712133
 30
0.0
 11
48.113472469
 21
75.9065711627
 31
0.0
  0
LINE
  5
201
330
1F
100
AcDbEntity
  8
SLD-0
  6
Continuous
370
    15
100
AcDbLine
 10
48.0691655675
 20
75.9065711627
 30
0.0
 11
48.0691655675
 21
77.0315712133
 31
0.0
  0
LINE
  5
202
330
1F
100
AcDbEntity
  8
SLD-0
  6
Continuous
370
    15
100
AcDbLine
 10
48.1578380364
 20
75.6565711474
 30
0.0
 11
48.8126185257
 21
75.6565711474
 31
0.0
  0
LINE
  5
203
330
1F
100
AcDbEntity
  8
SLD-0
  6
Continuous
370
    15
100
AcDbLine
 10
48.1578380364
 20
80.656570977
 30
0.0
 11
48.5862170878
 21
80.656570977
 31
0.0
  0
LINE
  5
204
330
1F
100
AcDbEntity
  8
SLD-0
  6
Continuous
370
    15
100
AcDbLine
 10
43.0968921276
 20
75.9065711627
 30
0.0
 11
43.0968921276
 21
77.0315712133
 31
0.0
  0
LINE
  5
205
330
1F
100
AcDbEntity
  8
SLD-0
  6
Continuous
370
    15
100
AcDbLine
 10
43.0968921276
 20
77.0315712133
 30
0.0
 11
43.0888384606
 21
77.0315712133
 31
0.0
  0
LINE
  5
206
330
1F
100
AcDbEntity
  8
SLD-0
  6
Continuous
370
    15
100
AcDbLine
 10
43.0888384606
 20
77.0315712133
 30
0.0
 11
43.0888384606
 21
79.2815710211
 31
0.0
  0
LINE
  5
207
330
1F
100
AcDbEntity
  8
SLD-0
  6
Continuous
370
    15
100
AcDbLine
 10
43.0888384606
 20
79.2815710211
 30
0.0
 11
43.0968921276
 21
79.2815710211
 31
0.0
  0
LINE
  5
208
330
1F
100
AcDbEntity
  8
SLD-0
  6
Continuous
370
    15
100
AcDbLine
 10
43.0968921276
 20
79.2815710211
 30
0.0
 11
43.0968921276
 21
80.406571145
 31
0.0
  0
LINE
  5
209
330
1F
100
AcDbEntity
  8
SLD-0
  6
Continuous
370
    15
100
AcDbLine
 10
43.0968921276
 20
80.406571145
 30
0.0
 11
43.0888384606
 21
80.406571145
 31
0.0
  0
LINE
  5
20A
330
1F
100
AcDbEntity
  8
SLD-0
  6
Continuous
370
    15
100
AcDbLine
 10
43.0888384606
 20
80.406571145
 30
0.0
 11
43.0888384606
 21
80.656570977
 31
0.0
  0
LINE
  5
20B
330
1F
100
AcDbEntity
  8
SLD-0
  6
Continuous
370
    15
100
AcDbLine
 10
43.0888384606
 20
75.6565711474
 30
0.0
 11
48.0248
 21
75.6565711474
 31
0.0
  0
LINE
  5
20C
330
1F
100
AcDbEntity
  8
SLD-0
  6
Continuous
370
    15
100
AcDbLine
 10
43.0888384606
 20
75.6565711474
 30
0.0
 11
43.0888384606
 21
75.9065711627
 31
0.0
  0
LINE
  5
20D
330
1F
100
AcDbEntity
  8
SLD-0
  6
Continuous
370
    15
100
AcDbLine
 10
43.0888384606
 20
75.9065711627
 30
0.0
 11
43.0968921276
 21
75.9065711627
 31
0.0
  0
LINE
  5
20E
330
1F
100
AcDbEntity
  8
SLD-0
  6
Continuous
370
    15
100
AcDbLine
 10
43.0888384606
 20
80.656570977
 30
0.0
 11
48.0248
 21
80.656570977
 31
0.0
  0
LINE
  5
20F
330
1F
100
AcDbEntity
  8
SLD-0
  6
Continuous
370
    15
100
AcDbLine
 10
43.0842179273
 20
80.406571145
 30
0.0
 11
43.0888384606
 21
80.406571145
 31
0.0
  0
LINE
  5
210
330
1F
100
AcDbEntity
  8
SLD-0
  6
Continuous
370
    15
100
AcDbLine
 10
43.0842179273
 20
80.406571145
 30
0.0
 11
43.0842179273
 21
80.656570977
 31
0.0
  0
LINE
  5
211
330
1F
100
AcDbEntity
  8
SLD-0
  6
Continuous
370
    15
100
AcDbLine
 10
43.0888384606
 20
80.656570977
 30
0.0
 11
43.0842179273
 21
80.656570977
 31
0.0
  0
LINE
  5
212
330
1F
100
AcDbEntity
  8
SLD-0
  6
Continuous
370
    15
100
AcDbLine
 10
43.0842179273
 20
77.0315712133
 30
0.0
 11
43.0888384606
 21
77.0315712133
 31
0.0
  0
LINE
  5
213
330
1F
100
AcDbEntity
  8
SLD-0
  6
Continuous
370
    15
100
AcDbLine
 10
43.0842179273
 20
77.0315712133
 30
0.0
 11
43.0842179273
 21
79.2815710211
 31
0.0
  0
LINE
  5
214
330
1F
100
AcDbEntity
  8
SLD-0
  6
Continuous
370
    15
100
AcDbLine
 10
43.0888384606
 20
79.2815710211
 30
0.0
 11
43.0842179273
 21
79.2815710211
 31
0.0
  0
LINE
  5
215
330
1F
100
AcDbEntity
  8
SLD-0
  6
Continuous
370
    15
100
AcDbLine
 10
43.0842179273
 20
75.6565711474
 30
0.0
 11
43.0842179273
 21
75.9065711627
 31
0.0
  0
LINE
  5
216
330
1F
100
AcDbEntity
  8
SLD-0
  6
Continuous
370
    15
100
AcDbLine
 10
43.0842179273
 20
75.6565711474
 30
0.0
 11
43.0888384606
 21
75.6565711474
 31
0.0
  0
LINE
  5
217
330
1F
100
AcDbEntity
  8
SLD-0
  6
Continuous
370
    15
100
AcDbLine
 10
43.0888384606
 20
75.9065711627
 30
0.0
 11
43.0842179273
 21
75.9065711627
 31
0.0
  0
LINE
  5
218
330
1F
100
AcDbEntity
  8
SLD-0
  6
Continuous
370
    15
100
AcDbLine
 10
43.0842179273
 20
80.406571145
 30
0.0
 11
43.0631709171
 21
80.406571145
 31
0.0
  0
LINE
  5
219
330
1F
100
AcDbEntity
  8
SLD-0
  6
Continuous
370
    15
100
AcDbLine
 10
43.0631709171
 20
80.406571145
 30
0.0
 11
43.0631709171
 21
79.2815710211
 31
0.0
  0
LINE
  5
21A
330
1F
100
AcDbEntity
  8
SLD-0
  6
Continuous
370
    15
100
AcDbLine
 10
43.0631709171
 20
79.2815710211
 30
0.0
 11
43.0842179273
 21
79.2815710211
 31
0.0
  0
LINE
  5
21B
330
1F
100
AcDbEntity
  8
SLD-0
  6
Continuous
370
    15
100
AcDbLine
 10
43.0842179273
 20
77.0315712133
 30
0.0
 11
43.0631709171
 21
77.0315712133
 31
0.0
  0
LINE
  5
21C
330
1F
100
AcDbEntity
  8
SLD-0
  6
Continuous
370
    15
100
AcDbLine
 10
43.0631709171
 20
77.0315712133
 30
0.0
 11
43.0631709171
 21
75.9065711627
 31
0.0
  0
LINE
  5
21D
330
1F
100
AcDbEntity
  8
SLD-0
  6
Continuous
370
    15
100
AcDbLine
 10
43.0631709171
 20
75.9065711627
 30
0.0
 11
43.0842179273
 21
75.9065711627
 31
0.0
  0
LINE
  5
21E
330
1F
100
AcDbEntity
  8
SLD-0
  6
Continuous
370
    15
100
AcDbLine
 10
42.5625599536
 20
75.6565711474
 30
0.0
 11
43.0842179273
 21
75.6565711474
 31
0.0
  0
ARC
  5
21F
330
1F
100
AcDbEntity
  8
SLD-0
  6
Continuous
370
    15
100
AcDbCircle
 10
42.5625591846
 20
75.7565711534
 30
0.0
 40
0.1000000000000085
100
AcDbArc
 50
180.0
 51
270.0
  0
LINE
  5
220
330
1F
100
AcDbEntity
  8
SLD-0
  6
Continuous
370
    15
100
AcDbLine
 10
42.4625602554
 20
75.7565711389
 30
0.0
 11
42.4625602554
 21
80.5565712789
 31
0.0
  0
ARC
  5
221
330
1F
100
AcDbEntity
  8
SLD-0
  6
Continuous
370
    15
100
AcDbCircle
 10
42.5625591846
 20
80.5565711534
 30
0.0
 40
0.1000000000000085
100
AcDbArc
 50
90.0
 51
180.0
  0
LINE
  5
222
330
1F
100
AcDbEntity
  8
SLD-0
  6
Continuous
370
    15
100
AcDbLine
 10
42.5625599536
 20
80.656570977
 30
0.0
 11
43.0842179273
 21
80.656570977
 31
0.0
  0
LINE
  5
223
330
1F
100
AcDbEntity
  8
SLD-0
  6
Continuous
370
    15
100
AcDbLine
 10
84.133774866
 20
75.9065711627
 30
0.0
 11
84.0498238358
 21
75.9065711627
 31
0.0
  0
LINE
  5
224
330
1F
100
AcDbEntity
  8
SLD-0
  6
Continuous
370
    15
100
AcDbLine
 10
84.133774866
 20
77.0315712133
 30
0.0
 11
84.133774866
 21
75.9065711627
 31
0.0
  0
LINE
  5
225
330
1F
100
AcDbEntity
  8
SLD-0
  6
Continuous
370
    15
100
AcDbLine
 10
84.0498238358
 20
77.0315712133
 30
0.0
 11
84.133774866
 21
77.0315712133
 31
0.0
  0
LINE
  5
226
330
1F
100
AcDbEntity
  8
SLD-0
  6
Continuous
370
    15
100
AcDbLine
 10
84.0498238358
 20
75.9065711627
 30
0.0
 11
84.0498238358
 21
77.0315712133
 31
0.0
  0
LINE
  5
227
330
1F
100
AcDbEntity
  8
SLD-0
  6
Continuous
370
    15
100
AcDbLine
 10
84.0252803327
 20
80.656570977
 30
0.0
 11
84.0252803327
 21
75.6565711474
 31
0.0
  0
LINE
  5
228
330
1F
100
AcDbEntity
  8
SLD-0
  6
Continuous
370
    15
100
AcDbLine
 10
84.1583183692
 20
80.656570977
 30
0.0
 11
84.1583183692
 21
75.6565711474
 31
0.0
  0
LINE
  5
229
330
1F
100
AcDbEntity
  8
SLD-0
  6
Continuous
370
    15
100
AcDbLine
 10
84.0252803327
 20
75.6565711474
 30
0.0
 11
84.1583183692
 21
75.6565711474
 31
0.0
  0
LINE
  5
22A
330
1F
100
AcDbEntity
  8
SLD-0
  6
Continuous
370
    15
100
AcDbLine
 10
84.133774866
 20
80.406571145
 30
0.0
 11
84.133774866
 21
79.2815710211
 31
0.0
  0
LINE
  5
22B
330
1F
100
AcDbEntity
  8
SLD-0
  6
Continuous
370
    15
100
AcDbLine
 10
84.0498238358
 20
79.2815710211
 30
0.0
 11
84.0498238358
 21
80.406571145
 31
0.0
  0
LINE
  5
22C
330
1F
100
AcDbEntity
  8
SLD-0
  6
Continuous
370
    15
100
AcDbLine
 10
84.133774866
 20
79.2815710211
 30
0.0
 11
84.0498238358
 21
79.2815710211
 31
0.0
  0
LINE
  5
22D
330
1F
100
AcDbEntity
  8
SLD-0
  6
Continuous
370
    15
100
AcDbLine
 10
84.1583183692
 20
80.656570977
 30
0.0
 11
84.0252803327
 21
80.656570977
 31
0.0
  0
LINE
  5
22E
330
1F
100
AcDbEntity
  8
SLD-0
  6
Continuous
370
    15
100
AcDbLine
 10
84.0498238358
 20
80.406571145
 30
0.0
 11
84.133774866
 21
80.406571145
 31
0.0
  0
LINE
  5
22F
330
1F
100
AcDbEntity
  8
SLD-0
  6
Continuous
370
    15
100
AcDbLine
 10
84.1139528017
 20
80.406571145
 30
0.0
 11
84.1139528017
 21
79.2815710211
 31
0.0
  0
LINE
  5
230
330
1F
100
AcDbEntity
  8
SLD-0
  6
Continuous
370
    15
100
AcDbLine
 10
84.0696459002
 20
75.9065711627
 30
0.0
 11
84.0696459002
 21
77.0315712133
 31
0.0
  0
LINE
  5
231
330
1F
100
AcDbEntity
  8
SLD-0
  6
Continuous
370
    15
100
AcDbLine
 10
84.0696459002
 20
79.2815710211
 30
0.0
 11
84.0696459002
 21
80.406571145
 31
0.0
  0
LINE
  5
232
330
1F
100
AcDbEntity
  8
SLD-0
  6
Continuous
370
    15
100
AcDbLine
 10
84.1139528017
 20
77.0315712133
 30
0.0
 11
84.1139528017
 21
75.9065711627
 31
0.0
  0
LINE
  5
233
330
1F
100
AcDbEntity
  8
SLD-0
  6
Continuous
370
    15
100
AcDbLine
 10
84.0252803327
 20
80.656570977
 30
0.0
 11
83.5969012814
 21
80.656570977
 31
0.0
  0
LINE
  5
234
330
1F
100
AcDbEntity
  8
SLD-0
  6
Continuous
370
    15
100
AcDbLine
 10
84.0252803327
 20
75.6565711474
 30
0.0
 11
83.3704998434
 21
75.6565711474
 31
0.0
  0
LINE
  5
235
330
1F
100
AcDbEntity
  8
SLD-0
  6
Continuous
370
    15
100
AcDbLine
 10
89.0862262415
 20
80.406571145
 30
0.0
 11
89.0862262415
 21
79.2815710211
 31
0.0
  0
LINE
  5
236
330
1F
100
AcDbEntity
  8
SLD-0
  6
Continuous
370
    15
100
AcDbLine
 10
89.0862262415
 20
79.2815710211
 30
0.0
 11
89.0942799085
 21
79.2815710211
 31
0.0
  0
LINE
  5
237
330
1F
100
AcDbEntity
  8
SLD-0
  6
Continuous
370
    15
100
AcDbLine
 10
89.0942799085
 20
79.2815710211
 30
0.0
 11
89.0942799085
 21
77.0315712133
 31
0.0
  0
LINE
  5
238
330
1F
100
AcDbEntity
  8
SLD-0
  6
Continuous
370
    15
100
AcDbLine
 10
89.0942799085
 20
77.0315712133
 30
0.0
 11
89.0862262415
 21
77.0315712133
 31
0.0
  0
LINE
  5
239
330
1F
100
AcDbEntity
  8
SLD-0
  6
Continuous
370
    15
100
AcDbLine
 10
89.0862262415
 20
77.0315712133
 30
0.0
 11
89.0862262415
 21
75.9065711627
 31
0.0
  0
LINE
  5
23A
330
1F
100
AcDbEntity
  8
SLD-0
  6
Continuous
370
    15
100
AcDbLine
 10
89.0862262415
 20
75.9065711627
 30
0.0
 11
89.0942799085
 21
75.9065711627
 31
0.0
  0
LINE
  5
23B
330
1F
100
AcDbEntity
  8
SLD-0
  6
Continuous
370
    15
100
AcDbLine
 10
89.0942799085
 20
75.9065711627
 30
0.0
 11
89.0942799085
 21
75.6565711474
 31
0.0
  0
LINE
  5
23C
330
1F
100
AcDbEntity
  8
SLD-0
  6
Continuous
370
    15
100
AcDbLine
 10
89.0942799085
 20
75.6565711474
 30
0.0
 11
84.1583183692
 21
75.6565711474
 31
0.0
  0
LINE
  5
23D
330
1F
100
AcDbEntity
  8
SLD-0
  6
Continuous
370
    15
100
AcDbLine
 10
89.0942799085
 20
80.656570977
 30
0.0
 11
89.0942799085
 21
80.406571145
 31
0.0
  0
LINE
  5
23E
330
1F
100
AcDbEntity
  8
SLD-0
  6
Continuous
370
    15
100
AcDbLine
 10
89.0942799085
 20
80.406571145
 30
0.0
 11
89.0862262415
 21
80.406571145
 31
0.0
  0
LINE
  5
23F
330
1F
100
AcDbEntity
  8
SLD-0
  6
Continuous
370
    15
100
AcDbLine
 10
89.0942799085
 20
80.656570977
 30
0.0
 11
84.1583183692
 21
80.656570977
 31
0.0
  0
LINE
  5
240
330
1F
100
AcDbEntity
  8
SLD-0
  6
Continuous
370
    15
100
AcDbLine
 10
89.0989004418
 20
80.656570977
 30
0.0
 11
89.0989004418
 21
80.406571145
 31
0.0
  0
LINE
  5
241
330
1F
100
AcDbEntity
  8
SLD-0
  6
Continuous
370
    15
100
AcDbLine
 10
89.0942799085
 20
80.406571145
 30
0.0
 11
89.0989004418
 21
80.406571145
 31
0.0
  0
LINE
  5
242
330
1F
100
AcDbEntity
  8
SLD-0
  6
Continuous
370
    15
100
AcDbLine
 10
89.0989004418
 20
80.656570977
 30
0.0
 11
89.0942799085
 21
80.656570977
 31
0.0
  0
LINE
  5
243
330
1F
100
AcDbEntity
  8
SLD-0
  6
Continuous
370
    15
100
AcDbLine
 10
89.0989004418
 20
79.2815710211
 30
0.0
 11
89.0942799085
 21
79.2815710211
 31
0.0
  0
LINE
  5
244
330
1F
100
AcDbEntity
  8
SLD-0
  6
Continuous
370
    15
100
AcDbLine
 10
89.0989004418
 20
79.2815710211
 30
0.0
 11
89.0989004418
 21
77.0315712133
 31
0.0
  0
LINE
  5
245
330
1F
100
AcDbEntity
  8
SLD-0
  6
Continuous
370
    15
100
AcDbLine
 10
89.0942799085
 20
77.0315712133
 30
0.0
 11
89.0989004418
 21
77.0315712133
 31
0.0
  0
LINE
  5
246
330
1F
100
AcDbEntity
  8
SLD-0
  6
Continuous
370
    15
100
AcDbLine
 10
89.0989004418
 20
75.9065711627
 30
0.0
 11
89.0942799085
 21
75.9065711627
 31
0.0
  0
LINE
  5
247
330
1F
100
AcDbEntity
  8
SLD-0
  6
Continuous
370
    15
100
AcDbLine
 10
89.0989004418
 20
75.9065711627
 30
0.0
 11
89.0989004418
 21
75.6565711474
 31
0.0
  0
LINE
  5
248
330
1F
100
AcDbEntity
  8
SLD-0
  6
Continuous
370
    15
100
AcDbLine
 10
89.0942799085
 20
75.6565711474
 30
0.0
 11
89.0989004418
 21
75.6565711474
 31
0.0
  0
LINE
  5
249
330
1F
100
AcDbEntity
  8
SLD-0
  6
Continuous
370
    15
100
AcDbLine
 10
89.0989004418
 20
75.9065711627
 30
0.0
 11
89.119947452
 21
75.9065711627
 31
0.0
  0
LINE
  5
24A
330
1F
100
AcDbEntity
  8
SLD-0
  6
Continuous
370
    15
100
AcDbLine
 10
89.119947452
 20
75.9065711627
 30
0.0
 11
89.119947452
 21
77.0315712133
 31
0.0
  0
LINE
  5
24B
330
1F
100
AcDbEntity
  8
SLD-0
  6
Continuous
370
    15
100
AcDbLine
 10
89.119947452
 20
77.0315712133
 30
0.0
 11
89.0989004418
 21
77.0315712133
 31
0.0
  0
LINE
  5
24C
330
1F
100
AcDbEntity
  8
SLD-0
  6
Continuous
370
    15
100
AcDbLine
 10
89.0989004418
 20
79.2815710211
 30
0.0
 11
89.119947452
 21
79.2815710211
 31
0.0
  0
LINE
  5
24D
330
1F
100
AcDbEntity
  8
SLD-0
  6
Continuous
370
    15
100
AcDbLine
 10
89.119947452
 20
79.2815710211
 30
0.0
 11
89.119947452
 21
80.406571145
 31
0.0
  0
LINE
  5
24E
330
1F
100
AcDbEntity
  8
SLD-0
  6
Continuous
370
    15
100
AcDbLine
 10
89.119947452
 20
80.406571145
 30
0.0
 11
89.0989004418
 21
80.406571145
 31
0.0
  0
LINE
  5
24F
330
1F
100
AcDbEntity
  8
SLD-0
  6
Continuous
370
    15
100
AcDbLine
 10
89.6205584156
 20
80.656570977
 30
0.0
 11
89.0989004418
 21
80.656570977
 31
0.0
  0
ARC
  5
250
330
1F
100
AcDbEntity
  8
SLD-0
  6
Continuous
370
    15
100
AcDbCircle
 10
89.6205591846
 20
80.5565711534
 30
0.0
 40
0.0999999999999943
100
AcDbArc
 50
0.0
 51
90.0
  0
LINE
  5
251
330
1F
100
AcDbEntity
  8
SLD-0
  6
Continuous
370
    15
100
AcDbLine
 10
89.7205581137
 20
80.5565712789
 30
0.0
 11
89.7205581137
 21
75.7565711389
 31
0.0
  0
ARC
  5
252
330
1F
100
AcDbEntity
  8
SLD-0
  6
Continuous
370
    15
100
AcDbCircle
 10
89.6205591846
 20
75.7565711534
 30
0.0
 40
0.1000000000000085
100
AcDbArc
 50
270.0
 51
0.0
  0
LINE
  5
253
330
1F
100
AcDbEntity
  8
SLD-0
  6
Continuous
370
    15
100
AcDbLine
 10
89.6205584156
 20
75.6565711474
 30
0.0
 11
89.0989004418
 21
75.6565711474
 31
0.0
  0
LINE
  5
254
330
1F
100
AcDbEntity
  8
SLD-0
  6
Continuous
370
    15
100
AcDbLine
 10
93.5625585306
 20
97.1115712874
 30
0.0
 11
38.6205598386
 21
97.1115712874
 31
0.0
  0
LINE
  5
255
330
1F
100
AcDbEntity
  8
SLD-0
  6
Continuous
370
    15
100
AcDbLine
 10
93.5625585306
 20
75.1855711543
 30
0.0
 11
93.5625585306
 21
97.1115712874
 31
0.0
  0
LINE
  5
256
330
1F
100
AcDbEntity
  8
SLD-0
  6
Continuous
370
    15
100
AcDbLine
 10
38.6205598386
 20
75.1855711543
 30
0.0
 11
93.5625585306
 21
75.1855711543
 31
0.0
  0
LINE
  5
257
330
1F
100
AcDbEntity
  8
SLD-0
  6
Continuous
370
    15
100
AcDbLine
 10
38.6205598386
 20
97.1115712874
 30
0.0
 11
38.6205598386
 21
75.1855711543
 31
0.0
  0
CIRCLE
  5
258
330
1F
100
AcDbEntity
  8
SLD-0
  6
Continuous
370
    15
100
AcDbCircle
 10
66.0915591846
 20
90.4025711534
 30
0.0
 40
4.5
  0
LWPOLYLINE
  5
259
330
1F
100
AcDbEntity
  8
SLD-0
  6
Continuous
370
    15
100
AcDbPolyline
 90
       10
 70
   128
 43
0.0
 10
93.5625585306
 20
97.1115712874
 10
93.5675944191
 20
97.1112122516
 10
93.572477776
 20
97.1108626023
 10
93.5770584164
 20
97.1105364194
 10
93.5812002352
 20
97.1102407428
 10
93.5847741673
 20
97.1099849591
 10
93.5876746138
 20
97.1097784548
 10
93.5898100558
 20
97.1096259232
 10
93.5911194806
 20
97.1095320576
 10
93.5915583022
 20
97.1094992047
  0
LINE
  5
25A
330
1F
100
AcDbEntity
  8
SLD-0
  6
Continuous
370
    15
100
AcDbLine
 10
38.6205598386
 20
75.1855711543
 30
0.0
 11
38.5915600669
 21
75.1855711543
 31
0.0
  0
LINE
  5
25B
330
1F
100
AcDbEntity
  8
SLD-0
  6
Continuous
370
    15
100
AcDbLine
 10
38.5915600669
 20
97.1094992047
 30
0.0
 11
38.5915600669
 21
75.1855711543
 31
0.0
  0
LWPOLYLINE
  5
25C
330
1F
100
AcDbEntity
  8
SLD-0
  6
Continuous
370
    15
100
AcDbPolyline
 90
        9
 70
   128
 43
0.0
 10
38.5915600669
 20
97.1094992047
 10
38.5921162205
 20
97.1095390976
 10
38.5937659081
 20
97.1096587762
 10
38.5964457705
 20
97.109848854
 10
38.6000525555
 20
97.1101069843
 10
38.6044478114
 20
97.110421434
 10
38.6094602335
 20
97.1107781232
 10
38.6149020906
 20
97.1111676654
 10
38.6205598386
 20
97.1115712874
  0
LINE
  5
25D
330
1F
100
AcDbEntity
  8
SLD-0
  6
Continuous
370
    15
100
AcDbLine
 10
93.5915583022
 20
75.1855711543
 30
0.0
 11
93.5915583022
 21
97.1094992047
 31
0.0
  0
LINE
  5
25E
330
1F
100
AcDbEntity
  8
SLD-0
  6
Continuous
370
    15
100
AcDbLine
 10
93.5915583022
 20
75.1855711543
 30
0.0
 11
93.5625585306
 21
75.1855711543
 31
0.0
  0
LWPOLYLINE
  5
25F
330
1F
100
AcDbEntity
  8
SLD-0
  6
Continuous
370
    15
100
AcDbPolyline
 90
       10
 70
   128
 43
0.0
 10
38.6205598386
 20
97.1115712874
 10
38.6209188744
 20
97.1166071759
 10
38.6212685237
 20
97.1214905328
 10
38.6215947066
 20
97.1260711732
 10
38.6218903832
 20
97.1302129921
 10
38.6221461669
 20
97.1337869241
 10
38.6223526712
 20
97.136685024
 10
38.6225052028
 20
97.1388228126
 10
38.6225990683
 20
97.1401298908
 10
38.6226295747
 20
97.1405710591
  0
LINE
  5
260
330
1F
100
AcDbEntity
  8
SLD-0
  6
Continuous
370
    15
100
AcDbLine
 10
93.5604887945
 20
97.1405710591
 30
0.0
 11
38.6226295747
 21
97.1405710591
 31
0.0
  0
LWPOLYLINE
  5
261
330
1F
100
AcDbEntity
  8
SLD-0
  6
Continuous
370
    15
100
AcDbPolyline
 90
       10
 70
   128
 43
0.0
 10
93.5604887945
 20
97.1405710591
 10
93.5605193008
 20
97.1401298908
 10
93.5606131664
 20
97.1388228126
 10
93.5607656979
 20
97.136685024
 10
93.5609722022
 20
97.1337869241
 10
93.5612279859
 20
97.1302129921
 10
93.5615236625
 20
97.1260711732
 10
93.5618498454
 20
97.1214905328
 10
93.5621994947
 20
97.1166071759
 10
93.5625585306
 20
97.1115712874
  0
LINE
  5
262
330
1F
100
AcDbEntity
  8
SLD-0
  6
Continuous
370
    15
100
AcDbLine
 10
93.5625585306
 20
75.1855711543
 30
0.0
 11
93.5625585306
 21
75.1565711534
 31
0.0
  0
LINE
  5
263
330
1F
100
AcDbEntity
  8
SLD-0
  6
Continuous
370
    15
100
AcDbLine
 10
38.6205598386
 20
75.1565711534
 30
0.0
 11
93.5625585306
 21
75.1565711534
 31
0.0
  0
LINE
  5
264
330
1F
100
AcDbEntity
  8
SLD-0
  6
Continuous
370
    15
100
AcDbLine
 10
38.6205598386
 20
75.1565711534
 30
0.0
 11
38.6205598386
 21
75.1855711543
 31
0.0
  0
LINE
  5
265
330
1F
100
AcDbEntity
  8
SLD-0
  6
Continuous
370
    15
100
AcDbLine
 10
85.97955941
 20
75.1515711532
 30
0.0
 11
85.97955941
 21
75.1565711534
 31
0.0
  0
LINE
  5
266
330
1F
100
AcDbEntity
  8
SLD-0
  6
Continuous
370
    15
100
AcDbLine
 10
46.2035589591
 20
75.1515711532
 30
0.0
 11
85.97955941
 21
75.1515711532
 31
0.0
  0
LINE
  5
267
330
1F
100
AcDbEntity
  8
SLD-0
  6
Continuous
370
    15
100
AcDbLine
 10
46.2035589591
 20
75.1565711534
 30
0.0
 11
46.2035589591
 21
75.1515711532
 31
0.0
  0
LINE
  5
268
330
1F
100
AcDbEntity
  8
SLD-0
  6
Continuous
370
    15
100
AcDbLine
 10
46.2035589591
 20
75.1515711532
 30
0.0
 11
46.2035589591
 21
74.7815711488
 31
0.0
  0
LINE
  5
269
330
1F
100
AcDbEntity
  8
SLD-0
  6
Continuous
370
    15
100
AcDbLine
 10
85.854558614
 20
74.6565711595
 30
0.0
 11
85.97955941
 21
74.7815711488
 31
0.0
  0
LINE
  5
26A
330
1F
100
AcDbEntity
  8
SLD-0
  6
Continuous
370
    15
100
AcDbLine
 10
46.3285597551
 20
74.6565711595
 30
0.0
 11
85.854558614
 21
74.6565711595
 31
0.0
  0
LINE
  5
26B
330
1F
100
AcDbEntity
  8
SLD-0
  6
Continuous
370
    15
100
AcDbLine
 10
46.2035589591
 20
74.7815711488
 30
0.0
 11
46.3285597551
 21
74.6565711595
 31
0.0
  0
LINE
  5
26C
330
1F
100
AcDbEntity
  8
SLD-0
  6
Continuous
370
    15
100
AcDbLine
 10
85.97955941
 20
74.7815711488
 30
0.0
 11
85.97955941
 21
75.1515711532
 31
0.0
  0
LINE
  5
26D
330
1F
100
AcDbEntity
  8
SLD-0
  6
Continuous
370
    15
100
AcDbLine
 10
86.049559668
 20
75.1565711534
 30
0.0
 11
86.049559668
 21
74.7815711488
 31
0.0
  0
LINE
  5
26E
330
1F
100
AcDbEntity
  8
SLD-0
  6
Continuous
370
    15
100
AcDbLine
 10
86.0255582386
 20
74.7815711488
 30
0.0
 11
86.049559668
 21
74.7815711488
 31
0.0
  0
LINE
  5
26F
330
1F
100
AcDbEntity
  8
SLD-0
  6
Continuous
370
    15
100
AcDbLine
 10
86.0255582386
 20
75.1565711534
 30
0.0
 11
86.0255582386
 21
74.7815711488
 31
0.0
  0
LINE
  5
270
330
1F
100
AcDbEntity
  8
SLD-0
  6
Continuous
370
    15
100
AcDbLine
 10
86.049559668
 20
74.7815711488
 30
0.0
 11
86.049559668
 21
74.6565711595
 31
0.0
  0
LINE
  5
271
330
1F
100
AcDbEntity
  8
SLD-0
  6
Continuous
370
    15
100
AcDbLine
 10
86.049559668
 20
74.6565711595
 30
0.0
 11
86.0255582386
 21
74.6565711595
 31
0.0
  0
LINE
  5
272
330
1F
100
AcDbEntity
  8
SLD-0
  6
Continuous
370
    15
100
AcDbLine
 10
86.0255582386
 20
74.6565711595
 30
0.0
 11
86.0255582386
 21
74.7815711488
 31
0.0
  0
LINE
  5
273
330
1F
100
AcDbEntity
  8
SLD-0
  6
Continuous
370
    15
100
AcDbLine
 10
46.1335587011
 20
74.7815711488
 30
0.0
 11
46.1575601305
 21
74.7815711488
 31
0.0
  0
LINE
  5
274
330
1F
100
AcDbEntity
  8
SLD-0
  6
Continuous
370
    15
100
AcDbLine
 10
46.1335587011
 20
74.7815711488
 30
0.0
 11
46.1335587011
 21
75.1565711534
 31
0.0
  0
LINE
  5
275
330
1F
100
AcDbEntity
  8
SLD-0
  6
Continuous
370
    15
100
AcDbLine
 10
46.1575601305
 20
74.7815711488
 30
0.0
 11
46.1575601305
 21
75.1565711534
 31
0.0
  0
LINE
  5
276
330
1F
100
AcDbEntity
  8
SLD-0
  6
Continuous
370
    15
100
AcDbLine
 10
46.1575601305
 20
74.6565711595
 30
0.0
 11
46.1335587011
 21
74.6565711595
 31
0.0
  0
LINE
  5
277
330
1F
100
AcDbEntity
  8
SLD-0
  6
Continuous
370
    15
100
AcDbLine
 10
46.1335587011
 20
74.6565711595
 30
0.0
 11
46.1335587011
 21
74.7815711488
 31
0.0
  0
LINE
  5
278
330
1F
100
AcDbEntity
  8
SLD-0
  6
Continuous
370
    15
100
AcDbLine
 10
46.1575601305
 20
74.7815711488
 30
0.0
 11
46.1575601305
 21
74.6565711595
 31
0.0
  0
LINE
  5
279
330
1F
100
AcDbEntity
  8
SLD-0
  6
Continuous
370
    15
100
AcDbLine
 10
86.0035584928
 20
75.1565711534
 30
0.0
 11
86.0035584928
 21
75.1515711532
 31
0.0
  0
LINE
  5
27A
330
1F
100
AcDbEntity
  8
SLD-0
  6
Continuous
370
    15
100
AcDbLine
 10
46.1795598763
 20
75.1515711532
 30
0.0
 11
46.1795598763
 21
75.1565711534
 31
0.0
  0
LINE
  5
27B
330
1F
100
AcDbEntity
  8
SLD-0
  6
Continuous
370
    15
100
AcDbLine
 10
86.0035584928
 20
75.1515711532
 30
0.0
 11
86.0035584928
 21
74.7815711488
 31
0.0
  0
LINE
  5
27C
330
1F
100
AcDbEntity
  8
SLD-0
  6
Continuous
370
    15
100
AcDbLine
 10
85.9156627615
 20
74.6936752709
 30
0.0
 11
86.0035584928
 21
74.7815711488
 31
0.0
  0
LINE
  5
27D
330
1F
100
AcDbEntity
  8
SLD-0
  6
Continuous
370
    15
100
AcDbLine
 10
46.1795598763
 20
74.7815711488
 30
0.0
 11
46.2674556076
 21
74.6936752709
 31
0.0
  0
LINE
  5
27E
330
1F
100
AcDbEntity
  8
SLD-0
  6
Continuous
370
    15
100
AcDbLine
 10
46.1795598763
 20
74.7815711488
 30
0.0
 11
46.1795598763
 21
75.1515711532
 31
0.0
  0
LINE
  5
27F
330
1F
100
AcDbEntity
  8
SLD-0
  6
Continuous
370
    15
100
AcDbLine
 10
86.0035584928
 20
75.1515711532
 30
0.0
 11
85.97955941
 21
75.1515711532
 31
0.0
  0
LINE
  5
280
330
1F
100
AcDbEntity
  8
SLD-0
  6
Continuous
370
    15
100
AcDbLine
 10
46.2035589591
 20
75.1515711532
 30
0.0
 11
46.1795598763
 21
75.1515711532
 31
0.0
  0
DIMENSION
  5
281
330
1F
100
AcDbEntity
  8
DIM
100
AcDbDimension
  2
_D_6
 10
66.0915591846
 20
100.1405711535
 30
0.0
 11
52.3415591846
 21
100.1405711535
 31
0.0
 70
   160
  1
<>
 71
     2
 42
-1.0
  3
SLDDIMSTYLE0
100
AcDbAlignedDimension
 13
38.5915591846
 23
97.1095000856
 33
0.0
 14
66.0915591846
 24
92.8483697553
 34
0.0
 50
0.0
100
AcDbRotatedDimension
  0
DIMENSION
  5
290
330
1F
100
AcDbEntity
  8
DIM
100
AcDbDimension
  2
_D_7
 10
97.9586324968
 20
90.3335711534
 30
0.0
 11
97.9586324968
 21
93.7370711534
 31
0.0
 70
   160
  1
<>
 71
     2
 42
-1.0
  3
SLDDIMSTYLE0
100
AcDbAlignedDimension
 13
93.5604881168
 23
97.1405711535
 33
0.0
 14
68.6063577865
 24
90.3335711534
 34
0.0
 50
90.0
100
AcDbRotatedDimension
  0
DIMENSION
  5
29F
330
1F
100
AcDbEntity
  8
DIM
100
AcDbDimension
  2
_D_8
 10
97.9586324968
 20
90.3335711534
 30
0.0
 11
97.9586324968
 21
82.7450711534
 31
0.0
 70
   160
  1
<>
 71
     2
 42
-1.0
  3
SLDDIMSTYLE0
100
AcDbAlignedDimension
 13
93.5625591846
 23
75.1565711534
 33
0.0
 14
68.6063577865
 24
90.3335711534
 34
0.0
 50
90.0
100
AcDbRotatedDimension
  0
DIMENSION
  5
2AE
330
1F
100
AcDbEntity
  8
DIM
100
AcDbDimension
  2
_D_9
 10
102.0688806477
 20
97.1405711535
 30
0.0
 11
102.0688806477
 21
86.1485711534
 31
0.0
 70
   160
  1
<>
 71
     2
 42
-1.0
  3
SLDDIMSTYLE0
100
AcDbAlignedDimension
 13
93.5625591846
 23
75.1565711534
 33
0.0
 14
93.5604881168
 24
97.1405711535
 34
0.0
 50
90.0
100
AcDbRotatedDimension
  0
DIMENSION
  5
2B9
330
1F
100
AcDbEntity
  8
DIM
100
AcDbDimension
  2
_D_10
 10
93.5915591846
 20
71.357303528
 30
0.0
 11
66.6620407841
 21
71.357303528
 31
0.0
 70
   160
  1
<>
 71
     2
 42
-1.0
  3
SLDDIMSTYLE0
100
AcDbAlignedDimension
 13
38.5915591846
 23
75.1855711534
 33
0.0
 14
93.5915591846
 24
75.1855711534
 34
0.0
 50
0.0
100
AcDbRotatedDimension
  0
DIMENSION
  5
2C4
330
1F
100
AcDbEntity
  8
DIM
100
AcDbDimension
  2
_D_11
 10
65.5637834699
 20
87.8920705205
 30
0.0
 11
71.1143062246
 21
100.1405711535
 31
0.0
 70
   163
  1
<>
 71
     1
 42
-1.0
  3
SLDDIMSTYLE1
100
AcDbDiametricDimension
 15
66.6193348993
 25
92.7750717863
 35
0.0
 40
0.0
  0
DIMENSION
  5
2CE
330
1F
100
AcDbEntity
  8
DIM
100
AcDbDimension
  2
_D_12
 10
63.6446128578
 20
87.2373250072
 30
0.0
 11
76.7685736668
 21
100.1405711535
 31
0.0
 70
   163
  1
<>
 71
     1
 42
-1.0
  3
SLDDIMSTYLE1
100
AcDbDiametricDimension
 15
68.5385055114
 25
93.5658172997
 35
0.0
 40
0.0
  0
INSERT
  5
2E2
330
1F
100
AcDbEntity
  8
DIM
100
AcDbBlockReference
  2
SW_CENTERMARKSYMBOL_0
 10
66.0915591846
 20
90.3335711534
 30
0.0
  0
LINE
  5
2E3
330
1F
100
AcDbEntity
  8
SLD-0
  6
Continuous
370
    15
100
AcDbLine
 10
105.69554485
 20
60.4281584793
 30
0.0
 11
105.4455448346
 21
60.4281584793
 31
0.0
  0
LINE
  5
2E4
330
1F
100
AcDbEntity
  8
SLD-0
  6
Continuous
370
    15
100
AcDbLine
 10
109.0705447083
 20
60.4281584793
 30
0.0
 11
106.8205449005
 21
60.4281584793
 31
0.0
  0
LINE
  5
2E5
330
1F
100
AcDbEntity
  8
SLD-0
  6
Continuous
370
    15
100
AcDbLine
 10
110.4455446642
 20
60.4281584793
 30
0.0
 11
110.1955448322
 21
60.4281584793
 31
0.0
  0
LINE
  5
2E6
330
1F
100
AcDbEntity
  8
SLD-0
  6
Continuous
370
    15
100
AcDbLine
 10
104.4455448467
 20
43.0021586126
 30
0.0
 11
104.4455448467
 21
42.8561577392
 31
0.0
  0
LINE
  5
2E7
330
1F
100
AcDbEntity
  8
SLD-0
  6
Continuous
370
    15
100
AcDbLine
 10
104.4455448467
 20
10.2551577754
 30
0.0
 11
104.4455448467
 21
10.1301577861
 31
0.0
  0
LINE
  5
2E8
330
1F
100
AcDbEntity
  8
SLD-0
  6
Continuous
370
    15
100
AcDbLine
 10
104.4455448467
 20
43.0021586126
 30
0.0
 11
104.5002446482
 21
43.0021586126
 31
0.0
  0
LINE
  5
2E9
330
1F
100
AcDbEntity
  8
SLD-0
  6
Continuous
370
    15
100
AcDbLine
 10
104.9405448404
 20
43.0021586126
 30
0.0
 11
104.9695448401
 21
43.0021586126
 31
0.0
  0
LINE
  5
2EA
330
1F
100
AcDbEntity
  8
SLD-0
  6
Continuous
370
    15
100
AcDbLine
 10
104.4455448467
 20
10.1301577861
 30
0.0
 11
104.4826489581
 21
10.1301577861
 31
0.0
  0
ARC
  5
2EB
330
1F
100
AcDbEntity
  8
SLD-0
  6
Continuous
370
    15
100
AcDbCircle
 10
112.3249331685
 20
59.2354537601
 30
0.0
 40
0.1207222216061267
100
AcDbArc
 50
2.449540902
 51
92.0831819015
  0
LINE
  5
2EC
330
1F
100
AcDbEntity
  8
SLD-0
  6
Continuous
370
    15
100
AcDbLine
 10
112.44554508
 20
58.9182320287
 30
0.0
 11
112.44554508
 21
59.2406133712
 31
0.0
  0
LINE
  5
2ED
330
1F
100
AcDbEntity
  8
SLD-0
  6
Continuous
370
    15
100
AcDbLine
 10
112.3205448707
 20
59.3560961972
 30
0.0
 11
110.4455446642
 21
59.3560961972
 31
0.0
  0
LINE
  5
2EE
330
1F
100
AcDbEntity
  8
SLD-0
  6
Continuous
370
    15
100
AcDbLine
 10
112.3205448707
 20
59.3560961972
 30
0.0
 11
112.3205448707
 21
59.3691106602
 31
0.0
  0
ARC
  5
2EF
330
1F
100
AcDbEntity
  8
SLD-0
  6
Continuous
370
    15
100
AcDbCircle
 10
112.3253075547
 20
59.2488736569
 30
0.0
 40
0.1203312931418823
100
AcDbArc
 50
2.2620557758
 51
92.2683458252
  0
LINE
  5
2F0
330
1F
100
AcDbEntity
  8
SLD-0
  6
Continuous
370
    15
100
AcDbLine
 10
112.44554508
 20
59.2536231409
 30
0.0
 11
112.44554508
 21
59.2406133712
 31
0.0
  0
LINE
  5
2F1
330
1F
100
AcDbEntity
  8
SLD-0
  6
Continuous
370
    15
100
AcDbLine
 10
112.3205448707
 20
59.3691106602
 30
0.0
 11
110.4455446642
 21
59.3691106602
 31
0.0
  0
LINE
  5
2F2
330
1F
100
AcDbEntity
  8
SLD-0
  6
Continuous
370
    15
100
AcDbLine
 10
112.44554508
 20
58.8941555069
 30
0.0
 11
110.4455446642
 21
58.8941555069
 31
0.0
  0
LINE
  5
2F3
330
1F
100
AcDbEntity
  8
SLD-0
  6
Continuous
370
    15
100
AcDbLine
 10
112.44554508
 20
58.8941555069
 30
0.0
 11
112.44554508
 21
58.9182320287
 31
0.0
  0
ARC
  5
2F4
330
1F
100
AcDbEntity
  8
SLD-0
  6
Continuous
370
    15
100
AcDbCircle
 10
112.3249314446
 20
54.7714537522
 30
0.0
 40
0.1207238142390815
100
AcDbArc
 50
2.4480659314
 51
92.0823356695
  0
LINE
  5
2F5
330
1F
100
AcDbEntity
  8
SLD-0
  6
Continuous
370
    15
100
AcDbLine
 10
112.44554508
 20
54.4744804833
 30
0.0
 11
112.44554508
 21
54.7766103264
 31
0.0
  0
LINE
  5
2F6
330
1F
100
AcDbEntity
  8
SLD-0
  6
Continuous
370
    15
100
AcDbLine
 10
112.3205448707
 20
54.8920978457
 30
0.0
 11
110.4455446642
 21
54.8920978457
 31
0.0
  0
LINE
  5
2F7
330
1F
100
AcDbEntity
  8
SLD-0
  6
Continuous
370
    15
100
AcDbLine
 10
112.3205448707
 20
54.8920978457
 30
0.0
 11
112.3205448707
 21
54.9058350736
 31
0.0
  0
LINE
  5
2F8
330
1F
100
AcDbEntity
  8
SLD-0
  6
Continuous
370
    15
100
AcDbLine
 10
112.3205448707
 20
54.9058350736
 30
0.0
 11
110.4455446642
 21
54.9058350736
 31
0.0
  0
ARC
  5
2F9
330
1F
100
AcDbEntity
  8
SLD-0
  6
Continuous
370
    15
100
AcDbCircle
 10
112.325309271
 20
54.785599735
 30
0.0
 40
0.120329697742871
100
AcDbArc
 50
2.2635290111
 51
92.2691937924
  0
LINE
  5
2FA
330
1F
100
AcDbEntity
  8
SLD-0
  6
Continuous
370
    15
100
AcDbLine
 10
112.44554508
 20
54.7903522477
 30
0.0
 11
112.44554508
 21
54.7766103264
 31
0.0
  0
LINE
  5
2FB
330
1F
100
AcDbEntity
  8
SLD-0
  6
Continuous
370
    15
100
AcDbLine
 10
112.44554508
 20
54.4301571554
 30
0.0
 11
110.4455446642
 21
54.4301571554
 31
0.0
  0
LINE
  5
2FC
330
1F
100
AcDbEntity
  8
SLD-0
  6
Continuous
370
    15
100
AcDbLine
 10
112.44554508
 20
54.4301571554
 30
0.0
 11
112.44554508
 21
54.4744804833
 31
0.0
  0
LINE
  5
2FD
330
1F
100
AcDbEntity
  8
SLD-0
  6
Continuous
370
    15
100
AcDbLine
 10
105.4455448346
 20
48.4301588412
 30
0.0
 11
105.4455448346
 21
48.4641569551
 31
0.0
  0
LINE
  5
2FE
330
1F
100
AcDbEntity
  8
SLD-0
  6
Continuous
370
    15
100
AcDbLine
 10
105.5455448261
 20
48.4641569551
 30
0.0
 11
105.5455448261
 21
48.4301588412
 31
0.0
  0
LINE
  5
2FF
330
1F
100
AcDbEntity
  8
SLD-0
  6
Continuous
370
    15
100
AcDbLine
 10
105.4455448346
 20
48.4641569551
 30
0.0
 11
105.5455448261
 21
48.4641569551
 31
0.0
  0
LINE
  5
300
330
1F
100
AcDbEntity
  8
SLD-0
  6
Continuous
370
    15
100
AcDbLine
 10
110.3455449661
 20
48.4301588412
 30
0.0
 11
110.3455449661
 21
48.4641569551
 31
0.0
  0
LINE
  5
301
330
1F
100
AcDbEntity
  8
SLD-0
  6
Continuous
370
    15
100
AcDbLine
 10
110.3455449661
 20
48.4641569551
 30
0.0
 11
105.5455448261
 21
48.4641569551
 31
0.0
  0
LINE
  5
302
330
1F
100
AcDbEntity
  8
SLD-0
  6
Continuous
370
    15
100
AcDbLine
 10
110.4455446642
 20
48.4641569551
 30
0.0
 11
110.4455446642
 21
48.4301588412
 31
0.0
  0
LINE
  5
303
330
1F
100
AcDbEntity
  8
SLD-0
  6
Continuous
370
    15
100
AcDbLine
 10
110.3455449661
 20
48.4641569551
 30
0.0
 11
110.4455446642
 21
48.4641569551
 31
0.0
  0
LINE
  5
304
330
1F
100
AcDbEntity
  8
SLD-0
  6
Continuous
370
    15
100
AcDbLine
 10
105.69554485
 20
48.4672451328
 30
0.0
 11
105.4455448346
 21
48.4672451328
 31
0.0
  0
LINE
  5
305
330
1F
100
AcDbEntity
  8
SLD-0
  6
Continuous
370
    15
100
AcDbLine
 10
105.69554485
 20
48.4641569551
 30
0.0
 11
105.69554485
 21
48.4672451328
 31
0.0
  0
LINE
  5
306
330
1F
100
AcDbEntity
  8
SLD-0
  6
Continuous
370
    15
100
AcDbLine
 10
105.4455448346
 20
48.4672451328
 30
0.0
 11
105.4455448346
 21
48.4641569551
 31
0.0
  0
LINE
  5
307
330
1F
100
AcDbEntity
  8
SLD-0
  6
Continuous
370
    15
100
AcDbLine
 10
109.0705447083
 20
48.4672451328
 30
0.0
 11
106.8205449005
 21
48.4672451328
 31
0.0
  0
LINE
  5
308
330
1F
100
AcDbEntity
  8
SLD-0
  6
Continuous
370
    15
100
AcDbLine
 10
109.0705447083
 20
48.4641569551
 30
0.0
 11
109.0705447083
 21
48.4672451328
 31
0.0
  0
LINE
  5
309
330
1F
100
AcDbEntity
  8
SLD-0
  6
Continuous
370
    15
100
AcDbLine
 10
106.8205449005
 20
48.4672451328
 30
0.0
 11
106.8205449005
 21
48.4641569551
 31
0.0
  0
LINE
  5
30A
330
1F
100
AcDbEntity
  8
SLD-0
  6
Continuous
370
    15
100
AcDbLine
 10
110.1955448322
 20
48.4672451328
 30
0.0
 11
110.1955448322
 21
48.4641569551
 31
0.0
  0
LINE
  5
30B
330
1F
100
AcDbEntity
  8
SLD-0
  6
Continuous
370
    15
100
AcDbLine
 10
110.4455446642
 20
48.4672451328
 30
0.0
 11
110.1955448322
 21
48.4672451328
 31
0.0
  0
LINE
  5
30C
330
1F
100
AcDbEntity
  8
SLD-0
  6
Continuous
370
    15
100
AcDbLine
 10
110.4455446642
 20
48.4641569551
 30
0.0
 11
110.4455446642
 21
48.4672451328
 31
0.0
  0
LINE
  5
30D
330
1F
100
AcDbEntity
  8
SLD-0
  6
Continuous
370
    15
100
AcDbLine
 10
110.1955448322
 20
48.4866893881
 30
0.0
 11
109.0705447083
 21
48.4866893881
 31
0.0
  0
LINE
  5
30E
330
1F
100
AcDbEntity
  8
SLD-0
  6
Continuous
370
    15
100
AcDbLine
 10
109.0705447083
 20
48.4866893881
 30
0.0
 11
109.0705447083
 21
48.4672451328
 31
0.0
  0
LINE
  5
30F
330
1F
100
AcDbEntity
  8
SLD-0
  6
Continuous
370
    15
100
AcDbLine
 10
106.8205449005
 20
48.4672451328
 30
0.0
 11
106.8205449005
 21
48.4866893881
 31
0.0
  0
LINE
  5
310
330
1F
100
AcDbEntity
  8
SLD-0
  6
Continuous
370
    15
100
AcDbLine
 10
106.8205449005
 20
48.4866893881
 30
0.0
 11
105.69554485
 21
48.4866893881
 31
0.0
  0
LINE
  5
311
330
1F
100
AcDbEntity
  8
SLD-0
  6
Continuous
370
    15
100
AcDbLine
 10
105.69554485
 20
48.4866893881
 30
0.0
 11
105.69554485
 21
48.4672451328
 31
0.0
  0
LINE
  5
312
330
1F
100
AcDbEntity
  8
SLD-0
  6
Continuous
370
    15
100
AcDbLine
 10
105.4455448346
 20
48.4672451328
 30
0.0
 11
105.4455448346
 21
60.383713126
 31
0.0
  0
LINE
  5
313
330
1F
100
AcDbEntity
  8
SLD-0
  6
Continuous
370
    15
100
AcDbLine
 10
110.4455446642
 20
60.383713126
 30
0.0
 11
105.4455448346
 21
60.383713126
 31
0.0
  0
LINE
  5
314
330
1F
100
AcDbEntity
  8
SLD-0
  6
Continuous
370
    15
100
AcDbLine
 10
110.4455446642
 20
48.4672451328
 30
0.0
 11
110.4455446642
 21
60.383713126
 31
0.0
  0
LINE
  5
315
330
1F
100
AcDbEntity
  8
SLD-0
  6
Continuous
370
    15
100
AcDbLine
 10
110.1955448322
 20
48.4672451328
 30
0.0
 11
110.1955448322
 21
48.4866893881
 31
0.0
  0
LINE
  5
316
330
1F
100
AcDbEntity
  8
SLD-0
  6
Continuous
370
    15
100
AcDbLine
 10
109.0705447083
 20
48.4736772718
 30
0.0
 11
110.1955448322
 21
48.4736772718
 31
0.0
  0
LINE
  5
317
330
1F
100
AcDbEntity
  8
SLD-0
  6
Continuous
370
    15
100
AcDbLine
 10
105.69554485
 20
48.4736772718
 30
0.0
 11
106.8205449005
 21
48.4736772718
 31
0.0
  0
LINE
  5
318
330
1F
100
AcDbEntity
  8
SLD-0
  6
Continuous
370
    15
100
AcDbLine
 10
105.69554485
 20
60.4146559153
 30
0.0
 11
105.69554485
 21
60.4281584793
 31
0.0
  0
LINE
  5
319
330
1F
100
AcDbEntity
  8
SLD-0
  6
Continuous
370
    15
100
AcDbLine
 10
106.8205449005
 20
60.4146559153
 30
0.0
 11
105.69554485
 21
60.4146559153
 31
0.0
  0
LINE
  5
31A
330
1F
100
AcDbEntity
  8
SLD-0
  6
Continuous
370
    15
100
AcDbLine
 10
106.8205449005
 20
60.4281584793
 30
0.0
 11
106.8205449005
 21
60.4146559153
 31
0.0
  0
LINE
  5
31B
330
1F
100
AcDbEntity
  8
SLD-0
  6
Continuous
370
    15
100
AcDbLine
 10
110.4455446642
 20
60.383713126
 30
0.0
 11
110.4455446642
 21
60.4281584793
 31
0.0
  0
LINE
  5
31C
330
1F
100
AcDbEntity
  8
SLD-0
  6
Continuous
370
    15
100
AcDbLine
 10
105.4455448346
 20
60.4281584793
 30
0.0
 11
105.4455448346
 21
60.383713126
 31
0.0
  0
LINE
  5
31D
330
1F
100
AcDbEntity
  8
SLD-0
  6
Continuous
370
    15
100
AcDbLine
 10
110.1955448322
 20
60.4146559153
 30
0.0
 11
109.0705447083
 21
60.4146559153
 31
0.0
  0
LINE
  5
31E
330
1F
100
AcDbEntity
  8
SLD-0
  6
Continuous
370
    15
100
AcDbLine
 10
110.1955448322
 20
60.4281584793
 30
0.0
 11
110.1955448322
 21
60.4146559153
 31
0.0
  0
LINE
  5
31F
330
1F
100
AcDbEntity
  8
SLD-0
  6
Continuous
370
    15
100
AcDbLine
 10
109.0705447083
 20
60.4146559153
 30
0.0
 11
109.0705447083
 21
60.4281584793
 31
0.0
  0
ELLIPSE
  5
320
330
1F
100
AcDbEntity
  8
SLD-0
  6
Continuous
370
    15
100
AcDbEllipse
 10
126.9005448407
 20
48.4011577981
 30
0.0
 11
0.0
 21
0.02899999999999636
 31
0.0
210
0.0
220
0.0
230
1.0
 40
0.0714161315
 41
0.0
 42
1.570796326795877
  0
LINE
  5
321
330
1F
100
AcDbEntity
  8
SLD-0
  6
Continuous
370
    15
100
AcDbLine
 10
104.9745448415
 20
48.4011567229
 30
0.0
 11
126.8984728919
 21
48.4011567229
 31
0.0
  0
LINE
  5
322
330
1F
100
AcDbEntity
  8
SLD-0
  6
Continuous
370
    15
100
AcDbLine
 10
104.9745448415
 20
48.4011567229
 30
0.0
 11
104.9745448415
 21
48.4301588412
 31
0.0
  0
LINE
  5
323
330
1F
100
AcDbEntity
  8
SLD-0
  6
Continuous
370
    15
100
AcDbLine
 10
104.9745448415
 20
48.4301588412
 30
0.0
 11
126.9005449747
 21
48.4301588412
 31
0.0
  0
LINE
  5
324
330
1F
100
AcDbEntity
  8
SLD-0
  6
Continuous
370
    15
100
AcDbLine
 10
104.9745448415
 20
47.5311588799
 30
0.0
 11
105.09954484
 21
47.4061580839
 31
0.0
  0
LINE
  5
325
330
1F
100
AcDbEntity
  8
SLD-0
  6
Continuous
370
    15
100
AcDbLine
 10
104.9745448415
 20
47.5311588799
 30
0.0
 11
104.9745448415
 21
48.4011567229
 31
0.0
  0
LINE
  5
326
330
1F
100
AcDbEntity
  8
SLD-0
  6
Continuous
370
    15
100
AcDbLine
 10
126.8984728919
 20
48.4011567229
 30
0.0
 11
126.8984728919
 21
47.5311588799
 31
0.0
  0
LINE
  5
327
330
1F
100
AcDbEntity
  8
SLD-0
  6
Continuous
370
    15
100
AcDbLine
 10
126.7734744426
 20
47.4061580839
 30
0.0
 11
126.8984728919
 21
47.5311588799
 31
0.0
  0
LINE
  5
328
330
1F
100
AcDbEntity
  8
SLD-0
  6
Continuous
370
    15
100
AcDbLine
 10
105.09954484
 20
47.4061580839
 30
0.0
 11
126.7734744426
 21
47.4061580839
 31
0.0
  0
LINE
  5
329
330
1F
100
AcDbEntity
  8
SLD-0
  6
Continuous
370
    15
100
AcDbLine
 10
126.9005449747
 20
48.4301588412
 30
0.0
 11
126.9005449747
 21
48.4061574118
 31
0.0
  0
LINE
  5
32A
330
1F
100
AcDbEntity
  8
SLD-0
  6
Continuous
370
    15
100
AcDbLine
 10
104.9695448401
 20
48.4011567229
 30
0.0
 11
104.9455448407
 21
48.4011567229
 31
0.0
  0
LINE
  5
32B
330
1F
100
AcDbEntity
  8
SLD-0
  6
Continuous
370
    15
100
AcDbLine
 10
104.9695448401
 20
43.1561568336
 30
0.0
 11
104.9695448401
 21
48.4011567229
 31
0.0
  0
LINE
  5
32C
330
1F
100
AcDbEntity
  8
SLD-0
  6
Continuous
370
    15
100
AcDbLine
 10
104.9455448407
 20
43.1561568336
 30
0.0
 11
104.9695448401
 21
43.1561568336
 31
0.0
  0
LINE
  5
32D
330
1F
100
AcDbEntity
  8
SLD-0
  6
Continuous
370
    15
100
AcDbLine
 10
104.9455448407
 20
43.1561568336
 30
0.0
 11
104.9455448407
 21
48.4011567229
 31
0.0
  0
LINE
  5
32E
330
1F
100
AcDbEntity
  8
SLD-0
  6
Continuous
370
    15
100
AcDbLine
 10
104.9695448401
 20
43.1561568336
 30
0.0
 11
104.9695448401
 21
43.1321577508
 31
0.0
  0
LINE
  5
32F
330
1F
100
AcDbEntity
  8
SLD-0
  6
Continuous
370
    15
100
AcDbLine
 10
104.9695448401
 20
43.0311583842
 30
0.0
 11
104.9455448407
 21
43.0311583842
 31
0.0
  0
LINE
  5
330
330
1F
100
AcDbEntity
  8
SLD-0
  6
Continuous
370
    15
100
AcDbLine
 10
104.9455448407
 20
43.0311583842
 30
0.0
 11
104.9455448407
 21
43.1561568336
 31
0.0
  0
ARC
  5
331
330
1F
100
AcDbEntity
  8
SLD-0
  6
Continuous
370
    15
100
AcDbCircle
 10
126.9005448407
 20
48.4011577981
 30
0.0
 40
0.0050000000038608
100
AcDbArc
 50
359.9999999999
 51
90.0
  0
LINE
  5
332
330
1F
100
AcDbEntity
  8
SLD-0
  6
Continuous
370
    15
100
AcDbLine
 10
126.9295447463
 20
48.4011567229
 30
0.0
 11
126.9055456636
 21
48.4011567229
 31
0.0
  0
ARC
  5
333
330
1F
100
AcDbEntity
  8
SLD-0
  6
Continuous
370
    15
100
AcDbCircle
 10
126.9005448407
 20
48.4011577981
 30
0.0
 40
0.0290000000038759
100
AcDbArc
 50
359.9999999999
 51
90.0
  0
ARC
  5
334
330
1F
100
AcDbEntity
  8
SLD-0
  6
Continuous
370
    15
100
AcDbCircle
 10
104.9745448407
 20
48.4011577981
 30
0.0
 40
0.0049999999995975
100
AcDbArc
 50
90.0
 51
180.0
  0
ARC
  5
335
330
1F
100
AcDbEntity
  8
SLD-0
  6
Continuous
370
    15
100
AcDbCircle
 10
104.9745448407
 20
48.4011577981
 30
0.0
 40
0.0289999999999964
100
AcDbArc
 50
89.9999999991
 51
180.0
  0
LINE
  5
336
330
1F
100
AcDbEntity
  8
SLD-0
  6
Continuous
370
    15
100
AcDbLine
 10
126.9295447463
 20
47.4061580839
 30
0.0
 11
126.9055456636
 21
47.4061580839
 31
0.0
  0
LINE
  5
337
330
1F
100
AcDbEntity
  8
SLD-0
  6
Continuous
370
    15
100
AcDbLine
 10
126.9055456636
 20
47.5311588799
 30
0.0
 11
126.9295447463
 21
47.5311588799
 31
0.0
  0
LINE
  5
338
330
1F
100
AcDbEntity
  8
SLD-0
  6
Continuous
370
    15
100
AcDbLine
 10
126.9295447463
 20
47.5311588799
 30
0.0
 11
126.9295447463
 21
47.4061580839
 31
0.0
  0
LINE
  5
339
330
1F
100
AcDbEntity
  8
SLD-0
  6
Continuous
370
    15
100
AcDbLine
 10
126.9055456636
 20
47.4061580839
 30
0.0
 11
126.9055456636
 21
47.5311588799
 31
0.0
  0
LINE
  5
33A
330
1F
100
AcDbEntity
  8
SLD-0
  6
Continuous
370
    15
100
AcDbLine
 10
126.9295447463
 20
47.5311588799
 30
0.0
 11
126.9295447463
 21
48.4011567229
 31
0.0
  0
LINE
  5
33B
330
1F
100
AcDbEntity
  8
SLD-0
  6
Continuous
370
    15
100
AcDbLine
 10
126.9055456636
 20
47.5311588799
 30
0.0
 11
126.9055456636
 21
48.4011567229
 31
0.0
  0
LINE
  5
33C
330
1F
100
AcDbEntity
  8
SLD-0
  6
Continuous
370
    15
100
AcDbLine
 10
104.9405448404
 20
43.0261576953
 30
0.0
 11
104.9405448404
 21
43.0021586126
 31
0.0
  0
ARC
  5
33D
330
1F
100
AcDbEntity
  8
SLD-0
  6
Continuous
370
    15
100
AcDbCircle
 10
104.9405448407
 20
43.0311577981
 30
0.0
 40
0.0290000000000106
100
AcDbArc
 50
270.0
 51
0.0
  0
ARC
  5
33E
330
1F
100
AcDbEntity
  8
SLD-0
  6
Continuous
370
    15
100
AcDbCircle
 10
104.9405448407
 20
43.0311577981
 30
0.0
 40
0.0050000000000097
100
AcDbArc
 50
270.0
 51
0.0
  0
LINE
  5
33F
330
1F
100
AcDbEntity
  8
SLD-0
  6
Continuous
370
    15
100
AcDbLine
 10
104.4455448467
 20
43.0021586126
 30
0.0
 11
104.4455448467
 21
43.0261576953
 31
0.0
  0
LINE
  5
340
330
1F
100
AcDbEntity
  8
SLD-0
  6
Continuous
370
    15
100
AcDbLine
 10
104.4455448467
 20
43.0261576953
 30
0.0
 11
104.5705448361
 21
43.0261576953
 31
0.0
  0
LINE
  5
341
330
1F
100
AcDbEntity
  8
SLD-0
  6
Continuous
370
    15
100
AcDbLine
 10
104.5705448361
 20
43.0261576953
 30
0.0
 11
104.5705448361
 21
43.0021586126
 31
0.0
  0
LINE
  5
342
330
1F
100
AcDbEntity
  8
SLD-0
  6
Continuous
370
    15
100
AcDbLine
 10
104.5705448361
 20
43.0021586126
 30
0.0
 11
104.5002446482
 21
43.0021586126
 31
0.0
  0
LINE
  5
343
330
1F
100
AcDbEntity
  8
SLD-0
  6
Continuous
370
    15
100
AcDbLine
 10
104.5705448361
 20
43.0261576953
 30
0.0
 11
104.9405448404
 21
43.0261576953
 31
0.0
  0
LINE
  5
344
330
1F
100
AcDbEntity
  8
SLD-0
  6
Continuous
370
    15
100
AcDbLine
 10
104.5705448361
 20
43.0021586126
 30
0.0
 11
104.9405448404
 21
43.0021586126
 31
0.0
  0
LINE
  5
345
330
1F
100
AcDbEntity
  8
SLD-0
  6
Continuous
370
    15
100
AcDbLine
 10
126.8655448456
 20
10.0470156865
 30
0.0
 11
126.8655448456
 21
47.4982284869
 31
0.0
  0
LINE
  5
346
330
1F
100
AcDbEntity
  8
SLD-0
  6
Continuous
370
    15
100
AcDbLine
 10
104.9745448415
 20
9.1541577976
 30
0.0
 11
104.970976744
 21
9.1541577976
 31
0.0
  0
LINE
  5
347
330
1F
100
AcDbEntity
  8
SLD-0
  6
Continuous
370
    15
100
AcDbLine
 10
104.9695448401
 20
9.9851578278
 30
0.0
 11
104.9695448401
 21
43.1321577508
 31
0.0
  0
LINE
  5
348
330
1F
100
AcDbEntity
  8
SLD-0
  6
Continuous
370
    15
100
AcDbLine
 10
104.9695448401
 20
48.364157257
 30
0.0
 11
104.9745448415
 21
48.364157257
 31
0.0
  0
LINE
  5
349
330
1F
100
AcDbEntity
  8
SLD-0
  6
Continuous
370
    15
100
AcDbLine
 10
104.964544841
 20
42.9811585352
 30
0.0
 11
104.964544841
 21
10.1301577861
 31
0.0
  0
LINE
  5
34A
330
1F
100
AcDbEntity
  8
SLD-0
  6
Continuous
370
    15
100
AcDbLine
 10
104.9695448401
 20
42.9811585352
 30
0.0
 11
104.964544841
 21
42.9811585352
 31
0.0
  0
LINE
  5
34B
330
1F
100
AcDbEntity
  8
SLD-0
  6
Continuous
370
    15
100
AcDbLine
 10
104.964544841
 20
10.1301577861
 30
0.0
 11
104.9695448401
 21
10.1301577861
 31
0.0
  0
LINE
  5
34C
330
1F
100
AcDbEntity
  8
SLD-0
  6
Continuous
370
    15
100
AcDbLine
 10
104.5705448361
 20
42.9811585352
 30
0.0
 11
104.4455448467
 21
42.8561577392
 31
0.0
  0
LINE
  5
34D
330
1F
100
AcDbEntity
  8
SLD-0
  6
Continuous
370
    15
100
AcDbLine
 10
104.5705448361
 20
10.1301577861
 30
0.0
 11
104.964544841
 21
10.1301577861
 31
0.0
  0
LINE
  5
34E
330
1F
100
AcDbEntity
  8
SLD-0
  6
Continuous
370
    15
100
AcDbLine
 10
104.964544841
 20
42.9811585352
 30
0.0
 11
104.5705448361
 21
42.9811585352
 31
0.0
  0
LINE
  5
34F
330
1F
100
AcDbEntity
  8
SLD-0
  6
Continuous
370
    15
100
AcDbLine
 10
104.4455448467
 20
10.2551577754
 30
0.0
 11
104.5705448361
 21
10.1301577861
 31
0.0
  0
LINE
  5
350
330
1F
100
AcDbEntity
  8
SLD-0
  6
Continuous
370
    15
100
AcDbLine
 10
104.4455448467
 20
42.8561577392
 30
0.0
 11
104.4455448467
 21
10.2551577754
 31
0.0
  0
LINE
  5
351
330
1F
100
AcDbEntity
  8
SLD-0
  6
Continuous
370
    15
100
AcDbLine
 10
126.8975459693
 20
10.0730156462
 30
0.0
 11
126.8975459693
 21
47.5302296106
 31
0.0
  0
LINE
  5
352
330
1F
100
AcDbEntity
  8
SLD-0
  6
Continuous
370
    15
100
AcDbLine
 10
126.8834027727
 20
9.2791577961
 30
0.0
 11
126.8975459693
 21
9.2791577961
 31
0.0
  0
LINE
  5
353
330
1F
100
AcDbEntity
  8
SLD-0
  6
Continuous
370
    15
100
AcDbLine
 10
126.8975459693
 20
9.1541577976
 30
0.0
 11
126.8925452804
 21
9.1541577976
 31
0.0
  0
LINE
  5
354
330
1F
100
AcDbEntity
  8
SLD-0
  6
Continuous
370
    15
100
AcDbLine
 10
126.8975459693
 20
9.159157799
 30
0.0
 11
126.8975459693
 21
9.1541577976
 31
0.0
  0
ELLIPSE
  5
355
330
1F
100
AcDbEntity
  8
SLD-0
  6
Continuous
370
    15
100
AcDbEllipse
 10
126.8925448407
 20
9.1591577982
 30
0.0
 11
0.009142135622354886
 21
0.0
 31
0.0
210
0.0
220
0.0
230
1.0
 40
0.5469181608
 41
3.141592653589083
 42
4.712388980485736
  0
LINE
  5
356
330
1F
100
AcDbEntity
  8
SLD-0
  6
Continuous
370
    15
100
AcDbLine
 10
126.8925452804
 20
9.1541577976
 30
0.0
 11
126.8925452804
 21
9.1301577982
 31
0.0
  0
ELLIPSE
  5
357
330
1F
100
AcDbEntity
  8
SLD-0
  6
Continuous
370
    15
100
AcDbEllipse
 10
126.8925448407
 20
9.1591577982
 30
0.0
 11
0.0
 21
0.02899999999999814
 31
0.0
210
0.0
220
0.0
230
1.0
 40
0.3152460559
 41
1.570796326794039
 42
3.141592653690876
  0
LINE
  5
358
330
1F
100
AcDbEntity
  8
SLD-0
  6
Continuous
370
    15
100
AcDbLine
 10
104.9745448415
 20
9.159157799
 30
0.0
 11
126.8834027727
 21
9.159157799
 31
0.0
  0
LINE
  5
359
330
1F
100
AcDbEntity
  8
SLD-0
  6
Continuous
370
    15
100
AcDbLine
 10
104.9745448415
 20
10.0291578328
 30
0.0
 11
104.9745448415
 21
9.159157799
 31
0.0
  0
LINE
  5
35A
330
1F
100
AcDbEntity
  8
SLD-0
  6
Continuous
370
    15
100
AcDbLine
 10
105.09954484
 20
10.1541578222
 30
0.0
 11
104.9745448415
 21
10.0291578328
 31
0.0
  0
LINE
  5
35B
330
1F
100
AcDbEntity
  8
SLD-0
  6
Continuous
370
    15
100
AcDbLine
 10
105.09954484
 20
10.1541578222
 30
0.0
 11
126.7584019767
 21
10.1541578222
 31
0.0
  0
LINE
  5
35C
330
1F
100
AcDbEntity
  8
SLD-0
  6
Continuous
370
    15
100
AcDbLine
 10
126.8834027727
 20
10.0291578328
 30
0.0
 11
126.7584019767
 21
10.1541578222
 31
0.0
  0
LINE
  5
35D
330
1F
100
AcDbEntity
  8
SLD-0
  6
Continuous
370
    15
100
AcDbLine
 10
126.8834027727
 20
9.159157799
 30
0.0
 11
126.8834027727
 21
10.0291578328
 31
0.0
  0
LINE
  5
35E
330
1F
100
AcDbEntity
  8
SLD-0
  6
Continuous
370
    15
100
AcDbLine
 10
104.9745448415
 20
9.159157799
 30
0.0
 11
104.9745448415
 21
9.1301577982
 31
0.0
  0
LINE
  5
35F
330
1F
100
AcDbEntity
  8
SLD-0
  6
Continuous
370
    15
100
AcDbLine
 10
104.9745448415
 20
9.1301577982
 30
0.0
 11
126.8925452804
 21
9.1301577982
 31
0.0
  0
ARC
  5
360
330
1F
100
AcDbEntity
  8
SLD-0
  6
Continuous
370
    15
100
AcDbCircle
 10
126.8925448407
 20
9.1591577982
 30
0.0
 40
0.0289999999999999
100
AcDbArc
 50
270.0
 51
0.0
  0
LINE
  5
361
330
1F
100
AcDbEntity
  8
SLD-0
  6
Continuous
370
    15
100
AcDbLine
 10
126.9215450521
 20
9.159157799
 30
0.0
 11
126.8975459693
 21
9.159157799
 31
0.0
  0
ARC
  5
362
330
1F
100
AcDbEntity
  8
SLD-0
  6
Continuous
370
    15
100
AcDbCircle
 10
126.8925448407
 20
9.1591577982
 30
0.0
 40
0.0050000000000097
100
AcDbArc
 50
270.0
 51
0.0
  0
LINE
  5
363
330
1F
100
AcDbEntity
  8
SLD-0
  6
Continuous
370
    15
100
AcDbLine
 10
126.9215450521
 20
10.0291578328
 30
0.0
 11
126.8975459693
 21
10.0291578328
 31
0.0
  0
LINE
  5
364
330
1F
100
AcDbEntity
  8
SLD-0
  6
Continuous
370
    15
100
AcDbLine
 10
126.8975459693
 20
10.0291578328
 30
0.0
 11
126.8975459693
 21
9.159157799
 31
0.0
  0
LINE
  5
365
330
1F
100
AcDbEntity
  8
SLD-0
  6
Continuous
370
    15
100
AcDbLine
 10
126.9215450521
 20
10.0291578328
 30
0.0
 11
126.9215450521
 21
9.159157799
 31
0.0
  0
LINE
  5
366
330
1F
100
AcDbEntity
  8
SLD-0
  6
Continuous
370
    15
100
AcDbLine
 10
126.8975459693
 20
10.1541578222
 30
0.0
 11
126.9215450521
 21
10.1541578222
 31
0.0
  0
LINE
  5
367
330
1F
100
AcDbEntity
  8
SLD-0
  6
Continuous
370
    15
100
AcDbLine
 10
126.8975459693
 20
10.0291578328
 30
0.0
 11
126.8975459693
 21
10.0730156462
 31
0.0
  0
LINE
  5
368
330
1F
100
AcDbEntity
  8
SLD-0
  6
Continuous
370
    15
100
AcDbLine
 10
126.9215450521
 20
10.1541578222
 30
0.0
 11
126.9215450521
 21
10.0291578328
 31
0.0
  0
LINE
  5
369
330
1F
100
AcDbEntity
  8
SLD-0
  6
Continuous
370
    15
100
AcDbLine
 10
104.9695448401
 20
9.159157799
 30
0.0
 11
104.9455448407
 21
9.159157799
 31
0.0
  0
ARC
  5
36A
330
1F
100
AcDbEntity
  8
SLD-0
  6
Continuous
370
    15
100
AcDbCircle
 10
104.9745448407
 20
9.1591577982
 30
0.0
 40
0.004999999999626
100
AcDbArc
 50
180.0
 51
224.4698238011
  0
ARC
  5
36B
330
1F
100
AcDbEntity
  8
SLD-0
  6
Continuous
370
    15
100
AcDbCircle
 10
104.9745448407
 20
9.1591577982
 30
0.0
 40
0.0289999999996144
100
AcDbArc
 50
180.0
 51
269.9999999992
  0
LINE
  5
36C
330
1F
100
AcDbEntity
  8
SLD-0
  6
Continuous
370
    15
100
AcDbLine
 10
104.9695448401
 20
9.9761578051
 30
0.0
 11
104.9455448407
 21
9.9761578051
 31
0.0
  0
LINE
  5
36D
330
1F
100
AcDbEntity
  8
SLD-0
  6
Continuous
370
    15
100
AcDbLine
 10
104.9455448407
 20
9.9761578051
 30
0.0
 11
104.9455448407
 21
9.159157799
 31
0.0
  0
LINE
  5
36E
330
1F
100
AcDbEntity
  8
SLD-0
  6
Continuous
370
    15
100
AcDbLine
 10
104.9695448401
 20
9.9761578051
 30
0.0
 11
104.9695448401
 21
9.159157799
 31
0.0
  0
LINE
  5
36F
330
1F
100
AcDbEntity
  8
SLD-0
  6
Continuous
370
    15
100
AcDbLine
 10
104.9455448407
 20
10.1011577944
 30
0.0
 11
104.9695448401
 21
10.1011577944
 31
0.0
  0
LINE
  5
370
330
1F
100
AcDbEntity
  8
SLD-0
  6
Continuous
370
    15
100
AcDbLine
 10
104.9455448407
 20
9.9761578051
 30
0.0
 11
104.9455448407
 21
10.1011577944
 31
0.0
  0
LINE
  5
371
330
1F
100
AcDbEntity
  8
SLD-0
  6
Continuous
370
    15
100
AcDbLine
 10
104.9695448401
 20
9.9851578278
 30
0.0
 11
104.9695448401
 21
9.9761578051
 31
0.0
  0
LINE
  5
372
330
1F
100
AcDbEntity
  8
SLD-0
  6
Continuous
370
    15
100
AcDbLine
 10
104.9405448404
 20
10.1061578233
 30
0.0
 11
104.9405448404
 21
10.1301577861
 31
0.0
  0
ARC
  5
373
330
1F
100
AcDbEntity
  8
SLD-0
  6
Continuous
370
    15
100
AcDbCircle
 10
104.9405448407
 20
10.1011577982
 30
0.0
 40
0.0289999999999999
100
AcDbArc
 50
0.0
 51
90.0
  0
ARC
  5
374
330
1F
100
AcDbEntity
  8
SLD-0
  6
Continuous
370
    15
100
AcDbCircle
 10
104.9405448407
 20
10.1011577982
 30
0.0
 40
0.004999999999999
100
AcDbArc
 50
0.0
 51
90.0
  0
LINE
  5
375
330
1F
100
AcDbEntity
  8
SLD-0
  6
Continuous
370
    15
100
AcDbLine
 10
104.9405448404
 20
10.1061578233
 30
0.0
 11
104.5705448361
 21
10.1061578233
 31
0.0
  0
LINE
  5
376
330
1F
100
AcDbEntity
  8
SLD-0
  6
Continuous
370
    15
100
AcDbLine
 10
104.5705448361
 20
10.1301577861
 30
0.0
 11
104.5705448361
 21
10.1061578233
 31
0.0
  0
LINE
  5
377
330
1F
100
AcDbEntity
  8
SLD-0
  6
Continuous
370
    15
100
AcDbLine
 10
104.5705448361
 20
10.1061578233
 30
0.0
 11
104.4455448467
 21
10.1061578233
 31
0.0
  0
LINE
  5
378
330
1F
100
AcDbEntity
  8
SLD-0
  6
Continuous
370
    15
100
AcDbLine
 10
104.4455448467
 20
10.1061578233
 30
0.0
 11
104.4455448467
 21
10.1301577861
 31
0.0
  0
LINE
  5
379
330
1F
100
AcDbEntity
  8
SLD-0
  6
Continuous
370
    15
100
AcDbLine
 10
104.4826489581
 20
10.1301577861
 30
0.0
 11
104.5705448361
 21
10.1301577861
 31
0.0
  0
LINE
  5
37A
330
1F
100
AcDbEntity
  8
SLD-0
  6
Continuous
370
    15
100
AcDbLine
 10
112.44554508
 20
58.9182320287
 30
0.0
 11
110.4455446642
 21
58.9182320287
 31
0.0
  0
LINE
  5
37B
330
1F
100
AcDbEntity
  8
SLD-0
  6
Continuous
370
    15
100
AcDbLine
 10
112.44554508
 20
54.4744804833
 30
0.0
 11
110.4455446642
 21
54.4744804833
 31
0.0
  0
LINE
  5
37C
330
1F
100
AcDbEntity
  8
SLD-0
  6
Continuous
370
    15
100
AcDbLine
 10
126.836545074
 20
10.0760156782
 30
0.0
 11
126.836545074
 21
47.4692287153
 31
0.0
  0
LINE
  5
37D
330
1F
100
AcDbEntity
  8
SLD-0
  6
Continuous
370
    15
100
AcDbLine
 10
104.9985448409
 20
47.5071574505
 30
0.0
 11
104.9985448409
 21
10.0531577956
 31
0.0
  0
DIMENSION
  5
37E
330
1F
100
AcDbEntity
  8
DIM
100
AcDbDimension
  2
_D_13
 10
115.1585326798
 20
48.4301577981
 30
0.0
 11
115.1585326798
 21
54.5870668755
 31
0.0
 70
   160
  1
<>
 71
     2
 42
-1.0
  3
SLDDIMSTYLE0
100
AcDbAlignedDimension
 13
110.4455448407
 23
60.4281577981
 33
0.0
 14
104.9745448407
 24
48.4301577981
 34
0.0
 50
90.0
100
AcDbRotatedDimension
  0
DIMENSION
  5
388
330
1F
100
AcDbEntity
  8
DIM
100
AcDbDimension
  2
_D_14
 10
104.9455448407
 20
4.1301558296
 30
0.0
 11
115.5284967424
 21
4.1301558297
 31
0.0
 70
   160
  1
<>
 71
     2
 42
-1.0
  3
SLDDIMSTYLE0
100
AcDbAlignedDimension
 13
126.9215448407
 23
9.1591577982
 33
0.0
 14
104.9455448407
 24
9.1591577982
 34
0.0
 50
0.0000000001
100
AcDbRotatedDimension
  0
DIMENSION
  5
393
330
1F
100
AcDbEntity
  8
DIM
100
AcDbDimension
  2
_D_15
 10
104.9455448407
 20
4.1301558297
 30
0.0
 11
101.2861777187
 21
4.1301558297
 31
0.0
 70
   160
  1
<>
 71
     2
 42
-1.0
  3
SLDDIMSTYLE2
100
AcDbAlignedDimension
 13
104.4455448407
 23
10.1301577982
 33
0.0
 14
104.9455448407
 24
9.1591577982
 34
0.0
 50
0.0
100
AcDbRotatedDimension
  0
DIMENSION
  5
3A2
330
1F
100
AcDbEntity
  8
DIM
100
AcDbDimension
  2
_D_16
 10
99.1462772153
 20
48.4301577981
 30
0.0
 11
99.1462772153
 21
27.0354982095
 31
0.0
 70
   160
  1
<>
 71
     2
 42
-1.0
  3
SLDDIMSTYLE0
100
AcDbAlignedDimension
 13
104.9745448407
 23
9.1301577982
 33
0.0
 14
104.9745448407
 24
48.4301577981
 34
0.0
 50
90.0
100
AcDbRotatedDimension
  0
LINE
  5
3B1
330
1F
100
AcDbEntity
  8
SLD-0
  6
Continuous
370
    15
100
AcDbLine
 10
19.1121675219
 20
60.4281584793
 30
0.0
 11
18.8621676899
 21
60.4281584793
 31
0.0
  0
LINE
  5
3B2
330
1F
100
AcDbEntity
  8
SLD-0
  6
Continuous
370
    15
100
AcDbLine
 10
22.4871674536
 20
60.4281584793
 30
0.0
 11
20.2371676458
 21
60.4281584793
 31
0.0
  0
LINE
  5
3B3
330
1F
100
AcDbEntity
  8
SLD-0
  6
Continuous
370
    15
100
AcDbLine
 10
23.8621675195
 20
60.4281584793
 30
0.0
 11
23.6121675042
 21
60.4281584793
 31
0.0
  0
LINE
  5
3B4
330
1F
100
AcDbEntity
  8
SLD-0
  6
Continuous
370
    15
100
AcDbLine
 10
24.825063396
 20
10.1301577861
 30
0.0
 11
24.8621675074
 21
10.1301577861
 31
0.0
  0
LINE
  5
3B5
330
1F
100
AcDbEntity
  8
SLD-0
  6
Continuous
370
    15
100
AcDbLine
 10
24.338167514
 20
43.0021586126
 30
0.0
 11
24.3671675137
 21
43.0021586126
 31
0.0
  0
LINE
  5
3B6
330
1F
100
AcDbEntity
  8
SLD-0
  6
Continuous
370
    15
100
AcDbLine
 10
24.807467706
 20
43.0021586126
 30
0.0
 11
24.8621675074
 21
43.0021586126
 31
0.0
  0
LINE
  5
3B7
330
1F
100
AcDbEntity
  8
SLD-0
  6
Continuous
370
    15
100
AcDbLine
 10
24.8621675074
 20
43.0021586126
 30
0.0
 11
24.8621675074
 21
42.8561577392
 31
0.0
  0
LINE
  5
3B8
330
1F
100
AcDbEntity
  8
SLD-0
  6
Continuous
370
    15
100
AcDbLine
 10
24.8621675074
 20
10.2551577754
 30
0.0
 11
24.8621675074
 21
10.1301577861
 31
0.0
  0
LINE
  5
3B9
330
1F
100
AcDbEntity
  8
SLD-0
  6
Continuous
370
    15
100
AcDbLine
 10
16.9871674834
 20
59.3691106602
 30
0.0
 11
16.9871674834
 21
59.3560961972
 31
0.0
  0
ARC
  5
3BA
330
1F
100
AcDbEntity
  8
SLD-0
  6
Continuous
370
    15
100
AcDbCircle
 10
16.9824006778
 20
59.2358634621
 30
0.0
 40
0.1203271914661942
100
AcDbArc
 50
87.7296126721
 51
177.7376645244
  0
LINE
  5
3BB
330
1F
100
AcDbEntity
  8
SLD-0
  6
Continuous
370
    15
100
AcDbLine
 10
16.8621672741
 20
59.2406133712
 30
0.0
 11
16.8621672741
 21
59.2536231409
 31
0.0
  0
ARC
  5
3BC
330
1F
100
AcDbEntity
  8
SLD-0
  6
Continuous
370
    15
100
AcDbCircle
 10
16.9827809096
 20
59.2484665667
 30
0.0
 40
0.1207238142390684
100
AcDbArc
 50
87.9176643305
 51
177.5519340686
  0
LINE
  5
3BD
330
1F
100
AcDbEntity
  8
SLD-0
  6
Continuous
370
    15
100
AcDbLine
 10
16.9871674834
 20
59.3691106602
 30
0.0
 11
18.8621676899
 21
59.3691106602
 31
0.0
  0
LINE
  5
3BE
330
1F
100
AcDbEntity
  8
SLD-0
  6
Continuous
370
    15
100
AcDbLine
 10
16.9871674834
 20
59.3560961972
 30
0.0
 11
18.8621676899
 21
59.3560961972
 31
0.0
  0
LINE
  5
3BF
330
1F
100
AcDbEntity
  8
SLD-0
  6
Continuous
370
    15
100
AcDbLine
 10
16.8621672741
 20
59.2406133712
 30
0.0
 11
16.8621672741
 21
58.9182320287
 31
0.0
  0
LINE
  5
3C0
330
1F
100
AcDbEntity
  8
SLD-0
  6
Continuous
370
    15
100
AcDbLine
 10
16.8621672741
 20
58.8941555069
 30
0.0
 11
18.8621676899
 21
58.8941555069
 31
0.0
  0
LINE
  5
3C1
330
1F
100
AcDbEntity
  8
SLD-0
  6
Continuous
370
    15
100
AcDbLine
 10
16.8621672741
 20
58.9182320287
 30
0.0
 11
16.8621672741
 21
58.8941555069
 31
0.0
  0
LINE
  5
3C2
330
1F
100
AcDbEntity
  8
SLD-0
  6
Continuous
370
    15
100
AcDbLine
 10
16.9871674834
 20
54.9058350736
 30
0.0
 11
16.9871674834
 21
54.8920978457
 31
0.0
  0
ARC
  5
3C3
330
1F
100
AcDbEntity
  8
SLD-0
  6
Continuous
370
    15
100
AcDbCircle
 10
16.9824047995
 20
54.7718608424
 30
0.0
 40
0.1203312931418961
100
AcDbArc
 50
87.7316541749
 51
177.7379442242
  0
LINE
  5
3C4
330
1F
100
AcDbEntity
  8
SLD-0
  6
Continuous
370
    15
100
AcDbLine
 10
16.8621672741
 20
54.7766103264
 30
0.0
 11
16.8621672741
 21
54.7903522477
 31
0.0
  0
ARC
  5
3C5
330
1F
100
AcDbEntity
  8
SLD-0
  6
Continuous
370
    15
100
AcDbCircle
 10
16.9827791856
 20
54.7851926365
 30
0.0
 40
0.1207222216060915
100
AcDbArc
 50
87.9168180985
 51
177.550459098
  0
LINE
  5
3C6
330
1F
100
AcDbEntity
  8
SLD-0
  6
Continuous
370
    15
100
AcDbLine
 10
16.8621672741
 20
54.7766103264
 30
0.0
 11
16.8621672741
 21
54.4744804833
 31
0.0
  0
LINE
  5
3C7
330
1F
100
AcDbEntity
  8
SLD-0
  6
Continuous
370
    15
100
AcDbLine
 10
16.9871674834
 20
54.8920978457
 30
0.0
 11
18.8621676899
 21
54.8920978457
 31
0.0
  0
LINE
  5
3C8
330
1F
100
AcDbEntity
  8
SLD-0
  6
Continuous
370
    15
100
AcDbLine
 10
16.9871674834
 20
54.9058350736
 30
0.0
 11
18.8621676899
 21
54.9058350736
 31
0.0
  0
LINE
  5
3C9
330
1F
100
AcDbEntity
  8
SLD-0
  6
Continuous
370
    15
100
AcDbLine
 10
16.8621672741
 20
54.4301571554
 30
0.0
 11
18.8621676899
 21
54.4301571554
 31
0.0
  0
LINE
  5
3CA
330
1F
100
AcDbEntity
  8
SLD-0
  6
Continuous
370
    15
100
AcDbLine
 10
16.8621672741
 20
54.4744804833
 30
0.0
 11
16.8621672741
 21
54.4301571554
 31
0.0
  0
LINE
  5
3CB
330
1F
100
AcDbEntity
  8
SLD-0
  6
Continuous
370
    15
100
AcDbLine
 10
18.8621676899
 20
48.4301588412
 30
0.0
 11
18.8621676899
 21
48.4641569551
 31
0.0
  0
LINE
  5
3CC
330
1F
100
AcDbEntity
  8
SLD-0
  6
Continuous
370
    15
100
AcDbLine
 10
18.8621676899
 20
48.4641569551
 30
0.0
 11
18.962167388
 21
48.4641569551
 31
0.0
  0
LINE
  5
3CD
330
1F
100
AcDbEntity
  8
SLD-0
  6
Continuous
370
    15
100
AcDbLine
 10
18.962167388
 20
48.4641569551
 30
0.0
 11
18.962167388
 21
48.4301588412
 31
0.0
  0
LINE
  5
3CE
330
1F
100
AcDbEntity
  8
SLD-0
  6
Continuous
370
    15
100
AcDbLine
 10
23.762167528
 20
48.4301588412
 30
0.0
 11
23.762167528
 21
48.4641569551
 31
0.0
  0
LINE
  5
3CF
330
1F
100
AcDbEntity
  8
SLD-0
  6
Continuous
370
    15
100
AcDbLine
 10
23.762167528
 20
48.4641569551
 30
0.0
 11
18.962167388
 21
48.4641569551
 31
0.0
  0
LINE
  5
3D0
330
1F
100
AcDbEntity
  8
SLD-0
  6
Continuous
370
    15
100
AcDbLine
 10
23.8621675195
 20
48.4641569551
 30
0.0
 11
23.8621675195
 21
48.4301588412
 31
0.0
  0
LINE
  5
3D1
330
1F
100
AcDbEntity
  8
SLD-0
  6
Continuous
370
    15
100
AcDbLine
 10
23.762167528
 20
48.4641569551
 30
0.0
 11
23.8621675195
 21
48.4641569551
 31
0.0
  0
LINE
  5
3D2
330
1F
100
AcDbEntity
  8
SLD-0
  6
Continuous
370
    15
100
AcDbLine
 10
19.1121675219
 20
48.4672451328
 30
0.0
 11
18.8621676899
 21
48.4672451328
 31
0.0
  0
LINE
  5
3D3
330
1F
100
AcDbEntity
  8
SLD-0
  6
Continuous
370
    15
100
AcDbLine
 10
18.8621676899
 20
48.4672451328
 30
0.0
 11
18.8621676899
 21
48.4641569551
 31
0.0
  0
LINE
  5
3D4
330
1F
100
AcDbEntity
  8
SLD-0
  6
Continuous
370
    15
100
AcDbLine
 10
19.1121675219
 20
48.4641569551
 30
0.0
 11
19.1121675219
 21
48.4672451328
 31
0.0
  0
LINE
  5
3D5
330
1F
100
AcDbEntity
  8
SLD-0
  6
Continuous
370
    15
100
AcDbLine
 10
22.4871674536
 20
48.4672451328
 30
0.0
 11
20.2371676458
 21
48.4672451328
 31
0.0
  0
LINE
  5
3D6
330
1F
100
AcDbEntity
  8
SLD-0
  6
Continuous
370
    15
100
AcDbLine
 10
22.4871674536
 20
48.4641569551
 30
0.0
 11
22.4871674536
 21
48.4672451328
 31
0.0
  0
LINE
  5
3D7
330
1F
100
AcDbEntity
  8
SLD-0
  6
Continuous
370
    15
100
AcDbLine
 10
20.2371676458
 20
48.4672451328
 30
0.0
 11
20.2371676458
 21
48.4641569551
 31
0.0
  0
LINE
  5
3D8
330
1F
100
AcDbEntity
  8
SLD-0
  6
Continuous
370
    15
100
AcDbLine
 10
23.8621675195
 20
48.4672451328
 30
0.0
 11
23.6121675042
 21
48.4672451328
 31
0.0
  0
LINE
  5
3D9
330
1F
100
AcDbEntity
  8
SLD-0
  6
Continuous
370
    15
100
AcDbLine
 10
23.8621675195
 20
48.4641569551
 30
0.0
 11
23.8621675195
 21
48.4672451328
 31
0.0
  0
LINE
  5
3DA
330
1F
100
AcDbEntity
  8
SLD-0
  6
Continuous
370
    15
100
AcDbLine
 10
23.6121675042
 20
48.4672451328
 30
0.0
 11
23.6121675042
 21
48.4641569551
 31
0.0
  0
LINE
  5
3DB
330
1F
100
AcDbEntity
  8
SLD-0
  6
Continuous
370
    15
100
AcDbLine
 10
23.6121675042
 20
48.4866893881
 30
0.0
 11
22.4871674536
 21
48.4866893881
 31
0.0
  0
LINE
  5
3DC
330
1F
100
AcDbEntity
  8
SLD-0
  6
Continuous
370
    15
100
AcDbLine
 10
22.4871674536
 20
48.4866893881
 30
0.0
 11
22.4871674536
 21
48.4672451328
 31
0.0
  0
LINE
  5
3DD
330
1F
100
AcDbEntity
  8
SLD-0
  6
Continuous
370
    15
100
AcDbLine
 10
20.2371676458
 20
48.4672451328
 30
0.0
 11
20.2371676458
 21
48.4866893881
 31
0.0
  0
LINE
  5
3DE
330
1F
100
AcDbEntity
  8
SLD-0
  6
Continuous
370
    15
100
AcDbLine
 10
20.2371676458
 20
48.4866893881
 30
0.0
 11
19.1121675219
 21
48.4866893881
 31
0.0
  0
LINE
  5
3DF
330
1F
100
AcDbEntity
  8
SLD-0
  6
Continuous
370
    15
100
AcDbLine
 10
19.1121675219
 20
48.4866893881
 30
0.0
 11
19.1121675219
 21
48.4672451328
 31
0.0
  0
LINE
  5
3E0
330
1F
100
AcDbEntity
  8
SLD-0
  6
Continuous
370
    15
100
AcDbLine
 10
18.8621676899
 20
48.4672451328
 30
0.0
 11
18.8621676899
 21
60.383713126
 31
0.0
  0
LINE
  5
3E1
330
1F
100
AcDbEntity
  8
SLD-0
  6
Continuous
370
    15
100
AcDbLine
 10
23.8621675195
 20
60.383713126
 30
0.0
 11
18.8621676899
 21
60.383713126
 31
0.0
  0
LINE
  5
3E2
330
1F
100
AcDbEntity
  8
SLD-0
  6
Continuous
370
    15
100
AcDbLine
 10
23.8621675195
 20
48.4672451328
 30
0.0
 11
23.8621675195
 21
60.383713126
 31
0.0
  0
LINE
  5
3E3
330
1F
100
AcDbEntity
  8
SLD-0
  6
Continuous
370
    15
100
AcDbLine
 10
23.6121675042
 20
48.4672451328
 30
0.0
 11
23.6121675042
 21
48.4866893881
 31
0.0
  0
LINE
  5
3E4
330
1F
100
AcDbEntity
  8
SLD-0
  6
Continuous
370
    15
100
AcDbLine
 10
22.4871674536
 20
48.4736772718
 30
0.0
 11
23.6121675042
 21
48.4736772718
 31
0.0
  0
LINE
  5
3E5
330
1F
100
AcDbEntity
  8
SLD-0
  6
Continuous
370
    15
100
AcDbLine
 10
19.1121675219
 20
48.4736772718
 30
0.0
 11
20.2371676458
 21
48.4736772718
 31
0.0
  0
LINE
  5
3E6
330
1F
100
AcDbEntity
  8
SLD-0
  6
Continuous
370
    15
100
AcDbLine
 10
19.1121675219
 20
60.4146559153
 30
0.0
 11
19.1121675219
 21
60.4281584793
 31
0.0
  0
LINE
  5
3E7
330
1F
100
AcDbEntity
  8
SLD-0
  6
Continuous
370
    15
100
AcDbLine
 10
20.2371676458
 20
60.4146559153
 30
0.0
 11
19.1121675219
 21
60.4146559153
 31
0.0
  0
LINE
  5
3E8
330
1F
100
AcDbEntity
  8
SLD-0
  6
Continuous
370
    15
100
AcDbLine
 10
20.2371676458
 20
60.4281584793
 30
0.0
 11
20.2371676458
 21
60.4146559153
 31
0.0
  0
LINE
  5
3E9
330
1F
100
AcDbEntity
  8
SLD-0
  6
Continuous
370
    15
100
AcDbLine
 10
23.8621675195
 20
60.383713126
 30
0.0
 11
23.8621675195
 21
60.4281584793
 31
0.0
  0
LINE
  5
3EA
330
1F
100
AcDbEntity
  8
SLD-0
  6
Continuous
370
    15
100
AcDbLine
 10
18.8621676899
 20
60.4281584793
 30
0.0
 11
18.8621676899
 21
60.383713126
 31
0.0
  0
LINE
  5
3EB
330
1F
100
AcDbEntity
  8
SLD-0
  6
Continuous
370
    15
100
AcDbLine
 10
23.6121675042
 20
60.4146559153
 30
0.0
 11
22.4871674536
 21
60.4146559153
 31
0.0
  0
LINE
  5
3EC
330
1F
100
AcDbEntity
  8
SLD-0
  6
Continuous
370
    15
100
AcDbLine
 10
23.6121675042
 20
60.4281584793
 30
0.0
 11
23.6121675042
 21
60.4146559153
 31
0.0
  0
LINE
  5
3ED
330
1F
100
AcDbEntity
  8
SLD-0
  6
Continuous
370
    15
100
AcDbLine
 10
22.4871674536
 20
60.4146559153
 30
0.0
 11
22.4871674536
 21
60.4281584793
 31
0.0
  0
LINE
  5
3EE
330
1F
100
AcDbEntity
  8
SLD-0
  6
Continuous
370
    15
100
AcDbLine
 10
24.3331675126
 20
48.4301588412
 30
0.0
 11
24.3331675126
 21
48.4011567229
 31
0.0
  0
LINE
  5
3EF
330
1F
100
AcDbEntity
  8
SLD-0
  6
Continuous
370
    15
100
AcDbLine
 10
2.4092394622
 20
48.4011567229
 30
0.0
 11
24.3331675126
 21
48.4011567229
 31
0.0
  0
ELLIPSE
  5
3F0
330
1F
100
AcDbEntity
  8
SLD-0
  6
Continuous
370
    15
100
AcDbEllipse
 10
2.4071675134
 20
48.4011577981
 30
0.0
 11
0.0
 21
0.02899999999999636
 31
0.0
210
0.0
220
0.0
230
1.0
 40
0.0714161312
 41
4.712388980383711
 42
6.283185307179586
  0
LINE
  5
3F1
330
1F
100
AcDbEntity
  8
SLD-0
  6
Continuous
370
    15
100
AcDbLine
 10
2.4071673795
 20
48.4301588412
 30
0.0
 11
24.3331675126
 21
48.4301588412
 31
0.0
  0
LINE
  5
3F2
330
1F
100
AcDbEntity
  8
SLD-0
  6
Continuous
370
    15
100
AcDbLine
 10
24.3331675126
 20
48.4011567229
 30
0.0
 11
24.3331675126
 21
47.5311588799
 31
0.0
  0
LINE
  5
3F3
330
1F
100
AcDbEntity
  8
SLD-0
  6
Continuous
370
    15
100
AcDbLine
 10
24.2081675141
 20
47.4061580839
 30
0.0
 11
24.3331675126
 21
47.5311588799
 31
0.0
  0
LINE
  5
3F4
330
1F
100
AcDbEntity
  8
SLD-0
  6
Continuous
370
    15
100
AcDbLine
 10
2.5342379115
 20
47.4061580839
 30
0.0
 11
24.2081675141
 21
47.4061580839
 31
0.0
  0
LINE
  5
3F5
330
1F
100
AcDbEntity
  8
SLD-0
  6
Continuous
370
    15
100
AcDbLine
 10
2.4092394622
 20
47.5311588799
 30
0.0
 11
2.5342379115
 21
47.4061580839
 31
0.0
  0
LINE
  5
3F6
330
1F
100
AcDbEntity
  8
SLD-0
  6
Continuous
370
    15
100
AcDbLine
 10
2.4092394622
 20
47.5311588799
 30
0.0
 11
2.4092394622
 21
48.4011567229
 31
0.0
  0
ELLIPSE
  5
3F7
330
1F
100
AcDbEntity
  8
SLD-0
  6
Continuous
370
    15
100
AcDbEllipse
 10
2.4071675134
 20
48.4011577981
 30
0.0
 11
0.0
 21
0.005000000000002558
 31
0.0
210
0.0
220
0.0
230
1.0
 40
0.4142135609
 41
4.712388980383274
 42
6.283185307179586
  0
LINE
  5
3F8
330
1F
100
AcDbEntity
  8
SLD-0
  6
Continuous
370
    15
100
AcDbLine
 10
2.4071673795
 20
48.4301588412
 30
0.0
 11
2.4071673795
 21
48.4061574118
 31
0.0
  0
ARC
  5
3F9
330
1F
100
AcDbEntity
  8
SLD-0
  6
Continuous
370
    15
100
AcDbCircle
 10
2.4071675134
 20
48.4011577981
 30
0.0
 40
0.005000000003859
100
AcDbArc
 50
89.9999999912
 51
180.0000000001
  0
LINE
  5
3FA
330
1F
100
AcDbEntity
  8
SLD-0
  6
Continuous
370
    15
100
AcDbLine
 10
2.3781676078
 20
48.4011567229
 30
0.0
 11
2.4021666906
 21
48.4011567229
 31
0.0
  0
ARC
  5
3FB
330
1F
100
AcDbEntity
  8
SLD-0
  6
Continuous
370
    15
100
AcDbCircle
 10
2.4071675134
 20
48.4011577981
 30
0.0
 40
0.028999999999999
100
AcDbArc
 50
89.9999999985
 51
180.0000000001
  0
LINE
  5
3FC
330
1F
100
AcDbEntity
  8
SLD-0
  6
Continuous
370
    15
100
AcDbLine
 10
24.338167514
 20
48.4011567229
 30
0.0
 11
24.3621675134
 21
48.4011567229
 31
0.0
  0
ARC
  5
3FD
330
1F
100
AcDbEntity
  8
SLD-0
  6
Continuous
370
    15
100
AcDbCircle
 10
24.3331675134
 20
48.4011577981
 30
0.0
 40
0.0049999999995904
100
AcDbArc
 50
0.0
 51
90.0
  0
ARC
  5
3FE
330
1F
100
AcDbEntity
  8
SLD-0
  6
Continuous
370
    15
100
AcDbCircle
 10
24.3331675134
 20
48.4011577981
 30
0.0
 40
0.0290000000004156
100
AcDbArc
 50
0.0
 51
90.0
  0
LINE
  5
3FF
330
1F
100
AcDbEntity
  8
SLD-0
  6
Continuous
370
    15
100
AcDbLine
 10
24.338167514
 20
43.1561568336
 30
0.0
 11
24.3621675134
 21
43.1561568336
 31
0.0
  0
LINE
  5
400
330
1F
100
AcDbEntity
  8
SLD-0
  6
Continuous
370
    15
100
AcDbLine
 10
24.338167514
 20
48.4011567229
 30
0.0
 11
24.338167514
 21
43.1561568336
 31
0.0
  0
LINE
  5
401
330
1F
100
AcDbEntity
  8
SLD-0
  6
Continuous
370
    15
100
AcDbLine
 10
24.3621675134
 20
48.4011567229
 30
0.0
 11
24.3621675134
 21
43.1561568336
 31
0.0
  0
LINE
  5
402
330
1F
100
AcDbEntity
  8
SLD-0
  6
Continuous
370
    15
100
AcDbLine
 10
24.3621675134
 20
43.0311583842
 30
0.0
 11
24.338167514
 21
43.0311583842
 31
0.0
  0
LINE
  5
403
330
1F
100
AcDbEntity
  8
SLD-0
  6
Continuous
370
    15
100
AcDbLine
 10
24.338167514
 20
43.1321577508
 30
0.0
 11
24.338167514
 21
43.1561568336
 31
0.0
  0
LINE
  5
404
330
1F
100
AcDbEntity
  8
SLD-0
  6
Continuous
370
    15
100
AcDbLine
 10
24.3621675134
 20
43.1561568336
 30
0.0
 11
24.3621675134
 21
43.0311583842
 31
0.0
  0
LINE
  5
405
330
1F
100
AcDbEntity
  8
SLD-0
  6
Continuous
370
    15
100
AcDbLine
 10
2.4021666906
 20
48.4011567229
 30
0.0
 11
2.4021666906
 21
47.5311588799
 31
0.0
  0
LINE
  5
406
330
1F
100
AcDbEntity
  8
SLD-0
  6
Continuous
370
    15
100
AcDbLine
 10
2.3781676078
 20
47.5311588799
 30
0.0
 11
2.4021666906
 21
47.5311588799
 31
0.0
  0
LINE
  5
407
330
1F
100
AcDbEntity
  8
SLD-0
  6
Continuous
370
    15
100
AcDbLine
 10
2.3781676078
 20
48.4011567229
 30
0.0
 11
2.3781676078
 21
47.5311588799
 31
0.0
  0
LINE
  5
408
330
1F
100
AcDbEntity
  8
SLD-0
  6
Continuous
370
    15
100
AcDbLine
 10
2.4021666906
 20
47.5311588799
 30
0.0
 11
2.4021666906
 21
47.4061580839
 31
0.0
  0
LINE
  5
409
330
1F
100
AcDbEntity
  8
SLD-0
  6
Continuous
370
    15
100
AcDbLine
 10
2.4021666906
 20
47.4061580839
 30
0.0
 11
2.3781676078
 21
47.4061580839
 31
0.0
  0
LINE
  5
40A
330
1F
100
AcDbEntity
  8
SLD-0
  6
Continuous
370
    15
100
AcDbLine
 10
2.3781676078
 20
47.4061580839
 30
0.0
 11
2.3781676078
 21
47.5311588799
 31
0.0
  0
LINE
  5
40B
330
1F
100
AcDbEntity
  8
SLD-0
  6
Continuous
370
    15
100
AcDbLine
 10
24.3671675137
 20
43.0261576953
 30
0.0
 11
24.3671675137
 21
43.0021586126
 31
0.0
  0
ARC
  5
40C
330
1F
100
AcDbEntity
  8
SLD-0
  6
Continuous
370
    15
100
AcDbCircle
 10
24.3671675134
 20
43.0311577981
 30
0.0
 40
0.0290000000000035
100
AcDbArc
 50
180.0
 51
270.0
  0
ARC
  5
40D
330
1F
100
AcDbEntity
  8
SLD-0
  6
Continuous
370
    15
100
AcDbCircle
 10
24.3671675134
 20
43.0311577981
 30
0.0
 40
0.0050000000000026
100
AcDbArc
 50
180.0
 51
270.0
  0
LINE
  5
40E
330
1F
100
AcDbEntity
  8
SLD-0
  6
Continuous
370
    15
100
AcDbLine
 10
24.7371675181
 20
43.0021586126
 30
0.0
 11
24.7371675181
 21
43.0261576953
 31
0.0
  0
LINE
  5
40F
330
1F
100
AcDbEntity
  8
SLD-0
  6
Continuous
370
    15
100
AcDbLine
 10
24.7371675181
 20
43.0261576953
 30
0.0
 11
24.8621675074
 21
43.0261576953
 31
0.0
  0
LINE
  5
410
330
1F
100
AcDbEntity
  8
SLD-0
  6
Continuous
370
    15
100
AcDbLine
 10
24.8621675074
 20
43.0261576953
 30
0.0
 11
24.8621675074
 21
43.0021586126
 31
0.0
  0
LINE
  5
411
330
1F
100
AcDbEntity
  8
SLD-0
  6
Continuous
370
    15
100
AcDbLine
 10
24.807467706
 20
43.0021586126
 30
0.0
 11
24.7371675181
 21
43.0021586126
 31
0.0
  0
LINE
  5
412
330
1F
100
AcDbEntity
  8
SLD-0
  6
Continuous
370
    15
100
AcDbLine
 10
24.3671675137
 20
43.0261576953
 30
0.0
 11
24.7371675181
 21
43.0261576953
 31
0.0
  0
LINE
  5
413
330
1F
100
AcDbEntity
  8
SLD-0
  6
Continuous
370
    15
100
AcDbLine
 10
24.3671675137
 20
43.0021586126
 30
0.0
 11
24.7371675181
 21
43.0021586126
 31
0.0
  0
CIRCLE
  5
414
330
1F
100
AcDbEntity
  8
SLD-0
  6
Continuous
370
    15
100
AcDbCircle
 10
19.3861675134
 20
24.2591577982
 30
0.0
 40
1.25
  0
LINE
  5
415
330
1F
100
AcDbEntity
  8
SLD-0
  6
Continuous
370
    15
100
AcDbLine
 10
18.5881676019
 20
10.1541578222
 30
0.0
 11
18.5881676019
 21
14.6541578778
 31
0.0
  0
LINE
  5
416
330
1F
100
AcDbEntity
  8
SLD-0
  6
Continuous
370
    15
100
AcDbLine
 10
18.5881676019
 20
14.6541578778
 30
0.0
 11
16.0881675221
 21
14.6541578778
 31
0.0
  0
LINE
  5
417
330
1F
100
AcDbEntity
  8
SLD-0
  6
Continuous
370
    15
100
AcDbLine
 10
16.0881675221
 20
14.6541578778
 30
0.0
 11
16.0881675221
 21
10.1541578222
 31
0.0
  0
LINE
  5
418
330
1F
100
AcDbEntity
  8
SLD-0
  6
Continuous
370
    15
100
AcDbLine
 10
2.4421675085
 20
47.4982284869
 30
0.0
 11
2.4421675085
 21
10.0470156865
 31
0.0
  0
LINE
  5
419
330
1F
100
AcDbEntity
  8
SLD-0
  6
Continuous
370
    15
100
AcDbLine
 10
24.3331675126
 20
48.364157257
 30
0.0
 11
24.338167514
 21
48.364157257
 31
0.0
  0
LINE
  5
41A
330
1F
100
AcDbEntity
  8
SLD-0
  6
Continuous
370
    15
100
AcDbLine
 10
24.338167514
 20
9.9851578278
 30
0.0
 11
24.338167514
 21
43.1321577508
 31
0.0
  0
LINE
  5
41B
330
1F
100
AcDbEntity
  8
SLD-0
  6
Continuous
370
    15
100
AcDbLine
 10
24.3367356102
 20
9.1541577976
 30
0.0
 11
24.3331675126
 21
9.1541577976
 31
0.0
  0
LINE
  5
41C
330
1F
100
AcDbEntity
  8
SLD-0
  6
Continuous
370
    15
100
AcDbLine
 10
24.3431675131
 20
42.9811585352
 30
0.0
 11
24.338167514
 21
42.9811585352
 31
0.0
  0
LINE
  5
41D
330
1F
100
AcDbEntity
  8
SLD-0
  6
Continuous
370
    15
100
AcDbLine
 10
24.3431675131
 20
10.1301577861
 30
0.0
 11
24.3431675131
 21
42.9811585352
 31
0.0
  0
LINE
  5
41E
330
1F
100
AcDbEntity
  8
SLD-0
  6
Continuous
370
    15
100
AcDbLine
 10
24.338167514
 20
10.1301577861
 30
0.0
 11
24.3431675131
 21
10.1301577861
 31
0.0
  0
LINE
  5
41F
330
1F
100
AcDbEntity
  8
SLD-0
  6
Continuous
370
    15
100
AcDbLine
 10
24.3431675131
 20
10.1301577861
 30
0.0
 11
24.7371675181
 21
10.1301577861
 31
0.0
  0
LINE
  5
420
330
1F
100
AcDbEntity
  8
SLD-0
  6
Continuous
370
    15
100
AcDbLine
 10
24.7371675181
 20
10.1301577861
 30
0.0
 11
24.8621675074
 21
10.2551577754
 31
0.0
  0
LINE
  5
421
330
1F
100
AcDbEntity
  8
SLD-0
  6
Continuous
370
    15
100
AcDbLine
 10
24.8621675074
 20
10.2551577754
 30
0.0
 11
24.8621675074
 21
42.8561577392
 31
0.0
  0
LINE
  5
422
330
1F
100
AcDbEntity
  8
SLD-0
  6
Continuous
370
    15
100
AcDbLine
 10
24.7371675181
 20
42.9811585352
 30
0.0
 11
24.3431675131
 21
42.9811585352
 31
0.0
  0
LINE
  5
423
330
1F
100
AcDbEntity
  8
SLD-0
  6
Continuous
370
    15
100
AcDbLine
 10
24.8621675074
 20
42.8561577392
 30
0.0
 11
24.7371675181
 21
42.9811585352
 31
0.0
  0
LINE
  5
424
330
1F
100
AcDbEntity
  8
SLD-0
  6
Continuous
370
    15
100
AcDbLine
 10
2.4151670737
 20
9.1541577976
 30
0.0
 11
2.4101663848
 21
9.1541577976
 31
0.0
  0
LINE
  5
425
330
1F
100
AcDbEntity
  8
SLD-0
  6
Continuous
370
    15
100
AcDbLine
 10
2.4101663848
 20
9.1541577976
 30
0.0
 11
2.4101663848
 21
9.159157799
 31
0.0
  0
LINE
  5
426
330
1F
100
AcDbEntity
  8
SLD-0
  6
Continuous
370
    15
100
AcDbLine
 10
2.4101663848
 20
9.2791577961
 30
0.0
 11
2.4243095815
 21
9.2791577961
 31
0.0
  0
LINE
  5
427
330
1F
100
AcDbEntity
  8
SLD-0
  6
Continuous
370
    15
100
AcDbLine
 10
2.4101663848
 20
47.5302296106
 30
0.0
 11
2.4101663848
 21
10.0730156462
 31
0.0
  0
ELLIPSE
  5
428
330
1F
100
AcDbEntity
  8
SLD-0
  6
Continuous
370
    15
100
AcDbEllipse
 10
2.4151675134
 20
9.1591577982
 30
0.0
 11
0.0
 21
0.02899999999999814
 31
0.0
210
0.0
220
0.0
230
1.0
 40
0.315246056
 41
3.141592653589793
 42
4.712388980385551
  0
LINE
  5
429
330
1F
100
AcDbEntity
  8
SLD-0
  6
Continuous
370
    15
100
AcDbLine
 10
2.4243095815
 20
9.159157799
 30
0.0
 11
24.3331675126
 21
9.159157799
 31
0.0
  0
LINE
  5
42A
330
1F
100
AcDbEntity
  8
SLD-0
  6
Continuous
370
    15
100
AcDbLine
 10
24.3331675126
 20
9.1301577982
 30
0.0
 11
24.3331675126
 21
9.159157799
 31
0.0
  0
LINE
  5
42B
330
1F
100
AcDbEntity
  8
SLD-0
  6
Continuous
370
    15
100
AcDbLine
 10
2.4151670737
 20
9.1301577982
 30
0.0
 11
24.3331675126
 21
9.1301577982
 31
0.0
  0
LINE
  5
42C
330
1F
100
AcDbEntity
  8
SLD-0
  6
Continuous
370
    15
100
AcDbLine
 10
24.3331675126
 20
10.0291578328
 30
0.0
 11
24.2081675141
 21
10.1541578222
 31
0.0
  0
LINE
  5
42D
330
1F
100
AcDbEntity
  8
SLD-0
  6
Continuous
370
    15
100
AcDbLine
 10
24.3331675126
 20
9.159157799
 30
0.0
 11
24.3331675126
 21
10.0291578328
 31
0.0
  0
LINE
  5
42E
330
1F
100
AcDbEntity
  8
SLD-0
  6
Continuous
370
    15
100
AcDbLine
 10
2.4243095815
 20
10.0291578328
 30
0.0
 11
2.4243095815
 21
9.159157799
 31
0.0
  0
LINE
  5
42F
330
1F
100
AcDbEntity
  8
SLD-0
  6
Continuous
370
    15
100
AcDbLine
 10
2.5493103774
 20
10.1541578222
 30
0.0
 11
2.4243095815
 21
10.0291578328
 31
0.0
  0
LINE
  5
430
330
1F
100
AcDbEntity
  8
SLD-0
  6
Continuous
370
    15
100
AcDbLine
 10
2.5493103774
 20
10.1541578222
 30
0.0
 11
24.2081675141
 21
10.1541578222
 31
0.0
  0
LINE
  5
431
330
1F
100
AcDbEntity
  8
SLD-0
  6
Continuous
370
    15
100
AcDbLine
 10
2.4151670737
 20
9.1541577976
 30
0.0
 11
2.4151670737
 21
9.1301577982
 31
0.0
  0
ELLIPSE
  5
432
330
1F
100
AcDbEntity
  8
SLD-0
  6
Continuous
370
    15
100
AcDbEllipse
 10
2.4151675134
 20
9.1591577982
 30
0.0
 11
0.009142135623514845
 21
0.0
 31
0.0
210
0.0
220
0.0
230
1.0
 40
0.5469181607
 41
4.712388980384697
 42
6.283185307179586
  0
LINE
  5
433
330
1F
100
AcDbEntity
  8
SLD-0
  6
Continuous
370
    15
100
AcDbLine
 10
2.3861673021
 20
9.159157799
 30
0.0
 11
2.4101663848
 21
9.159157799
 31
0.0
  0
ARC
  5
434
330
1F
100
AcDbEntity
  8
SLD-0
  6
Continuous
370
    15
100
AcDbCircle
 10
2.4151675134
 20
9.1591577982
 30
0.0
 40
0.0050000000000008
100
AcDbArc
 50
180.0
 51
270.0000000055
  0
ARC
  5
435
330
1F
100
AcDbEntity
  8
SLD-0
  6
Continuous
370
    15
100
AcDbCircle
 10
2.4151675134
 20
9.1591577982
 30
0.0
 40
0.0290000000000168
100
AcDbArc
 50
180.0
 51
270.000000001
  0
LINE
  5
436
330
1F
100
AcDbEntity
  8
SLD-0
  6
Continuous
370
    15
100
AcDbLine
 10
2.3861673021
 20
10.1541578222
 30
0.0
 11
2.4101663848
 21
10.1541578222
 31
0.0
  0
LINE
  5
437
330
1F
100
AcDbEntity
  8
SLD-0
  6
Continuous
370
    15
100
AcDbLine
 10
2.4101663848
 20
10.0730156462
 30
0.0
 11
2.4101663848
 21
10.0291578328
 31
0.0
  0
LINE
  5
438
330
1F
100
AcDbEntity
  8
SLD-0
  6
Continuous
370
    15
100
AcDbLine
 10
2.4101663848
 20
10.0291578328
 30
0.0
 11
2.3861673021
 21
10.0291578328
 31
0.0
  0
LINE
  5
439
330
1F
100
AcDbEntity
  8
SLD-0
  6
Continuous
370
    15
100
AcDbLine
 10
2.3861673021
 20
10.0291578328
 30
0.0
 11
2.3861673021
 21
10.1541578222
 31
0.0
  0
LINE
  5
43A
330
1F
100
AcDbEntity
  8
SLD-0
  6
Continuous
370
    15
100
AcDbLine
 10
2.3861673021
 20
9.159157799
 30
0.0
 11
2.3861673021
 21
10.0291578328
 31
0.0
  0
LINE
  5
43B
330
1F
100
AcDbEntity
  8
SLD-0
  6
Continuous
370
    15
100
AcDbLine
 10
2.4101663848
 20
9.159157799
 30
0.0
 11
2.4101663848
 21
10.0291578328
 31
0.0
  0
ARC
  5
43C
330
1F
100
AcDbEntity
  8
SLD-0
  6
Continuous
370
    15
100
AcDbCircle
 10
24.3331675134
 20
9.1591577982
 30
0.0
 40
0.0289999999996144
100
AcDbArc
 50
270.0
 51
0.0
  0
ARC
  5
43D
330
1F
100
AcDbEntity
  8
SLD-0
  6
Continuous
370
    15
100
AcDbCircle
 10
24.3331675134
 20
9.1591577982
 30
0.0
 40
0.0049999999996176
100
AcDbArc
 50
315.5301759995
 51
0.0
  0
LINE
  5
43E
330
1F
100
AcDbEntity
  8
SLD-0
  6
Continuous
370
    15
100
AcDbLine
 10
24.338167514
 20
9.159157799
 30
0.0
 11
24.3621675134
 21
9.159157799
 31
0.0
  0
LINE
  5
43F
330
1F
100
AcDbEntity
  8
SLD-0
  6
Continuous
370
    15
100
AcDbLine
 10
24.3621675134
 20
9.9761578051
 30
0.0
 11
24.338167514
 21
9.9761578051
 31
0.0
  0
LINE
  5
440
330
1F
100
AcDbEntity
  8
SLD-0
  6
Continuous
370
    15
100
AcDbLine
 10
24.3621675134
 20
9.159157799
 30
0.0
 11
24.3621675134
 21
9.9761578051
 31
0.0
  0
LINE
  5
441
330
1F
100
AcDbEntity
  8
SLD-0
  6
Continuous
370
    15
100
AcDbLine
 10
24.338167514
 20
9.159157799
 30
0.0
 11
24.338167514
 21
9.9761578051
 31
0.0
  0
LINE
  5
442
330
1F
100
AcDbEntity
  8
SLD-0
  6
Continuous
370
    15
100
AcDbLine
 10
24.338167514
 20
10.1011577944
 30
0.0
 11
24.3621675134
 21
10.1011577944
 31
0.0
  0
LINE
  5
443
330
1F
100
AcDbEntity
  8
SLD-0
  6
Continuous
370
    15
100
AcDbLine
 10
24.3621675134
 20
10.1011577944
 30
0.0
 11
24.3621675134
 21
9.9761578051
 31
0.0
  0
LINE
  5
444
330
1F
100
AcDbEntity
  8
SLD-0
  6
Continuous
370
    15
100
AcDbLine
 10
24.338167514
 20
9.9761578051
 30
0.0
 11
24.338167514
 21
9.9851578278
 31
0.0
  0
LINE
  5
445
330
1F
100
AcDbEntity
  8
SLD-0
  6
Continuous
370
    15
100
AcDbLine
 10
24.3671675137
 20
10.1061578233
 30
0.0
 11
24.3671675137
 21
10.1301577861
 31
0.0
  0
ARC
  5
446
330
1F
100
AcDbEntity
  8
SLD-0
  6
Continuous
370
    15
100
AcDbCircle
 10
24.3671675134
 20
10.1011577982
 30
0.0
 40
0.004999999999999
100
AcDbArc
 50
90.0
 51
180.0
  0
ARC
  5
447
330
1F
100
AcDbEntity
  8
SLD-0
  6
Continuous
370
    15
100
AcDbCircle
 10
24.3671675134
 20
10.1011577982
 30
0.0
 40
0.0289999999999999
100
AcDbArc
 50
90.0
 51
180.0
  0
LINE
  5
448
330
1F
100
AcDbEntity
  8
SLD-0
  6
Continuous
370
    15
100
AcDbLine
 10
24.7371675181
 20
10.1061578233
 30
0.0
 11
24.7371675181
 21
10.1301577861
 31
0.0
  0
LINE
  5
449
330
1F
100
AcDbEntity
  8
SLD-0
  6
Continuous
370
    15
100
AcDbLine
 10
24.7371675181
 20
10.1061578233
 30
0.0
 11
24.3671675137
 21
10.1061578233
 31
0.0
  0
LINE
  5
44A
330
1F
100
AcDbEntity
  8
SLD-0
  6
Continuous
370
    15
100
AcDbLine
 10
24.8621675074
 20
10.1301577861
 30
0.0
 11
24.8621675074
 21
10.1061578233
 31
0.0
  0
LINE
  5
44B
330
1F
100
AcDbEntity
  8
SLD-0
  6
Continuous
370
    15
100
AcDbLine
 10
24.8621675074
 20
10.1061578233
 30
0.0
 11
24.7371675181
 21
10.1061578233
 31
0.0
  0
LINE
  5
44C
330
1F
100
AcDbEntity
  8
SLD-0
  6
Continuous
370
    15
100
AcDbLine
 10
24.7371675181
 20
10.1301577861
 30
0.0
 11
24.825063396
 21
10.1301577861
 31
0.0
  0
LINE
  5
44D
330
1F
100
AcDbEntity
  8
SLD-0
  6
Continuous
370
    15
100
AcDbLine
 10
16.8621672741
 20
58.9182320287
 30
0.0
 11
18.8621676899
 21
58.9182320287
 31
0.0
  0
LINE
  5
44E
330
1F
100
AcDbEntity
  8
SLD-0
  6
Continuous
370
    15
100
AcDbLine
 10
16.8621672741
 20
54.4744804833
 30
0.0
 11
18.8621676899
 21
54.4744804833
 31
0.0
  0
LINE
  5
44F
330
1F
100
AcDbEntity
  8
SLD-0
  6
Continuous
370
    15
100
AcDbLine
 10
2.4711672801
 20
10.0760156782
 30
0.0
 11
2.4711672801
 21
47.4692287153
 31
0.0
  0
LINE
  5
450
330
1F
100
AcDbEntity
  8
SLD-0
  6
Continuous
370
    15
100
AcDbLine
 10
24.3091675132
 20
10.0531577956
 30
0.0
 11
24.3091675132
 21
47.5071574505
 31
0.0
  0
LINE
  5
451
330
1F
100
AcDbEntity
  8
DIM
100
AcDbLine
 10
17.3381675134
 20
13.3098731195
 30
0.0
 11
17.3381675134
 21
11.4984424769
 31
0.0
  0
LINE
  5
452
330
1F
100
AcDbEntity
  8
DIM
100
AcDbLine
 10
16.4324521922
 20
12.4041577982
 30
0.0
 11
18.2438828347
 21
12.4041577982
 31
0.0
  0
DIMENSION
  5
453
330
1F
100
AcDbEntity
  8
DIM
100
AcDbDimension
  2
_D_17
 10
17.3381675134
 20
6.1301558297
 30
0.0
 11
21.1001675134
 21
6.1301558297
 31
0.0
 70
   160
  1
<>
 71
     2
 42
-1.0
  3
SLDDIMSTYLE0
100
AcDbAlignedDimension
 13
24.8621675134
 23
10.2551577982
 33
0.0
 14
17.3381675134
 24
11.4984424769
 34
0.0
100
AcDbRotatedDimension
  0
DIMENSION
  5
462
330
1F
100
AcDbEntity
  8
DIM
100
AcDbDimension
  2
_D_18
 10
13.226115042
 20
9.1301577982
 30
0.0
 11
13.226115042
 21
6.1301558297
 31
0.0
 70
   160
  1
<>
 71
     2
 42
-1.0
  3
SLDDIMSTYLE2
100
AcDbAlignedDimension
 13
16.4324521922
 23
12.4041577982
 33
0.0
 14
2.4151675134
 24
9.1301577982
 34
0.0
 50
90.0
100
AcDbRotatedDimension
  0
ENDSEC
  0
SECTION
  2
OBJECTS
  0
DICTIONARY
  5
C
330
0
100
AcDbDictionary
281
     1
  3
ACAD_GROUP
350
D
  3
ACAD_LAYOUT
350
1A
  3
ACAD_MATERIAL
350
3B
  3
ACAD_MLEADERSTYLE
350
472
  3
ACAD_MLINESTYLE
350
17
  3
ACAD_PLOTSETTINGS
350
19
  3
ACAD_PLOTSTYLENAME
350
E
  3
ACAD_TABLESTYLE
350
471
  0
DICTIONARY
  5
D
102
{ACAD_REACTORS
330
C
102
}
330
C
100
AcDbDictionary
281
     1
  0
DICTIONARY
  5
1A
102
{ACAD_REACTORS
330
C
102
}
330
C
100
AcDbDictionary
281
     1
  3
Layout1
350
1E
  3
Layout2
350
26
  3
Model
350
22
  0
DICTIONARY
  5
3B
102
{ACAD_REACTORS
330
C
102
}
330
C
100
AcDbDictionary
281
     1
  3
ByBlock
350
3D
  3
ByLayer
350
3C
  3
Global
350
3E
  0
DICTIONARY
  5
472
102
{ACAD_REACTORS
330
C
102
}
330
C
100
AcDbDictionary
281
     1
  0
DICTIONARY
  5
17
102
{ACAD_REACTORS
330
C
102
}
330
C
100
AcDbDictionary
281
     1
  3
Standard
350
18
  0
DICTIONARY
  5
19
102
{ACAD_REACTORS
330
C
102
}
330
C
100
AcDbDictionary
281
     1
  0
ACDBDICTIONARYWDFLT
  5
E
102
{ACAD_REACTORS
330
C
102
}
330
C
100
AcDbDictionary
281
     1
  3
Normal
350
F
100
AcDbDictionaryWithDefault
340
F
  0
DICTIONARY
  5
471
102
{ACAD_REACTORS
330
C
102
}
330
C
100
AcDbDictionary
281
     1
  0
LAYOUT
  5
1E
102
{ACAD_REACTORS
330
1A
102
}
330
1A
100
AcDbPlotSettings
  1

  2
none_device
  4

  6

 40
0.0
 41
0.0
 42
0.0
 43
0.0
 44
0.0
 45
0.0
 46
0.0
 47
0.0
 48
0.0
 49
0.0
140
0.0
141
0.0
142
1.0
143
1.0
 70
   688
 72
     0
 73
     0
 74
     5
  7

 75
    16
 76
     0
 77
     2
 78
   300
147
1.0
148
0.0
149
0.0
100
AcDbLayout
  1
Layout1
 70
     1
 71
     1
 10
0.0
 20
0.0
 11
12.0
 21
9.0
 12
0.0
 22
0.0
 32
0.0
 14
1.0000000000E+20
 24
1.0000000000E+20
 34
1.0000000000E+20
 15
-1.0000000000E+20
 25
-1.0000000000E+20
 35
-1.0000000000E+20
146
0.0
 13
0.0
 23
0.0
 33
0.0
 16
1.0
 26
0.0
 36
0.0
 17
0.0
 27
1.0
 37
0.0
 76
     0
330
1B
  0
LAYOUT
  5
26
102
{ACAD_REACTORS
330
1A
102
}
330
1A
100
AcDbPlotSettings
  1

  2
none_device
  4

  6

 40
0.0
 41
0.0
 42
0.0
 43
0.0
 44
0.0
 45
0.0
 46
0.0
 47
0.0
 48
0.0
 49
0.0
140
0.0
141
0.0
142
1.0
143
1.0
 70
   688
 72
     0
 73
     0
 74
     5
  7

 75
    16
 76
     0
 77
     2
 78
   300
147
1.0
148
0.0
149
0.0
100
AcDbLayout
  1
Layout2
 70
     1
 71
     2
 10
0.0
 20
0.0
 11
0.0
 21
0.0
 12
0.0
 22
0.0
 32
0.0
 14
0.0
 24
0.0
 34
0.0
 15
0.0
 25
0.0
 35
0.0
146
0.0
 13
0.0
 23
0.0
 33
0.0
 16
1.0
 26
0.0
 36
0.0
 17
0.0
 27
1.0
 37
0.0
 76
     0
330
23
  0
LAYOUT
  5
22
102
{ACAD_REACTORS
330
1A
102
}
330
1A
100
AcDbPlotSettings
  1

  2
none_device
  4

  6

 40
0.0
 41
0.0
 42
0.0
 43
0.0
 44
0.0
 45
0.0
 46
0.0
 47
0.0
 48
0.0
 49
0.0
140
0.0
141
0.0
142
1.0
143
1.0
 70
  1712
 72
     0
 73
     0
 74
     0
  7

 75
     0
 76
     0
 77
     2
 78
   300
147
1.0
148
0.0
149
0.0
100
AcDbLayout
  1
Model
 70
     1
 71
     0
 10
0.0
 20
0.0
 11
130.0
 21
105.0
 12
0.0
 22
0.0
 32
0.0
 14
0.0
 24
0.0
 34
0.0
 15
130.0
 25
105.0
 35
0.0
146
0.0
 13
0.0
 23
0.0
 33
0.0
 16
1.0
 26
0.0
 36
0.0
 17
0.0
 27
1.0
 37
0.0
 76
     0
330
1F
331
29
  0
MATERIAL
  5
3D
102
{ACAD_REACTORS
330
3B
102
}
330
3B
100
AcDbMaterial
  1
ByBlock
  0
MATERIAL
  5
3C
102
{ACAD_REACTORS
330
3B
102
}
330
3B
100
AcDbMaterial
  1
ByLayer
  0
MATERIAL
  5
3E
102
{ACAD_REACTORS
330
3B
102
}
330
3B
100
AcDbMaterial
  1
Global
  0
MLINESTYLE
  5
18
102
{ACAD_REACTORS
330
17
102
}
330
17
100
AcDbMlineStyle
  2
Standard
 70
     0
  3

 62
   256
 51
90.0
 52
90.0
 71
     2
 49
0.5
 62
   256
  6
BYLAYER
 49
-0.5
 62
   256
  6
BYLAYER
  0
ACDBPLACEHOLDER
  5
F
102
{ACAD_REACTORS
330
E
102
}
330
E
  0
ENDSEC
  0
EOF
