  0
SECTION
  2
HEADER
  9
$ACADVER
  1
AC1018
  9
$ACADMAINTVER
 70
     0
  9
$DWGCODEPAGE
  3
ANSI_1252
  9
$INSBASE
 10
0.0
 20
0.0
 30
0.0
  9
$EXTMIN
 10
0.0
 20
0.0
 30
0.0
  9
$EXTMAX
 10
150.0
 20
115.0
 30
0.0
  9
$LIMMIN
 10
0.0
 20
0.0
  9
$LIMMAX
 10
150.0
 20
115.0
  9
$ORTHOMODE
 70
     0
  9
$REGENMODE
 70
     1
  9
$FILLMODE
 70
     1
  9
$QTEXTMODE
 70
     0
  9
$MIRRTEXT
 70
     1
  9
$LTSCALE
 40
1.0
  9
$ATTMODE
 70
     1
  9
$TEXTSIZE
 40
0.1388888889
  9
$TRACEWID
 40
0.05
  9
$TEXTSTYLE
  7
Standard
  9
$CLAYER
  8
0
  9
$CELTYPE
  6
ByLayer
  9
$CECOLOR
 62
   256
  9
$CELTSCALE
 40
1.0
  9
$DISPSILH
 70
     0
  9
$DIMSCALE
 40
1.0
  9
$DIMASZ
 40
1.0
  9
$DIMEXO
 40
0.0393700787
  9
$DIMDLI
 40
0.38
  9
$DIMRND
 40
0.0
  9
$DIMDLE
 40
0.0
  9
$DIMEXE
 40
0.0393700787
  9
$DIMTP
 40
0.0
  9
$DIMTM
 40
0.0
  9
$DIMTXT
 40
1.25
  9
$DIMCEN
 40
0.09
  9
$DIMTSZ
 40
0.0
  9
$DIMTOL
 70
     0
  9
$DIMLIM
 70
     0
  9
$DIMTIH
 70
     1
  9
$DIMTOH
 70
     1
  9
$DIMSE1
 70
     0
  9
$DIMSE2
 70
     0
  9
$DIMTAD
 70
     0
  9
$DIMZIN
 70
     0
  9
$DIMBLK
  1

  9
$DIMASO
 70
     1
  9
$DIMSHO
 70
     1
  9
$DIMPOST
  1

  9
$DIMAPOST
  1

  9
$DIMALT
 70
     0
  9
$DIMALTD
 70
     2
  9
$DIMALTF
 40
25.4
  9
$DIMLFAC
 40
1.0
  9
$DIMTOFL
 70
     0
  9
$DIMTVP
 40
0.0
  9
$DIMTIX
 70
     0
  9
$DIMSOXD
 70
     0
  9
$DIMSAH
 70
     0
  9
$DIMBLK1
  1

  9
$DIMBLK2
  1

  9
$DIMSTYLE
  2
Standard
  9
$DIMCLRD
 70
     0
  9
$DIMCLRE
 70
     0
  9
$DIMCLRT
 70
     0
  9
$DIMTFAC
 40
1.0
  9
$DIMGAP
 40
0.06
  9
$DIMJUST
 70
     0
  9
$DIMSD1
 70
     0
  9
$DIMSD2
 70
     0
  9
$DIMTOLJ
 70
     1
  9
$DIMTZIN
 70
     0
  9
$DIMALTZ
 70
     0
  9
$DIMALTTZ
 70
     0
  9
$DIMUPT
 70
     0
  9
$DIMDEC
 70
     3
  9
$DIMTDEC
 70
     2
  9
$DIMALTU
 70
     2
  9
$DIMALTTD
 70
     2
  9
$DIMTXSTY
  7
Standard
  9
$DIMAUNIT
 70
     0
  9
$DIMADEC
 70
     2
  9
$DIMALTRND
 40
0.0
  9
$DIMAZIN
 70
     0
  9
$DIMDSEP
 70
    46
  9
$DIMATFIT
 70
     3
  9
$DIMFRAC
 70
     0
  9
$DIMLDRBLK
  1

  9
$DIMLUNIT
 70
     2
  9
$DIMLWD
 70
    -2
  9
$DIMLWE
 70
    -2
  9
$DIMTMOVE
 70
     0
  9
$LUNITS
 70
     2
  9
$LUPREC
 70
     3
  9
$SKETCHINC
 40
0.1
  9
$FILLETRAD
 40
0.5
  9
$AUNITS
 70
     0
  9
$AUPREC
 70
     2
  9
$MENU
  1
.
  9
$ELEVATION
 40
0.0
  9
$PELEVATION
 40
0.0
  9
$THICKNESS
 40
0.0
  9
$LIMCHECK
 70
     0
  9
$CHAMFERA
 40
0.5
  9
$CHAMFERB
 40
0.5
  9
$CHAMFERC
 40
1.0
  9
$CHAMFERD
 40
0.0
  9
$SKPOLY
 70
     0
  9
$TDCREATE
 40
2456594.384358808
  9
$TDUCREATE
 40
2456594.592692141
  9
$TDUPDATE
 40
2456594.384364051
  9
$TDUUPDATE
 40
2456594.592697384
  9
$TDINDWG
 40
0.0000000116
  9
$TDUSRTIMER
 40
0.0000000116
  9
$USRTIMER
 70
     1
  9
$ANGBASE
 50
0.0
  9
$ANGDIR
 70
     0
  9
$PDMODE
 70
     0
  9
$PDSIZE
 40
-1.0
  9
$PLINEWID
 40
0.0
  9
$SPLFRAME
 70
     0
  9
$SPLINETYPE
 70
     6
  9
$SPLINESEGS
 70
     8
  9
$HANDSEED
  5
46F
  9
$SURFTAB1
 70
     6
  9
$SURFTAB2
 70
     6
  9
$SURFTYPE
 70
     6
  9
$SURFU
 70
     6
  9
$SURFV
 70
     6
  9
$UCSBASE
  2

  9
$UCSNAME
  2

  9
$UCSORG
 10
0.0
 20
0.0
 30
0.0
  9
$UCSXDIR
 10
1.0
 20
0.0
 30
0.0
  9
$UCSYDIR
 10
0.0
 20
1.0
 30
0.0
  9
$UCSORTHOREF
  2

  9
$UCSORTHOVIEW
 70
     0
  9
$UCSORGTOP
 10
0.0
 20
0.0
 30
0.0
  9
$UCSORGBOTTOM
 10
0.0
 20
0.0
 30
0.0
  9
$UCSORGLEFT
 10
0.0
 20
0.0
 30
0.0
  9
$UCSORGRIGHT
 10
0.0
 20
0.0
 30
0.0
  9
$UCSORGFRONT
 10
0.0
 20
0.0
 30
0.0
  9
$UCSORGBACK
 10
0.0
 20
0.0
 30
0.0
  9
$PUCSBASE
  2

  9
$PUCSNAME
  2

  9
$PUCSORG
 10
0.0
 20
0.0
 30
0.0
  9
$PUCSXDIR
 10
1.0
 20
0.0
 30
0.0
  9
$PUCSYDIR
 10
0.0
 20
1.0
 30
0.0
  9
$PUCSORTHOREF
  2

  9
$PUCSORTHOVIEW
 70
     0
  9
$PUCSORGTOP
 10
0.0
 20
0.0
 30
0.0
  9
$PUCSORGBOTTOM
 10
0.0
 20
0.0
 30
0.0
  9
$PUCSORGLEFT
 10
0.0
 20
0.0
 30
0.0
  9
$PUCSORGRIGHT
 10
0.0
 20
0.0
 30
0.0
  9
$PUCSORGFRONT
 10
0.0
 20
0.0
 30
0.0
  9
$PUCSORGBACK
 10
0.0
 20
0.0
 30
0.0
  9
$USERI1
 70
     0
  9
$USERI2
 70
     0
  9
$USERI3
 70
     0
  9
$USERI4
 70
     0
  9
$USERI5
 70
     0
  9
$USERR1
 40
0.0
  9
$USERR2
 40
0.0
  9
$USERR3
 40
0.0
  9
$USERR4
 40
0.0
  9
$USERR5
 40
0.0
  9
$WORLDVIEW
 70
     1
  9
$SHADEDGE
 70
     3
  9
$SHADEDIF
 70
    70
  9
$TILEMODE
 70
     1
  9
$MAXACTVP
 70
    64
  9
$PINSBASE
 10
0.0
 20
0.0
 30
0.0
  9
$PLIMCHECK
 70
     0
  9
$PEXTMIN
 10
1.0000000000E+20
 20
1.0000000000E+20
 30
1.0000000000E+20
  9
$PEXTMAX
 10
-1.0000000000E+20
 20
-1.0000000000E+20
 30
-1.0000000000E+20
  9
$PLIMMIN
 10
0.0
 20
0.0
  9
$PLIMMAX
 10
12.0
 20
9.0
  9
$UNITMODE
 70
     0
  9
$VISRETAIN
 70
     1
  9
$PLINEGEN
 70
     0
  9
$PSLTSCALE
 70
     1
  9
$TREEDEPTH
 70
  3020
  9
$CMLSTYLE
  2
Standard
  9
$CMLJUST
 70
     0
  9
$CMLSCALE
 40
1.0
  9
$PROXYGRAPHICS
 70
     1
  9
$MEASUREMENT
 70
     0
  9
$CELWEIGHT
370
    -1
  9
$ENDCAPS
280
     0
  9
$JOINSTYLE
280
     0
  9
$LWDISPLAY
290
     1
  9
$INSUNITS
 70
     1
  9
$HYPERLINKBASE
  1

  9
$STYLESHEET
  1

  9
$XEDIT
290
     1
  9
$CEPSNTYPE
380
     0
  9
$PSTYLEMODE
290
     1
  9
$FINGERPRINTGUID
  2
{53FE21AC-96FA-4B9E-94CB-79C74C795A38}
  9
$VERSIONGUID
  2
{FAEB1C32-E019-11D5-929B-00C0DF256EC4}
  9
$EXTNAMES
290
     1
  9
$PSVPSCALE
 40
0.0
  9
$OLESTARTUP
290
     0
  9
$SORTENTS
280
   127
  9
$INDEXCTL
280
     0
  9
$HIDETEXT
280
     1
  9
$XCLIPFRAME
290
     0
  9
$HALOGAP
280
     0
  9
$OBSCOLOR
 70
   257
  9
$OBSLTYPE
280
     0
  9
$INTERSECTIONDISPLAY
280
     0
  9
$INTERSECTIONCOLOR
 70
   257
  9
$DIMASSOC
280
     2
  9
$PROJECTNAME
  1

  0
ENDSEC
  0
SECTION
  2
CLASSES
  0
CLASS
  1
ACDBDICTIONARYWDFLT
  2
AcDbDictionaryWithDefault
  3
ObjectDBX Classes
 90
        0
 91
        4
280
     0
281
     0
  0
CLASS
  1
VISUALSTYLE
  2
AcDbVisualStyle
  3
ObjectDBX Classes
 90
     4095
 91
        4
280
     0
281
     0
  0
CLASS
  1
MATERIAL
  2
AcDbMaterial
  3
ObjectDBX Classes
 90
     1153
 91
        4
280
     0
281
     0
  0
ENDSEC
  0
SECTION
  2
TABLES
  0
TABLE
  2
VPORT
  5
8
330
0
100
AcDbSymbolTable
 70
     1
  0
VPORT
  5
29
330
8
100
AcDbSymbolTableRecord
100
AcDbViewportTableRecord
  2
*Active
 70
     0
 10
0.0
 20
0.0
 11
1.0
 21
1.0
 12
75.0
 22
57.5
 13
0.0
 23
0.0
 14
0.5
 24
0.5
 15
0.5
 25
0.5
 16
0.0
 26
0.0
 36
1.0
 17
0.0
 27
0.0
 37
0.0
 40
115.0
 41
1.3043478261
 42
50.0
 43
0.0
 44
0.0
 50
0.0
 51
0.0
 71
     0
 72
  2000
 73
     1
 74
     3
 75
     0
 76
     0
 77
     0
 78
     0
281
     0
 65
     1
110
0.0
120
0.0
130
0.0
111
1.0
121
0.0
131
0.0
112
0.0
122
1.0
132
0.0
 79
     0
146
0.0
  0
ENDTAB
  0
TABLE
  2
LTYPE
  5
5
330
0
100
AcDbSymbolTable
 70
     6
  0
LTYPE
  5
14
330
5
100
AcDbSymbolTableRecord
100
AcDbLinetypeTableRecord
  2
ByBlock
 70
     0
  3

 72
    65
 73
     0
 40
0.0
  0
LTYPE
  5
15
330
5
100
AcDbSymbolTableRecord
100
AcDbLinetypeTableRecord
  2
ByLayer
 70
     0
  3

 72
    65
 73
     0
 40
0.0
  0
LTYPE
  5
16
330
5
100
AcDbSymbolTableRecord
100
AcDbLinetypeTableRecord
  2
Continuous
 70
     0
  3
Solid line
 72
    65
 73
     0
 40
0.0
  0
LTYPE
  5
3F
330
5
100
AcDbSymbolTableRecord
100
AcDbLinetypeTableRecord
  2
HIDDEN
 70
     0
  3
Hidden __ __ __ __ __ __ __ __ __ __ __ __ __ __
 72
    65
 73
     2
 40
0.075
 49
0.05
 74
     0
 49
-0.025
 74
     0
  0
LTYPE
  5
40
330
5
100
AcDbSymbolTableRecord
100
AcDbLinetypeTableRecord
  2
PHANTOM
 70
     0
  3
Phantom ______  __  __  ______  __  __  ______
 72
    65
 73
     6
 40
0.5
 49
0.25
 74
     0
 49
-0.05
 74
     0
 49
0.05
 74
     0
 49
-0.05
 74
     0
 49
0.05
 74
     0
 49
-0.05
 74
     0
  0
LTYPE
  5
41
330
5
100
AcDbSymbolTableRecord
100
AcDbLinetypeTableRecord
  2
CENTER
 70
     0
  3
Center ____ _ ____ _ ____ _ ____ _ ____ _ ____
 72
    65
 73
     4
 40
0.4
 49
0.25
 74
     0
 49
-0.05
 74
     0
 49
0.05
 74
     0
 49
-0.05
 74
     0
  0
LTYPE
  5
42
330
5
100
AcDbSymbolTableRecord
100
AcDbLinetypeTableRecord
  2
CENTERX2
 70
     0
  3
Center (2x) ________  __  ________  __  _____
 72
    65
 73
     4
 40
0.8
 49
0.5
 74
     0
 49
-0.1
 74
     0
 49
0.1
 74
     0
 49
-0.1
 74
     0
  0
LTYPE
  5
43
330
5
100
AcDbSymbolTableRecord
100
AcDbLinetypeTableRecord
  2
DOT2
 70
     0
  3
Dot (.5x) ........................................
 72
    65
 73
     2
 40
0.025
 49
0.0
 74
     0
 49
-0.025
 74
     0
  0
ENDTAB
  0
TABLE
  2
LAYER
  5
2
330
0
100
AcDbSymbolTable
 70
     4
  0
LAYER
  5
10
330
2
100
AcDbSymbolTableRecord
100
AcDbLayerTableRecord
  2
0
 70
     0
 62
     7
  6
Continuous
370
    -3
390
F
  0
LAYER
  5
44
330
2
100
AcDbSymbolTableRecord
100
AcDbLayerTableRecord
  2
SLD-0
 70
     0
 62
     7
  6
Continuous
370
    -3
390
F
  0
LAYER
  5
45
330
2
100
AcDbSymbolTableRecord
100
AcDbLayerTableRecord
  2
NOTES
 70
     0
 62
     1
  6
Continuous
370
    -3
390
F
  0
LAYER
  5
46
330
2
100
AcDbSymbolTableRecord
100
AcDbLayerTableRecord
  2
DIM
 70
     0
 62
   100
  6
Continuous
370
    -3
390
F
  0
ENDTAB
  0
TABLE
  2
STYLE
  5
3
330
0
100
AcDbSymbolTable
 70
     2
  0
STYLE
  5
11
330
3
100
AcDbSymbolTableRecord
100
AcDbTextStyleTableRecord
  2
Standard
 70
     0
 40
0.0
 41
1.0
 50
0.0
 71
     0
 42
0.1388888889
  3
txt
  4

  0
STYLE
  5
47
330
3
100
AcDbSymbolTableRecord
100
AcDbTextStyleTableRecord
  2
SLDTEXTSTYLE0
 70
     0
 40
0.0
 41
0.75
 50
0.0
 71
     0
 42
0.2
  3
TXT
  4

  0
ENDTAB
  0
TABLE
  2
VIEW
  5
6
330
0
100
AcDbSymbolTable
 70
     0
  0
ENDTAB
  0
TABLE
  2
UCS
  5
7
330
0
100
AcDbSymbolTable
 70
     0
  0
ENDTAB
  0
TABLE
  2
APPID
  5
9
330
0
100
AcDbSymbolTable
 70
     1
  0
APPID
  5
12
330
9
100
AcDbSymbolTableRecord
100
AcDbRegAppTableRecord
  2
ACAD
 70
     0
  0
ENDTAB
  0
TABLE
  2
DIMSTYLE
  5
A
330
0
100
AcDbSymbolTable
 70
     4
100
AcDbDimStyleTable
  0
DIMSTYLE
105
27
330
A
100
AcDbSymbolTableRecord
100
AcDbDimStyleTableRecord
  2
Standard
 70
     0
178
     0
340
11
  0
DIMSTYLE
105
162
102
{ACAD_REACTORS
330
161
330
171
330
180
330
18F
330
19A
330
1A7
330
250
330
26A
330
279
330
325
330
40B
330
41A
330
429
330
438
330
443
102
}
330
A
100
AcDbSymbolTableRecord
100
AcDbDimStyleTableRecord
  2
SLDDIMSTYLE0
 70
     0
 41
1.0
 44
0.0
 45
0.000000001
 78
    12
 79
     3
140
1.25
147
0.3125
173
     1
178
     0
271
     3
272
     2
276
     2
277
     5
284
    12
340
47
  0
DIMSTYLE
105
25C
102
{ACAD_REACTORS
330
25B
330
334
102
}
330
A
100
AcDbSymbolTableRecord
100
AcDbDimStyleTableRecord
  2
SLDDIMSTYLE1
 70
     0
 41
1.0
 44
0.0
 45
0.000000001
 78
    12
 79
     3
140
1.25
147
0.3125
172
     1
173
     1
178
     0
271
     3
272
     2
276
     2
277
     5
284
    12
289
     0
340
47
  0
DIMSTYLE
105
44F
102
{ACAD_REACTORS
330
44E
330
458
102
}
330
A
100
AcDbSymbolTableRecord
100
AcDbDimStyleTableRecord
  2
SLDDIMSTYLE2
 70
     0
 41
1.0
 44
0.0
 45
0.000000001
 78
    12
 79
     3
140
1.25
141
0.0
147
0.3125
173
     1
178
     0
271
     3
272
     2
276
     2
277
     5
284
    12
340
47
  0
ENDTAB
  0
TABLE
  2
BLOCK_RECORD
  5
1
330
0
100
AcDbSymbolTable
 70
    21
  0
BLOCK_RECORD
  5
1F
330
1
100
AcDbSymbolTableRecord
100
AcDbBlockTableRecord
  2
*Model_Space
340
22
  0
BLOCK_RECORD
  5
1B
330
1
100
AcDbSymbolTableRecord
100
AcDbBlockTableRecord
  2
*Paper_Space
340
1E
  0
BLOCK_RECORD
  5
23
330
1
100
AcDbSymbolTableRecord
100
AcDbBlockTableRecord
  2
*Paper_Space0
340
26
  0
BLOCK_RECORD
  5
163
330
1
100
AcDbSymbolTableRecord
100
AcDbBlockTableRecord
  2
_D
340
0
  0
BLOCK_RECORD
  5
172
330
1
100
AcDbSymbolTableRecord
100
AcDbBlockTableRecord
  2
_D_1
340
0
  0
BLOCK_RECORD
  5
181
330
1
100
AcDbSymbolTableRecord
100
AcDbBlockTableRecord
  2
_D_2
340
0
  0
BLOCK_RECORD
  5
190
330
1
100
AcDbSymbolTableRecord
100
AcDbBlockTableRecord
  2
_D_3
340
0
  0
BLOCK_RECORD
  5
19B
330
1
100
AcDbSymbolTableRecord
100
AcDbBlockTableRecord
  2
_D_4
340
0
  0
BLOCK_RECORD
  5
1A8
330
1
100
AcDbSymbolTableRecord
100
AcDbBlockTableRecord
  2
_D_5
340
0
  0
BLOCK_RECORD
  5
251
330
1
100
AcDbSymbolTableRecord
100
AcDbBlockTableRecord
  2
_D_6
340
0
  0
BLOCK_RECORD
  5
25D
330
1
100
AcDbSymbolTableRecord
100
AcDbBlockTableRecord
  2
_D_7
340
0
  0
BLOCK_RECORD
  5
26B
330
1
100
AcDbSymbolTableRecord
100
AcDbBlockTableRecord
  2
_D_8
340
0
  0
BLOCK_RECORD
  5
27A
330
1
100
AcDbSymbolTableRecord
100
AcDbBlockTableRecord
  2
_D_9
340
0
  0
BLOCK_RECORD
  5
326
330
1
100
AcDbSymbolTableRecord
100
AcDbBlockTableRecord
  2
_D_10
340
0
  0
BLOCK_RECORD
  5
335
330
1
100
AcDbSymbolTableRecord
100
AcDbBlockTableRecord
  2
_D_11
340
0
  0
BLOCK_RECORD
  5
40C
330
1
100
AcDbSymbolTableRecord
100
AcDbBlockTableRecord
  2
_D_12
340
0
  0
BLOCK_RECORD
  5
41B
330
1
100
AcDbSymbolTableRecord
100
AcDbBlockTableRecord
  2
_D_13
340
0
  0
BLOCK_RECORD
  5
42A
330
1
100
AcDbSymbolTableRecord
100
AcDbBlockTableRecord
  2
_D_14
340
0
  0
BLOCK_RECORD
  5
439
330
1
100
AcDbSymbolTableRecord
100
AcDbBlockTableRecord
  2
_D_15
340
0
  0
BLOCK_RECORD
  5
444
330
1
100
AcDbSymbolTableRecord
100
AcDbBlockTableRecord
  2
_D_16
340
0
  0
BLOCK_RECORD
  5
450
330
1
100
AcDbSymbolTableRecord
100
AcDbBlockTableRecord
  2
_D_17
340
0
  0
BLOCK_RECORD
  5
459
330
1
100
AcDbSymbolTableRecord
100
AcDbBlockTableRecord
  2
_D_18
340
0
  0
BLOCK_RECORD
  5
461
330
1
100
AcDbSymbolTableRecord
100
AcDbBlockTableRecord
  2
SW_CENTERMARKSYMBOL_0
340
0
102
{BLKREFS
331
46C
102
}
  0
ENDTAB
  0
ENDSEC
  0
SECTION
  2
BLOCKS
  0
BLOCK
  5
20
330
1F
100
AcDbEntity
  8
0
100
AcDbBlockBegin
  2
*Model_Space
 70
     0
 10
0.0
 20
0.0
 30
0.0
  3
*Model_Space
  1

  0
ENDBLK
  5
21
330
1F
100
AcDbEntity
  8
0
100
AcDbBlockEnd
  0
BLOCK
  5
1C
330
1B
100
AcDbEntity
 67
     1
  8
0
100
AcDbBlockBegin
  2
*Paper_Space
 70
     0
 10
0.0
 20
0.0
 30
0.0
  3
*Paper_Space
  1

  0
ENDBLK
  5
1D
330
1B
100
AcDbEntity
 67
     1
  8
0
100
AcDbBlockEnd
  0
BLOCK
  5
24
330
23
100
AcDbEntity
  8
0
100
AcDbBlockBegin
  2
*Paper_Space0
 70
     0
 10
0.0
 20
0.0
 30
0.0
  3
*Paper_Space0
  1

  0
ENDBLK
  5
25
330
23
100
AcDbEntity
  8
0
100
AcDbBlockEnd
  0
BLOCK
  5
164
330
163
100
AcDbEntity
  8
0
100
AcDbBlockBegin
  2
_D
 70
     0
 10
0.0
 20
0.0
 30
0.0
  3
_D
  1

  0
SOLID
  5
166
330
163
100
AcDbEntity
  8
DIM
100
AcDbTrace
 10
35.3074088625
 20
8.8720845258
 30
0.0
 11
35.5574088625
 21
9.8720845258
 31
0.0
 12
35.0574088625
 22
9.8720845258
 32
0.0
 13
35.0574088625
 23
9.8720845258
 33
0.0
  0
SOLID
  5
167
330
163
100
AcDbEntity
  8
DIM
100
AcDbTrace
 10
35.3074088625
 20
66.1700845258
 30
0.0
 11
35.0574088625
 21
65.1700845258
 31
0.0
 12
35.5574088625
 22
65.1700845258
 32
0.0
 13
35.5574088625
 23
65.1700845258
 33
0.0
  0
LINE
  5
168
330
163
100
AcDbEntity
  8
DIM
100
AcDbLine
 10
35.7535893162
 20
36.5743084247
 30
0.0
 11
34.2535892683
 21
34.0743083449
 31
0.0
  0
LINE
  5
169
330
163
100
AcDbEntity
  8
DIM
100
AcDbLine
 10
45.2970387838
 20
8.8720845258
 30
0.0
 11
35.2680387838
 21
8.8720845258
 31
0.0
  0
LINE
  5
16A
330
163
100
AcDbEntity
  8
DIM
100
AcDbLine
 10
57.7677987059
 20
66.1700845258
 30
0.0
 11
35.2680387838
 21
66.1700845258
 31
0.0
  0
LINE
  5
16B
330
163
100
AcDbEntity
  8
DIM
100
AcDbLine
 10
35.3074088625
 20
8.8720845258
 30
0.0
 11
35.3074088625
 21
33.7079890367
 31
0.0
  0
LINE
  5
16C
330
163
100
AcDbEntity
  8
DIM
100
AcDbLine
 10
35.3074088625
 20
66.1700845258
 30
0.0
 11
35.3074088625
 21
36.9406278796
 31
0.0
  0
MTEXT
  5
16D
330
163
100
AcDbEntity
  8
DIM
100
AcDbMText
 10
32.2327560612
 20
36.0406778516
 30
10.5963031952
 40
1.25
 41
0.0
 71
     1
 72
     1
  1
57
  7
SLDTEXTSTYLE0
 73
     1
 44
1.0
  0
MTEXT
  5
16E
330
163
100
AcDbEntity
  8
DIM
100
AcDbMText
 10
34.0799782152
 20
36.9356429862
 30
10.5963031952
 40
1.25
 41
0.0
 71
     1
 72
     1
  1
5
  7
SLDTEXTSTYLE0
 73
     1
 44
1.0
  0
MTEXT
  5
16F
330
163
100
AcDbEntity
  8
DIM
100
AcDbMText
 10
35.0035892923
 20
35.3193235647
 30
10.5963031952
 40
1.25
 41
0.0
 71
     1
 72
     1
  1
16
  7
SLDTEXTSTYLE0
 73
     1
 44
1.0
  0
MTEXT
  5
170
330
163
100
AcDbEntity
  8
DIM
100
AcDbMText
 10
36.850811593
 20
36.0406778516
 30
10.5963031952
 40
1.25
 41
0.0
 71
     1
 72
     1
  1
"
  7
SLDTEXTSTYLE0
 73
     1
 44
1.0
  0
ENDBLK
  5
165
330
163
100
AcDbEntity
  8
0
100
AcDbBlockEnd
  0
BLOCK
  5
173
330
172
100
AcDbEntity
  8
0
100
AcDbBlockBegin
  2
_D_1
 70
     0
 10
0.0
 20
0.0
 30
0.0
  3
_D_1
  1

  0
SOLID
  5
175
330
172
100
AcDbEntity
  8
DIM
100
AcDbTrace
 10
40.4304938573
 20
48.7730845258
 30
0.0
 11
40.1804938573
 21
47.7730845258
 31
0.0
 12
40.6804938573
 22
47.7730845258
 32
0.0
 13
40.6804938573
 23
47.7730845258
 33
0.0
  0
SOLID
  5
176
330
172
100
AcDbEntity
  8
DIM
100
AcDbTrace
 10
40.4304938573
 20
9.8430845258
 30
0.0
 11
40.6804938573
 21
10.8430845258
 31
0.0
 12
40.1804938573
 22
10.8430845258
 32
0.0
 13
40.1804938573
 23
10.8430845258
 33
0.0
  0
LINE
  5
177
330
172
100
AcDbEntity
  8
DIM
100
AcDbLine
 10
41.3384799228
 20
30.4072123753
 30
0.0
 11
39.8384798749
 21
27.9072122955
 31
0.0
  0
LINE
  5
178
330
172
100
AcDbEntity
  8
DIM
100
AcDbLine
 10
45.4220387838
 20
48.7730845258
 30
0.0
 11
40.3911237785
 21
48.7730845258
 31
0.0
  0
LINE
  5
179
330
172
100
AcDbEntity
  8
DIM
100
AcDbLine
 10
45.4370387838
 20
9.8430845258
 30
0.0
 11
40.3911237785
 21
9.8430845258
 31
0.0
  0
LINE
  5
17A
330
172
100
AcDbEntity
  8
DIM
100
AcDbLine
 10
40.4304938573
 20
48.7730845258
 30
0.0
 11
40.4304938573
 21
30.7735318302
 31
0.0
  0
LINE
  5
17B
330
172
100
AcDbEntity
  8
DIM
100
AcDbLine
 10
40.4304938573
 20
9.8430845258
 30
0.0
 11
40.4304938573
 21
27.5408929872
 31
0.0
  0
MTEXT
  5
17C
330
172
100
AcDbEntity
  8
DIM
100
AcDbMText
 10
36.8940355907
 20
29.8735818022
 30
10.5963031952
 40
1.25
 41
0.0
 71
     1
 72
     1
  1
38
  7
SLDTEXTSTYLE0
 73
     1
 44
1.0
  0
MTEXT
  5
17D
330
172
100
AcDbEntity
  8
DIM
100
AcDbMText
 10
38.7412577448
 20
30.7685469368
 30
10.5963031952
 40
1.25
 41
0.0
 71
     1
 72
     1
  1
15
  7
SLDTEXTSTYLE0
 73
     1
 44
1.0
  0
MTEXT
  5
17E
330
172
100
AcDbEntity
  8
DIM
100
AcDbMText
 10
40.5884798989
 20
29.1522275153
 30
10.5963031952
 40
1.25
 41
0.0
 71
     1
 72
     1
  1
16
  7
SLDTEXTSTYLE0
 73
     1
 44
1.0
  0
MTEXT
  5
17F
330
172
100
AcDbEntity
  8
DIM
100
AcDbMText
 10
42.4357023463
 20
29.8735818022
 30
10.5963031952
 40
1.25
 41
0.0
 71
     1
 72
     1
  1
"
  7
SLDTEXTSTYLE0
 73
     1
 44
1.0
  0
ENDBLK
  5
174
330
172
100
AcDbEntity
  8
0
100
AcDbBlockEnd
  0
BLOCK
  5
182
330
181
100
AcDbEntity
  8
0
100
AcDbBlockBegin
  2
_D_2
 70
     0
 10
0.0
 20
0.0
 30
0.0
  3
_D_2
  1

  0
SOLID
  5
184
330
181
100
AcDbEntity
  8
DIM
100
AcDbTrace
 10
52.8734088625
 20
5.8720825573
 30
0.0
 11
53.8734088625
 21
5.6220825573
 31
0.0
 12
53.8734088625
 22
6.1220825573
 32
0.0
 13
53.8734088625
 23
6.1220825573
 33
0.0
  0
SOLID
  5
185
330
181
100
AcDbEntity
  8
DIM
100
AcDbTrace
 10
98.7414088625
 20
5.8720825573
 30
0.0
 11
97.7414088625
 21
6.1220825573
 31
0.0
 12
97.7414088625
 22
5.6220825573
 32
0.0
 13
97.7414088625
 23
5.6220825573
 33
0.0
  0
LINE
  5
186
330
181
100
AcDbEntity
  8
DIM
100
AcDbLine
 10
76.7153950747
 20
7.1220825239
 30
0.0
 11
75.2153950268
 21
4.6220824441
 31
0.0
  0
LINE
  5
187
330
181
100
AcDbEntity
  8
DIM
100
AcDbLine
 10
52.8734088625
 20
8.9817144471
 30
0.0
 11
52.8734088625
 21
5.8327124786
 31
0.0
  0
LINE
  5
188
330
181
100
AcDbEntity
  8
DIM
100
AcDbLine
 10
98.7414088625
 20
8.9817144471
 30
0.0
 11
98.7414088625
 21
5.8327124786
 31
0.0
  0
LINE
  5
189
330
181
100
AcDbEntity
  8
DIM
100
AcDbLine
 10
52.8734088625
 20
5.8720825573
 30
0.0
 11
73.1945618197
 21
5.8720825573
 31
0.0
  0
LINE
  5
18A
330
181
100
AcDbEntity
  8
DIM
100
AcDbLine
 10
98.7414088625
 20
5.8720825573
 30
0.0
 11
78.4202559054
 21
5.8720825573
 31
0.0
  0
MTEXT
  5
18B
330
181
100
AcDbEntity
  8
DIM
100
AcDbMText
 10
73.1945618197
 20
6.5884519508
 30
10.5963031952
 40
1.25
 41
0.0
 71
     1
 72
     1
  1
45
  7
SLDTEXTSTYLE0
 73
     1
 44
1.0
  0
MTEXT
  5
18C
330
181
100
AcDbEntity
  8
DIM
100
AcDbMText
 10
75.0417839737
 20
7.4834170854
 30
10.5963031952
 40
1.25
 41
0.0
 71
     1
 72
     1
  1
7
  7
SLDTEXTSTYLE0
 73
     1
 44
1.0
  0
MTEXT
  5
18D
330
181
100
AcDbEntity
  8
DIM
100
AcDbMText
 10
75.9653950508
 20
5.8670976639
 30
10.5963031952
 40
1.25
 41
0.0
 71
     1
 72
     1
  1
8
  7
SLDTEXTSTYLE0
 73
     1
 44
1.0
  0
MTEXT
  5
18E
330
181
100
AcDbEntity
  8
DIM
100
AcDbMText
 10
76.8890061278
 20
6.5884519508
 30
10.5963031952
 40
1.25
 41
0.0
 71
     1
 72
     1
  1
"
  7
SLDTEXTSTYLE0
 73
     1
 44
1.0
  0
ENDBLK
  5
183
330
181
100
AcDbEntity
  8
0
100
AcDbBlockEnd
  0
BLOCK
  5
191
330
190
100
AcDbEntity
  8
0
100
AcDbBlockBegin
  2
_D_3
 70
     0
 10
0.0
 20
0.0
 30
0.0
  3
_D_3
  1

  0
SOLID
  5
193
330
190
100
AcDbEntity
  8
DIM
100
AcDbTrace
 10
106.3074088625
 20
2.3720825573
 30
0.0
 11
105.3074088625
 21
2.6220825573
 31
0.0
 12
105.3074088625
 22
2.1220825573
 32
0.0
 13
105.3074088625
 23
2.1220825573
 33
0.0
  0
SOLID
  5
194
330
190
100
AcDbEntity
  8
DIM
100
AcDbTrace
 10
45.3074088625
 20
2.3720825573
 30
0.0
 11
46.3074088625
 21
2.1220825573
 31
0.0
 12
46.3074088625
 22
2.6220825573
 32
0.0
 13
46.3074088625
 23
2.6220825573
 33
0.0
  0
LINE
  5
195
330
190
100
AcDbEntity
  8
DIM
100
AcDbLine
 10
106.3074088625
 20
8.8617144471
 30
0.0
 11
106.3074088625
 21
2.3327124786
 31
0.0
  0
LINE
  5
196
330
190
100
AcDbEntity
  8
DIM
100
AcDbLine
 10
45.3074088625
 20
8.8617144471
 30
0.0
 11
45.3074088625
 21
2.3327124786
 31
0.0
  0
LINE
  5
197
330
190
100
AcDbEntity
  8
DIM
100
AcDbLine
 10
106.3074088625
 20
2.3720825573
 30
0.0
 11
77.496644975
 21
2.3720825573
 31
0.0
  0
LINE
  5
198
330
190
100
AcDbEntity
  8
DIM
100
AcDbLine
 10
45.3074088625
 20
2.3720825573
 30
0.0
 11
74.1181727501
 21
2.3720825573
 31
0.0
  0
MTEXT
  5
199
330
190
100
AcDbEntity
  8
DIM
100
AcDbMText
 10
74.1181727501
 20
2.9912297939
 30
10.5963031952
 40
1.25
 41
0.0
 71
     1
 72
     1
  1
61"
  7
SLDTEXTSTYLE0
 73
     1
 44
1.0
  0
ENDBLK
  5
192
330
190
100
AcDbEntity
  8
0
100
AcDbBlockEnd
  0
BLOCK
  5
19C
330
19B
100
AcDbEntity
  8
0
100
AcDbBlockBegin
  2
_D_4
 70
     0
 10
0.0
 20
0.0
 30
0.0
  3
_D_4
  1

  0
SOLID
  5
19E
330
19B
100
AcDbEntity
  8
DIM
100
AcDbTrace
 10
55.2632551609
 20
17.0341877212
 30
0.0
 11
56.2632551609
 21
16.7841877212
 31
0.0
 12
56.2632551609
 22
17.2841877212
 32
0.0
 13
56.2632551609
 23
17.2841877212
 33
0.0
  0
SOLID
  5
19F
330
19B
100
AcDbEntity
  8
DIM
100
AcDbTrace
 10
96.3515625641
 20
17.0341877212
 30
0.0
 11
95.3515625641
 21
17.2841877212
 31
0.0
 12
95.3515625641
 22
16.7841877212
 32
0.0
 13
95.3515625641
 23
16.7841877212
 33
0.0
  0
LINE
  5
1A0
330
19B
100
AcDbEntity
  8
DIM
100
AcDbLine
 10
76.2535893162
 20
18.2841876878
 30
0.0
 11
74.7535892683
 21
15.784187608
 31
0.0
  0
LINE
  5
1A1
330
19B
100
AcDbEntity
  8
DIM
100
AcDbLine
 10
55.2632551609
 20
17.0341877212
 30
0.0
 11
72.7327560612
 21
17.0341877212
 31
0.0
  0
LINE
  5
1A2
330
19B
100
AcDbEntity
  8
DIM
100
AcDbLine
 10
96.3515625641
 20
17.0341877212
 30
0.0
 11
78.8820616639
 21
17.0341877212
 31
0.0
  0
MTEXT
  5
1A3
330
19B
100
AcDbEntity
  8
DIM
100
AcDbMText
 10
72.7327560612
 20
17.7505571146
 30
10.5963031952
 40
1.25
 41
0.0
 71
     1
 72
     1
  1
41
  7
SLDTEXTSTYLE0
 73
     1
 44
1.0
  0
MTEXT
  5
1A4
330
19B
100
AcDbEntity
  8
DIM
100
AcDbMText
 10
74.5799782152
 20
18.6455222493
 30
10.5963031952
 40
1.25
 41
0.0
 71
     1
 72
     1
  1
1
  7
SLDTEXTSTYLE0
 73
     1
 44
1.0
  0
MTEXT
  5
1A5
330
19B
100
AcDbEntity
  8
DIM
100
AcDbMText
 10
75.5035892923
 20
17.0292028278
 30
10.5963031952
 40
1.25
 41
0.0
 71
     1
 72
     1
  1
16
  7
SLDTEXTSTYLE0
 73
     1
 44
1.0
  0
MTEXT
  5
1A6
330
19B
100
AcDbEntity
  8
DIM
100
AcDbMText
 10
77.350811593
 20
17.7505571146
 30
10.5963031952
 40
1.25
 41
0.0
 71
     1
 72
     1
  1
"
  7
SLDTEXTSTYLE0
 73
     1
 44
1.0
  0
ENDBLK
  5
19D
330
19B
100
AcDbEntity
  8
0
100
AcDbBlockEnd
  0
BLOCK
  5
1A9
330
1A8
100
AcDbEntity
  8
0
100
AcDbBlockBegin
  2
_D_5
 70
     0
 10
0.0
 20
0.0
 30
0.0
  3
_D_5
  1

  0
SOLID
  5
1AB
330
1A8
100
AcDbEntity
  8
DIM
100
AcDbTrace
 10
89.989221623
 20
48.7440845258
 30
0.0
 11
89.739221623
 21
47.7440845258
 31
0.0
 12
90.239221623
 22
47.7440845258
 32
0.0
 13
90.239221623
 23
47.7440845258
 33
0.0
  0
SOLID
  5
1AC
330
1A8
100
AcDbEntity
  8
DIM
100
AcDbTrace
 10
89.989221623
 20
11.8460845258
 30
0.0
 11
90.239221623
 21
12.8460845258
 31
0.0
 12
89.739221623
 22
12.8460845258
 32
0.0
 13
89.739221623
 23
12.8460845258
 33
0.0
  0
LINE
  5
1AD
330
1A8
100
AcDbEntity
  8
DIM
100
AcDbLine
 10
90.8972078352
 20
31.5450844924
 30
0.0
 11
89.3972077873
 21
29.0450844126
 31
0.0
  0
LINE
  5
1AE
330
1A8
100
AcDbEntity
  8
DIM
100
AcDbLine
 10
89.989221623
 20
48.7440845258
 30
0.0
 11
89.989221623
 21
31.9114039473
 31
0.0
  0
LINE
  5
1AF
330
1A8
100
AcDbEntity
  8
DIM
100
AcDbLine
 10
89.989221623
 20
11.8460845258
 30
0.0
 11
89.989221623
 21
28.6787651044
 31
0.0
  0
MTEXT
  5
1B0
330
1A8
100
AcDbEntity
  8
DIM
100
AcDbMText
 10
87.3763745802
 20
31.0114539193
 30
10.5963031952
 40
1.25
 41
0.0
 71
     1
 72
     1
  1
36
  7
SLDTEXTSTYLE0
 73
     1
 44
1.0
  0
MTEXT
  5
1B1
330
1A8
100
AcDbEntity
  8
DIM
100
AcDbMText
 10
89.2235967342
 20
31.9064190539
 30
10.5963031952
 40
1.25
 41
0.0
 71
     1
 72
     1
  1
7
  7
SLDTEXTSTYLE0
 73
     1
 44
1.0
  0
MTEXT
  5
1B2
330
1A8
100
AcDbEntity
  8
DIM
100
AcDbMText
 10
90.1472078113
 20
30.2900996324
 30
10.5963031952
 40
1.25
 41
0.0
 71
     1
 72
     1
  1
8
  7
SLDTEXTSTYLE0
 73
     1
 44
1.0
  0
MTEXT
  5
1B3
330
1A8
100
AcDbEntity
  8
DIM
100
AcDbMText
 10
91.0708188883
 20
31.0114539193
 30
10.5963031952
 40
1.25
 41
0.0
 71
     1
 72
     1
  1
"
  7
SLDTEXTSTYLE0
 73
     1
 44
1.0
  0
ENDBLK
  5
1AA
330
1A8
100
AcDbEntity
  8
0
100
AcDbBlockEnd
  0
BLOCK
  5
252
330
251
100
AcDbEntity
  8
0
100
AcDbBlockBegin
  2
_D_6
 70
     0
 10
0.0
 20
0.0
 30
0.0
  3
_D_6
  1

  0
SOLID
  5
254
330
251
100
AcDbEntity
  8
DIM
100
AcDbTrace
 10
145.9540809228
 20
5.8720825573
 30
0.0
 11
144.9540809228
 21
6.1220825573
 31
0.0
 12
144.9540809228
 22
5.6220825573
 32
0.0
 13
144.9540809228
 23
5.6220825573
 33
0.0
  0
SOLID
  5
255
330
251
100
AcDbEntity
  8
DIM
100
AcDbTrace
 10
123.9780809228
 20
5.8720825573
 30
0.0
 11
124.9780809228
 21
5.6220825573
 31
0.0
 12
124.9780809228
 22
6.1220825573
 32
0.0
 13
124.9780809228
 23
6.1220825573
 33
0.0
  0
LINE
  5
256
330
251
100
AcDbEntity
  8
DIM
100
AcDbLine
 10
145.9540809228
 20
8.8617144471
 30
0.0
 11
145.9540809228
 21
5.8327124786
 31
0.0
  0
LINE
  5
257
330
251
100
AcDbEntity
  8
DIM
100
AcDbLine
 10
123.9780809228
 20
8.8617144471
 30
0.0
 11
123.9780809228
 21
5.8327124786
 31
0.0
  0
LINE
  5
258
330
251
100
AcDbEntity
  8
DIM
100
AcDbLine
 10
145.9540809228
 20
5.8720825573
 30
0.0
 11
135.8041105939
 21
5.8720825573
 31
0.0
  0
LINE
  5
259
330
251
100
AcDbEntity
  8
DIM
100
AcDbLine
 10
123.9780809228
 20
5.8720825573
 30
0.0
 11
132.4256383689
 21
5.8720825573
 31
0.0
  0
MTEXT
  5
25A
330
251
100
AcDbEntity
  8
DIM
100
AcDbMText
 10
132.4256383689
 20
6.4912297939
 30
0.0039370079
 40
1.25
 41
0.0
 71
     1
 72
     1
  1
22"
  7
SLDTEXTSTYLE0
 73
     1
 44
1.0
  0
ENDBLK
  5
253
330
251
100
AcDbEntity
  8
0
100
AcDbBlockEnd
  0
BLOCK
  5
25E
330
25D
100
AcDbEntity
  8
0
100
AcDbBlockBegin
  2
_D_7
 70
     0
 10
0.0
 20
0.0
 30
0.0
  3
_D_7
  1

  0
SOLID
  5
260
330
25D
100
AcDbEntity
  8
DIM
100
AcDbTrace
 10
123.9780809228
 20
5.8720825573
 30
0.0
 11
124.9780809228
 21
5.6220825573
 31
0.0
 12
124.9780809228
 22
6.1220825573
 32
0.0
 13
124.9780809228
 23
6.1220825573
 33
0.0
  0
SOLID
  5
261
330
25D
100
AcDbEntity
  8
DIM
100
AcDbTrace
 10
123.4780809228
 20
5.8720825573
 30
0.0
 11
122.4780809228
 21
6.1220825573
 31
0.0
 12
122.4780809228
 22
5.6220825573
 32
0.0
 13
122.4780809228
 23
5.6220825573
 33
0.0
  0
LINE
  5
262
330
25D
100
AcDbEntity
  8
DIM
100
AcDbLine
 10
120.1631882859
 20
7.1220825239
 30
0.0
 11
118.6631882381
 21
4.6220824441
 31
0.0
  0
LINE
  5
263
330
25D
100
AcDbEntity
  8
DIM
100
AcDbLine
 10
123.9780809228
 20
8.8617144471
 30
0.0
 11
123.9780809228
 21
5.8327124786
 31
0.0
  0
LINE
  5
264
330
25D
100
AcDbEntity
  8
DIM
100
AcDbLine
 10
123.4780809228
 20
9.9577144471
 30
0.0
 11
123.4780809228
 21
5.8327124786
 31
0.0
  0
LINE
  5
265
330
25D
100
AcDbEntity
  8
DIM
100
AcDbLine
 10
123.9780809228
 20
5.8720825573
 30
0.0
 11
125.4780809228
 21
5.8720825573
 31
0.0
  0
LINE
  5
266
330
25D
100
AcDbEntity
  8
DIM
100
AcDbLine
 10
123.4780809228
 20
5.8720825573
 30
0.0
 11
121.8680494099
 21
5.8720825573
 31
0.0
  0
MTEXT
  5
267
330
25D
100
AcDbEntity
  8
DIM
100
AcDbMText
 10
118.489577185
 20
7.4834170854
 30
0.0039370079
 40
1.25
 41
0.0
 71
     1
 72
     1
  1
1
  7
SLDTEXTSTYLE0
 73
     1
 44
1.0
  0
MTEXT
  5
268
330
25D
100
AcDbEntity
  8
DIM
100
AcDbMText
 10
119.413188262
 20
5.8670976639
 30
0.0039370079
 40
1.25
 41
0.0
 71
     1
 72
     1
  1
2
  7
SLDTEXTSTYLE0
 73
     1
 44
1.0
  0
MTEXT
  5
269
330
25D
100
AcDbEntity
  8
DIM
100
AcDbMText
 10
120.336799339
 20
6.5884519508
 30
0.0039370079
 40
1.25
 41
0.0
 71
     1
 72
     1
  1
"
  7
SLDTEXTSTYLE0
 73
     1
 44
1.0
  0
ENDBLK
  5
25F
330
25D
100
AcDbEntity
  8
0
100
AcDbBlockEnd
  0
BLOCK
  5
26C
330
26B
100
AcDbEntity
  8
0
100
AcDbBlockBegin
  2
_D_8
 70
     0
 10
0.0
 20
0.0
 30
0.0
  3
_D_8
  1

  0
SOLID
  5
26E
330
26B
100
AcDbEntity
  8
DIM
100
AcDbTrace
 10
120.1788132974
 20
8.8720845258
 30
0.0
 11
120.4288132974
 21
9.8720845258
 31
0.0
 12
119.9288132974
 22
9.8720845258
 32
0.0
 13
119.9288132974
 23
9.8720845258
 33
0.0
  0
SOLID
  5
26F
330
26B
100
AcDbEntity
  8
DIM
100
AcDbTrace
 10
120.1788132974
 20
54.1720845258
 30
0.0
 11
119.9288132974
 21
53.1720845258
 31
0.0
 12
120.4288132974
 22
53.1720845258
 32
0.0
 13
120.4288132974
 23
53.1720845258
 33
0.0
  0
LINE
  5
270
330
26B
100
AcDbEntity
  8
DIM
100
AcDbLine
 10
120.6249937511
 20
33.5997895084
 30
0.0
 11
119.1249937032
 21
31.0997894286
 31
0.0
  0
LINE
  5
271
330
26B
100
AcDbEntity
  8
DIM
100
AcDbLine
 10
123.9677108441
 20
8.8720845258
 30
0.0
 11
120.1394432187
 21
8.8720845258
 31
0.0
  0
LINE
  5
272
330
26B
100
AcDbEntity
  8
DIM
100
AcDbLine
 10
123.9677108441
 20
54.1720845258
 30
0.0
 11
120.1394432187
 21
54.1720845258
 31
0.0
  0
LINE
  5
273
330
26B
100
AcDbEntity
  8
DIM
100
AcDbLine
 10
120.1788132974
 20
8.8720845258
 30
0.0
 11
120.1788132974
 21
30.7334701204
 31
0.0
  0
LINE
  5
274
330
26B
100
AcDbEntity
  8
DIM
100
AcDbLine
 10
120.1788132974
 20
54.1720845258
 30
0.0
 11
120.1788132974
 21
33.9661089633
 31
0.0
  0
MTEXT
  5
275
330
26B
100
AcDbEntity
  8
DIM
100
AcDbMText
 10
117.1041604961
 20
33.0661589353
 30
0.0039370079
 40
1.25
 41
0.0
 71
     1
 72
     1
  1
45
  7
SLDTEXTSTYLE0
 73
     1
 44
1.0
  0
MTEXT
  5
276
330
26B
100
AcDbEntity
  8
DIM
100
AcDbMText
 10
118.9513826502
 20
33.9611240699
 30
0.0039370079
 40
1.25
 41
0.0
 71
     1
 72
     1
  1
5
  7
SLDTEXTSTYLE0
 73
     1
 44
1.0
  0
MTEXT
  5
277
330
26B
100
AcDbEntity
  8
DIM
100
AcDbMText
 10
119.8749937272
 20
32.3448046484
 30
0.0039370079
 40
1.25
 41
0.0
 71
     1
 72
     1
  1
16
  7
SLDTEXTSTYLE0
 73
     1
 44
1.0
  0
MTEXT
  5
278
330
26B
100
AcDbEntity
  8
DIM
100
AcDbMText
 10
121.7222160279
 20
33.0661589353
 30
0.0039370079
 40
1.25
 41
0.0
 71
     1
 72
     1
  1
"
  7
SLDTEXTSTYLE0
 73
     1
 44
1.0
  0
ENDBLK
  5
26D
330
26B
100
AcDbEntity
  8
0
100
AcDbBlockEnd
  0
BLOCK
  5
27B
330
27A
100
AcDbEntity
  8
0
100
AcDbBlockBegin
  2
_D_9
 70
     0
 10
0.0
 20
0.0
 30
0.0
  3
_D_9
  1

  0
SOLID
  5
27D
330
27A
100
AcDbEntity
  8
DIM
100
AcDbTrace
 10
134.1841895576
 20
66.1700845258
 30
0.0
 11
133.9341895576
 21
65.1700845258
 31
0.0
 12
134.4341895576
 22
65.1700845258
 32
0.0
 13
134.4341895576
 23
65.1700845258
 33
0.0
  0
SOLID
  5
27E
330
27A
100
AcDbEntity
  8
DIM
100
AcDbTrace
 10
134.1841895576
 20
54.1720845258
 30
0.0
 11
134.4341895576
 21
55.1720845258
 31
0.0
 12
133.9341895576
 22
55.1720845258
 32
0.0
 13
133.9341895576
 23
55.1720845258
 33
0.0
  0
LINE
  5
27F
330
27A
100
AcDbEntity
  8
DIM
100
AcDbLine
 10
129.5174510016
 20
66.1700845258
 30
0.0
 11
134.2235596363
 21
66.1700845258
 31
0.0
  0
LINE
  5
280
330
27A
100
AcDbEntity
  8
DIM
100
AcDbLine
 10
134.1841895576
 20
66.1700845258
 30
0.0
 11
134.1841895576
 21
60.8863332606
 31
0.0
  0
LINE
  5
281
330
27A
100
AcDbEntity
  8
DIM
100
AcDbLine
 10
134.1841895576
 20
54.1720845258
 30
0.0
 11
134.1841895576
 21
58.9019582376
 31
0.0
  0
MTEXT
  5
282
330
27A
100
AcDbEntity
  8
DIM
100
AcDbMText
 10
132.4949534451
 20
60.5132929857
 30
0.0039370079
 40
1.25
 41
0.0
 71
     1
 72
     1
  1
12"
  7
SLDTEXTSTYLE0
 73
     1
 44
1.0
  0
ENDBLK
  5
27C
330
27A
100
AcDbEntity
  8
0
100
AcDbBlockEnd
  0
BLOCK
  5
327
330
326
100
AcDbEntity
  8
0
100
AcDbBlockBegin
  2
_D_10
 70
     0
 10
0.0
 20
0.0
 30
0.0
  3
_D_10
  1

  0
SOLID
  5
329
330
326
100
AcDbEntity
  8
DIM
100
AcDbTrace
 10
26.4996726213
 20
5.8720825573
 30
0.0
 11
25.4996726213
 21
6.1220825573
 31
0.0
 12
25.4996726213
 22
5.6220825573
 32
0.0
 13
25.4996726213
 23
5.6220825573
 33
0.0
  0
SOLID
  5
32A
330
326
100
AcDbEntity
  8
DIM
100
AcDbTrace
 10
18.9756726213
 20
5.8720825573
 30
0.0
 11
19.9756726213
 21
5.6220825573
 31
0.0
 12
19.9756726213
 22
6.1220825573
 32
0.0
 13
19.9756726213
 23
6.1220825573
 33
0.0
  0
LINE
  5
32B
330
326
100
AcDbEntity
  8
DIM
100
AcDbLine
 10
23.183853075
 20
7.1220825239
 30
0.0
 11
21.6838530271
 21
4.6220824441
 31
0.0
  0
LINE
  5
32C
330
326
100
AcDbEntity
  8
DIM
100
AcDbLine
 10
26.4996726213
 20
9.9577144471
 30
0.0
 11
26.4996726213
 21
5.8327124786
 31
0.0
  0
LINE
  5
32D
330
326
100
AcDbEntity
  8
DIM
100
AcDbLine
 10
18.9756726213
 20
11.2686487858
 30
0.0
 11
18.9756726213
 21
5.8327124786
 31
0.0
  0
LINE
  5
32E
330
326
100
AcDbEntity
  8
DIM
100
AcDbLine
 10
26.4996726213
 20
5.8720825573
 30
0.0
 11
24.8887143456
 21
5.8720825573
 31
0.0
  0
LINE
  5
32F
330
326
100
AcDbEntity
  8
DIM
100
AcDbLine
 10
18.9756726213
 20
5.8720825573
 30
0.0
 11
20.586630897
 21
5.8720825573
 31
0.0
  0
MTEXT
  5
330
330
326
100
AcDbEntity
  8
DIM
100
AcDbMText
 10
20.586630897
 20
6.5884519508
 30
0.0039370079
 40
1.25
 41
0.0
 71
     1
 72
     1
  1
7
  7
SLDTEXTSTYLE0
 73
     1
 44
1.0
  0
MTEXT
  5
331
330
326
100
AcDbEntity
  8
DIM
100
AcDbMText
 10
21.510241974
 20
7.4834170854
 30
0.0039370079
 40
1.25
 41
0.0
 71
     1
 72
     1
  1
1
  7
SLDTEXTSTYLE0
 73
     1
 44
1.0
  0
MTEXT
  5
332
330
326
100
AcDbEntity
  8
DIM
100
AcDbMText
 10
22.4338530511
 20
5.8670976639
 30
0.0039370079
 40
1.25
 41
0.0
 71
     1
 72
     1
  1
2
  7
SLDTEXTSTYLE0
 73
     1
 44
1.0
  0
MTEXT
  5
333
330
326
100
AcDbEntity
  8
DIM
100
AcDbMText
 10
23.3574642748
 20
6.5884519508
 30
0.0039370079
 40
1.25
 41
0.0
 71
     1
 72
     1
  1
"
  7
SLDTEXTSTYLE0
 73
     1
 44
1.0
  0
ENDBLK
  5
328
330
326
100
AcDbEntity
  8
0
100
AcDbBlockEnd
  0
BLOCK
  5
336
330
335
100
AcDbEntity
  8
0
100
AcDbBlockBegin
  2
_D_11
 70
     0
 10
0.0
 20
0.0
 30
0.0
  3
_D_11
  1

  0
SOLID
  5
338
330
335
100
AcDbEntity
  8
DIM
100
AcDbTrace
 10
15.0370520177
 20
8.8720845258
 30
0.0
 11
14.7870520177
 21
7.8720845258
 31
0.0
 12
15.2870520177
 22
7.8720845258
 32
0.0
 13
15.2870520177
 23
7.8720845258
 33
0.0
  0
SOLID
  5
339
330
335
100
AcDbEntity
  8
DIM
100
AcDbTrace
 10
15.0370520177
 20
12.1460845258
 30
0.0
 11
15.2870520177
 21
13.1460845258
 31
0.0
 12
14.7870520177
 22
13.1460845258
 32
0.0
 13
14.7870520177
 23
13.1460845258
 33
0.0
  0
LINE
  5
33A
330
335
100
AcDbEntity
  8
DIM
100
AcDbLine
 10
12.2353601935
 20
7.1220825239
 30
0.0
 11
10.7353601456
 21
4.6220824441
 31
0.0
  0
LINE
  5
33B
330
335
100
AcDbEntity
  8
DIM
100
AcDbLine
 10
18.0982368813
 20
12.1460845258
 30
0.0
 11
14.997681939
 21
12.1460845258
 31
0.0
  0
LINE
  5
33C
330
335
100
AcDbEntity
  8
DIM
100
AcDbLine
 10
13.9402214641
 20
5.8720825573
 30
0.0
 11
15.0370520177
 21
5.8720825573
 31
0.0
  0
LINE
  5
33D
330
335
100
AcDbEntity
  8
DIM
100
AcDbLine
 10
15.0370520177
 20
5.8720825573
 30
0.0
 11
15.0370520177
 21
8.8720845258
 31
0.0
  0
LINE
  5
33E
330
335
100
AcDbEntity
  8
DIM
100
AcDbLine
 10
15.0370520177
 20
12.1460845258
 30
0.0
 11
15.0370520177
 21
13.6460845258
 31
0.0
  0
MTEXT
  5
33F
330
335
100
AcDbEntity
  8
DIM
100
AcDbMText
 10
9.6381380155
 20
6.5884519508
 30
0.0039370079
 40
1.25
 41
0.0
 71
     1
 72
     1
  1
3
  7
SLDTEXTSTYLE0
 73
     1
 44
1.0
  0
MTEXT
  5
340
330
335
100
AcDbEntity
  8
DIM
100
AcDbMText
 10
10.5617490925
 20
7.4834170854
 30
0.0039370079
 40
1.25
 41
0.0
 71
     1
 72
     1
  1
1
  7
SLDTEXTSTYLE0
 73
     1
 44
1.0
  0
MTEXT
  5
341
330
335
100
AcDbEntity
  8
DIM
100
AcDbMText
 10
11.4853601696
 20
5.8670976639
 30
0.0039370079
 40
1.25
 41
0.0
 71
     1
 72
     1
  1
4
  7
SLDTEXTSTYLE0
 73
     1
 44
1.0
  0
MTEXT
  5
342
330
335
100
AcDbEntity
  8
DIM
100
AcDbMText
 10
12.4089713933
 20
6.5884519508
 30
0.0039370079
 40
1.25
 41
0.0
 71
     1
 72
     1
  1
"
  7
SLDTEXTSTYLE0
 73
     1
 44
1.0
  0
ENDBLK
  5
337
330
335
100
AcDbEntity
  8
0
100
AcDbBlockEnd
  0
BLOCK
  5
40D
330
40C
100
AcDbEntity
  8
0
100
AcDbBlockBegin
  2
_D_12
 70
     0
 10
0.0
 20
0.0
 30
0.0
  3
_D_12
  1

  0
SOLID
  5
40F
330
40C
100
AcDbEntity
  8
DIM
100
AcDbTrace
 10
45.3074088625
 20
107.2871673967
 30
0.0
 11
46.3074088625
 21
107.0371673967
 31
0.0
 12
46.3074088625
 22
107.5371673967
 32
0.0
 13
46.3074088625
 23
107.5371673967
 33
0.0
  0
SOLID
  5
410
330
40C
100
AcDbEntity
  8
DIM
100
AcDbTrace
 10
75.8074088625
 20
107.2871673968
 30
0.0
 11
74.8074088625
 21
107.5371673968
 31
0.0
 12
74.8074088625
 22
107.0371673968
 32
0.0
 13
74.8074088625
 23
107.0371673968
 33
0.0
  0
LINE
  5
411
330
40C
100
AcDbEntity
  8
DIM
100
AcDbLine
 10
61.4653950747
 20
108.5371673633
 30
0.0
 11
59.9653950268
 21
106.0371672835
 31
0.0
  0
LINE
  5
412
330
40C
100
AcDbEntity
  8
DIM
100
AcDbLine
 10
45.3074088625
 20
104.2954664077
 30
0.0
 11
45.3074088625
 21
107.3265374755
 31
0.0
  0
LINE
  5
413
330
40C
100
AcDbEntity
  8
DIM
100
AcDbLine
 10
75.8074088625
 20
100.1033360774
 30
0.0
 11
75.8074088625
 21
107.3265374755
 31
0.0
  0
LINE
  5
414
330
40C
100
AcDbEntity
  8
DIM
100
AcDbLine
 10
45.3074088625
 20
107.2871673967
 30
0.0
 11
57.9445618197
 21
107.2871673968
 31
0.0
  0
LINE
  5
415
330
40C
100
AcDbEntity
  8
DIM
100
AcDbLine
 10
75.8074088625
 20
107.2871673968
 30
0.0
 11
63.1702559053
 21
107.2871673968
 31
0.0
  0
MTEXT
  5
416
330
40C
100
AcDbEntity
  8
DIM
100
AcDbMText
 10
57.9445618197
 20
108.0035367902
 30
-28.6450620079
 40
1.25
 41
0.0
 71
     1
 72
     1
  1
30
  7
SLDTEXTSTYLE0
 73
     1
 44
1.0
  0
MTEXT
  5
417
330
40C
100
AcDbEntity
  8
DIM
100
AcDbMText
 10
59.7917839737
 20
108.8985019248
 30
-28.6450620079
 40
1.25
 41
0.0
 71
     1
 72
     1
  1
1
  7
SLDTEXTSTYLE0
 73
     1
 44
1.0
  0
MTEXT
  5
418
330
40C
100
AcDbEntity
  8
DIM
100
AcDbMText
 10
60.7153950508
 20
107.2821825033
 30
-28.6450620079
 40
1.25
 41
0.0
 71
     1
 72
     1
  1
2
  7
SLDTEXTSTYLE0
 73
     1
 44
1.0
  0
MTEXT
  5
419
330
40C
100
AcDbEntity
  8
DIM
100
AcDbMText
 10
61.6390061278
 20
108.0035367902
 30
-28.6450620079
 40
1.25
 41
0.0
 71
     1
 72
     1
  1
"
  7
SLDTEXTSTYLE0
 73
     1
 44
1.0
  0
ENDBLK
  5
40E
330
40C
100
AcDbEntity
  8
0
100
AcDbBlockEnd
  0
BLOCK
  5
41C
330
41B
100
AcDbEntity
  8
0
100
AcDbBlockBegin
  2
_D_13
 70
     0
 10
0.0
 20
0.0
 30
0.0
  3
_D_13
  1

  0
SOLID
  5
41E
330
41B
100
AcDbEntity
  8
DIM
100
AcDbTrace
 10
111.3074088625
 20
104.2871673968
 30
0.0
 11
111.0574088625
 21
103.2871673968
 31
0.0
 12
111.5574088625
 22
103.2871673968
 32
0.0
 13
111.5574088625
 23
103.2871673968
 33
0.0
  0
SOLID
  5
41F
330
41B
100
AcDbEntity
  8
DIM
100
AcDbTrace
 10
111.3074088625
 20
97.5491673967
 30
0.0
 11
111.5574088625
 21
98.5491673967
 31
0.0
 12
111.0574088625
 22
98.5491673967
 32
0.0
 13
111.0574088625
 23
98.5491673967
 33
0.0
  0
LINE
  5
420
330
41B
100
AcDbEntity
  8
DIM
100
AcDbLine
 10
111.7535893162
 20
102.0427300019
 30
0.0
 11
110.2535892683
 21
99.5427299221
 31
0.0
  0
LINE
  5
421
330
41B
100
AcDbEntity
  8
DIM
100
AcDbLine
 10
106.3157078735
 20
104.2871673968
 30
0.0
 11
111.3467789413
 21
104.2871673968
 31
0.0
  0
LINE
  5
422
330
41B
100
AcDbEntity
  8
DIM
100
AcDbLine
 10
78.3615775432
 20
97.5491673967
 30
0.0
 11
111.3467789413
 21
97.5491673967
 31
0.0
  0
LINE
  5
423
330
41B
100
AcDbEntity
  8
DIM
100
AcDbLine
 10
111.3074088625
 20
104.2871673968
 30
0.0
 11
111.3074088625
 21
102.4090494568
 31
0.0
  0
LINE
  5
424
330
41B
100
AcDbEntity
  8
DIM
100
AcDbLine
 10
111.3074088625
 20
97.5491673967
 30
0.0
 11
111.3074088625
 21
99.1764106139
 31
0.0
  0
MTEXT
  5
425
330
41B
100
AcDbEntity
  8
DIM
100
AcDbMText
 10
109.1563671382
 20
101.5090994288
 30
-28.6450620079
 40
1.25
 41
0.0
 71
     1
 72
     1
  1
6
  7
SLDTEXTSTYLE0
 73
     1
 44
1.0
  0
MTEXT
  5
426
330
41B
100
AcDbEntity
  8
DIM
100
AcDbMText
 10
110.0799782152
 20
102.4040645634
 30
-28.6450620079
 40
1.25
 41
0.0
 71
     1
 72
     1
  1
3
  7
SLDTEXTSTYLE0
 73
     1
 44
1.0
  0
MTEXT
  5
427
330
41B
100
AcDbEntity
  8
DIM
100
AcDbMText
 10
111.0035892923
 20
100.7877451419
 30
-28.6450620079
 40
1.25
 41
0.0
 71
     1
 72
     1
  1
4
  7
SLDTEXTSTYLE0
 73
     1
 44
1.0
  0
MTEXT
  5
428
330
41B
100
AcDbEntity
  8
DIM
100
AcDbMText
 10
111.927200516
 20
101.5090994288
 30
-28.6450620079
 40
1.25
 41
0.0
 71
     1
 72
     1
  1
"
  7
SLDTEXTSTYLE0
 73
     1
 44
1.0
  0
ENDBLK
  5
41D
330
41B
100
AcDbEntity
  8
0
100
AcDbBlockEnd
  0
BLOCK
  5
42B
330
42A
100
AcDbEntity
  8
0
100
AcDbBlockBegin
  2
_D_14
 70
     0
 10
0.0
 20
0.0
 30
0.0
  3
_D_14
  1

  0
SOLID
  5
42D
330
42A
100
AcDbEntity
  8
DIM
100
AcDbTrace
 10
111.3074088625
 20
82.3031673968
 30
0.0
 11
111.5574088625
 21
83.3031673968
 31
0.0
 12
111.0574088625
 22
83.3031673968
 32
0.0
 13
111.0574088625
 23
83.3031673968
 33
0.0
  0
SOLID
  5
42E
330
42A
100
AcDbEntity
  8
DIM
100
AcDbTrace
 10
111.3074088625
 20
97.5491673967
 30
0.0
 11
111.0574088625
 21
96.5491673967
 31
0.0
 12
111.5574088625
 22
96.5491673967
 32
0.0
 13
111.5574088625
 23
96.5491673967
 33
0.0
  0
LINE
  5
42F
330
42A
100
AcDbEntity
  8
DIM
100
AcDbLine
 10
112.2153950747
 20
91.1655586875
 30
0.0
 11
110.7153950268
 21
88.6655586077
 31
0.0
  0
LINE
  5
430
330
42A
100
AcDbEntity
  8
DIM
100
AcDbLine
 10
106.3177789413
 20
82.3031673968
 30
0.0
 11
111.3467789413
 21
82.3031673968
 31
0.0
  0
LINE
  5
431
330
42A
100
AcDbEntity
  8
DIM
100
AcDbLine
 10
78.3615775432
 20
97.5491673967
 30
0.0
 11
111.3467789413
 21
97.5491673967
 31
0.0
  0
LINE
  5
432
330
42A
100
AcDbEntity
  8
DIM
100
AcDbLine
 10
111.3074088625
 20
82.3031673968
 30
0.0
 11
111.3074088625
 21
88.2992392995
 31
0.0
  0
LINE
  5
433
330
42A
100
AcDbEntity
  8
DIM
100
AcDbLine
 10
111.3074088625
 20
97.5491673967
 30
0.0
 11
111.3074088625
 21
91.5318781424
 31
0.0
  0
MTEXT
  5
434
330
42A
100
AcDbEntity
  8
DIM
100
AcDbMText
 10
108.6945618197
 20
90.6319281144
 30
-28.6450620079
 40
1.25
 41
0.0
 71
     1
 72
     1
  1
15
  7
SLDTEXTSTYLE0
 73
     1
 44
1.0
  0
MTEXT
  5
435
330
42A
100
AcDbEntity
  8
DIM
100
AcDbMText
 10
110.5417839737
 20
91.526893249
 30
-28.6450620079
 40
1.25
 41
0.0
 71
     1
 72
     1
  1
1
  7
SLDTEXTSTYLE0
 73
     1
 44
1.0
  0
MTEXT
  5
436
330
42A
100
AcDbEntity
  8
DIM
100
AcDbMText
 10
111.4653950508
 20
89.9105738275
 30
-28.6450620079
 40
1.25
 41
0.0
 71
     1
 72
     1
  1
4
  7
SLDTEXTSTYLE0
 73
     1
 44
1.0
  0
MTEXT
  5
437
330
42A
100
AcDbEntity
  8
DIM
100
AcDbMText
 10
112.3890061278
 20
90.6319281144
 30
-28.6450620079
 40
1.25
 41
0.0
 71
     1
 72
     1
  1
"
  7
SLDTEXTSTYLE0
 73
     1
 44
1.0
  0
ENDBLK
  5
42C
330
42A
100
AcDbEntity
  8
0
100
AcDbBlockEnd
  0
BLOCK
  5
43A
330
439
100
AcDbEntity
  8
0
100
AcDbBlockBegin
  2
_D_15
 70
     0
 10
0.0
 20
0.0
 30
0.0
  3
_D_15
  1

  0
SOLID
  5
43C
330
439
100
AcDbEntity
  8
DIM
100
AcDbTrace
 10
116.3074088625
 20
82.3031673968
 30
0.0
 11
116.5574088625
 21
83.3031673968
 31
0.0
 12
116.0574088625
 22
83.3031673968
 32
0.0
 13
116.0574088625
 23
83.3031673968
 33
0.0
  0
SOLID
  5
43D
330
439
100
AcDbEntity
  8
DIM
100
AcDbTrace
 10
116.3074088625
 20
104.2871673968
 30
0.0
 11
116.0574088625
 21
103.2871673968
 31
0.0
 12
116.5574088625
 22
103.2871673968
 32
0.0
 13
116.5574088625
 23
103.2871673968
 33
0.0
  0
LINE
  5
43E
330
439
100
AcDbEntity
  8
DIM
100
AcDbLine
 10
106.3177789413
 20
82.3031673968
 30
0.0
 11
116.3467789413
 21
82.3031673968
 31
0.0
  0
LINE
  5
43F
330
439
100
AcDbEntity
  8
DIM
100
AcDbLine
 10
106.3157078735
 20
104.2871673968
 30
0.0
 11
116.3467789413
 21
104.2871673968
 31
0.0
  0
LINE
  5
440
330
439
100
AcDbEntity
  8
DIM
100
AcDbLine
 10
116.3074088625
 20
82.3031673968
 30
0.0
 11
116.3074088625
 21
92.9288122797
 31
0.0
  0
LINE
  5
441
330
439
100
AcDbEntity
  8
DIM
100
AcDbLine
 10
116.3074088625
 20
104.2871673968
 30
0.0
 11
116.3074088625
 21
94.9131873027
 31
0.0
  0
MTEXT
  5
442
330
439
100
AcDbEntity
  8
DIM
100
AcDbMText
 10
114.6181727501
 20
94.5401470277
 30
-28.6450620079
 40
1.25
 41
0.0
 71
     1
 72
     1
  1
22"
  7
SLDTEXTSTYLE0
 73
     1
 44
1.0
  0
ENDBLK
  5
43B
330
439
100
AcDbEntity
  8
0
100
AcDbBlockEnd
  0
BLOCK
  5
445
330
444
100
AcDbEntity
  8
0
100
AcDbBlockBegin
  2
_D_16
 70
     0
 10
0.0
 20
0.0
 30
0.0
  3
_D_16
  1

  0
SOLID
  5
447
330
444
100
AcDbEntity
  8
DIM
100
AcDbTrace
 10
45.3074088625
 20
78.5038997713
 30
0.0
 11
46.3074088625
 21
78.2538997713
 31
0.0
 12
46.3074088625
 22
78.7538997713
 32
0.0
 13
46.3074088625
 23
78.7538997713
 33
0.0
  0
SOLID
  5
448
330
444
100
AcDbEntity
  8
DIM
100
AcDbTrace
 10
106.3074088625
 20
78.5038997714
 30
0.0
 11
105.3074088625
 21
78.7538997714
 31
0.0
 12
105.3074088625
 22
78.2538997714
 32
0.0
 13
105.3074088625
 23
78.2538997714
 33
0.0
  0
LINE
  5
449
330
444
100
AcDbEntity
  8
DIM
100
AcDbLine
 10
45.3074088625
 20
82.292797318
 30
0.0
 11
45.3074088625
 21
78.4645296926
 31
0.0
  0
LINE
  5
44A
330
444
100
AcDbEntity
  8
DIM
100
AcDbLine
 10
106.3074088625
 20
82.292797318
 30
0.0
 11
106.3074088625
 21
78.4645296926
 31
0.0
  0
LINE
  5
44B
330
444
100
AcDbEntity
  8
DIM
100
AcDbLine
 10
45.3074088625
 20
78.5038997713
 30
0.0
 11
72.1331493153
 21
78.5038997713
 31
0.0
  0
LINE
  5
44C
330
444
100
AcDbEntity
  8
DIM
100
AcDbLine
 10
106.3074088625
 20
78.5038997714
 30
0.0
 11
75.5116215402
 21
78.5038997713
 31
0.0
  0
MTEXT
  5
44D
330
444
100
AcDbEntity
  8
DIM
100
AcDbMText
 10
72.1331493153
 20
79.1230470079
 30
-28.6450620079
 40
1.25
 41
0.0
 71
     1
 72
     1
  1
61"
  7
SLDTEXTSTYLE0
 73
     1
 44
1.0
  0
ENDBLK
  5
446
330
444
100
AcDbEntity
  8
0
100
AcDbBlockEnd
  0
BLOCK
  5
451
330
450
100
AcDbEntity
  8
0
100
AcDbBlockBegin
  2
_D_17
 70
     0
 10
0.0
 20
0.0
 30
0.0
  3
_D_17
  1

  0
SOLID
  5
453
330
450
100
AcDbEntity
  8
DIM
100
AcDbTrace
 10
76.3342188143
 20
99.9908765973
 30
0.0
 11
76.7894973105
 21
100.9156584585
 31
0.0
 12
76.3007436704
 22
101.0211092966
 32
0.0
 13
76.3007436704
 23
101.0211092966
 33
0.0
  0
LINE
  5
454
330
450
100
AcDbEntity
  8
DIM
100
AcDbLine
 10
76.3342188143
 20
99.9908765973
 30
0.0
 11
77.9065313271
 21
107.278381163
 31
0.0
  0
LINE
  5
455
330
450
100
AcDbEntity
  8
DIM
100
AcDbLine
 10
77.9065313271
 20
107.278381163
 30
0.0
 11
78.695613014
 21
107.278381163
 31
0.0
  0
MTEXT
  5
456
330
450
100
AcDbEntity
  8
DIM
100
AcDbMText
 10
78.695613014
 20
107.8879797765
 30
-28.6450620079
 40
1.25
 41
0.0
 71
     1
 72
     1
  1
%%c
  7
SLDTEXTSTYLE0
 73
     1
 44
1.0
  0
MTEXT
  5
457
330
450
100
AcDbEntity
  8
DIM
100
AcDbMText
 10
80.5807693298
 20
107.9070770226
 30
-28.6450620079
 40
1.25
 41
0.0
 71
     1
 72
     1
  1
5"
  7
SLDTEXTSTYLE0
 73
     1
 44
1.0
  0
ENDBLK
  5
452
330
450
100
AcDbEntity
  8
0
100
AcDbBlockEnd
  0
BLOCK
  5
45A
330
459
100
AcDbEntity
  8
0
100
AcDbBlockBegin
  2
_D_18
 70
     0
 10
0.0
 20
0.0
 30
0.0
  3
_D_18
  1

  0
SOLID
  5
45C
330
459
100
AcDbEntity
  8
DIM
100
AcDbTrace
 10
78.2361593342
 20
100.7274013633
 30
0.0
 11
79.041986575
 21
101.3701629505
 31
0.0
 12
78.6447073292
 22
101.6737567595
 32
0.0
 13
78.6447073292
 23
101.6737567595
 33
0.0
  0
LINE
  5
45D
330
459
100
AcDbEntity
  8
DIM
100
AcDbLine
 10
78.2361593342
 20
100.7274013633
 30
0.0
 11
83.2423028232
 21
107.278381163
 31
0.0
  0
LINE
  5
45E
330
459
100
AcDbEntity
  8
DIM
100
AcDbLine
 10
83.2423028232
 20
107.278381163
 30
0.0
 11
83.6713061247
 21
107.278381163
 31
0.0
  0
MTEXT
  5
45F
330
459
100
AcDbEntity
  8
DIM
100
AcDbMText
 10
83.6713061247
 20
107.8879797765
 30
-28.6450620079
 40
1.25
 41
0.0
 71
     1
 72
     1
  1
%%c
  7
SLDTEXTSTYLE0
 73
     1
 44
1.0
  0
MTEXT
  5
460
330
459
100
AcDbEntity
  8
DIM
100
AcDbMText
 10
85.5564624406
 20
107.9070770226
 30
-28.6450620079
 40
1.25
 41
0.0
 71
     1
 72
     1
  1
8"
  7
SLDTEXTSTYLE0
 73
     1
 44
1.0
  0
ENDBLK
  5
45B
330
459
100
AcDbEntity
  8
0
100
AcDbBlockEnd
  0
BLOCK
  5
462
330
461
100
AcDbEntity
  8
0
100
AcDbBlockBegin
  2
SW_CENTERMARKSYMBOL_0
 70
     0
 10
0.0
 20
0.0
 30
0.0
  3
SW_CENTERMARKSYMBOL_0
  1

  0
LINE
  5
464
330
461
100
AcDbEntity
  8
DIM
 62
     0
100
AcDbLine
 10
0.0
 20
0.0
 30
0.0
 11
0.0
 21
0.0984251969
 31
0.0
  0
LINE
  5
465
330
461
100
AcDbEntity
  8
DIM
 62
     0
100
AcDbLine
 10
0.0
 20
0.0
 30
0.0
 11
-0.0984251969
 21
0.0
 31
0.0
  0
LINE
  5
466
330
461
100
AcDbEntity
  8
DIM
 62
     0
100
AcDbLine
 10
0.0
 20
0.0
 30
0.0
 11
0.0
 21
-0.0984251969
 31
0.0
  0
LINE
  5
467
330
461
100
AcDbEntity
  8
DIM
 62
     0
100
AcDbLine
 10
0.0
 20
0.0
 30
0.0
 11
0.0984251969
 21
0.0
 31
0.0
  0
LINE
  5
468
330
461
100
AcDbEntity
  8
DIM
 62
     0
100
AcDbLine
 10
0.0
 20
0.1968503937
 30
0.0
 11
0.0
 21
2.5147986019
 31
0.0
  0
LINE
  5
469
330
461
100
AcDbEntity
  8
DIM
 62
     0
100
AcDbLine
 10
-0.1968503937
 20
0.0
 30
0.0
 11
-2.5147986019
 21
0.0
 31
0.0
  0
LINE
  5
46A
330
461
100
AcDbEntity
  8
DIM
 62
     0
100
AcDbLine
 10
0.0
 20
-0.1968503937
 30
0.0
 11
0.0
 21
-2.5147986019
 31
0.0
  0
LINE
  5
46B
330
461
100
AcDbEntity
  8
DIM
 62
     0
100
AcDbLine
 10
0.1968503937
 20
0.0
 30
0.0
 11
2.5147986019
 21
0.0
 31
0.0
  0
ENDBLK
  5
463
330
461
100
AcDbEntity
  8
0
100
AcDbBlockEnd
  0
ENDSEC
  0
SECTION
  2
ENTITIES
  0
MTEXT
  5
48
330
1F
100
AcDbEntity
  8
NOTES
100
AcDbMText
 10
4.48362894
 20
111.128701108
 30
0.0
 40
2.0
 41
0.0
 71
     1
 72
     1
  1
DVTT42FP92(N,P)
  7
SLDTEXTSTYLE0
 73
     1
 44
1.0
  0
ELLIPSE
  5
49
330
1F
100
AcDbEntity
  8
SLD-0
  6
Continuous
370
    15
100
AcDbEllipse
 10
97.7570298579
 20
9.9170845258
 30
0.0
 11
0.0
 21
0.04499999999999993
 31
0.0
210
0.0
220
0.0
230
1.0
 40
0.3639778813
 41
3.141592653589793
 42
5.849226838483743
  0
ELLIPSE
  5
4A
330
1F
100
AcDbEntity
  8
SLD-0
  6
Continuous
370
    15
100
AcDbEllipse
 10
53.8577878672
 20
9.9170845258
 30
0.0
 11
0.0
 21
0.04499999999999993
 31
0.0
210
0.0
220
0.0
230
1.0
 40
0.3639778813
 41
0.4339584686961044
 42
3.141592653589793
  0
LINE
  5
4B
330
1F
100
AcDbEntity
  8
SLD-0
  6
Continuous
370
    15
100
AcDbLine
 10
97.7639155391
 20
9.9579134423
 30
0.0
 11
53.850902186
 21
9.9579134423
 31
0.0
  0
LINE
  5
4C
330
1F
100
AcDbEntity
  8
SLD-0
  6
Continuous
370
    15
100
AcDbLine
 10
96.3411550149
 20
11.7693888693
 30
0.0
 11
96.3515623614
 21
11.7561388623
 31
0.0
  0
LINE
  5
4D
330
1F
100
AcDbEntity
  8
SLD-0
  6
Continuous
370
    15
100
AcDbLine
 10
97.7101540268
 20
10.0263638915
 30
0.0
 11
97.7639155391
 21
9.9579134423
 31
0.0
  0
LINE
  5
4E
330
1F
100
AcDbEntity
  8
SLD-0
  6
Continuous
370
    15
100
AcDbLine
 10
53.850902186
 20
9.9579134423
 30
0.0
 11
53.9046636982
 21
10.0263638915
 31
0.0
  0
LINE
  5
4F
330
1F
100
AcDbEntity
  8
SLD-0
  6
Continuous
370
    15
100
AcDbLine
 10
55.2632553637
 20
11.7561388623
 30
0.0
 11
55.2736627101
 21
11.7693888693
 31
0.0
  0
LINE
  5
50
330
1F
100
AcDbEntity
  8
SLD-0
  6
Continuous
370
    15
100
AcDbLine
 10
98.0890799961
 20
9.8720845138
 30
0.0
 11
98.0890799961
 21
48.7440860011
 31
0.0
  0
LINE
  5
51
330
1F
100
AcDbEntity
  8
SLD-0
  6
Continuous
370
    15
100
AcDbLine
 10
98.6701314171
 20
48.7440860011
 30
0.0
 11
98.6701314171
 21
9.8720845138
 31
0.0
  0
LINE
  5
52
330
1F
100
AcDbEntity
  8
SLD-0
  6
Continuous
370
    15
100
AcDbLine
 10
98.0890799961
 20
9.8720845138
 30
0.0
 11
98.6701314171
 21
9.8720845138
 31
0.0
  0
LINE
  5
53
330
1F
100
AcDbEntity
  8
SLD-0
  6
Continuous
370
    15
100
AcDbLine
 10
98.6701314171
 20
48.7440860011
 30
0.0
 11
98.0890799961
 21
48.7440860011
 31
0.0
  0
LINE
  5
54
330
1F
100
AcDbEntity
  8
SLD-0
  6
Continuous
370
    15
100
AcDbLine
 10
96.3515623614
 20
48.7440860011
 30
0.0
 11
96.3515623614
 21
11.7123359017
 31
0.0
  0
LINE
  5
55
330
1F
100
AcDbEntity
  8
SLD-0
  6
Continuous
370
    15
100
AcDbLine
 10
52.944686308
 20
48.7440860011
 30
0.0
 11
52.944686308
 21
9.8720845138
 31
0.0
  0
LINE
  5
56
330
1F
100
AcDbEntity
  8
SLD-0
  6
Continuous
370
    15
100
AcDbLine
 10
53.525737729
 20
9.8720845138
 30
0.0
 11
53.525737729
 21
48.7440860011
 31
0.0
  0
LINE
  5
57
330
1F
100
AcDbEntity
  8
SLD-0
  6
Continuous
370
    15
100
AcDbLine
 10
52.944686308
 20
9.8720845138
 30
0.0
 11
53.525737729
 21
9.8720845138
 31
0.0
  0
LINE
  5
58
330
1F
100
AcDbEntity
  8
SLD-0
  6
Continuous
370
    15
100
AcDbLine
 10
53.525737729
 20
48.7440860011
 30
0.0
 11
52.944686308
 21
48.7440860011
 31
0.0
  0
LINE
  5
59
330
1F
100
AcDbEntity
  8
SLD-0
  6
Continuous
370
    15
100
AcDbLine
 10
55.2632553637
 20
48.7440860011
 30
0.0
 11
55.2632553637
 21
11.7123359017
 31
0.0
  0
LINE
  5
5A
330
1F
100
AcDbEntity
  8
SLD-0
  6
Continuous
370
    15
100
AcDbLine
 10
55.2632553637
 20
11.8460843833
 30
0.0
 11
96.3515623614
 21
11.8460843833
 31
0.0
  0
LINE
  5
5B
330
1F
100
AcDbEntity
  8
SLD-0
  6
Continuous
370
    15
100
AcDbLine
 10
52.9194083067
 20
48.7440860011
 30
0.0
 11
52.9194083067
 21
48.7680827372
 31
0.0
  0
LINE
  5
5C
330
1F
100
AcDbEntity
  8
SLD-0
  6
Continuous
370
    15
100
AcDbLine
 10
53.0444091026
 20
48.7680827372
 30
0.0
 11
53.0444091026
 21
48.7440860011
 31
0.0
  0
LINE
  5
5D
330
1F
100
AcDbEntity
  8
SLD-0
  6
Continuous
370
    15
100
AcDbLine
 10
52.944686308
 20
48.7440860011
 30
0.0
 11
52.9194083067
 21
48.7440860011
 31
0.0
  0
LINE
  5
5E
330
1F
100
AcDbEntity
  8
SLD-0
  6
Continuous
370
    15
100
AcDbLine
 10
52.9194083067
 20
48.7680827372
 30
0.0
 11
53.0444091026
 21
48.7680827372
 31
0.0
  0
LINE
  5
5F
330
1F
100
AcDbEntity
  8
SLD-0
  6
Continuous
370
    15
100
AcDbLine
 10
98.5704086224
 20
48.7440860011
 30
0.0
 11
98.5704086224
 21
48.7680827372
 31
0.0
  0
LINE
  5
60
330
1F
100
AcDbEntity
  8
SLD-0
  6
Continuous
370
    15
100
AcDbLine
 10
53.0444091026
 20
48.7440860011
 30
0.0
 11
98.5704086224
 21
48.7440860011
 31
0.0
  0
LINE
  5
61
330
1F
100
AcDbEntity
  8
SLD-0
  6
Continuous
370
    15
100
AcDbLine
 10
53.0444091026
 20
48.7680827372
 30
0.0
 11
98.5704086224
 21
48.7680827372
 31
0.0
  0
LINE
  5
62
330
1F
100
AcDbEntity
  8
SLD-0
  6
Continuous
370
    15
100
AcDbLine
 10
98.6954094184
 20
48.7680827372
 30
0.0
 11
98.6954094184
 21
48.7440860011
 31
0.0
  0
LINE
  5
63
330
1F
100
AcDbEntity
  8
SLD-0
  6
Continuous
370
    15
100
AcDbLine
 10
98.6954094184
 20
48.7440860011
 30
0.0
 11
98.6701314171
 21
48.7440860011
 31
0.0
  0
LINE
  5
64
330
1F
100
AcDbEntity
  8
SLD-0
  6
Continuous
370
    15
100
AcDbLine
 10
98.5704086224
 20
48.7680827372
 30
0.0
 11
98.6954094184
 21
48.7680827372
 31
0.0
  0
LINE
  5
65
330
1F
100
AcDbEntity
  8
SLD-0
  6
Continuous
370
    15
100
AcDbLine
 10
98.6954094184
 20
48.7680827372
 30
0.0
 11
98.6954094184
 21
48.7730857727
 31
0.0
  0
LINE
  5
66
330
1F
100
AcDbEntity
  8
SLD-0
  6
Continuous
370
    15
100
AcDbLine
 10
52.9194083067
 20
48.7730857727
 30
0.0
 11
52.9194083067
 21
48.7680827372
 31
0.0
  0
LINE
  5
67
330
1F
100
AcDbEntity
  8
SLD-0
  6
Continuous
370
    15
100
AcDbLine
 10
98.6954094184
 20
48.7730857727
 30
0.0
 11
52.9194083067
 21
48.7730857727
 31
0.0
  0
LINE
  5
68
330
1F
100
AcDbEntity
  8
SLD-0
  6
Continuous
370
    15
100
AcDbLine
 10
45.3364091861
 20
54.1430841114
 30
0.0
 11
106.2784085389
 21
54.1430841114
 31
0.0
  0
LINE
  5
69
330
1F
100
AcDbEntity
  8
SLD-0
  6
Continuous
370
    15
100
AcDbLine
 10
106.2784085389
 20
48.8980865687
 30
0.0
 11
106.2784085389
 21
54.1430841114
 31
0.0
  0
LINE
  5
6A
330
1F
100
AcDbEntity
  8
SLD-0
  6
Continuous
370
    15
100
AcDbLine
 10
106.153407743
 20
48.7730857727
 30
0.0
 11
106.2784085389
 21
48.8980865687
 31
0.0
  0
LINE
  5
6B
330
1F
100
AcDbEntity
  8
SLD-0
  6
Continuous
370
    15
100
AcDbLine
 10
45.3364091861
 20
48.8980865687
 30
0.0
 11
45.4614099821
 21
48.7730857727
 31
0.0
  0
LINE
  5
6C
330
1F
100
AcDbEntity
  8
SLD-0
  6
Continuous
370
    15
100
AcDbLine
 10
45.3364091861
 20
54.1430841114
 30
0.0
 11
45.3364091861
 21
48.8980865687
 31
0.0
  0
LINE
  5
6D
330
1F
100
AcDbEntity
  8
SLD-0
  6
Continuous
370
    15
100
AcDbLine
 10
45.4614099821
 20
48.7730857727
 30
0.0
 11
52.9194083067
 21
48.7730857727
 31
0.0
  0
LINE
  5
6E
330
1F
100
AcDbEntity
  8
SLD-0
  6
Continuous
370
    15
100
AcDbLine
 10
98.6954094184
 20
48.7730857727
 30
0.0
 11
106.153407743
 21
48.7730857727
 31
0.0
  0
LINE
  5
6F
330
1F
100
AcDbEntity
  8
SLD-0
  6
Continuous
370
    15
100
AcDbLine
 10
106.2784085389
 20
54.172083883
 30
0.0
 11
106.2784085389
 21
54.1430841114
 31
0.0
  0
LINE
  5
70
330
1F
100
AcDbEntity
  8
SLD-0
  6
Continuous
370
    15
100
AcDbLine
 10
45.3364091861
 20
54.172083883
 30
0.0
 11
106.2784085389
 21
54.172083883
 31
0.0
  0
LINE
  5
71
330
1F
100
AcDbEntity
  8
SLD-0
  6
Continuous
370
    15
100
AcDbLine
 10
45.3364091861
 20
54.1430841114
 30
0.0
 11
45.3364091861
 21
54.172083883
 31
0.0
  0
LINE
  5
72
330
1F
100
AcDbEntity
  8
SLD-0
  6
Continuous
370
    15
100
AcDbLine
 10
106.3074083106
 20
53.1480854724
 30
0.0
 11
106.2834092278
 21
53.1480854724
 31
0.0
  0
LINE
  5
73
330
1F
100
AcDbEntity
  8
SLD-0
  6
Continuous
370
    15
100
AcDbLine
 10
106.2834092278
 20
53.2730862683
 30
0.0
 11
106.3074083106
 21
53.2730862683
 31
0.0
  0
LINE
  5
74
330
1F
100
AcDbEntity
  8
SLD-0
  6
Continuous
370
    15
100
AcDbLine
 10
106.3074083106
 20
53.2730862683
 30
0.0
 11
106.3074083106
 21
53.1480854724
 31
0.0
  0
LINE
  5
75
330
1F
100
AcDbEntity
  8
SLD-0
  6
Continuous
370
    15
100
AcDbLine
 10
106.2834092278
 20
53.2490848389
 30
0.0
 11
106.2834092278
 21
53.2730862683
 31
0.0
  0
LINE
  5
76
330
1F
100
AcDbEntity
  8
SLD-0
  6
Continuous
370
    15
100
AcDbLine
 10
106.3074083106
 20
54.1430841114
 30
0.0
 11
106.2834092278
 21
54.1430841114
 31
0.0
  0
LINE
  5
77
330
1F
100
AcDbEntity
  8
SLD-0
  6
Continuous
370
    15
100
AcDbLine
 10
106.3074083106
 20
53.2730862683
 30
0.0
 11
106.3074083106
 21
54.1430841114
 31
0.0
  0
LINE
  5
78
330
1F
100
AcDbEntity
  8
SLD-0
  6
Continuous
370
    15
100
AcDbLine
 10
106.2834092278
 20
53.2730862683
 30
0.0
 11
106.2834092278
 21
54.1430841114
 31
0.0
  0
ARC
  5
79
330
1F
100
AcDbEntity
  8
SLD-0
  6
Continuous
370
    15
100
AcDbCircle
 10
45.3364088625
 20
54.1430845258
 30
0.0
 40
0.0050000000085575
100
AcDbArc
 50
89.9999999964
 51
179.9999999952
  0
LINE
  5
7A
330
1F
100
AcDbEntity
  8
SLD-0
  6
Continuous
370
    15
100
AcDbLine
 10
45.3074094144
 20
54.1430841114
 30
0.0
 11
45.3314084972
 21
54.1430841114
 31
0.0
  0
ARC
  5
7B
330
1F
100
AcDbEntity
  8
SLD-0
  6
Continuous
370
    15
100
AcDbCircle
 10
45.3364088625
 20
54.1430845258
 30
0.0
 40
0.0289999999999964
100
AcDbArc
 50
89.9999999994
 51
180.0
  0
ARC
  5
7C
330
1F
100
AcDbEntity
  8
SLD-0
  6
Continuous
370
    15
100
AcDbCircle
 10
106.2784088625
 20
54.1430845258
 30
0.0
 40
0.0050000000000097
100
AcDbArc
 50
0.0000000017
 51
90.0
  0
ARC
  5
7D
330
1F
100
AcDbEntity
  8
SLD-0
  6
Continuous
370
    15
100
AcDbCircle
 10
106.2784088625
 20
54.1430845258
 30
0.0
 40
0.0290000000000106
100
AcDbArc
 50
0.0
 51
90.0
  0
LINE
  5
7E
330
1F
100
AcDbEntity
  8
SLD-0
  6
Continuous
370
    15
100
AcDbLine
 10
45.3074094144
 20
53.2730862683
 30
0.0
 11
45.3314084972
 21
53.2730862683
 31
0.0
  0
LINE
  5
7F
330
1F
100
AcDbEntity
  8
SLD-0
  6
Continuous
370
    15
100
AcDbLine
 10
45.3314084972
 20
53.2730862683
 30
0.0
 11
45.3314084972
 21
53.2490848389
 31
0.0
  0
LINE
  5
80
330
1F
100
AcDbEntity
  8
SLD-0
  6
Continuous
370
    15
100
AcDbLine
 10
45.3314084972
 20
53.1480854724
 30
0.0
 11
45.3074094144
 21
53.1480854724
 31
0.0
  0
LINE
  5
81
330
1F
100
AcDbEntity
  8
SLD-0
  6
Continuous
370
    15
100
AcDbLine
 10
45.3074094144
 20
53.1480854724
 30
0.0
 11
45.3074094144
 21
53.2730862683
 31
0.0
  0
LINE
  5
82
330
1F
100
AcDbEntity
  8
SLD-0
  6
Continuous
370
    15
100
AcDbLine
 10
45.3314084972
 20
54.1430841114
 30
0.0
 11
45.3314084972
 21
53.2730862683
 31
0.0
  0
LINE
  5
83
330
1F
100
AcDbEntity
  8
SLD-0
  6
Continuous
370
    15
100
AcDbLine
 10
45.3074094144
 20
54.1430841114
 30
0.0
 11
45.3074094144
 21
53.2730862683
 31
0.0
  0
LINE
  5
84
330
1F
100
AcDbEntity
  8
SLD-0
  6
Continuous
370
    15
100
AcDbLine
 10
98.7654096764
 20
48.5980827811
 30
0.0
 11
98.741408247
 21
48.5980827811
 31
0.0
  0
LINE
  5
85
330
1F
100
AcDbEntity
  8
SLD-0
  6
Continuous
370
    15
100
AcDbLine
 10
98.7654096764
 20
48.5980827811
 30
0.0
 11
98.7654096764
 21
9.9970845031
 31
0.0
  0
LINE
  5
86
330
1F
100
AcDbEntity
  8
SLD-0
  6
Continuous
370
    15
100
AcDbLine
 10
98.741408247
 20
9.9970845031
 30
0.0
 11
98.7654096764
 21
9.9970845031
 31
0.0
  0
LINE
  5
87
330
1F
100
AcDbEntity
  8
SLD-0
  6
Continuous
370
    15
100
AcDbLine
 10
98.741408247
 20
48.5980827811
 30
0.0
 11
98.741408247
 21
9.9970845031
 31
0.0
  0
LINE
  5
88
330
1F
100
AcDbEntity
  8
SLD-0
  6
Continuous
370
    15
100
AcDbLine
 10
98.7654096764
 20
9.9970845031
 30
0.0
 11
98.7654096764
 21
9.8720845138
 31
0.0
  0
LINE
  5
89
330
1F
100
AcDbEntity
  8
SLD-0
  6
Continuous
370
    15
100
AcDbLine
 10
98.7654096764
 20
9.8720845138
 30
0.0
 11
98.741408247
 21
9.8720845138
 31
0.0
  0
LINE
  5
8A
330
1F
100
AcDbEntity
  8
SLD-0
  6
Continuous
370
    15
100
AcDbLine
 10
98.741408247
 20
9.8720845138
 30
0.0
 11
98.741408247
 21
9.9970845031
 31
0.0
  0
LINE
  5
8B
330
1F
100
AcDbEntity
  8
SLD-0
  6
Continuous
370
    15
100
AcDbLine
 10
98.741408247
 20
48.723083577
 30
0.0
 11
98.7654096764
 21
48.723083577
 31
0.0
  0
LINE
  5
8C
330
1F
100
AcDbEntity
  8
SLD-0
  6
Continuous
370
    15
100
AcDbLine
 10
98.7654096764
 20
48.723083577
 30
0.0
 11
98.7654096764
 21
48.5980827811
 31
0.0
  0
LINE
  5
8D
330
1F
100
AcDbEntity
  8
SLD-0
  6
Continuous
370
    15
100
AcDbLine
 10
98.741408247
 20
48.5980827811
 30
0.0
 11
98.741408247
 21
48.723083577
 31
0.0
  0
LINE
  5
8E
330
1F
100
AcDbEntity
  8
SLD-0
  6
Continuous
370
    15
100
AcDbLine
 10
98.7654096764
 20
9.8720845138
 30
0.0
 11
98.7704080187
 21
9.8720845138
 31
0.0
  0
LINE
  5
8F
330
1F
100
AcDbEntity
  8
SLD-0
  6
Continuous
370
    15
100
AcDbLine
 10
98.7704080187
 20
9.8720845138
 30
0.0
 11
98.7704080187
 21
48.723083577
 31
0.0
  0
LINE
  5
90
330
1F
100
AcDbEntity
  8
SLD-0
  6
Continuous
370
    15
100
AcDbLine
 10
98.7704080187
 20
48.723083577
 30
0.0
 11
98.7654096764
 21
48.723083577
 31
0.0
  0
LINE
  5
91
330
1F
100
AcDbEntity
  8
SLD-0
  6
Continuous
370
    15
100
AcDbLine
 10
98.741408247
 20
48.723083577
 30
0.0
 11
98.741408247
 21
48.7730857727
 31
0.0
  0
LINE
  5
92
330
1F
100
AcDbEntity
  8
SLD-0
  6
Continuous
370
    15
100
AcDbLine
 10
98.741408247
 20
9.8430845221
 30
0.0
 11
98.741408247
 21
9.8720845138
 31
0.0
  0
LINE
  5
93
330
1F
100
AcDbEntity
  8
SLD-0
  6
Continuous
370
    15
100
AcDbLine
 10
106.2706880948
 20
8.8960845253
 30
0.0
 11
106.2634088189
 21
8.8960845253
 31
0.0
  0
LINE
  5
94
330
1F
100
AcDbEntity
  8
SLD-0
  6
Continuous
370
    15
100
AcDbLine
 10
106.2784085389
 20
54.1060822988
 30
0.0
 11
106.2834092278
 21
54.1060822988
 31
0.0
  0
LINE
  5
95
330
1F
100
AcDbEntity
  8
SLD-0
  6
Continuous
370
    15
100
AcDbLine
 10
106.2834092278
 20
53.2490848389
 30
0.0
 11
106.2834092278
 21
9.7950845233
 31
0.0
  0
LINE
  5
96
330
1F
100
AcDbEntity
  8
SLD-0
  6
Continuous
370
    15
100
AcDbLine
 10
52.873409478
 20
48.5980827811
 30
0.0
 11
52.8494080486
 21
48.5980827811
 31
0.0
  0
LINE
  5
97
330
1F
100
AcDbEntity
  8
SLD-0
  6
Continuous
370
    15
100
AcDbLine
 10
52.873409478
 20
9.9970845031
 30
0.0
 11
52.873409478
 21
48.5980827811
 31
0.0
  0
LINE
  5
98
330
1F
100
AcDbEntity
  8
SLD-0
  6
Continuous
370
    15
100
AcDbLine
 10
52.8494080486
 20
9.9970845031
 30
0.0
 11
52.873409478
 21
9.9970845031
 31
0.0
  0
LINE
  5
99
330
1F
100
AcDbEntity
  8
SLD-0
  6
Continuous
370
    15
100
AcDbLine
 10
52.8494080486
 20
9.9970845031
 30
0.0
 11
52.8494080486
 21
48.5980827811
 31
0.0
  0
LINE
  5
9A
330
1F
100
AcDbEntity
  8
SLD-0
  6
Continuous
370
    15
100
AcDbLine
 10
52.873409478
 20
9.8720845138
 30
0.0
 11
52.8494080486
 21
9.8720845138
 31
0.0
  0
LINE
  5
9B
330
1F
100
AcDbEntity
  8
SLD-0
  6
Continuous
370
    15
100
AcDbLine
 10
52.8494080486
 20
9.8720845138
 30
0.0
 11
52.8494080486
 21
9.9970845031
 31
0.0
  0
LINE
  5
9C
330
1F
100
AcDbEntity
  8
SLD-0
  6
Continuous
370
    15
100
AcDbLine
 10
52.873409478
 20
9.9970845031
 30
0.0
 11
52.873409478
 21
9.8720845138
 31
0.0
  0
LINE
  5
9D
330
1F
100
AcDbEntity
  8
SLD-0
  6
Continuous
370
    15
100
AcDbLine
 10
52.8494080486
 20
48.5980827811
 30
0.0
 11
52.8494080486
 21
48.723083577
 31
0.0
  0
LINE
  5
9E
330
1F
100
AcDbEntity
  8
SLD-0
  6
Continuous
370
    15
100
AcDbLine
 10
52.8494080486
 20
48.723083577
 30
0.0
 11
52.873409478
 21
48.723083577
 31
0.0
  0
LINE
  5
9F
330
1F
100
AcDbEntity
  8
SLD-0
  6
Continuous
370
    15
100
AcDbLine
 10
52.873409478
 20
48.723083577
 30
0.0
 11
52.873409478
 21
48.5980827811
 31
0.0
  0
LINE
  5
A0
330
1F
100
AcDbEntity
  8
SLD-0
  6
Continuous
370
    15
100
AcDbLine
 10
52.8444097064
 20
48.723083577
 30
0.0
 11
52.8444097064
 21
9.8720845138
 31
0.0
  0
LINE
  5
A1
330
1F
100
AcDbEntity
  8
SLD-0
  6
Continuous
370
    15
100
AcDbLine
 10
52.8444097064
 20
9.8720845138
 30
0.0
 11
52.8494080486
 21
9.8720845138
 31
0.0
  0
LINE
  5
A2
330
1F
100
AcDbEntity
  8
SLD-0
  6
Continuous
370
    15
100
AcDbLine
 10
52.8494080486
 20
48.723083577
 30
0.0
 11
52.8444097064
 21
48.723083577
 31
0.0
  0
LINE
  5
A3
330
1F
100
AcDbEntity
  8
SLD-0
  6
Continuous
370
    15
100
AcDbLine
 10
52.873409478
 20
48.723083577
 30
0.0
 11
52.873409478
 21
48.7730857727
 31
0.0
  0
LINE
  5
A4
330
1F
100
AcDbEntity
  8
SLD-0
  6
Continuous
370
    15
100
AcDbLine
 10
52.873409478
 20
9.8430845221
 30
0.0
 11
52.873409478
 21
9.8720845138
 31
0.0
  0
LINE
  5
A5
330
1F
100
AcDbEntity
  8
SLD-0
  6
Continuous
370
    15
100
AcDbLine
 10
45.3314084972
 20
54.1060822988
 30
0.0
 11
45.3364091861
 21
54.1060822988
 31
0.0
  0
LINE
  5
A6
330
1F
100
AcDbEntity
  8
SLD-0
  6
Continuous
370
    15
100
AcDbLine
 10
45.3314084972
 20
9.7950845233
 30
0.0
 11
45.3314084972
 21
53.2490848389
 31
0.0
  0
LINE
  5
A7
330
1F
100
AcDbEntity
  8
SLD-0
  6
Continuous
370
    15
100
AcDbLine
 10
45.3514089062
 20
8.8960845253
 30
0.0
 11
45.3441296303
 21
8.8960845253
 31
0.0
  0
LINE
  5
A8
330
1F
100
AcDbEntity
  8
SLD-0
  6
Continuous
370
    15
100
AcDbLine
 10
98.5944077052
 20
9.848084551
 30
0.0
 11
98.5944077052
 21
9.8720845138
 31
0.0
  0
LINE
  5
A9
330
1F
100
AcDbEntity
  8
SLD-0
  6
Continuous
370
    15
100
AcDbLine
 10
98.5944077052
 20
9.848084551
 30
0.0
 11
53.0204100199
 21
9.848084551
 31
0.0
  0
LINE
  5
AA
330
1F
100
AcDbEntity
  8
SLD-0
  6
Continuous
370
    15
100
AcDbLine
 10
53.0204100199
 20
9.8720845138
 30
0.0
 11
53.0204100199
 21
9.848084551
 31
0.0
  0
LINE
  5
AB
330
1F
100
AcDbEntity
  8
SLD-0
  6
Continuous
370
    15
100
AcDbLine
 10
98.5944077052
 20
9.8720845138
 30
0.0
 11
53.0204100199
 21
9.8720845138
 31
0.0
  0
LINE
  5
AC
330
1F
100
AcDbEntity
  8
SLD-0
  6
Continuous
370
    15
100
AcDbLine
 10
98.7194085011
 20
9.8720845138
 30
0.0
 11
98.7194085011
 21
9.848084551
 31
0.0
  0
LINE
  5
AD
330
1F
100
AcDbEntity
  8
SLD-0
  6
Continuous
370
    15
100
AcDbLine
 10
98.7194085011
 20
9.848084551
 30
0.0
 11
98.5944077052
 21
9.848084551
 31
0.0
  0
LINE
  5
AE
330
1F
100
AcDbEntity
  8
SLD-0
  6
Continuous
370
    15
100
AcDbLine
 10
98.6701314171
 20
9.8720845138
 30
0.0
 11
98.7194085011
 21
9.8720845138
 31
0.0
  0
LINE
  5
AF
330
1F
100
AcDbEntity
  8
SLD-0
  6
Continuous
370
    15
100
AcDbLine
 10
52.8954092239
 20
9.848084551
 30
0.0
 11
52.8954092239
 21
9.8720845138
 31
0.0
  0
LINE
  5
B0
330
1F
100
AcDbEntity
  8
SLD-0
  6
Continuous
370
    15
100
AcDbLine
 10
53.0204100199
 20
9.848084551
 30
0.0
 11
52.8954092239
 21
9.848084551
 31
0.0
  0
LINE
  5
B1
330
1F
100
AcDbEntity
  8
SLD-0
  6
Continuous
370
    15
100
AcDbLine
 10
52.8954092239
 20
9.8720845138
 30
0.0
 11
52.944686308
 21
9.8720845138
 31
0.0
  0
LINE
  5
B2
330
1F
100
AcDbEntity
  8
SLD-0
  6
Continuous
370
    15
100
AcDbLine
 10
98.7194085011
 20
9.8430845221
 30
0.0
 11
98.7194085011
 21
9.848084551
 31
0.0
  0
LINE
  5
B3
330
1F
100
AcDbEntity
  8
SLD-0
  6
Continuous
370
    15
100
AcDbLine
 10
52.8954092239
 20
9.8430845221
 30
0.0
 11
98.7194085011
 21
9.8430845221
 31
0.0
  0
LINE
  5
B4
330
1F
100
AcDbEntity
  8
SLD-0
  6
Continuous
370
    15
100
AcDbLine
 10
52.8954092239
 20
9.848084551
 30
0.0
 11
52.8954092239
 21
9.8430845221
 31
0.0
  0
LINE
  5
B5
330
1F
100
AcDbEntity
  8
SLD-0
  6
Continuous
370
    15
100
AcDbLine
 10
106.2634088189
 20
8.9010845267
 30
0.0
 11
45.3514089062
 21
8.9010845267
 31
0.0
  0
LINE
  5
B6
330
1F
100
AcDbEntity
  8
SLD-0
  6
Continuous
370
    15
100
AcDbLine
 10
45.3514089062
 20
8.9010845267
 30
0.0
 11
45.3514089062
 21
9.7180845328
 31
0.0
  0
LINE
  5
B7
330
1F
100
AcDbEntity
  8
SLD-0
  6
Continuous
370
    15
100
AcDbLine
 10
45.4764097021
 20
9.8430845221
 30
0.0
 11
45.3514089062
 21
9.7180845328
 31
0.0
  0
LINE
  5
B8
330
1F
100
AcDbEntity
  8
SLD-0
  6
Continuous
370
    15
100
AcDbLine
 10
106.2634088189
 20
9.7180845328
 30
0.0
 11
106.1384080229
 21
9.8430845221
 31
0.0
  0
LINE
  5
B9
330
1F
100
AcDbEntity
  8
SLD-0
  6
Continuous
370
    15
100
AcDbLine
 10
106.2634088189
 20
9.7180845328
 30
0.0
 11
106.2634088189
 21
8.9010845267
 31
0.0
  0
LINE
  5
BA
330
1F
100
AcDbEntity
  8
SLD-0
  6
Continuous
370
    15
100
AcDbLine
 10
98.7194085011
 20
9.8430845221
 30
0.0
 11
106.1384080229
 21
9.8430845221
 31
0.0
  0
LINE
  5
BB
330
1F
100
AcDbEntity
  8
SLD-0
  6
Continuous
370
    15
100
AcDbLine
 10
45.4764097021
 20
9.8430845221
 30
0.0
 11
52.8954092239
 21
9.8430845221
 31
0.0
  0
LINE
  5
BC
330
1F
100
AcDbEntity
  8
SLD-0
  6
Continuous
370
    15
100
AcDbLine
 10
45.3514089062
 20
8.8720845258
 30
0.0
 11
45.3514089062
 21
8.9010845267
 31
0.0
  0
LINE
  5
BD
330
1F
100
AcDbEntity
  8
SLD-0
  6
Continuous
370
    15
100
AcDbLine
 10
106.2634088189
 20
8.9010845267
 30
0.0
 11
106.2634088189
 21
8.8720845258
 31
0.0
  0
LINE
  5
BE
330
1F
100
AcDbEntity
  8
SLD-0
  6
Continuous
370
    15
100
AcDbLine
 10
106.2634088189
 20
8.8720845258
 30
0.0
 11
45.3514089062
 21
8.8720845258
 31
0.0
  0
LINE
  5
BF
330
1F
100
AcDbEntity
  8
SLD-0
  6
Continuous
370
    15
100
AcDbLine
 10
106.2784085389
 20
8.8720845258
 30
0.0
 11
106.2784085389
 21
8.8960845253
 31
0.0
  0
LINE
  5
C0
330
1F
100
AcDbEntity
  8
SLD-0
  6
Continuous
370
    15
100
AcDbLine
 10
106.2706880948
 20
8.8960845253
 30
0.0
 11
106.2784085389
 21
8.8960845253
 31
0.0
  0
LINE
  5
C1
330
1F
100
AcDbEntity
  8
SLD-0
  6
Continuous
370
    15
100
AcDbLine
 10
106.2634088189
 20
8.8720845258
 30
0.0
 11
106.2784085389
 21
8.8720845258
 31
0.0
  0
LINE
  5
C2
330
1F
100
AcDbEntity
  8
SLD-0
  6
Continuous
370
    15
100
AcDbLine
 10
45.3364091861
 20
8.8720845258
 30
0.0
 11
45.3364091861
 21
8.8960845253
 31
0.0
  0
LINE
  5
C3
330
1F
100
AcDbEntity
  8
SLD-0
  6
Continuous
370
    15
100
AcDbLine
 10
45.3364091861
 20
8.8960845253
 30
0.0
 11
45.3441296303
 21
8.8960845253
 31
0.0
  0
LINE
  5
C4
330
1F
100
AcDbEntity
  8
SLD-0
  6
Continuous
370
    15
100
AcDbLine
 10
45.3364091861
 20
8.8720845258
 30
0.0
 11
45.3514089062
 21
8.8720845258
 31
0.0
  0
ARC
  5
C5
330
1F
100
AcDbEntity
  8
SLD-0
  6
Continuous
370
    15
100
AcDbCircle
 10
106.2784088625
 20
8.9010845258
 30
0.0
 40
0.0290000000000106
100
AcDbArc
 50
270.0
 51
359.9999999999
  0
ARC
  5
C6
330
1F
100
AcDbEntity
  8
SLD-0
  6
Continuous
370
    15
100
AcDbCircle
 10
106.2784088625
 20
8.9010845258
 30
0.0
 40
0.0050000000000097
100
AcDbArc
 50
270.0
 51
0.0
  0
LINE
  5
C7
330
1F
100
AcDbEntity
  8
SLD-0
  6
Continuous
370
    15
100
AcDbLine
 10
106.3074083106
 20
8.9010845267
 30
0.0
 11
106.2834092278
 21
8.9010845267
 31
0.0
  0
LINE
  5
C8
330
1F
100
AcDbEntity
  8
SLD-0
  6
Continuous
370
    15
100
AcDbLine
 10
106.3074083106
 20
9.7710845605
 30
0.0
 11
106.2834092278
 21
9.7710845605
 31
0.0
  0
LINE
  5
C9
330
1F
100
AcDbEntity
  8
SLD-0
  6
Continuous
370
    15
100
AcDbLine
 10
106.2834092278
 20
9.8960845498
 30
0.0
 11
106.3074083106
 21
9.8960845498
 31
0.0
  0
LINE
  5
CA
330
1F
100
AcDbEntity
  8
SLD-0
  6
Continuous
370
    15
100
AcDbLine
 10
106.3074083106
 20
9.8960845498
 30
0.0
 11
106.3074083106
 21
9.7710845605
 31
0.0
  0
LINE
  5
CB
330
1F
100
AcDbEntity
  8
SLD-0
  6
Continuous
370
    15
100
AcDbLine
 10
106.2834092278
 20
9.7710845605
 30
0.0
 11
106.2834092278
 21
9.7950845233
 31
0.0
  0
LINE
  5
CC
330
1F
100
AcDbEntity
  8
SLD-0
  6
Continuous
370
    15
100
AcDbLine
 10
106.3074083106
 20
9.7710845605
 30
0.0
 11
106.3074083106
 21
8.9010845267
 31
0.0
  0
LINE
  5
CD
330
1F
100
AcDbEntity
  8
SLD-0
  6
Continuous
370
    15
100
AcDbLine
 10
106.2834092278
 20
9.7710845605
 30
0.0
 11
106.2834092278
 21
8.9010845267
 31
0.0
  0
LINE
  5
CE
330
1F
100
AcDbEntity
  8
SLD-0
  6
Continuous
370
    15
100
AcDbLine
 10
45.3074094144
 20
9.8960845498
 30
0.0
 11
45.3314084972
 21
9.8960845498
 31
0.0
  0
LINE
  5
CF
330
1F
100
AcDbEntity
  8
SLD-0
  6
Continuous
370
    15
100
AcDbLine
 10
45.3314084972
 20
9.7950845233
 30
0.0
 11
45.3314084972
 21
9.7710845605
 31
0.0
  0
LINE
  5
D0
330
1F
100
AcDbEntity
  8
SLD-0
  6
Continuous
370
    15
100
AcDbLine
 10
45.3314084972
 20
9.7710845605
 30
0.0
 11
45.3074094144
 21
9.7710845605
 31
0.0
  0
LINE
  5
D1
330
1F
100
AcDbEntity
  8
SLD-0
  6
Continuous
370
    15
100
AcDbLine
 10
45.3074094144
 20
9.7710845605
 30
0.0
 11
45.3074094144
 21
9.8960845498
 31
0.0
  0
LINE
  5
D2
330
1F
100
AcDbEntity
  8
SLD-0
  6
Continuous
370
    15
100
AcDbLine
 10
45.3074094144
 20
8.9010845267
 30
0.0
 11
45.3314084972
 21
8.9010845267
 31
0.0
  0
LINE
  5
D3
330
1F
100
AcDbEntity
  8
SLD-0
  6
Continuous
370
    15
100
AcDbLine
 10
45.3314084972
 20
8.9010845267
 30
0.0
 11
45.3314084972
 21
9.7710845605
 31
0.0
  0
LINE
  5
D4
330
1F
100
AcDbEntity
  8
SLD-0
  6
Continuous
370
    15
100
AcDbLine
 10
45.3074094144
 20
8.9010845267
 30
0.0
 11
45.3074094144
 21
9.7710845605
 31
0.0
  0
ARC
  5
D5
330
1F
100
AcDbEntity
  8
SLD-0
  6
Continuous
370
    15
100
AcDbCircle
 10
45.3364088625
 20
8.9010845258
 30
0.0
 40
0.004999999999999
100
AcDbArc
 50
179.9999999998
 51
270.0
  0
ARC
  5
D6
330
1F
100
AcDbEntity
  8
SLD-0
  6
Continuous
370
    15
100
AcDbCircle
 10
45.3364088625
 20
8.9010845258
 30
0.0
 40
0.0290000000000319
100
AcDbArc
 50
180.0000000007
 51
270.0
  0
LINE
  5
D7
330
1F
100
AcDbEntity
  8
SLD-0
  6
Continuous
370
    15
100
AcDbLine
 10
98.741408247
 20
41.9880849003
 30
0.0
 11
98.6904063828
 21
41.9880849003
 31
0.0
  0
LINE
  5
D8
330
1F
100
AcDbEntity
  8
SLD-0
  6
Continuous
370
    15
100
AcDbLine
 10
98.6904063828
 20
41.9880849003
 30
0.0
 11
98.6904063828
 21
44.9880852307
 31
0.0
  0
LINE
  5
D9
330
1F
100
AcDbEntity
  8
SLD-0
  6
Continuous
370
    15
100
AcDbLine
 10
98.741408247
 20
44.9880852307
 30
0.0
 11
98.6904063828
 21
44.9880852307
 31
0.0
  0
LINE
  5
DA
330
1F
100
AcDbEntity
  8
SLD-0
  6
Continuous
370
    15
100
AcDbLine
 10
98.6904063828
 20
41.9880849003
 30
0.0
 11
98.6701314171
 21
41.9880849003
 31
0.0
  0
LINE
  5
DB
330
1F
100
AcDbEntity
  8
SLD-0
  6
Continuous
370
    15
100
AcDbLine
 10
98.6904063828
 20
44.9880852307
 30
0.0
 11
98.6701314171
 21
44.9880852307
 31
0.0
  0
LINE
  5
DC
330
1F
100
AcDbEntity
  8
SLD-0
  6
Continuous
370
    15
100
AcDbLine
 10
98.741408247
 20
15.6840846597
 30
0.0
 11
98.6904063828
 21
15.6840846597
 31
0.0
  0
LINE
  5
DD
330
1F
100
AcDbEntity
  8
SLD-0
  6
Continuous
370
    15
100
AcDbLine
 10
98.6904063828
 20
15.6840846597
 30
0.0
 11
98.6904063828
 21
18.6840844034
 31
0.0
  0
LINE
  5
DE
330
1F
100
AcDbEntity
  8
SLD-0
  6
Continuous
370
    15
100
AcDbLine
 10
98.741408247
 20
18.6840844034
 30
0.0
 11
98.6904063828
 21
18.6840844034
 31
0.0
  0
LINE
  5
DF
330
1F
100
AcDbEntity
  8
SLD-0
  6
Continuous
370
    15
100
AcDbLine
 10
98.6904063828
 20
15.6840846597
 30
0.0
 11
98.6701314171
 21
15.6840846597
 31
0.0
  0
LINE
  5
E0
330
1F
100
AcDbEntity
  8
SLD-0
  6
Continuous
370
    15
100
AcDbLine
 10
98.6904063828
 20
18.6840844034
 30
0.0
 11
98.6701314171
 21
18.6840844034
 31
0.0
  0
LINE
  5
E1
330
1F
100
AcDbEntity
  8
SLD-0
  6
Continuous
370
    15
100
AcDbLine
 10
52.9244113422
 20
18.6840844034
 30
0.0
 11
52.9244113422
 21
15.6840846597
 31
0.0
  0
LINE
  5
E2
330
1F
100
AcDbEntity
  8
SLD-0
  6
Continuous
370
    15
100
AcDbLine
 10
52.873409478
 20
15.6840846597
 30
0.0
 11
52.9244113422
 21
15.6840846597
 31
0.0
  0
LINE
  5
E3
330
1F
100
AcDbEntity
  8
SLD-0
  6
Continuous
370
    15
100
AcDbLine
 10
52.873409478
 20
18.6840844034
 30
0.0
 11
52.9244113422
 21
18.6840844034
 31
0.0
  0
LINE
  5
E4
330
1F
100
AcDbEntity
  8
SLD-0
  6
Continuous
370
    15
100
AcDbLine
 10
52.9244113422
 20
18.6840844034
 30
0.0
 11
52.944686308
 21
18.6840844034
 31
0.0
  0
LINE
  5
E5
330
1F
100
AcDbEntity
  8
SLD-0
  6
Continuous
370
    15
100
AcDbLine
 10
52.9244113422
 20
15.6840846597
 30
0.0
 11
52.944686308
 21
15.6840846597
 31
0.0
  0
LINE
  5
E6
330
1F
100
AcDbEntity
  8
SLD-0
  6
Continuous
370
    15
100
AcDbLine
 10
52.9244113422
 20
44.9880852307
 30
0.0
 11
52.9244113422
 21
41.9880849003
 31
0.0
  0
LINE
  5
E7
330
1F
100
AcDbEntity
  8
SLD-0
  6
Continuous
370
    15
100
AcDbLine
 10
52.873409478
 20
41.9880849003
 30
0.0
 11
52.9244113422
 21
41.9880849003
 31
0.0
  0
LINE
  5
E8
330
1F
100
AcDbEntity
  8
SLD-0
  6
Continuous
370
    15
100
AcDbLine
 10
52.873409478
 20
44.9880852307
 30
0.0
 11
52.9244113422
 21
44.9880852307
 31
0.0
  0
LINE
  5
E9
330
1F
100
AcDbEntity
  8
SLD-0
  6
Continuous
370
    15
100
AcDbLine
 10
52.9244113422
 20
44.9880852307
 30
0.0
 11
52.944686308
 21
44.9880852307
 31
0.0
  0
LINE
  5
EA
330
1F
100
AcDbEntity
  8
SLD-0
  6
Continuous
370
    15
100
AcDbLine
 10
52.9244113422
 20
41.9880849003
 30
0.0
 11
52.944686308
 21
41.9880849003
 31
0.0
  0
ARC
  5
EB
330
1F
100
AcDbEntity
  8
SLD-0
  6
Continuous
370
    15
100
AcDbCircle
 10
92.9613498956
 20
65.2810845258
 30
0.0
 40
0.125
100
AcDbArc
 50
0.0
 51
90.0
  0
LINE
  5
EC
330
1F
100
AcDbEntity
  8
SLD-0
  6
Continuous
370
    15
100
AcDbLine
 10
93.0863495214
 20
64.6750840448
 30
0.0
 11
93.0863495214
 21
65.2810849376
 31
0.0
  0
LINE
  5
ED
330
1F
100
AcDbEntity
  8
SLD-0
  6
Continuous
370
    15
100
AcDbLine
 10
93.0863495214
 20
64.6750840448
 30
0.0
 11
58.5284682036
 21
64.6750840448
 31
0.0
  0
LINE
  5
EE
330
1F
100
AcDbEntity
  8
SLD-0
  6
Continuous
370
    15
100
AcDbLine
 10
58.5284682036
 20
65.2810849376
 30
0.0
 11
58.5284682036
 21
64.6750840448
 31
0.0
  0
ARC
  5
EF
330
1F
100
AcDbEntity
  8
SLD-0
  6
Continuous
370
    15
100
AcDbCircle
 10
58.6534678294
 20
65.2810845258
 30
0.0
 40
0.125
100
AcDbArc
 50
90.0
 51
180.0
  0
LINE
  5
F0
330
1F
100
AcDbEntity
  8
SLD-0
  6
Continuous
370
    15
100
AcDbLine
 10
92.9613498987
 20
65.4060857336
 30
0.0
 11
58.6534678263
 21
65.4060857336
 31
0.0
  0
LINE
  5
F1
330
1F
100
AcDbEntity
  8
SLD-0
  6
Continuous
370
    15
100
AcDbLine
 10
58.5284682036
 20
64.6360828954
 30
0.0
 11
58.5284682036
 21
64.6750840448
 31
0.0
  0
LINE
  5
F2
330
1F
100
AcDbEntity
  8
SLD-0
  6
Continuous
370
    15
100
AcDbLine
 10
93.0863495214
 20
64.6750840448
 30
0.0
 11
93.0863495214
 21
64.6360828954
 31
0.0
  0
LINE
  5
F3
330
1F
100
AcDbEntity
  8
SLD-0
  6
Continuous
370
    15
100
AcDbLine
 10
93.0863495214
 20
64.6360828954
 30
0.0
 11
58.5284682036
 21
64.6360828954
 31
0.0
  0
ARC
  5
F4
330
1F
100
AcDbEntity
  8
SLD-0
  6
Continuous
370
    15
100
AcDbCircle
 10
58.5194678294
 20
64.6750845258
 30
0.0
 40
0.0390000000000077
100
AcDbArc
 50
202.5
 51
270.0
  0
LINE
  5
F5
330
1F
100
AcDbEntity
  8
SLD-0
  6
Continuous
370
    15
100
AcDbLine
 10
58.5148483077
 20
64.6731691869
 30
0.0
 11
58.4834361905
 21
64.6601594172
 31
0.0
  0
ARC
  5
F6
330
1F
100
AcDbEntity
  8
SLD-0
  6
Continuous
370
    15
100
AcDbCircle
 10
58.5194678294
 20
64.6750845258
 30
0.0
 40
0.0050000000000107
100
AcDbArc
 50
202.5
 51
270.0
  0
LINE
  5
F7
330
1F
100
AcDbEntity
  8
SLD-0
  6
Continuous
370
    15
100
AcDbLine
 10
58.5194676676
 20
64.6360828954
 30
0.0
 11
58.5194676676
 21
64.6700857026
 31
0.0
  0
LINE
  5
F8
330
1F
100
AcDbEntity
  8
SLD-0
  6
Continuous
370
    15
100
AcDbLine
 10
58.4834361905
 20
64.6601594172
 30
0.0
 11
58.3499030131
 21
64.9825407597
 31
0.0
  0
LINE
  5
F9
330
1F
100
AcDbEntity
  8
SLD-0
  6
Continuous
370
    15
100
AcDbLine
 10
58.3813139569
 20
64.9955505294
 30
0.0
 11
58.3499030131
 21
64.9825407597
 31
0.0
  0
LINE
  5
FA
330
1F
100
AcDbEntity
  8
SLD-0
  6
Continuous
370
    15
100
AcDbLine
 10
58.3813139569
 20
64.9955505294
 30
0.0
 11
58.5148483077
 21
64.6731691869
 31
0.0
  0
LINE
  5
FB
330
1F
100
AcDbEntity
  8
SLD-0
  6
Continuous
370
    15
100
AcDbLine
 10
58.5284682036
 20
64.6360828954
 30
0.0
 11
58.5194676676
 21
64.6360828954
 31
0.0
  0
LINE
  5
FC
330
1F
100
AcDbEntity
  8
SLD-0
  6
Continuous
370
    15
100
AcDbLine
 10
58.5284682036
 20
64.6700857026
 30
0.0
 11
58.5194676676
 21
64.6700857026
 31
0.0
  0
LINE
  5
FD
330
1F
100
AcDbEntity
  8
SLD-0
  6
Continuous
370
    15
100
AcDbLine
 10
93.1313815345
 20
64.6601594172
 30
0.0
 11
93.0999694174
 21
64.6731691869
 31
0.0
  0
LINE
  5
FE
330
1F
100
AcDbEntity
  8
SLD-0
  6
Continuous
370
    15
100
AcDbLine
 10
93.2335037681
 20
64.9955505294
 30
0.0
 11
93.0999694174
 21
64.6731691869
 31
0.0
  0
LINE
  5
FF
330
1F
100
AcDbEntity
  8
SLD-0
  6
Continuous
370
    15
100
AcDbLine
 10
93.2649147119
 20
64.9825407597
 30
0.0
 11
93.2335037681
 21
64.9955505294
 31
0.0
  0
LINE
  5
100
330
1F
100
AcDbEntity
  8
SLD-0
  6
Continuous
370
    15
100
AcDbLine
 10
93.2649147119
 20
64.9825407597
 30
0.0
 11
93.1313815345
 21
64.6601594172
 31
0.0
  0
LINE
  5
101
330
1F
100
AcDbEntity
  8
SLD-0
  6
Continuous
370
    15
100
AcDbLine
 10
93.0953500574
 20
64.6700857026
 30
0.0
 11
93.0953500574
 21
64.6360828954
 31
0.0
  0
ARC
  5
102
330
1F
100
AcDbEntity
  8
SLD-0
  6
Continuous
370
    15
100
AcDbCircle
 10
93.0953498956
 20
64.6750845258
 30
0.0
 40
0.0049999999976649
100
AcDbArc
 50
270.0
 51
337.5000000001
  0
ARC
  5
103
330
1F
100
AcDbEntity
  8
SLD-0
  6
Continuous
370
    15
100
AcDbCircle
 10
93.0953498956
 20
64.6750845258
 30
0.0
 40
0.0390000000000015
100
AcDbArc
 50
270.0
 51
337.5
  0
LINE
  5
104
330
1F
100
AcDbEntity
  8
SLD-0
  6
Continuous
370
    15
100
AcDbLine
 10
93.0953500574
 20
64.6360828954
 30
0.0
 11
93.0863495214
 21
64.6360828954
 31
0.0
  0
LINE
  5
105
330
1F
100
AcDbEntity
  8
SLD-0
  6
Continuous
370
    15
100
AcDbLine
 10
93.0953500574
 20
64.6700857026
 30
0.0
 11
93.0863495214
 21
64.6700857026
 31
0.0
  0
LINE
  5
106
330
1F
100
AcDbEntity
  8
SLD-0
  6
Continuous
370
    15
100
AcDbLine
 10
58.3020667657
 20
65.0980235857
 30
0.0
 11
58.3334788828
 21
65.1110333554
 31
0.0
  0
LWPOLYLINE
  5
107
330
1F
100
AcDbEntity
  8
SLD-0
  6
Continuous
370
    15
100
AcDbPolyline
 90
        9
 70
   128
 43
0.0
 10
58.3334788828
 20
65.1110333554
 10
58.3343987656
 20
65.1088181276
 10
58.3371208674
 20
65.1022428436
 10
58.3415407631
 20
65.0915750202
 10
58.3474894943
 20
65.0772088928
 10
58.3547382639
 20
65.0597123482
 10
58.363008995
 20
65.0397424456
 10
58.3719825447
 20
65.0180782692
 10
58.3813139569
 20
64.9955505294
  0
LWPOLYLINE
  5
108
330
1F
100
AcDbEntity
  8
SLD-0
  6
Continuous
370
    15
100
AcDbPolyline
 90
        9
 70
   128
 43
0.0
 10
58.3499030131
 20
64.9825407597
 10
58.3405704276
 20
65.0050684995
 10
58.3315968779
 20
65.0267326759
 10
58.3233261468
 20
65.0466978852
 10
58.3160773772
 20
65.0641991231
 10
58.3101286459
 20
65.0785605572
 10
58.3057087503
 20
65.0892330739
 10
58.3029866484
 20
65.0958036646
 10
58.3020667657
 20
65.0980235857
  0
LINE
  5
109
330
1F
100
AcDbEntity
  8
SLD-0
  6
Continuous
370
    15
100
AcDbLine
 10
93.2813388422
 20
65.1110333554
 30
0.0
 11
93.3127509593
 21
65.0980235857
 31
0.0
  0
LWPOLYLINE
  5
10A
330
1F
100
AcDbEntity
  8
SLD-0
  6
Continuous
370
    15
100
AcDbPolyline
 90
        9
 70
   128
 43
0.0
 10
93.2335037681
 20
64.9955505294
 10
93.2428351803
 20
65.0180782692
 10
93.25180873
 20
65.0397424456
 10
93.2600794611
 20
65.0597123482
 10
93.2673282307
 20
65.0772088928
 10
93.273276962
 20
65.0915750202
 10
93.2776968576
 20
65.1022428436
 10
93.2804189595
 20
65.1088181276
 10
93.2813388422
 20
65.1110333554
  0
LWPOLYLINE
  5
10B
330
1F
100
AcDbEntity
  8
SLD-0
  6
Continuous
370
    15
100
AcDbPolyline
 90
        9
 70
   128
 43
0.0
 10
93.3127509593
 20
65.0980235857
 10
93.3118310766
 20
65.0958036646
 10
93.3091089747
 20
65.0892330739
 10
93.3046890791
 20
65.0785605572
 10
93.2987403478
 20
65.0641991231
 10
93.2914915782
 20
65.0466978852
 10
93.2832208471
 20
65.0267326759
 10
93.2742472974
 20
65.0050684995
 10
93.2649147119
 20
64.9825407597
  0
ARC
  5
10C
330
1F
100
AcDbEntity
  8
SLD-0
  6
Continuous
370
    15
100
AcDbCircle
 10
91.0854336363
 20
60.8189845258
 30
0.0
 40
0.1250000000000142
100
AcDbArc
 50
0.0
 51
90.0
  0
LINE
  5
10D
330
1F
100
AcDbEntity
  8
SLD-0
  6
Continuous
370
    15
100
AcDbLine
 10
91.2104341255
 20
60.2438823278
 30
0.0
 11
91.2104341255
 21
60.8189826708
 31
0.0
  0
LINE
  5
10E
330
1F
100
AcDbEntity
  8
SLD-0
  6
Continuous
370
    15
100
AcDbLine
 10
91.2104341255
 20
60.2438823278
 30
0.0
 11
60.4043835996
 21
60.2438823278
 31
0.0
  0
LINE
  5
10F
330
1F
100
AcDbEntity
  8
SLD-0
  6
Continuous
370
    15
100
AcDbLine
 10
60.4043835996
 20
60.8189826708
 30
0.0
 11
60.4043835996
 21
60.2438823278
 31
0.0
  0
LINE
  5
110
330
1F
100
AcDbEntity
  8
SLD-0
  6
Continuous
370
    15
100
AcDbLine
 10
91.0854333295
 20
60.9439834668
 30
0.0
 11
60.5293843956
 21
60.9439834668
 31
0.0
  0
ARC
  5
111
330
1F
100
AcDbEntity
  8
SLD-0
  6
Continuous
370
    15
100
AcDbCircle
 10
60.5293840887
 20
60.8189845258
 30
0.0
 40
0.125
100
AcDbArc
 50
90.0
 51
180.0
  0
LINE
  5
112
330
1F
100
AcDbEntity
  8
SLD-0
  6
Continuous
370
    15
100
AcDbLine
 10
91.2104341255
 20
60.2438823278
 30
0.0
 11
91.2104341255
 21
60.1720845439
 31
0.0
  0
LINE
  5
113
330
1F
100
AcDbEntity
  8
SLD-0
  6
Continuous
370
    15
100
AcDbLine
 10
91.2104341255
 20
60.1720845439
 30
0.0
 11
60.4043835996
 21
60.1720845439
 31
0.0
  0
LINE
  5
114
330
1F
100
AcDbEntity
  8
SLD-0
  6
Continuous
370
    15
100
AcDbLine
 10
60.4043835996
 20
60.1720845439
 30
0.0
 11
60.4043835996
 21
60.2438823278
 31
0.0
  0
LINE
  5
115
330
1F
100
AcDbEntity
  8
SLD-0
  6
Continuous
370
    15
100
AcDbLine
 10
60.1560668948
 20
60.6340252342
 30
0.0
 11
60.1892342983
 21
60.6477624621
 31
0.0
  0
LWPOLYLINE
  5
116
330
1F
100
AcDbEntity
  8
SLD-0
  6
Continuous
370
    15
100
AcDbPolyline
 90
        9
 70
   128
 43
0.0
 10
60.1892342983
 20
60.6477624621
 10
60.1901530077
 20
60.6455425411
 10
60.1928751096
 20
60.6389719503
 10
60.1972961785
 20
60.6282994336
 10
60.2032449098
 20
60.6139379995
 10
60.2104936794
 20
60.5964367617
 10
60.2187644105
 20
60.5764715523
 10
60.2277379602
 20
60.5548073759
 10
60.2370693724
 20
60.5322796362
  0
LINE
  5
117
330
1F
100
AcDbEntity
  8
SLD-0
  6
Continuous
370
    15
100
AcDbLine
 10
60.2370693724
 20
60.5322796362
 30
0.0
 11
60.2039031422
 21
60.5185377149
 31
0.0
  0
LWPOLYLINE
  5
118
330
1F
100
AcDbEntity
  8
SLD-0
  6
Continuous
370
    15
100
AcDbPolyline
 90
        9
 70
   128
 43
0.0
 10
60.2039031422
 20
60.5185377149
 10
60.1945705567
 20
60.541070148
 10
60.185597007
 20
60.5627343244
 10
60.1773262759
 20
60.5826995337
 10
60.1700775063
 20
60.6002007716
 10
60.164128775
 20
60.6145622057
 10
60.1597088794
 20
60.6252347224
 10
60.1569867775
 20
60.6318053131
 10
60.1560668948
 20
60.6340252342
  0
LINE
  5
119
330
1F
100
AcDbEntity
  8
SLD-0
  6
Continuous
370
    15
100
AcDbLine
 10
60.3622168334
 20
60.2301450998
 30
0.0
 11
60.3290494298
 21
60.2164078718
 31
0.0
  0
LINE
  5
11A
330
1F
100
AcDbEntity
  8
SLD-0
  6
Continuous
370
    15
100
AcDbLine
 10
60.2370693724
 20
60.5322796362
 30
0.0
 11
60.3622168334
 21
60.2301450998
 31
0.0
  0
LINE
  5
11B
330
1F
100
AcDbEntity
  8
SLD-0
  6
Continuous
370
    15
100
AcDbLine
 10
60.3290494298
 20
60.2164078718
 30
0.0
 11
60.2039031422
 21
60.5185377149
 31
0.0
  0
ARC
  5
11C
330
1F
100
AcDbEntity
  8
SLD-0
  6
Continuous
370
    15
100
AcDbCircle
 10
60.3953840887
 20
60.2438845366
 30
0.0
 40
0.0718000182467264
100
AcDbArc
 50
202.5000079537
 51
270.0
  0
ARC
  5
11D
330
1F
100
AcDbEntity
  8
SLD-0
  6
Continuous
370
    15
100
AcDbCircle
 10
60.3953840887
 20
60.2438845258
 30
0.0
 40
0.0359000107883034
100
AcDbArc
 50
202.5
 51
270.0
  0
LINE
  5
11E
330
1F
100
AcDbEntity
  8
SLD-0
  6
Continuous
370
    15
100
AcDbLine
 10
60.3953842369
 20
60.1720845439
 30
0.0
 11
60.3953842369
 21
60.2079834358
 31
0.0
  0
LINE
  5
11F
330
1F
100
AcDbEntity
  8
SLD-0
  6
Continuous
370
    15
100
AcDbLine
 10
60.4043835996
 20
60.1720845439
 30
0.0
 11
60.3953842369
 21
60.1720845439
 31
0.0
  0
LINE
  5
120
330
1F
100
AcDbEntity
  8
SLD-0
  6
Continuous
370
    15
100
AcDbLine
 10
60.4043835996
 20
60.2079834358
 30
0.0
 11
60.3953842369
 21
60.2079834358
 31
0.0
  0
ARC
  5
121
330
1F
100
AcDbEntity
  8
SLD-0
  6
Continuous
370
    15
100
AcDbCircle
 10
91.2194336363
 20
60.2438845366
 30
0.0
 40
0.0718000182467193
100
AcDbArc
 50
270.0
 51
337.4999920463
  0
LINE
  5
122
330
1F
100
AcDbEntity
  8
SLD-0
  6
Continuous
370
    15
100
AcDbLine
 10
91.2194334882
 20
60.2079834358
 30
0.0
 11
91.2194334882
 21
60.1720845439
 31
0.0
  0
ARC
  5
123
330
1F
100
AcDbEntity
  8
SLD-0
  6
Continuous
370
    15
100
AcDbCircle
 10
91.2194336363
 20
60.2438845258
 30
0.0
 40
0.035900000000009
100
AcDbArc
 50
270.0
 51
337.5
  0
LINE
  5
124
330
1F
100
AcDbEntity
  8
SLD-0
  6
Continuous
370
    15
100
AcDbLine
 10
91.2857682952
 20
60.2164078718
 30
0.0
 11
91.2526008917
 21
60.2301450998
 31
0.0
  0
LINE
  5
125
330
1F
100
AcDbEntity
  8
SLD-0
  6
Continuous
370
    15
100
AcDbLine
 10
91.2194334882
 20
60.1720845439
 30
0.0
 11
91.2104341255
 21
60.1720845439
 31
0.0
  0
LINE
  5
126
330
1F
100
AcDbEntity
  8
SLD-0
  6
Continuous
370
    15
100
AcDbLine
 10
91.2194334882
 20
60.2079834358
 30
0.0
 11
91.2104341255
 21
60.2079834358
 31
0.0
  0
LINE
  5
127
330
1F
100
AcDbEntity
  8
SLD-0
  6
Continuous
370
    15
100
AcDbLine
 10
91.3777483526
 20
60.5322796362
 30
0.0
 11
91.2526008917
 21
60.2301450998
 31
0.0
  0
LINE
  5
128
330
1F
100
AcDbEntity
  8
SLD-0
  6
Continuous
370
    15
100
AcDbLine
 10
91.4109145828
 20
60.5185377149
 30
0.0
 11
91.3777483526
 21
60.5322796362
 31
0.0
  0
LINE
  5
129
330
1F
100
AcDbEntity
  8
SLD-0
  6
Continuous
370
    15
100
AcDbLine
 10
91.4109145828
 20
60.5185377149
 30
0.0
 11
91.2857682952
 21
60.2164078718
 31
0.0
  0
LINE
  5
12A
330
1F
100
AcDbEntity
  8
SLD-0
  6
Continuous
370
    15
100
AcDbLine
 10
91.4255834267
 20
60.6477624621
 30
0.0
 11
91.4587508302
 21
60.6340252342
 31
0.0
  0
LWPOLYLINE
  5
12B
330
1F
100
AcDbEntity
  8
SLD-0
  6
Continuous
370
    15
100
AcDbPolyline
 90
        9
 70
   128
 43
0.0
 10
91.4587508302
 20
60.6340252342
 10
91.4578309475
 20
60.6318053131
 10
91.4551088456
 20
60.6252347224
 10
91.45068895
 20
60.6145622057
 10
91.4447402187
 20
60.6002007716
 10
91.4374914491
 20
60.5826995337
 10
91.429220718
 20
60.5627343244
 10
91.4202471683
 20
60.541070148
 10
91.4109145828
 20
60.5185377149
  0
LWPOLYLINE
  5
12C
330
1F
100
AcDbEntity
  8
SLD-0
  6
Continuous
370
    15
100
AcDbPolyline
 90
        9
 70
   128
 43
0.0
 10
91.3777483526
 20
60.5322796362
 10
91.3870797648
 20
60.5548073759
 10
91.3960533145
 20
60.5764715523
 10
91.4043240456
 20
60.5964367617
 10
91.4115728152
 20
60.6139379995
 10
91.4175215465
 20
60.6282994336
 10
91.4219426154
 20
60.6389719503
 10
91.4246647173
 20
60.6455425411
 10
91.4255834267
 20
60.6477624621
  0
LINE
  5
12D
330
1F
100
AcDbEntity
  8
SLD-0
  6
Continuous
370
    15
100
AcDbLine
 10
88.2788887909
 20
54.2060866902
 30
0.0
 11
88.2788887909
 21
54.172083883
 31
0.0
  0
LINE
  5
12E
330
1F
100
AcDbEntity
  8
SLD-0
  6
Continuous
370
    15
100
AcDbLine
 10
88.1788890928
 20
54.172083883
 30
0.0
 11
88.1788890928
 21
54.2060866902
 31
0.0
  0
LINE
  5
12F
330
1F
100
AcDbEntity
  8
SLD-0
  6
Continuous
370
    15
100
AcDbLine
 10
88.1788890928
 20
54.2060866902
 30
0.0
 11
88.2788887909
 21
54.2060866902
 31
0.0
  0
LINE
  5
130
330
1F
100
AcDbEntity
  8
SLD-0
  6
Continuous
370
    15
100
AcDbLine
 10
88.800547938
 20
54.172083883
 30
0.0
 11
88.800547938
 21
54.2060866902
 31
0.0
  0
LINE
  5
131
330
1F
100
AcDbEntity
  8
SLD-0
  6
Continuous
370
    15
100
AcDbLine
 10
88.800547938
 20
54.2060866902
 30
0.0
 11
88.2788887909
 21
54.2060866902
 31
0.0
  0
ARC
  5
132
330
1F
100
AcDbEntity
  8
SLD-0
  6
Continuous
370
    15
100
AcDbCircle
 10
88.800548125
 20
54.2110845258
 30
0.0
 40
0.0050000000000026
100
AcDbArc
 50
269.9999999984
 51
337.4999999999
  0
LINE
  5
133
330
1F
100
AcDbEntity
  8
SLD-0
  6
Continuous
370
    15
100
AcDbLine
 10
88.805167298
 20
54.2091701746
 30
0.0
 11
88.8365794151
 21
54.1961604049
 31
0.0
  0
ARC
  5
134
330
1F
100
AcDbEntity
  8
SLD-0
  6
Continuous
370
    15
100
AcDbCircle
 10
88.800548125
 20
54.2110845258
 30
0.0
 40
0.0390000000000938
100
AcDbArc
 50
269.9999999998
 51
337.5
  0
LINE
  5
135
330
1F
100
AcDbEntity
  8
SLD-0
  6
Continuous
370
    15
100
AcDbLine
 10
93.7725409544
 20
66.1126260516
 30
0.0
 11
93.7411300106
 21
66.1256358213
 31
0.0
  0
LINE
  5
136
330
1F
100
AcDbEntity
  8
SLD-0
  6
Continuous
370
    15
100
AcDbLine
 10
93.7725409544
 20
66.1126260516
 30
0.0
 11
88.8365794151
 21
54.1961604049
 31
0.0
  0
LINE
  5
137
330
1F
100
AcDbEntity
  8
SLD-0
  6
Continuous
370
    15
100
AcDbLine
 10
93.7411300106
 20
66.1256358213
 30
0.0
 11
88.805167298
 21
54.2091701746
 31
0.0
  0
LINE
  5
138
330
1F
100
AcDbEntity
  8
SLD-0
  6
Continuous
370
    15
100
AcDbLine
 10
93.8741680471
 20
66.1256358213
 30
0.0
 11
93.84275593
 21
66.1126260516
 31
0.0
  0
ARC
  5
139
330
1F
100
AcDbEntity
  8
SLD-0
  6
Continuous
370
    15
100
AcDbCircle
 10
93.8076489404
 20
66.0980845258
 30
0.0
 40
0.0380000000000042
100
AcDbArc
 50
22.5
 51
157.5
  0
ARC
  5
13A
330
1F
100
AcDbEntity
  8
SLD-0
  6
Continuous
370
    15
100
AcDbCircle
 10
93.8076489404
 20
66.0980845258
 30
0.0
 40
0.0720000000000143
100
AcDbArc
 50
22.5
 51
157.5
  0
LINE
  5
13B
330
1F
100
AcDbEntity
  8
SLD-0
  6
Continuous
370
    15
100
AcDbLine
 10
98.7787174693
 20
54.1961604049
 30
0.0
 11
98.8101295865
 21
54.2091701746
 31
0.0
  0
LINE
  5
13C
330
1F
100
AcDbEntity
  8
SLD-0
  6
Continuous
370
    15
100
AcDbLine
 10
98.7787174693
 20
54.1961604049
 30
0.0
 11
93.84275593
 21
66.1126260516
 31
0.0
  0
LINE
  5
13D
330
1F
100
AcDbEntity
  8
SLD-0
  6
Continuous
370
    15
100
AcDbLine
 10
98.8101295865
 20
54.2091701746
 30
0.0
 11
93.8741680471
 21
66.1256358213
 31
0.0
  0
ARC
  5
13E
330
1F
100
AcDbEntity
  8
SLD-0
  6
Continuous
370
    15
100
AcDbCircle
 10
98.8147497557
 20
54.2110845258
 30
0.0
 40
0.0049999999999985
100
AcDbArc
 50
202.500000001
 51
270.0
  0
LINE
  5
13F
330
1F
100
AcDbEntity
  8
SLD-0
  6
Continuous
370
    15
100
AcDbLine
 10
98.8147501197
 20
54.2060866902
 30
0.0
 11
98.8147501197
 21
54.172083883
 31
0.0
  0
ARC
  5
140
330
1F
100
AcDbEntity
  8
SLD-0
  6
Continuous
370
    15
100
AcDbCircle
 10
98.8147497557
 20
54.2110845258
 30
0.0
 40
0.0390000000000015
100
AcDbArc
 50
202.5000000001
 51
270.0
  0
LINE
  5
141
330
1F
100
AcDbEntity
  8
SLD-0
  6
Continuous
370
    15
100
AcDbLine
 10
99.3364080935
 20
54.2060866902
 30
0.0
 11
98.8147501197
 21
54.2060866902
 31
0.0
  0
LINE
  5
142
330
1F
100
AcDbEntity
  8
SLD-0
  6
Continuous
370
    15
100
AcDbLine
 10
99.3364080935
 20
54.172083883
 30
0.0
 11
99.3364080935
 21
54.2060866902
 31
0.0
  0
LINE
  5
143
330
1F
100
AcDbEntity
  8
SLD-0
  6
Continuous
370
    15
100
AcDbLine
 10
99.4364077916
 20
54.2060866902
 30
0.0
 11
99.4364077916
 21
54.172083883
 31
0.0
  0
LINE
  5
144
330
1F
100
AcDbEntity
  8
SLD-0
  6
Continuous
370
    15
100
AcDbLine
 10
99.3364080935
 20
54.2060866902
 30
0.0
 11
99.4364077916
 21
54.2060866902
 31
0.0
  0
LINE
  5
145
330
1F
100
AcDbEntity
  8
SLD-0
  6
Continuous
370
    15
100
AcDbLine
 10
62.7782383099
 20
54.1961604049
 30
0.0
 11
62.8096504271
 21
54.2091701746
 31
0.0
  0
LINE
  5
146
330
1F
100
AcDbEntity
  8
SLD-0
  6
Continuous
370
    15
100
AcDbLine
 10
57.8422767706
 20
66.1126260516
 30
0.0
 11
62.7782383099
 21
54.1961604049
 31
0.0
  0
LINE
  5
147
330
1F
100
AcDbEntity
  8
SLD-0
  6
Continuous
370
    15
100
AcDbLine
 10
57.8736877144
 20
66.1256358213
 30
0.0
 11
57.8422767706
 21
66.1126260516
 31
0.0
  0
LINE
  5
148
330
1F
100
AcDbEntity
  8
SLD-0
  6
Continuous
370
    15
100
AcDbLine
 10
57.8736877144
 20
66.1256358213
 30
0.0
 11
62.8096504271
 21
54.2091701746
 31
0.0
  0
ARC
  5
149
330
1F
100
AcDbEntity
  8
SLD-0
  6
Continuous
370
    15
100
AcDbCircle
 10
62.8142696
 20
54.2110845258
 30
0.0
 40
0.0050000000000014
100
AcDbArc
 50
202.5
 51
270.0000000015
  0
LINE
  5
14A
330
1F
100
AcDbEntity
  8
SLD-0
  6
Continuous
370
    15
100
AcDbLine
 10
62.814269787
 20
54.2060866902
 30
0.0
 11
62.814269787
 21
54.172083883
 31
0.0
  0
ARC
  5
14B
330
1F
100
AcDbEntity
  8
SLD-0
  6
Continuous
370
    15
100
AcDbCircle
 10
62.8142696
 20
54.2110845258
 30
0.0
 40
0.039000000000101
100
AcDbArc
 50
202.5
 51
270.0000000002
  0
LINE
  5
14C
330
1F
100
AcDbEntity
  8
SLD-0
  6
Continuous
370
    15
100
AcDbLine
 10
52.1784099334
 20
54.172083883
 30
0.0
 11
52.1784099334
 21
54.2060866902
 31
0.0
  0
LINE
  5
14D
330
1F
100
AcDbEntity
  8
SLD-0
  6
Continuous
370
    15
100
AcDbLine
 10
52.1784099334
 20
54.2060866902
 30
0.0
 11
52.2784096315
 21
54.2060866902
 31
0.0
  0
LINE
  5
14E
330
1F
100
AcDbEntity
  8
SLD-0
  6
Continuous
370
    15
100
AcDbLine
 10
52.2784096315
 20
54.2060866902
 30
0.0
 11
52.2784096315
 21
54.172083883
 31
0.0
  0
ARC
  5
14F
330
1F
100
AcDbEntity
  8
SLD-0
  6
Continuous
370
    15
100
AcDbCircle
 10
57.8071687847
 20
66.0980845258
 30
0.0
 40
0.0720000000000012
100
AcDbArc
 50
22.5
 51
157.5
  0
ARC
  5
150
330
1F
100
AcDbEntity
  8
SLD-0
  6
Continuous
370
    15
100
AcDbCircle
 10
57.8071687847
 20
66.0980845258
 30
0.0
 40
0.0380000000000053
100
AcDbArc
 50
22.5
 51
157.5
  0
LINE
  5
151
330
1F
100
AcDbEntity
  8
SLD-0
  6
Continuous
370
    15
100
AcDbLine
 10
57.7720617951
 20
66.1126260516
 30
0.0
 11
57.7406496779
 21
66.1256358213
 31
0.0
  0
LINE
  5
152
330
1F
100
AcDbEntity
  8
SLD-0
  6
Continuous
370
    15
100
AcDbLine
 10
52.8361002557
 20
54.1961604049
 30
0.0
 11
57.7720617951
 21
66.1126260516
 31
0.0
  0
LINE
  5
153
330
1F
100
AcDbEntity
  8
SLD-0
  6
Continuous
370
    15
100
AcDbLine
 10
52.8046881386
 20
54.2091701746
 30
0.0
 11
52.8361002557
 21
54.1961604049
 31
0.0
  0
LINE
  5
154
330
1F
100
AcDbEntity
  8
SLD-0
  6
Continuous
370
    15
100
AcDbLine
 10
52.8046881386
 20
54.2091701746
 30
0.0
 11
57.7406496779
 21
66.1256358213
 31
0.0
  0
LINE
  5
155
330
1F
100
AcDbEntity
  8
SLD-0
  6
Continuous
370
    15
100
AcDbLine
 10
62.814269787
 20
54.2060866902
 30
0.0
 11
63.3359289341
 21
54.2060866902
 31
0.0
  0
LINE
  5
156
330
1F
100
AcDbEntity
  8
SLD-0
  6
Continuous
370
    15
100
AcDbLine
 10
63.3359289341
 20
54.172083883
 30
0.0
 11
63.3359289341
 21
54.2060866902
 31
0.0
  0
LINE
  5
157
330
1F
100
AcDbEntity
  8
SLD-0
  6
Continuous
370
    15
100
AcDbLine
 10
63.4359286322
 20
54.2060866902
 30
0.0
 11
63.4359286322
 21
54.172083883
 31
0.0
  0
LINE
  5
158
330
1F
100
AcDbEntity
  8
SLD-0
  6
Continuous
370
    15
100
AcDbLine
 10
63.3359289341
 20
54.2060866902
 30
0.0
 11
63.4359286322
 21
54.2060866902
 31
0.0
  0
LINE
  5
159
330
1F
100
AcDbEntity
  8
SLD-0
  6
Continuous
370
    15
100
AcDbLine
 10
52.8000676053
 20
54.172083883
 30
0.0
 11
52.8000676053
 21
54.2060866902
 31
0.0
  0
LINE
  5
15A
330
1F
100
AcDbEntity
  8
SLD-0
  6
Continuous
370
    15
100
AcDbLine
 10
52.2784096315
 20
54.2060866902
 30
0.0
 11
52.8000676053
 21
54.2060866902
 31
0.0
  0
ARC
  5
15B
330
1F
100
AcDbEntity
  8
SLD-0
  6
Continuous
370
    15
100
AcDbCircle
 10
52.8000679693
 20
54.2110845258
 30
0.0
 40
0.0050000000000026
100
AcDbArc
 50
270.0
 51
337.4999999991
  0
ARC
  5
15C
330
1F
100
AcDbEntity
  8
SLD-0
  6
Continuous
370
    15
100
AcDbCircle
 10
52.8000679693
 20
54.2110845258
 30
0.0
 40
0.0390000000000015
100
AcDbArc
 50
270.0
 51
337.4999999999
  0
LINE
  5
15D
330
1F
100
AcDbEntity
  8
SLD-0
  6
Continuous
370
    15
100
AcDbLine
 10
97.6192334771
 20
10.098288614
 30
0.0
 11
97.6192334771
 21
48.7440860011
 31
0.0
  0
LINE
  5
15E
330
1F
100
AcDbEntity
  8
SLD-0
  6
Continuous
370
    15
100
AcDbLine
 10
53.9955842479
 20
10.098288614
 30
0.0
 11
53.9955842479
 21
48.7440860011
 31
0.0
  0
LINE
  5
15F
330
1F
100
AcDbEntity
  8
SLD-0
  6
Continuous
370
    15
100
AcDbLine
 10
106.2544094562
 20
9.7270845555
 30
0.0
 11
106.2544094562
 21
48.8740851393
 31
0.0
  0
LINE
  5
160
330
1F
100
AcDbEntity
  8
SLD-0
  6
Continuous
370
    15
100
AcDbLine
 10
45.3604082689
 20
9.7270845555
 30
0.0
 11
45.3604082689
 21
48.8740851393
 31
0.0
  0
DIMENSION
  5
161
330
1F
100
AcDbEntity
  8
DIM
100
AcDbDimension
  2
_D
 10
35.3074088625
 20
66.1700845258
 30
0.0
 11
35.3074088625
 21
35.3243084582
 31
0.0
 70
   160
  1
<>
 71
     2
 42
-1.0
  3
SLDDIMSTYLE0
100
AcDbAlignedDimension
 13
45.3364088625
 23
8.8720845258
 33
0.0
 14
57.8071687847
 24
66.1700845258
 34
0.0
 50
90.0
100
AcDbRotatedDimension
  0
DIMENSION
  5
171
330
1F
100
AcDbEntity
  8
DIM
100
AcDbDimension
  2
_D_1
 10
40.4304938573
 20
9.8430845258
 30
0.0
 11
40.4304938573
 21
29.1572124087
 31
0.0
 70
   160
  1
<>
 71
     2
 42
-1.0
  3
SLDDIMSTYLE0
100
AcDbAlignedDimension
 13
45.4614088625
 23
48.7730845258
 33
0.0
 14
45.4764088625
 24
9.8430845258
 34
0.0
 50
90.0
100
AcDbRotatedDimension
  0
DIMENSION
  5
180
330
1F
100
AcDbEntity
  8
DIM
100
AcDbDimension
  2
_D_2
 10
98.7414088625
 20
5.8720825573
 30
0.0
 11
75.8074088625
 21
5.8720825573
 31
0.0
 70
   160
  1
<>
 71
     2
 42
-1.0
  3
SLDDIMSTYLE0
100
AcDbAlignedDimension
 13
52.8734088625
 23
9.0210845258
 33
0.0
 14
98.7414088625
 24
9.0210845258
 34
0.0
 50
0.0
100
AcDbRotatedDimension
  0
DIMENSION
  5
18F
330
1F
100
AcDbEntity
  8
DIM
100
AcDbDimension
  2
_D_3
 10
45.3074088625
 20
2.3720825573
 30
0.0
 11
75.8074088625
 21
2.3720825573
 31
0.0
 70
   160
  1
<>
 71
     2
 42
-1.0
  3
SLDDIMSTYLE0
100
AcDbAlignedDimension
 13
106.3074088625
 23
8.9010845258
 33
0.0
 14
45.3074088625
 24
8.9010845258
 34
0.0
 50
0.0
100
AcDbRotatedDimension
  0
DIMENSION
  5
19A
330
1F
100
AcDbEntity
  8
DIM
100
AcDbDimension
  2
_D_4
 10
96.3515625641
 20
17.0341877212
 30
0.0
 11
75.8074088625
 21
17.0341877212
 31
0.0
 70
   160
  1
<>
 71
     2
 42
-1.0
  3
SLDDIMSTYLE0
100
AcDbAlignedDimension
 13
55.2632551609
 23
9.8720845258
 33
0.0
 14
96.3515625641
 24
9.8720845258
 34
0.0
100
AcDbRotatedDimension
  0
DIMENSION
  5
1A7
330
1F
100
AcDbEntity
  8
DIM
100
AcDbDimension
  2
_D_5
 10
89.989221623
 20
11.8460845258
 30
0.0
 11
89.989221623
 21
30.2950845258
 31
0.0
 70
   160
  1
<>
 71
     2
 42
-1.0
  3
SLDDIMSTYLE0
100
AcDbAlignedDimension
 13
98.5704088625
 23
48.7440845258
 33
0.0
 14
97.2449088625
 24
11.8460845258
 34
0.0
 50
90.0
100
AcDbRotatedDimension
  0
LINE
  5
1B4
330
1F
100
AcDbEntity
  8
SLD-0
  6
Continuous
370
    15
100
AcDbLine
 10
124.7280809321
 20
66.1700858678
 30
0.0
 11
124.4780809168
 21
66.1700858678
 31
0.0
  0
LINE
  5
1B5
330
1F
100
AcDbEntity
  8
SLD-0
  6
Continuous
370
    15
100
AcDbLine
 10
128.1030807905
 20
66.1700858678
 30
0.0
 11
125.8530809827
 21
66.1700858678
 31
0.0
  0
LINE
  5
1B6
330
1F
100
AcDbEntity
  8
SLD-0
  6
Continuous
370
    15
100
AcDbLine
 10
129.4780807464
 20
66.1700858678
 30
0.0
 11
129.2280809144
 21
66.1700858678
 31
0.0
  0
LINE
  5
1B7
330
1F
100
AcDbEntity
  8
SLD-0
  6
Continuous
370
    15
100
AcDbLine
 10
123.4780809289
 20
9.8720845138
 30
0.0
 11
123.5335974342
 21
9.8720845138
 31
0.0
  0
LINE
  5
1B8
330
1F
100
AcDbEntity
  8
SLD-0
  6
Continuous
370
    15
100
AcDbLine
 10
123.4780809289
 20
48.7440860011
 30
0.0
 11
123.5511931243
 21
48.7440860011
 31
0.0
  0
LINE
  5
1B9
330
1F
100
AcDbEntity
  8
SLD-0
  6
Continuous
370
    15
100
AcDbLine
 10
123.9730809226
 20
48.7440860011
 30
0.0
 11
124.0020809223
 21
48.7440860011
 31
0.0
  0
LINE
  5
1BA
330
1F
100
AcDbEntity
  8
SLD-0
  6
Continuous
370
    15
100
AcDbLine
 10
123.4780809289
 20
48.7440860011
 30
0.0
 11
123.4780809289
 21
48.5980827811
 31
0.0
  0
LINE
  5
1BB
330
1F
100
AcDbEntity
  8
SLD-0
  6
Continuous
370
    15
100
AcDbLine
 10
123.4780809289
 20
9.9970845031
 30
0.0
 11
123.4780809289
 21
9.8720845138
 31
0.0
  0
LINE
  5
1BC
330
1F
100
AcDbEntity
  8
SLD-0
  6
Continuous
370
    15
100
AcDbLine
 10
124.0070809237
 20
53.2730862683
 30
0.0
 11
124.1320809222
 21
53.1480854724
 31
0.0
  0
LINE
  5
1BD
330
1F
100
AcDbEntity
  8
SLD-0
  6
Continuous
370
    15
100
AcDbLine
 10
124.0070809237
 20
53.2730862683
 30
0.0
 11
124.0070809237
 21
54.1430841114
 31
0.0
  0
LINE
  5
1BE
330
1F
100
AcDbEntity
  8
SLD-0
  6
Continuous
370
    15
100
AcDbLine
 10
124.0070809237
 20
54.1430841114
 30
0.0
 11
145.9310089741
 21
54.1430841114
 31
0.0
  0
LINE
  5
1BF
330
1F
100
AcDbEntity
  8
SLD-0
  6
Continuous
370
    15
100
AcDbLine
 10
145.9310089741
 20
54.1430841114
 30
0.0
 11
145.9310089741
 21
53.2730862683
 31
0.0
  0
LINE
  5
1C0
330
1F
100
AcDbEntity
  8
SLD-0
  6
Continuous
370
    15
100
AcDbLine
 10
124.1320809222
 20
53.1480854724
 30
0.0
 11
145.8060105247
 21
53.1480854724
 31
0.0
  0
LINE
  5
1C1
330
1F
100
AcDbEntity
  8
SLD-0
  6
Continuous
370
    15
100
AcDbLine
 10
145.8060105247
 20
53.1480854724
 30
0.0
 11
145.9310089741
 21
53.2730862683
 31
0.0
  0
LINE
  5
1C2
330
1F
100
AcDbEntity
  8
SLD-0
  6
Continuous
370
    15
100
AcDbLine
 10
145.9330810568
 20
54.172083883
 30
0.0
 11
145.9330810568
 21
54.1480824536
 31
0.0
  0
LWPOLYLINE
  5
1C3
330
1F
100
AcDbEntity
  8
SLD-0
  6
Continuous
370
    15
100
AcDbPolyline
 90
       10
 70
   128
 43
0.0
 10
145.9330810568
 20
54.1480824536
 10
145.932722021
 20
54.1480073612
 10
145.9323723717
 20
54.1477820838
 10
145.9320461888
 20
54.147416008
 10
145.9317505122
 20
54.1469138271
 10
145.9314947285
 20
54.1462990076
 10
145.9312882242
 20
54.1455856292
 10
145.9311356926
 20
54.144792465
 10
145.931041827
 20
54.143952368
 10
145.9310089741
 20
54.1430841114
  0
ELLIPSE
  5
1C4
330
1F
100
AcDbEntity
  8
SLD-0
  6
Continuous
370
    15
100
AcDbEllipse
 10
145.9330809228
 20
54.1430845258
 30
0.0
 11
0.0
 21
0.02899999999999636
 31
0.0
210
0.0
220
0.0
230
1.0
 40
0.0714161315
 41
0.0
 42
1.570796326794897
  0
LINE
  5
1C5
330
1F
100
AcDbEntity
  8
SLD-0
  6
Continuous
370
    15
100
AcDbLine
 10
124.0070809237
 20
54.1430841114
 30
0.0
 11
124.0070809237
 21
54.172083883
 31
0.0
  0
LINE
  5
1C6
330
1F
100
AcDbEntity
  8
SLD-0
  6
Continuous
370
    15
100
AcDbLine
 10
124.0070809237
 20
54.172083883
 30
0.0
 11
145.9330810568
 21
54.172083883
 31
0.0
  0
LINE
  5
1C7
330
1F
100
AcDbEntity
  8
SLD-0
  6
Continuous
370
    15
100
AcDbLine
 10
124.0020809223
 20
54.1430841114
 30
0.0
 11
123.9780809228
 21
54.1430841114
 31
0.0
  0
LINE
  5
1C8
330
1F
100
AcDbEntity
  8
SLD-0
  6
Continuous
370
    15
100
AcDbLine
 10
124.0020809223
 20
48.8980865687
 30
0.0
 11
124.0020809223
 21
54.1430841114
 31
0.0
  0
LINE
  5
1C9
330
1F
100
AcDbEntity
  8
SLD-0
  6
Continuous
370
    15
100
AcDbLine
 10
123.9780809228
 20
48.8980865687
 30
0.0
 11
124.0020809223
 21
48.8980865687
 31
0.0
  0
LINE
  5
1CA
330
1F
100
AcDbEntity
  8
SLD-0
  6
Continuous
370
    15
100
AcDbLine
 10
123.9780809228
 20
48.8980865687
 30
0.0
 11
123.9780809228
 21
54.1430841114
 31
0.0
  0
LINE
  5
1CB
330
1F
100
AcDbEntity
  8
SLD-0
  6
Continuous
370
    15
100
AcDbLine
 10
124.0020809223
 20
48.7730857727
 30
0.0
 11
123.9780809228
 21
48.7730857727
 31
0.0
  0
LINE
  5
1CC
330
1F
100
AcDbEntity
  8
SLD-0
  6
Continuous
370
    15
100
AcDbLine
 10
123.9780809228
 20
48.7730857727
 30
0.0
 11
123.9780809228
 21
48.8980865687
 31
0.0
  0
LINE
  5
1CD
330
1F
100
AcDbEntity
  8
SLD-0
  6
Continuous
370
    15
100
AcDbLine
 10
124.0020809223
 20
48.8980865687
 30
0.0
 11
124.0020809223
 21
48.8740851393
 31
0.0
  0
ARC
  5
1CE
330
1F
100
AcDbEntity
  8
SLD-0
  6
Continuous
370
    15
100
AcDbCircle
 10
145.9330809228
 20
54.1430845258
 30
0.0
 40
0.0050000000042871
100
AcDbArc
 50
0.0
 51
90.0
  0
LINE
  5
1CF
330
1F
100
AcDbEntity
  8
SLD-0
  6
Continuous
370
    15
100
AcDbLine
 10
145.9620808285
 20
54.1430841114
 30
0.0
 11
145.9380817457
 21
54.1430841114
 31
0.0
  0
ARC
  5
1D0
330
1F
100
AcDbEntity
  8
SLD-0
  6
Continuous
370
    15
100
AcDbCircle
 10
145.9330809228
 20
54.1430845258
 30
0.0
 40
0.029000000004288
100
AcDbArc
 50
0.0
 51
90.0
  0
ARC
  5
1D1
330
1F
100
AcDbEntity
  8
SLD-0
  6
Continuous
370
    15
100
AcDbCircle
 10
124.0070809228
 20
54.1430845258
 30
0.0
 40
0.0049999999995904
100
AcDbArc
 50
90.0
 51
180.0
  0
ARC
  5
1D2
330
1F
100
AcDbEntity
  8
SLD-0
  6
Continuous
370
    15
100
AcDbCircle
 10
124.0070809228
 20
54.1430845258
 30
0.0
 40
0.0289999999999964
100
AcDbArc
 50
89.999999999
 51
180.0
  0
LINE
  5
1D3
330
1F
100
AcDbEntity
  8
SLD-0
  6
Continuous
370
    15
100
AcDbLine
 10
145.9620808285
 20
53.2730862683
 30
0.0
 11
145.9620808285
 21
54.1430841114
 31
0.0
  0
LINE
  5
1D4
330
1F
100
AcDbEntity
  8
SLD-0
  6
Continuous
370
    15
100
AcDbLine
 10
145.9380817457
 20
53.2730862683
 30
0.0
 11
145.9620808285
 21
53.2730862683
 31
0.0
  0
LINE
  5
1D5
330
1F
100
AcDbEntity
  8
SLD-0
  6
Continuous
370
    15
100
AcDbLine
 10
145.9380817457
 20
53.2730862683
 30
0.0
 11
145.9380817457
 21
54.1430841114
 31
0.0
  0
LINE
  5
1D6
330
1F
100
AcDbEntity
  8
SLD-0
  6
Continuous
370
    15
100
AcDbLine
 10
145.9620808285
 20
53.1480854724
 30
0.0
 11
145.9380817457
 21
53.1480854724
 31
0.0
  0
LINE
  5
1D7
330
1F
100
AcDbEntity
  8
SLD-0
  6
Continuous
370
    15
100
AcDbLine
 10
145.9620808285
 20
53.2730862683
 30
0.0
 11
145.9620808285
 21
53.1480854724
 31
0.0
  0
LINE
  5
1D8
330
1F
100
AcDbEntity
  8
SLD-0
  6
Continuous
370
    15
100
AcDbLine
 10
145.9380817457
 20
53.1480854724
 30
0.0
 11
145.9380817457
 21
53.2730862683
 31
0.0
  0
LINE
  5
1D9
330
1F
100
AcDbEntity
  8
SLD-0
  6
Continuous
370
    15
100
AcDbLine
 10
123.9730809226
 20
48.7680827372
 30
0.0
 11
123.9730809226
 21
48.7440860011
 31
0.0
  0
ARC
  5
1DA
330
1F
100
AcDbEntity
  8
SLD-0
  6
Continuous
370
    15
100
AcDbCircle
 10
123.9730809228
 20
48.7730845258
 30
0.0
 40
0.0050000000000026
100
AcDbArc
 50
270.0
 51
0.0
  0
ARC
  5
1DB
330
1F
100
AcDbEntity
  8
SLD-0
  6
Continuous
370
    15
100
AcDbCircle
 10
123.9730809228
 20
48.7730845258
 30
0.0
 40
0.0290000000000035
100
AcDbArc
 50
270.0
 51
0.0
  0
LINE
  5
1DC
330
1F
100
AcDbEntity
  8
SLD-0
  6
Continuous
370
    15
100
AcDbLine
 10
123.6030809182
 20
48.7440860011
 30
0.0
 11
123.9730809226
 21
48.7440860011
 31
0.0
  0
LINE
  5
1DD
330
1F
100
AcDbEntity
  8
SLD-0
  6
Continuous
370
    15
100
AcDbLine
 10
123.6030809182
 20
48.7680827372
 30
0.0
 11
123.6030809182
 21
48.7440860011
 31
0.0
  0
LINE
  5
1DE
330
1F
100
AcDbEntity
  8
SLD-0
  6
Continuous
370
    15
100
AcDbLine
 10
123.6030809182
 20
48.7680827372
 30
0.0
 11
123.9730809226
 21
48.7680827372
 31
0.0
  0
LINE
  5
1DF
330
1F
100
AcDbEntity
  8
SLD-0
  6
Continuous
370
    15
100
AcDbLine
 10
123.4780809289
 20
48.7440860011
 30
0.0
 11
123.4780809289
 21
48.7680827372
 31
0.0
  0
LINE
  5
1E0
330
1F
100
AcDbEntity
  8
SLD-0
  6
Continuous
370
    15
100
AcDbLine
 10
123.6030809182
 20
48.7440860011
 30
0.0
 11
123.5511931243
 21
48.7440860011
 31
0.0
  0
LINE
  5
1E1
330
1F
100
AcDbEntity
  8
SLD-0
  6
Continuous
370
    15
100
AcDbLine
 10
123.4780809289
 20
48.7680827372
 30
0.0
 11
123.6030809182
 21
48.7680827372
 31
0.0
  0
LINE
  5
1E2
330
1F
100
AcDbEntity
  8
SLD-0
  6
Continuous
370
    15
100
AcDbLine
 10
145.8980809278
 20
9.7889424142
 30
0.0
 11
145.8980809278
 21
53.2401535288
 31
0.0
  0
LINE
  5
1E3
330
1F
100
AcDbEntity
  8
SLD-0
  6
Continuous
370
    15
100
AcDbLine
 10
124.0070809237
 20
8.8960845253
 30
0.0
 11
124.0035128261
 21
8.8960845253
 31
0.0
  0
LINE
  5
1E4
330
1F
100
AcDbEntity
  8
SLD-0
  6
Continuous
370
    15
100
AcDbLine
 10
124.0020809223
 20
9.7270845555
 30
0.0
 11
124.0020809223
 21
48.8740851393
 31
0.0
  0
LINE
  5
1E5
330
1F
100
AcDbEntity
  8
SLD-0
  6
Continuous
370
    15
100
AcDbLine
 10
124.0020809223
 20
54.1060822988
 30
0.0
 11
124.0070809237
 21
54.1060822988
 31
0.0
  0
LINE
  5
1E6
330
1F
100
AcDbEntity
  8
SLD-0
  6
Continuous
370
    15
100
AcDbLine
 10
123.9970809231
 20
48.723083577
 30
0.0
 11
123.9970809231
 21
9.8720845138
 31
0.0
  0
LINE
  5
1E7
330
1F
100
AcDbEntity
  8
SLD-0
  6
Continuous
370
    15
100
AcDbLine
 10
124.0020809223
 20
48.723083577
 30
0.0
 11
123.9970809231
 21
48.723083577
 31
0.0
  0
LINE
  5
1E8
330
1F
100
AcDbEntity
  8
SLD-0
  6
Continuous
370
    15
100
AcDbLine
 10
123.9970809231
 20
9.8720845138
 30
0.0
 11
124.0020809223
 21
9.8720845138
 31
0.0
  0
LINE
  5
1E9
330
1F
100
AcDbEntity
  8
SLD-0
  6
Continuous
370
    15
100
AcDbLine
 10
123.4780809289
 20
9.9970845031
 30
0.0
 11
123.6030809182
 21
9.8720845138
 31
0.0
  0
LINE
  5
1EA
330
1F
100
AcDbEntity
  8
SLD-0
  6
Continuous
370
    15
100
AcDbLine
 10
123.6030809182
 20
9.8720845138
 30
0.0
 11
123.9970809231
 21
9.8720845138
 31
0.0
  0
LINE
  5
1EB
330
1F
100
AcDbEntity
  8
SLD-0
  6
Continuous
370
    15
100
AcDbLine
 10
123.4780809289
 20
48.5980827811
 30
0.0
 11
123.4780809289
 21
9.9970845031
 31
0.0
  0
LINE
  5
1EC
330
1F
100
AcDbEntity
  8
SLD-0
  6
Continuous
370
    15
100
AcDbLine
 10
123.9970809231
 20
48.723083577
 30
0.0
 11
123.6030809182
 21
48.723083577
 31
0.0
  0
LINE
  5
1ED
330
1F
100
AcDbEntity
  8
SLD-0
  6
Continuous
370
    15
100
AcDbLine
 10
123.6030809182
 20
48.723083577
 30
0.0
 11
123.4780809289
 21
48.5980827811
 31
0.0
  0
LINE
  5
1EE
330
1F
100
AcDbEntity
  8
SLD-0
  6
Continuous
370
    15
100
AcDbLine
 10
145.9300820515
 20
9.8149423739
 30
0.0
 11
145.9300820515
 21
53.2721569991
 31
0.0
  0
LINE
  5
1EF
330
1F
100
AcDbEntity
  8
SLD-0
  6
Continuous
370
    15
100
AcDbLine
 10
145.9159388548
 20
9.0210845237
 30
0.0
 11
145.9300820515
 21
9.0210845237
 31
0.0
  0
LINE
  5
1F0
330
1F
100
AcDbEntity
  8
SLD-0
  6
Continuous
370
    15
100
AcDbLine
 10
145.9300820515
 20
8.9010845267
 30
0.0
 11
145.9300820515
 21
8.8960845253
 31
0.0
  0
LINE
  5
1F1
330
1F
100
AcDbEntity
  8
SLD-0
  6
Continuous
370
    15
100
AcDbLine
 10
145.9300820515
 20
8.8960845253
 30
0.0
 11
145.9250813626
 21
8.8960845253
 31
0.0
  0
LINE
  5
1F2
330
1F
100
AcDbEntity
  8
SLD-0
  6
Continuous
370
    15
100
AcDbLine
 10
124.0070809237
 20
8.9010845267
 30
0.0
 11
145.9159388548
 21
8.9010845267
 31
0.0
  0
LINE
  5
1F3
330
1F
100
AcDbEntity
  8
SLD-0
  6
Continuous
370
    15
100
AcDbLine
 10
124.0070809237
 20
9.7710845605
 30
0.0
 11
124.0070809237
 21
8.9010845267
 31
0.0
  0
LINE
  5
1F4
330
1F
100
AcDbEntity
  8
SLD-0
  6
Continuous
370
    15
100
AcDbLine
 10
124.1320809222
 20
9.8960845498
 30
0.0
 11
124.0070809237
 21
9.7710845605
 31
0.0
  0
LINE
  5
1F5
330
1F
100
AcDbEntity
  8
SLD-0
  6
Continuous
370
    15
100
AcDbLine
 10
124.1320809222
 20
9.8960845498
 30
0.0
 11
145.7909380589
 21
9.8960845498
 31
0.0
  0
LINE
  5
1F6
330
1F
100
AcDbEntity
  8
SLD-0
  6
Continuous
370
    15
100
AcDbLine
 10
145.9159388548
 20
8.9010845267
 30
0.0
 11
145.9159388548
 21
9.7710845605
 31
0.0
  0
LINE
  5
1F7
330
1F
100
AcDbEntity
  8
SLD-0
  6
Continuous
370
    15
100
AcDbLine
 10
145.9159388548
 20
9.7710845605
 30
0.0
 11
145.7909380589
 21
9.8960845498
 31
0.0
  0
ELLIPSE
  5
1F8
330
1F
100
AcDbEntity
  8
SLD-0
  6
Continuous
370
    15
100
AcDbEllipse
 10
145.9250809228
 20
8.9010845258
 30
0.0
 11
0.009142135621829084
 21
0.0
 31
0.0
210
0.0
220
0.0
230
1.0
 40
0.5469181608
 41
3.141592653589793
 42
4.712388980303867
  0
LINE
  5
1F9
330
1F
100
AcDbEntity
  8
SLD-0
  6
Continuous
370
    15
100
AcDbLine
 10
145.9250813626
 20
8.8960845253
 30
0.0
 11
145.9250813626
 21
8.8720845258
 31
0.0
  0
ELLIPSE
  5
1FA
330
1F
100
AcDbEntity
  8
SLD-0
  6
Continuous
370
    15
100
AcDbEllipse
 10
145.9250809228
 20
8.9010845258
 30
0.0
 11
0.0
 21
0.02899999999999991
 31
0.0
210
0.0
220
0.0
230
1.0
 40
0.3152460559
 41
1.570796326795019
 42
3.141592653508963
  0
LINE
  5
1FB
330
1F
100
AcDbEntity
  8
SLD-0
  6
Continuous
370
    15
100
AcDbLine
 10
124.0070809237
 20
8.9010845267
 30
0.0
 11
124.0070809237
 21
8.8720845258
 31
0.0
  0
LINE
  5
1FC
330
1F
100
AcDbEntity
  8
SLD-0
  6
Continuous
370
    15
100
AcDbLine
 10
124.0070809237
 20
8.8720845258
 30
0.0
 11
145.9250813626
 21
8.8720845258
 31
0.0
  0
ARC
  5
1FD
330
1F
100
AcDbEntity
  8
SLD-0
  6
Continuous
370
    15
100
AcDbCircle
 10
145.9250809228
 20
8.9010845258
 30
0.0
 40
0.004999999999999
100
AcDbArc
 50
270.0
 51
0.0
  0
LINE
  5
1FE
330
1F
100
AcDbEntity
  8
SLD-0
  6
Continuous
370
    15
100
AcDbLine
 10
145.9540811342
 20
8.9010845267
 30
0.0
 11
145.9300820515
 21
8.9010845267
 31
0.0
  0
ARC
  5
1FF
330
1F
100
AcDbEntity
  8
SLD-0
  6
Continuous
370
    15
100
AcDbCircle
 10
145.9250809228
 20
8.9010845258
 30
0.0
 40
0.0289999999999981
100
AcDbArc
 50
270.0
 51
360.0
  0
LINE
  5
200
330
1F
100
AcDbEntity
  8
SLD-0
  6
Continuous
370
    15
100
AcDbLine
 10
145.9300820515
 20
9.7710845605
 30
0.0
 11
145.9300820515
 21
8.9010845267
 31
0.0
  0
LINE
  5
201
330
1F
100
AcDbEntity
  8
SLD-0
  6
Continuous
370
    15
100
AcDbLine
 10
145.9540811342
 20
9.7710845605
 30
0.0
 11
145.9300820515
 21
9.7710845605
 31
0.0
  0
LINE
  5
202
330
1F
100
AcDbEntity
  8
SLD-0
  6
Continuous
370
    15
100
AcDbLine
 10
145.9540811342
 20
9.7710845605
 30
0.0
 11
145.9540811342
 21
8.9010845267
 31
0.0
  0
LINE
  5
203
330
1F
100
AcDbEntity
  8
SLD-0
  6
Continuous
370
    15
100
AcDbLine
 10
145.9300820515
 20
9.8960845498
 30
0.0
 11
145.9540811342
 21
9.8960845498
 31
0.0
  0
LINE
  5
204
330
1F
100
AcDbEntity
  8
SLD-0
  6
Continuous
370
    15
100
AcDbLine
 10
145.9540811342
 20
9.8960845498
 30
0.0
 11
145.9540811342
 21
9.7710845605
 31
0.0
  0
LINE
  5
205
330
1F
100
AcDbEntity
  8
SLD-0
  6
Continuous
370
    15
100
AcDbLine
 10
145.9300820515
 20
9.7710845605
 30
0.0
 11
145.9300820515
 21
9.8149423739
 31
0.0
  0
ARC
  5
206
330
1F
100
AcDbEntity
  8
SLD-0
  6
Continuous
370
    15
100
AcDbCircle
 10
124.0070809228
 20
8.9010845258
 30
0.0
 40
0.0289999999996144
100
AcDbArc
 50
180.0
 51
269.9999999992
  0
LINE
  5
207
330
1F
100
AcDbEntity
  8
SLD-0
  6
Continuous
370
    15
100
AcDbLine
 10
124.0020809223
 20
8.9010845267
 30
0.0
 11
123.9780809228
 21
8.9010845267
 31
0.0
  0
ARC
  5
208
330
1F
100
AcDbEntity
  8
SLD-0
  6
Continuous
370
    15
100
AcDbCircle
 10
124.0070809228
 20
8.9010845258
 30
0.0
 40
0.0049999999996118
100
AcDbArc
 50
180.0
 51
224.4698238069
  0
LINE
  5
209
330
1F
100
AcDbEntity
  8
SLD-0
  6
Continuous
370
    15
100
AcDbLine
 10
123.9780809228
 20
9.8430845221
 30
0.0
 11
124.0020809223
 21
9.8430845221
 31
0.0
  0
LINE
  5
20A
330
1F
100
AcDbEntity
  8
SLD-0
  6
Continuous
370
    15
100
AcDbLine
 10
124.0020809223
 20
9.7180845328
 30
0.0
 11
123.9780809228
 21
9.7180845328
 31
0.0
  0
LINE
  5
20B
330
1F
100
AcDbEntity
  8
SLD-0
  6
Continuous
370
    15
100
AcDbLine
 10
124.0020809223
 20
9.7270845555
 30
0.0
 11
124.0020809223
 21
9.7180845328
 31
0.0
  0
LINE
  5
20C
330
1F
100
AcDbEntity
  8
SLD-0
  6
Continuous
370
    15
100
AcDbLine
 10
123.9780809228
 20
9.7180845328
 30
0.0
 11
123.9780809228
 21
9.8430845221
 31
0.0
  0
LINE
  5
20D
330
1F
100
AcDbEntity
  8
SLD-0
  6
Continuous
370
    15
100
AcDbLine
 10
124.0020809223
 20
9.7180845328
 30
0.0
 11
124.0020809223
 21
8.9010845267
 31
0.0
  0
LINE
  5
20E
330
1F
100
AcDbEntity
  8
SLD-0
  6
Continuous
370
    15
100
AcDbLine
 10
123.9780809228
 20
9.7180845328
 30
0.0
 11
123.9780809228
 21
8.9010845267
 31
0.0
  0
ARC
  5
20F
330
1F
100
AcDbEntity
  8
SLD-0
  6
Continuous
370
    15
100
AcDbCircle
 10
123.9730809228
 20
9.8430845258
 30
0.0
 40
0.0050000000000097
100
AcDbArc
 50
0.0
 51
90.0
  0
LINE
  5
210
330
1F
100
AcDbEntity
  8
SLD-0
  6
Continuous
370
    15
100
AcDbLine
 10
123.9730809226
 20
9.848084551
 30
0.0
 11
123.9730809226
 21
9.8720845138
 31
0.0
  0
ARC
  5
211
330
1F
100
AcDbEntity
  8
SLD-0
  6
Continuous
370
    15
100
AcDbCircle
 10
123.9730809228
 20
9.8430845258
 30
0.0
 40
0.0290000000000106
100
AcDbArc
 50
0.0
 51
90.0
  0
LINE
  5
212
330
1F
100
AcDbEntity
  8
SLD-0
  6
Continuous
370
    15
100
AcDbLine
 10
123.9730809226
 20
9.848084551
 30
0.0
 11
123.6030809182
 21
9.848084551
 31
0.0
  0
LINE
  5
213
330
1F
100
AcDbEntity
  8
SLD-0
  6
Continuous
370
    15
100
AcDbLine
 10
123.6030809182
 20
9.8720845138
 30
0.0
 11
123.6030809182
 21
9.848084551
 31
0.0
  0
LINE
  5
214
330
1F
100
AcDbEntity
  8
SLD-0
  6
Continuous
370
    15
100
AcDbLine
 10
123.6030809182
 20
9.848084551
 30
0.0
 11
123.4780809289
 21
9.848084551
 31
0.0
  0
LINE
  5
215
330
1F
100
AcDbEntity
  8
SLD-0
  6
Continuous
370
    15
100
AcDbLine
 10
123.4780809289
 20
9.848084551
 30
0.0
 11
123.4780809289
 21
9.8720845138
 31
0.0
  0
LINE
  5
216
330
1F
100
AcDbEntity
  8
SLD-0
  6
Continuous
370
    15
100
AcDbLine
 10
123.5335974342
 20
9.8720845138
 30
0.0
 11
123.6030809182
 21
9.8720845138
 31
0.0
  0
LINE
  5
217
330
1F
100
AcDbEntity
  8
SLD-0
  6
Continuous
370
    15
100
AcDbLine
 10
131.3530809529
 20
65.0980235857
 30
0.0
 11
131.3530809529
 21
65.1110333554
 31
0.0
  0
LINE
  5
218
330
1F
100
AcDbEntity
  8
SLD-0
  6
Continuous
370
    15
100
AcDbLine
 10
131.3530809529
 20
65.0980235857
 30
0.0
 11
129.4780807464
 21
65.0980235857
 31
0.0
  0
LINE
  5
219
330
1F
100
AcDbEntity
  8
SLD-0
  6
Continuous
370
    15
100
AcDbLine
 10
131.3530809529
 20
65.1110333554
 30
0.0
 11
129.4780807464
 21
65.1110333554
 31
0.0
  0
ARC
  5
21A
330
1F
100
AcDbEntity
  8
SLD-0
  6
Continuous
370
    15
100
AcDbCircle
 10
131.357657923
 20
64.9905951397
 30
0.0
 40
0.1205251527156919
100
AcDbArc
 50
2.3563792458
 51
92.1763435577
  0
LINE
  5
21B
330
1F
100
AcDbEntity
  8
SLD-0
  6
Continuous
370
    15
100
AcDbLine
 10
131.4780811622
 20
64.9955505294
 30
0.0
 11
131.4780811622
 21
64.9825407597
 31
0.0
  0
ARC
  5
21C
330
1F
100
AcDbEntity
  8
SLD-0
  6
Continuous
370
    15
100
AcDbCircle
 10
131.357657923
 20
64.97758537
 30
0.0
 40
0.1205251527156387
100
AcDbArc
 50
2.3563792458
 51
92.1763435577
  0
LINE
  5
21D
330
1F
100
AcDbEntity
  8
SLD-0
  6
Continuous
370
    15
100
AcDbLine
 10
131.4780811622
 20
64.6601594172
 30
0.0
 11
131.4780811622
 21
64.9825407597
 31
0.0
  0
LINE
  5
21E
330
1F
100
AcDbEntity
  8
SLD-0
  6
Continuous
370
    15
100
AcDbLine
 10
131.4780811622
 20
64.6360828954
 30
0.0
 11
129.4780807464
 21
64.6360828954
 31
0.0
  0
LINE
  5
21F
330
1F
100
AcDbEntity
  8
SLD-0
  6
Continuous
370
    15
100
AcDbLine
 10
131.4780811622
 20
64.6360828954
 30
0.0
 11
131.4780811622
 21
64.6601594172
 31
0.0
  0
ARC
  5
220
330
1F
100
AcDbEntity
  8
SLD-0
  6
Continuous
370
    15
100
AcDbCircle
 10
131.3576580478
 20
60.5135873549
 30
0.0
 40
0.1205248213077678
100
AcDbArc
 50
2.353992674
 51
92.1764089269
  0
LINE
  5
221
330
1F
100
AcDbEntity
  8
SLD-0
  6
Continuous
370
    15
100
AcDbLine
 10
131.4780811622
 20
60.2164078718
 30
0.0
 11
131.4780811622
 21
60.5185377149
 31
0.0
  0
LINE
  5
222
330
1F
100
AcDbEntity
  8
SLD-0
  6
Continuous
370
    15
100
AcDbLine
 10
131.3530809529
 20
60.6340252342
 30
0.0
 11
129.4780807464
 21
60.6340252342
 31
0.0
  0
LINE
  5
223
330
1F
100
AcDbEntity
  8
SLD-0
  6
Continuous
370
    15
100
AcDbLine
 10
131.3530809529
 20
60.6340252342
 30
0.0
 11
131.3530809529
 21
60.6477624621
 31
0.0
  0
LINE
  5
224
330
1F
100
AcDbEntity
  8
SLD-0
  6
Continuous
370
    15
100
AcDbLine
 10
131.3530809529
 20
60.6477624621
 30
0.0
 11
129.4780807464
 21
60.6477624621
 31
0.0
  0
ARC
  5
225
330
1F
100
AcDbEntity
  8
SLD-0
  6
Continuous
370
    15
100
AcDbCircle
 10
131.357657923
 20
60.5273242465
 30
0.0
 40
0.1205251527156458
100
AcDbArc
 50
2.3563792458
 51
92.1763435577
  0
LINE
  5
226
330
1F
100
AcDbEntity
  8
SLD-0
  6
Continuous
370
    15
100
AcDbLine
 10
131.4780811622
 20
60.5322796362
 30
0.0
 11
131.4780811622
 21
60.5185377149
 31
0.0
  0
LINE
  5
227
330
1F
100
AcDbEntity
  8
SLD-0
  6
Continuous
370
    15
100
AcDbLine
 10
131.4780811622
 20
60.1720845439
 30
0.0
 11
129.4780807464
 21
60.1720845439
 31
0.0
  0
LINE
  5
228
330
1F
100
AcDbEntity
  8
SLD-0
  6
Continuous
370
    15
100
AcDbLine
 10
131.4780811622
 20
60.1720845439
 30
0.0
 11
131.4780811622
 21
60.2164078718
 31
0.0
  0
LINE
  5
229
330
1F
100
AcDbEntity
  8
SLD-0
  6
Continuous
370
    15
100
AcDbLine
 10
124.4780809168
 20
54.172083883
 30
0.0
 11
124.4780809168
 21
54.2060866902
 31
0.0
  0
LINE
  5
22A
330
1F
100
AcDbEntity
  8
SLD-0
  6
Continuous
370
    15
100
AcDbLine
 10
124.5780809083
 20
54.2060866902
 30
0.0
 11
124.5780809083
 21
54.172083883
 31
0.0
  0
LINE
  5
22B
330
1F
100
AcDbEntity
  8
SLD-0
  6
Continuous
370
    15
100
AcDbLine
 10
124.4780809168
 20
54.2060866902
 30
0.0
 11
124.5780809083
 21
54.2060866902
 31
0.0
  0
LINE
  5
22C
330
1F
100
AcDbEntity
  8
SLD-0
  6
Continuous
370
    15
100
AcDbLine
 10
129.3780810482
 20
54.172083883
 30
0.0
 11
129.3780810482
 21
54.2060866902
 31
0.0
  0
LINE
  5
22D
330
1F
100
AcDbEntity
  8
SLD-0
  6
Continuous
370
    15
100
AcDbLine
 10
129.3780810482
 20
54.2060866902
 30
0.0
 11
124.5780809083
 21
54.2060866902
 31
0.0
  0
LINE
  5
22E
330
1F
100
AcDbEntity
  8
SLD-0
  6
Continuous
370
    15
100
AcDbLine
 10
129.4780807464
 20
54.2060866902
 30
0.0
 11
129.4780807464
 21
54.172083883
 31
0.0
  0
LINE
  5
22F
330
1F
100
AcDbEntity
  8
SLD-0
  6
Continuous
370
    15
100
AcDbLine
 10
129.3780810482
 20
54.2060866902
 30
0.0
 11
129.4780807464
 21
54.2060866902
 31
0.0
  0
LINE
  5
230
330
1F
100
AcDbEntity
  8
SLD-0
  6
Continuous
370
    15
100
AcDbLine
 10
124.7280809321
 20
54.2091701746
 30
0.0
 11
124.4780809168
 21
54.2091701746
 31
0.0
  0
LINE
  5
231
330
1F
100
AcDbEntity
  8
SLD-0
  6
Continuous
370
    15
100
AcDbLine
 10
124.7280809321
 20
54.2060866902
 30
0.0
 11
124.7280809321
 21
54.2091701746
 31
0.0
  0
LINE
  5
232
330
1F
100
AcDbEntity
  8
SLD-0
  6
Continuous
370
    15
100
AcDbLine
 10
124.4780809168
 20
54.2091701746
 30
0.0
 11
124.4780809168
 21
54.2060866902
 31
0.0
  0
LINE
  5
233
330
1F
100
AcDbEntity
  8
SLD-0
  6
Continuous
370
    15
100
AcDbLine
 10
128.1030807905
 20
54.2091701746
 30
0.0
 11
125.8530809827
 21
54.2091701746
 31
0.0
  0
LINE
  5
234
330
1F
100
AcDbEntity
  8
SLD-0
  6
Continuous
370
    15
100
AcDbLine
 10
128.1030807905
 20
54.2060866902
 30
0.0
 11
128.1030807905
 21
54.2091701746
 31
0.0
  0
LINE
  5
235
330
1F
100
AcDbEntity
  8
SLD-0
  6
Continuous
370
    15
100
AcDbLine
 10
125.8530809827
 20
54.2091701746
 30
0.0
 11
125.8530809827
 21
54.2060866902
 31
0.0
  0
LINE
  5
236
330
1F
100
AcDbEntity
  8
SLD-0
  6
Continuous
370
    15
100
AcDbLine
 10
129.4780807464
 20
54.2091701746
 30
0.0
 11
129.2280809144
 21
54.2091701746
 31
0.0
  0
LINE
  5
237
330
1F
100
AcDbEntity
  8
SLD-0
  6
Continuous
370
    15
100
AcDbLine
 10
129.4780807464
 20
54.2060866902
 30
0.0
 11
129.4780807464
 21
54.2091701746
 31
0.0
  0
LINE
  5
238
330
1F
100
AcDbEntity
  8
SLD-0
  6
Continuous
370
    15
100
AcDbLine
 10
129.2280809144
 20
54.2091701746
 30
0.0
 11
129.2280809144
 21
54.2060866902
 31
0.0
  0
LINE
  5
239
330
1F
100
AcDbEntity
  8
SLD-0
  6
Continuous
370
    15
100
AcDbLine
 10
129.2280809144
 20
54.22861443
 30
0.0
 11
128.1030807905
 21
54.22861443
 31
0.0
  0
LINE
  5
23A
330
1F
100
AcDbEntity
  8
SLD-0
  6
Continuous
370
    15
100
AcDbLine
 10
128.1030807905
 20
54.22861443
 30
0.0
 11
128.1030807905
 21
54.2091701746
 31
0.0
  0
LINE
  5
23B
330
1F
100
AcDbEntity
  8
SLD-0
  6
Continuous
370
    15
100
AcDbLine
 10
125.8530809827
 20
54.2091701746
 30
0.0
 11
125.8530809827
 21
54.22861443
 31
0.0
  0
LINE
  5
23C
330
1F
100
AcDbEntity
  8
SLD-0
  6
Continuous
370
    15
100
AcDbLine
 10
125.8530809827
 20
54.22861443
 30
0.0
 11
124.7280809321
 21
54.22861443
 31
0.0
  0
LINE
  5
23D
330
1F
100
AcDbEntity
  8
SLD-0
  6
Continuous
370
    15
100
AcDbLine
 10
124.7280809321
 20
54.22861443
 30
0.0
 11
124.7280809321
 21
54.2091701746
 31
0.0
  0
LINE
  5
23E
330
1F
100
AcDbEntity
  8
SLD-0
  6
Continuous
370
    15
100
AcDbLine
 10
129.4780807464
 20
66.1256358213
 30
0.0
 11
124.4780809168
 21
66.1256358213
 31
0.0
  0
LINE
  5
23F
330
1F
100
AcDbEntity
  8
SLD-0
  6
Continuous
370
    15
100
AcDbLine
 10
129.4780807464
 20
54.2091701746
 30
0.0
 11
129.4780807464
 21
66.1256358213
 31
0.0
  0
LINE
  5
240
330
1F
100
AcDbEntity
  8
SLD-0
  6
Continuous
370
    15
100
AcDbLine
 10
129.2280809144
 20
54.2091701746
 30
0.0
 11
129.2280809144
 21
54.22861443
 31
0.0
  0
LINE
  5
241
330
1F
100
AcDbEntity
  8
SLD-0
  6
Continuous
370
    15
100
AcDbLine
 10
124.4780809168
 20
54.2091701746
 30
0.0
 11
124.4780809168
 21
66.1256358213
 31
0.0
  0
LINE
  5
242
330
1F
100
AcDbEntity
  8
SLD-0
  6
Continuous
370
    15
100
AcDbLine
 10
128.1030807905
 20
54.2156046603
 30
0.0
 11
129.2280809144
 21
54.2156046603
 31
0.0
  0
LINE
  5
243
330
1F
100
AcDbEntity
  8
SLD-0
  6
Continuous
370
    15
100
AcDbLine
 10
124.7280809321
 20
54.2156046603
 30
0.0
 11
125.8530809827
 21
54.2156046603
 31
0.0
  0
LINE
  5
244
330
1F
100
AcDbEntity
  8
SLD-0
  6
Continuous
370
    15
100
AcDbLine
 10
124.7280809321
 20
66.1565833038
 30
0.0
 11
124.7280809321
 21
66.1700858678
 31
0.0
  0
LINE
  5
245
330
1F
100
AcDbEntity
  8
SLD-0
  6
Continuous
370
    15
100
AcDbLine
 10
125.8530809827
 20
66.1565833038
 30
0.0
 11
124.7280809321
 21
66.1565833038
 31
0.0
  0
LINE
  5
246
330
1F
100
AcDbEntity
  8
SLD-0
  6
Continuous
370
    15
100
AcDbLine
 10
125.8530809827
 20
66.1700858678
 30
0.0
 11
125.8530809827
 21
66.1565833038
 31
0.0
  0
LINE
  5
247
330
1F
100
AcDbEntity
  8
SLD-0
  6
Continuous
370
    15
100
AcDbLine
 10
129.4780807464
 20
66.1256358213
 30
0.0
 11
129.4780807464
 21
66.1700858678
 31
0.0
  0
LINE
  5
248
330
1F
100
AcDbEntity
  8
SLD-0
  6
Continuous
370
    15
100
AcDbLine
 10
124.4780809168
 20
66.1700858678
 30
0.0
 11
124.4780809168
 21
66.1256358213
 31
0.0
  0
LINE
  5
249
330
1F
100
AcDbEntity
  8
SLD-0
  6
Continuous
370
    15
100
AcDbLine
 10
129.2280809144
 20
66.1565833038
 30
0.0
 11
128.1030807905
 21
66.1565833038
 31
0.0
  0
LINE
  5
24A
330
1F
100
AcDbEntity
  8
SLD-0
  6
Continuous
370
    15
100
AcDbLine
 10
129.2280809144
 20
66.1700858678
 30
0.0
 11
129.2280809144
 21
66.1565833038
 31
0.0
  0
LINE
  5
24B
330
1F
100
AcDbEntity
  8
SLD-0
  6
Continuous
370
    15
100
AcDbLine
 10
128.1030807905
 20
66.1565833038
 30
0.0
 11
128.1030807905
 21
66.1700858678
 31
0.0
  0
LINE
  5
24C
330
1F
100
AcDbEntity
  8
SLD-0
  6
Continuous
370
    15
100
AcDbLine
 10
145.8690811561
 20
9.8179424059
 30
0.0
 11
145.8690811561
 21
53.2111537571
 31
0.0
  0
LINE
  5
24D
330
1F
100
AcDbEntity
  8
SLD-0
  6
Continuous
370
    15
100
AcDbLine
 10
124.0310809231
 20
53.2490848389
 30
0.0
 11
124.0310809231
 21
9.7950845233
 31
0.0
  0
LINE
  5
24E
330
1F
100
AcDbEntity
  8
SLD-0
  6
Continuous
370
    15
100
AcDbLine
 10
131.4780811622
 20
64.6601594172
 30
0.0
 11
129.4780807464
 21
64.6601594172
 31
0.0
  0
LINE
  5
24F
330
1F
100
AcDbEntity
  8
SLD-0
  6
Continuous
370
    15
100
AcDbLine
 10
131.4780811622
 20
60.2164078718
 30
0.0
 11
129.4780807464
 21
60.2164078718
 31
0.0
  0
DIMENSION
  5
250
330
1F
100
AcDbEntity
  8
DIM
100
AcDbDimension
  2
_D_6
 10
123.9780809228
 20
5.8720825573
 30
0.0
 11
134.1148744814
 21
5.8720825573
 31
0.0
 70
   160
  1
<>
 71
     2
 42
-1.0
  3
SLDDIMSTYLE0
100
AcDbAlignedDimension
 13
145.9540809228
 23
8.9010845258
 33
0.0
 14
123.9780809228
 24
8.9010845258
 34
0.0
 50
0.0
100
AcDbRotatedDimension
  0
DIMENSION
  5
25B
330
1F
100
AcDbEntity
  8
DIM
100
AcDbDimension
  2
_D_7
 10
123.4780809228
 20
5.8720825573
 30
0.0
 11
120.1788132974
 21
5.8720825573
 31
0.0
 70
   160
  1
<>
 71
     2
 42
-1.0
  3
SLDDIMSTYLE1
100
AcDbAlignedDimension
 13
123.9780809228
 23
8.9010845258
 33
0.0
 14
123.4780809228
 24
9.9970845258
 34
0.0
 50
0.0
100
AcDbRotatedDimension
  0
DIMENSION
  5
26A
330
1F
100
AcDbEntity
  8
DIM
100
AcDbDimension
  2
_D_8
 10
120.1788132974
 20
54.1720845258
 30
0.0
 11
120.1788132974
 21
32.3497895418
 31
0.0
 70
   160
  1
<>
 71
     2
 42
-1.0
  3
SLDDIMSTYLE0
100
AcDbAlignedDimension
 13
124.0070809228
 23
8.8720845258
 33
0.0
 14
124.0070809228
 24
54.1720845258
 34
0.0
 50
90.0
100
AcDbRotatedDimension
  0
DIMENSION
  5
279
330
1F
100
AcDbEntity
  8
DIM
100
AcDbDimension
  2
_D_9
 10
134.1841895576
 20
54.1720845258
 30
0.0
 11
134.1841895576
 21
59.8941457491
 31
0.0
 70
   160
  1
<>
 71
     2
 42
-1.0
  3
SLDDIMSTYLE0
100
AcDbAlignedDimension
 13
129.4780809228
 23
66.1700845258
 33
0.0
 14
124.0070809228
 24
54.1720845258
 34
0.0
 50
90.0
100
AcDbRotatedDimension
  0
LINE
  5
283
330
1F
100
AcDbEntity
  8
SLD-0
  6
Continuous
370
    15
100
AcDbLine
 10
20.7496726298
 20
66.1700858678
 30
0.0
 11
20.4996727978
 21
66.1700858678
 31
0.0
  0
LINE
  5
284
330
1F
100
AcDbEntity
  8
SLD-0
  6
Continuous
370
    15
100
AcDbLine
 10
24.1246725615
 20
66.1700858678
 30
0.0
 11
21.8746727537
 21
66.1700858678
 31
0.0
  0
LINE
  5
285
330
1F
100
AcDbEntity
  8
SLD-0
  6
Continuous
370
    15
100
AcDbLine
 10
25.4996726274
 20
66.1700858678
 30
0.0
 11
25.2496726121
 21
66.1700858678
 31
0.0
  0
LINE
  5
286
330
1F
100
AcDbEntity
  8
SLD-0
  6
Continuous
370
    15
100
AcDbLine
 10
26.4996726153
 20
48.7440860011
 30
0.0
 11
26.4996726153
 21
48.5980827811
 31
0.0
  0
LINE
  5
287
330
1F
100
AcDbEntity
  8
SLD-0
  6
Continuous
370
    15
100
AcDbLine
 10
26.4996726153
 20
9.9970845031
 30
0.0
 11
26.4996726153
 21
9.8720845138
 31
0.0
  0
LINE
  5
288
330
1F
100
AcDbEntity
  8
SLD-0
  6
Continuous
370
    15
100
AcDbLine
 10
26.4441561099
 20
9.8720845138
 30
0.0
 11
26.4996726153
 21
9.8720845138
 31
0.0
  0
LINE
  5
289
330
1F
100
AcDbEntity
  8
SLD-0
  6
Continuous
370
    15
100
AcDbLine
 10
25.9756726219
 20
48.7440860011
 30
0.0
 11
26.0046726216
 21
48.7440860011
 31
0.0
  0
LINE
  5
28A
330
1F
100
AcDbEntity
  8
SLD-0
  6
Continuous
370
    15
100
AcDbLine
 10
26.4265604199
 20
48.7440860011
 30
0.0
 11
26.4996726153
 21
48.7440860011
 31
0.0
  0
LINE
  5
28B
330
1F
100
AcDbEntity
  8
SLD-0
  6
Continuous
370
    15
100
AcDbLine
 10
4.0467445701
 20
53.2730862683
 30
0.0
 11
4.1717430194
 21
53.1480854724
 31
0.0
  0
LINE
  5
28C
330
1F
100
AcDbEntity
  8
SLD-0
  6
Continuous
370
    15
100
AcDbLine
 10
4.0467445701
 20
53.2730862683
 30
0.0
 11
4.0467445701
 21
54.1430841114
 31
0.0
  0
LINE
  5
28D
330
1F
100
AcDbEntity
  8
SLD-0
  6
Continuous
370
    15
100
AcDbLine
 10
4.0467445701
 20
54.1430841114
 30
0.0
 11
25.9706726205
 21
54.1430841114
 31
0.0
  0
LINE
  5
28E
330
1F
100
AcDbEntity
  8
SLD-0
  6
Continuous
370
    15
100
AcDbLine
 10
25.9706726205
 20
54.1430841114
 30
0.0
 11
25.9706726205
 21
53.2730862683
 31
0.0
  0
LINE
  5
28F
330
1F
100
AcDbEntity
  8
SLD-0
  6
Continuous
370
    15
100
AcDbLine
 10
25.845672622
 20
53.1480854724
 30
0.0
 11
25.9706726205
 21
53.2730862683
 31
0.0
  0
LINE
  5
290
330
1F
100
AcDbEntity
  8
SLD-0
  6
Continuous
370
    15
100
AcDbLine
 10
4.1717430194
 20
53.1480854724
 30
0.0
 11
25.845672622
 21
53.1480854724
 31
0.0
  0
LINE
  5
291
330
1F
100
AcDbEntity
  8
SLD-0
  6
Continuous
370
    15
100
AcDbLine
 10
25.9706726205
 20
54.172083883
 30
0.0
 11
25.9706726205
 21
54.1430841114
 31
0.0
  0
ELLIPSE
  5
292
330
1F
100
AcDbEntity
  8
SLD-0
  6
Continuous
370
    15
100
AcDbEllipse
 10
4.0446726213
 20
54.1430845258
 30
0.0
 11
0.0
 21
0.02899999999999636
 31
0.0
210
0.0
220
0.0
230
1.0
 40
0.0714161312
 41
4.712388980384691
 42
6.283185307179586
  0
LINE
  5
293
330
1F
100
AcDbEntity
  8
SLD-0
  6
Continuous
370
    15
100
AcDbLine
 10
4.0446724874
 20
54.172083883
 30
0.0
 11
25.9706726205
 21
54.172083883
 31
0.0
  0
ELLIPSE
  5
294
330
1F
100
AcDbEntity
  8
SLD-0
  6
Continuous
370
    15
100
AcDbEllipse
 10
4.0446726213
 20
54.1430845258
 30
0.0
 11
0.0
 21
0.005000000000002558
 31
0.0
210
0.0
220
0.0
230
1.0
 40
0.4142135608
 41
4.712388980384695
 42
6.283185307179586
  0
LINE
  5
295
330
1F
100
AcDbEntity
  8
SLD-0
  6
Continuous
370
    15
100
AcDbLine
 10
4.0446724874
 20
54.172083883
 30
0.0
 11
4.0446724874
 21
54.1480824536
 31
0.0
  0
ARC
  5
296
330
1F
100
AcDbEntity
  8
SLD-0
  6
Continuous
370
    15
100
AcDbCircle
 10
4.0446726213
 20
54.1430845258
 30
0.0
 40
0.0050000000042782
100
AcDbArc
 50
89.9999999914
 51
180.0
  0
LINE
  5
297
330
1F
100
AcDbEntity
  8
SLD-0
  6
Continuous
370
    15
100
AcDbLine
 10
4.0156727157
 20
54.1430841114
 30
0.0
 11
4.0396717985
 21
54.1430841114
 31
0.0
  0
ARC
  5
298
330
1F
100
AcDbEntity
  8
SLD-0
  6
Continuous
370
    15
100
AcDbCircle
 10
4.0446726213
 20
54.1430845258
 30
0.0
 40
0.028999999999999
100
AcDbArc
 50
89.9999999983
 51
180.0
  0
ARC
  5
299
330
1F
100
AcDbEntity
  8
SLD-0
  6
Continuous
370
    15
100
AcDbCircle
 10
25.9706726213
 20
54.1430845258
 30
0.0
 40
0.0290000000004085
100
AcDbArc
 50
0.0
 51
90.0
  0
LINE
  5
29A
330
1F
100
AcDbEntity
  8
SLD-0
  6
Continuous
370
    15
100
AcDbLine
 10
25.9756726219
 20
54.1430841114
 30
0.0
 11
25.9996726213
 21
54.1430841114
 31
0.0
  0
ARC
  5
29B
330
1F
100
AcDbEntity
  8
SLD-0
  6
Continuous
370
    15
100
AcDbCircle
 10
25.9706726213
 20
54.1430845258
 30
0.0
 40
0.0049999999995904
100
AcDbArc
 50
0.0
 51
90.0
  0
LINE
  5
29C
330
1F
100
AcDbEntity
  8
SLD-0
  6
Continuous
370
    15
100
AcDbLine
 10
25.9756726219
 20
48.8980865687
 30
0.0
 11
25.9996726213
 21
48.8980865687
 31
0.0
  0
LINE
  5
29D
330
1F
100
AcDbEntity
  8
SLD-0
  6
Continuous
370
    15
100
AcDbLine
 10
25.9756726219
 20
54.1430841114
 30
0.0
 11
25.9756726219
 21
48.8980865687
 31
0.0
  0
LINE
  5
29E
330
1F
100
AcDbEntity
  8
SLD-0
  6
Continuous
370
    15
100
AcDbLine
 10
25.9996726213
 20
54.1430841114
 30
0.0
 11
25.9996726213
 21
48.8980865687
 31
0.0
  0
LINE
  5
29F
330
1F
100
AcDbEntity
  8
SLD-0
  6
Continuous
370
    15
100
AcDbLine
 10
25.9996726213
 20
48.7730857727
 30
0.0
 11
25.9756726219
 21
48.7730857727
 31
0.0
  0
LINE
  5
2A0
330
1F
100
AcDbEntity
  8
SLD-0
  6
Continuous
370
    15
100
AcDbLine
 10
25.9756726219
 20
48.8740851393
 30
0.0
 11
25.9756726219
 21
48.8980865687
 31
0.0
  0
LINE
  5
2A1
330
1F
100
AcDbEntity
  8
SLD-0
  6
Continuous
370
    15
100
AcDbLine
 10
25.9996726213
 20
48.8980865687
 30
0.0
 11
25.9996726213
 21
48.7730857727
 31
0.0
  0
LINE
  5
2A2
330
1F
100
AcDbEntity
  8
SLD-0
  6
Continuous
370
    15
100
AcDbLine
 10
4.0396717985
 20
54.1430841114
 30
0.0
 11
4.0396717985
 21
53.2730862683
 31
0.0
  0
LINE
  5
2A3
330
1F
100
AcDbEntity
  8
SLD-0
  6
Continuous
370
    15
100
AcDbLine
 10
4.0156727157
 20
53.2730862683
 30
0.0
 11
4.0396717985
 21
53.2730862683
 31
0.0
  0
LINE
  5
2A4
330
1F
100
AcDbEntity
  8
SLD-0
  6
Continuous
370
    15
100
AcDbLine
 10
4.0156727157
 20
54.1430841114
 30
0.0
 11
4.0156727157
 21
53.2730862683
 31
0.0
  0
LINE
  5
2A5
330
1F
100
AcDbEntity
  8
SLD-0
  6
Continuous
370
    15
100
AcDbLine
 10
4.0396717985
 20
53.2730862683
 30
0.0
 11
4.0396717985
 21
53.1480854724
 31
0.0
  0
LINE
  5
2A6
330
1F
100
AcDbEntity
  8
SLD-0
  6
Continuous
370
    15
100
AcDbLine
 10
4.0396717985
 20
53.1480854724
 30
0.0
 11
4.0156727157
 21
53.1480854724
 31
0.0
  0
LINE
  5
2A7
330
1F
100
AcDbEntity
  8
SLD-0
  6
Continuous
370
    15
100
AcDbLine
 10
4.0156727157
 20
53.1480854724
 30
0.0
 11
4.0156727157
 21
53.2730862683
 31
0.0
  0
ARC
  5
2A8
330
1F
100
AcDbEntity
  8
SLD-0
  6
Continuous
370
    15
100
AcDbCircle
 10
26.0046726213
 20
48.7730845258
 30
0.0
 40
0.0290000000000035
100
AcDbArc
 50
180.0
 51
270.0
  0
ARC
  5
2A9
330
1F
100
AcDbEntity
  8
SLD-0
  6
Continuous
370
    15
100
AcDbCircle
 10
26.0046726213
 20
48.7730845258
 30
0.0
 40
0.0050000000000026
100
AcDbArc
 50
180.0
 51
270.0
  0
LINE
  5
2AA
330
1F
100
AcDbEntity
  8
SLD-0
  6
Continuous
370
    15
100
AcDbLine
 10
26.0046726216
 20
48.7680827372
 30
0.0
 11
26.0046726216
 21
48.7440860011
 31
0.0
  0
LINE
  5
2AB
330
1F
100
AcDbEntity
  8
SLD-0
  6
Continuous
370
    15
100
AcDbLine
 10
26.374672626
 20
48.7440860011
 30
0.0
 11
26.374672626
 21
48.7680827372
 31
0.0
  0
LINE
  5
2AC
330
1F
100
AcDbEntity
  8
SLD-0
  6
Continuous
370
    15
100
AcDbLine
 10
26.0046726216
 20
48.7680827372
 30
0.0
 11
26.374672626
 21
48.7680827372
 31
0.0
  0
LINE
  5
2AD
330
1F
100
AcDbEntity
  8
SLD-0
  6
Continuous
370
    15
100
AcDbLine
 10
26.0046726216
 20
48.7440860011
 30
0.0
 11
26.374672626
 21
48.7440860011
 31
0.0
  0
LINE
  5
2AE
330
1F
100
AcDbEntity
  8
SLD-0
  6
Continuous
370
    15
100
AcDbLine
 10
26.4996726153
 20
48.7680827372
 30
0.0
 11
26.4996726153
 21
48.7440860011
 31
0.0
  0
LINE
  5
2AF
330
1F
100
AcDbEntity
  8
SLD-0
  6
Continuous
370
    15
100
AcDbLine
 10
26.374672626
 20
48.7680827372
 30
0.0
 11
26.4996726153
 21
48.7680827372
 31
0.0
  0
LINE
  5
2B0
330
1F
100
AcDbEntity
  8
SLD-0
  6
Continuous
370
    15
100
AcDbLine
 10
26.4265604199
 20
48.7440860011
 30
0.0
 11
26.374672626
 21
48.7440860011
 31
0.0
  0
CIRCLE
  5
2B1
330
1F
100
AcDbEntity
  8
SLD-0
  6
Continuous
370
    15
100
AcDbCircle
 10
21.0236726213
 20
23.5010845258
 30
0.0
 40
1.249999999999996
  0
LINE
  5
2B2
330
1F
100
AcDbEntity
  8
SLD-0
  6
Continuous
370
    15
100
AcDbLine
 10
20.2256727097
 20
9.8960845498
 30
0.0
 11
20.2256727097
 21
14.3960846055
 31
0.0
  0
LINE
  5
2B3
330
1F
100
AcDbEntity
  8
SLD-0
  6
Continuous
370
    15
100
AcDbLine
 10
20.2256727097
 20
14.3960846055
 30
0.0
 11
17.7256726299
 21
14.3960846055
 31
0.0
  0
LINE
  5
2B4
330
1F
100
AcDbEntity
  8
SLD-0
  6
Continuous
370
    15
100
AcDbLine
 10
17.7256726299
 20
14.3960846055
 30
0.0
 11
17.7256726299
 21
9.8960845498
 31
0.0
  0
LINE
  5
2B5
330
1F
100
AcDbEntity
  8
SLD-0
  6
Continuous
370
    15
100
AcDbLine
 10
4.0796726164
 20
53.2401535288
 30
0.0
 11
4.0796726164
 21
9.7889424142
 31
0.0
  0
LINE
  5
2B6
330
1F
100
AcDbEntity
  8
SLD-0
  6
Continuous
370
    15
100
AcDbLine
 10
25.9706726205
 20
54.1060822988
 30
0.0
 11
25.9756726219
 21
54.1060822988
 31
0.0
  0
LINE
  5
2B7
330
1F
100
AcDbEntity
  8
SLD-0
  6
Continuous
370
    15
100
AcDbLine
 10
25.9756726219
 20
9.7270845555
 30
0.0
 11
25.9756726219
 21
48.8740851393
 31
0.0
  0
LINE
  5
2B8
330
1F
100
AcDbEntity
  8
SLD-0
  6
Continuous
370
    15
100
AcDbLine
 10
25.974240718
 20
8.8960845253
 30
0.0
 11
25.9706726205
 21
8.8960845253
 31
0.0
  0
LINE
  5
2B9
330
1F
100
AcDbEntity
  8
SLD-0
  6
Continuous
370
    15
100
AcDbLine
 10
25.980672621
 20
48.723083577
 30
0.0
 11
25.9756726219
 21
48.723083577
 31
0.0
  0
LINE
  5
2BA
330
1F
100
AcDbEntity
  8
SLD-0
  6
Continuous
370
    15
100
AcDbLine
 10
25.980672621
 20
9.8720845138
 30
0.0
 11
25.980672621
 21
48.723083577
 31
0.0
  0
LINE
  5
2BB
330
1F
100
AcDbEntity
  8
SLD-0
  6
Continuous
370
    15
100
AcDbLine
 10
25.9756726219
 20
9.8720845138
 30
0.0
 11
25.980672621
 21
9.8720845138
 31
0.0
  0
LINE
  5
2BC
330
1F
100
AcDbEntity
  8
SLD-0
  6
Continuous
370
    15
100
AcDbLine
 10
26.374672626
 20
48.723083577
 30
0.0
 11
25.980672621
 21
48.723083577
 31
0.0
  0
LINE
  5
2BD
330
1F
100
AcDbEntity
  8
SLD-0
  6
Continuous
370
    15
100
AcDbLine
 10
26.4996726153
 20
48.5980827811
 30
0.0
 11
26.374672626
 21
48.723083577
 31
0.0
  0
LINE
  5
2BE
330
1F
100
AcDbEntity
  8
SLD-0
  6
Continuous
370
    15
100
AcDbLine
 10
26.4996726153
 20
9.9970845031
 30
0.0
 11
26.4996726153
 21
48.5980827811
 31
0.0
  0
LINE
  5
2BF
330
1F
100
AcDbEntity
  8
SLD-0
  6
Continuous
370
    15
100
AcDbLine
 10
26.374672626
 20
9.8720845138
 30
0.0
 11
26.4996726153
 21
9.9970845031
 31
0.0
  0
LINE
  5
2C0
330
1F
100
AcDbEntity
  8
SLD-0
  6
Continuous
370
    15
100
AcDbLine
 10
25.980672621
 20
9.8720845138
 30
0.0
 11
26.374672626
 21
9.8720845138
 31
0.0
  0
LINE
  5
2C1
330
1F
100
AcDbEntity
  8
SLD-0
  6
Continuous
370
    15
100
AcDbLine
 10
4.0476714927
 20
9.0210845237
 30
0.0
 11
4.0618146893
 21
9.0210845237
 31
0.0
  0
LINE
  5
2C2
330
1F
100
AcDbEntity
  8
SLD-0
  6
Continuous
370
    15
100
AcDbLine
 10
4.0476714927
 20
53.2721569991
 30
0.0
 11
4.0476714927
 21
9.8149423739
 31
0.0
  0
LINE
  5
2C3
330
1F
100
AcDbEntity
  8
SLD-0
  6
Continuous
370
    15
100
AcDbLine
 10
4.0526721816
 20
8.8960845253
 30
0.0
 11
4.0476714927
 21
8.8960845253
 31
0.0
  0
LINE
  5
2C4
330
1F
100
AcDbEntity
  8
SLD-0
  6
Continuous
370
    15
100
AcDbLine
 10
4.0476714927
 20
8.8960845253
 30
0.0
 11
4.0476714927
 21
8.9010845267
 31
0.0
  0
LINE
  5
2C5
330
1F
100
AcDbEntity
  8
SLD-0
  6
Continuous
370
    15
100
AcDbLine
 10
4.0618146893
 20
8.9010845267
 30
0.0
 11
25.9706726205
 21
8.9010845267
 31
0.0
  0
LINE
  5
2C6
330
1F
100
AcDbEntity
  8
SLD-0
  6
Continuous
370
    15
100
AcDbLine
 10
4.0618146893
 20
9.7710845605
 30
0.0
 11
4.0618146893
 21
8.9010845267
 31
0.0
  0
LINE
  5
2C7
330
1F
100
AcDbEntity
  8
SLD-0
  6
Continuous
370
    15
100
AcDbLine
 10
4.1868154853
 20
9.8960845498
 30
0.0
 11
4.0618146893
 21
9.7710845605
 31
0.0
  0
LINE
  5
2C8
330
1F
100
AcDbEntity
  8
SLD-0
  6
Continuous
370
    15
100
AcDbLine
 10
4.1868154853
 20
9.8960845498
 30
0.0
 11
25.845672622
 21
9.8960845498
 31
0.0
  0
LINE
  5
2C9
330
1F
100
AcDbEntity
  8
SLD-0
  6
Continuous
370
    15
100
AcDbLine
 10
25.9706726205
 20
9.7710845605
 30
0.0
 11
25.845672622
 21
9.8960845498
 31
0.0
  0
LINE
  5
2CA
330
1F
100
AcDbEntity
  8
SLD-0
  6
Continuous
370
    15
100
AcDbLine
 10
25.9706726205
 20
8.9010845267
 30
0.0
 11
25.9706726205
 21
9.7710845605
 31
0.0
  0
ELLIPSE
  5
2CB
330
1F
100
AcDbEntity
  8
SLD-0
  6
Continuous
370
    15
100
AcDbEllipse
 10
4.0526726213
 20
8.9010845258
 30
0.0
 11
0.0
 21
0.02899999999999991
 31
0.0
210
0.0
220
0.0
230
1.0
 40
0.315246056
 41
3.141592653589793
 42
4.712388980384572
  0
LINE
  5
2CC
330
1F
100
AcDbEntity
  8
SLD-0
  6
Continuous
370
    15
100
AcDbLine
 10
25.9706726205
 20
8.8720845258
 30
0.0
 11
25.9706726205
 21
8.9010845267
 31
0.0
  0
LINE
  5
2CD
330
1F
100
AcDbEntity
  8
SLD-0
  6
Continuous
370
    15
100
AcDbLine
 10
4.0526721816
 20
8.8720845258
 30
0.0
 11
25.9706726205
 21
8.8720845258
 31
0.0
  0
LINE
  5
2CE
330
1F
100
AcDbEntity
  8
SLD-0
  6
Continuous
370
    15
100
AcDbLine
 10
4.0526721816
 20
8.8960845253
 30
0.0
 11
4.0526721816
 21
8.8720845258
 31
0.0
  0
ELLIPSE
  5
2CF
330
1F
100
AcDbEntity
  8
SLD-0
  6
Continuous
370
    15
100
AcDbEllipse
 10
4.0526726213
 20
8.9010845258
 30
0.0
 11
0.009142135623721792
 21
0.0
 31
0.0
210
0.0
220
0.0
230
1.0
 40
0.5469181607
 41
4.712388980384697
 42
6.283185307179586
  0
LINE
  5
2D0
330
1F
100
AcDbEntity
  8
SLD-0
  6
Continuous
370
    15
100
AcDbLine
 10
4.02367241
 20
8.9010845267
 30
0.0
 11
4.0476714927
 21
8.9010845267
 31
0.0
  0
ARC
  5
2D1
330
1F
100
AcDbEntity
  8
SLD-0
  6
Continuous
370
    15
100
AcDbCircle
 10
4.0526726213
 20
8.9010845258
 30
0.0
 40
0.004999999999999
100
AcDbArc
 50
180.0
 51
270.0000000005
  0
ARC
  5
2D2
330
1F
100
AcDbEntity
  8
SLD-0
  6
Continuous
370
    15
100
AcDbCircle
 10
4.0526726213
 20
8.9010845258
 30
0.0
 40
0.0290000000000159
100
AcDbArc
 50
180.0
 51
270.0000000001
  0
LINE
  5
2D3
330
1F
100
AcDbEntity
  8
SLD-0
  6
Continuous
370
    15
100
AcDbLine
 10
4.0476714927
 20
9.7710845605
 30
0.0
 11
4.02367241
 21
9.7710845605
 31
0.0
  0
LINE
  5
2D4
330
1F
100
AcDbEntity
  8
SLD-0
  6
Continuous
370
    15
100
AcDbLine
 10
4.0476714927
 20
8.9010845267
 30
0.0
 11
4.0476714927
 21
9.7710845605
 31
0.0
  0
LINE
  5
2D5
330
1F
100
AcDbEntity
  8
SLD-0
  6
Continuous
370
    15
100
AcDbLine
 10
4.02367241
 20
8.9010845267
 30
0.0
 11
4.02367241
 21
9.7710845605
 31
0.0
  0
LINE
  5
2D6
330
1F
100
AcDbEntity
  8
SLD-0
  6
Continuous
370
    15
100
AcDbLine
 10
4.02367241
 20
9.8960845498
 30
0.0
 11
4.0476714927
 21
9.8960845498
 31
0.0
  0
LINE
  5
2D7
330
1F
100
AcDbEntity
  8
SLD-0
  6
Continuous
370
    15
100
AcDbLine
 10
4.0476714927
 20
9.8149423739
 30
0.0
 11
4.0476714927
 21
9.7710845605
 31
0.0
  0
LINE
  5
2D8
330
1F
100
AcDbEntity
  8
SLD-0
  6
Continuous
370
    15
100
AcDbLine
 10
4.02367241
 20
9.7710845605
 30
0.0
 11
4.02367241
 21
9.8960845498
 31
0.0
  0
ARC
  5
2D9
330
1F
100
AcDbEntity
  8
SLD-0
  6
Continuous
370
    15
100
AcDbCircle
 10
25.9706726213
 20
8.9010845258
 30
0.0
 40
0.0289999999996198
100
AcDbArc
 50
270.0
 51
0.0
  0
ARC
  5
2DA
330
1F
100
AcDbEntity
  8
SLD-0
  6
Continuous
370
    15
100
AcDbCircle
 10
25.9706726213
 20
8.9010845258
 30
0.0
 40
0.0049999999996189
100
AcDbArc
 50
315.5301761884
 51
0.0
  0
LINE
  5
2DB
330
1F
100
AcDbEntity
  8
SLD-0
  6
Continuous
370
    15
100
AcDbLine
 10
25.9756726219
 20
8.9010845267
 30
0.0
 11
25.9996726213
 21
8.9010845267
 31
0.0
  0
LINE
  5
2DC
330
1F
100
AcDbEntity
  8
SLD-0
  6
Continuous
370
    15
100
AcDbLine
 10
25.9996726213
 20
9.7180845328
 30
0.0
 11
25.9756726219
 21
9.7180845328
 31
0.0
  0
LINE
  5
2DD
330
1F
100
AcDbEntity
  8
SLD-0
  6
Continuous
370
    15
100
AcDbLine
 10
25.9996726213
 20
8.9010845267
 30
0.0
 11
25.9996726213
 21
9.7180845328
 31
0.0
  0
LINE
  5
2DE
330
1F
100
AcDbEntity
  8
SLD-0
  6
Continuous
370
    15
100
AcDbLine
 10
25.9756726219
 20
8.9010845267
 30
0.0
 11
25.9756726219
 21
9.7180845328
 31
0.0
  0
LINE
  5
2DF
330
1F
100
AcDbEntity
  8
SLD-0
  6
Continuous
370
    15
100
AcDbLine
 10
25.9756726219
 20
9.8430845221
 30
0.0
 11
25.9996726213
 21
9.8430845221
 31
0.0
  0
LINE
  5
2E0
330
1F
100
AcDbEntity
  8
SLD-0
  6
Continuous
370
    15
100
AcDbLine
 10
25.9996726213
 20
9.8430845221
 30
0.0
 11
25.9996726213
 21
9.7180845328
 31
0.0
  0
LINE
  5
2E1
330
1F
100
AcDbEntity
  8
SLD-0
  6
Continuous
370
    15
100
AcDbLine
 10
25.9756726219
 20
9.7180845328
 30
0.0
 11
25.9756726219
 21
9.7270845555
 31
0.0
  0
LINE
  5
2E2
330
1F
100
AcDbEntity
  8
SLD-0
  6
Continuous
370
    15
100
AcDbLine
 10
26.0046726216
 20
9.848084551
 30
0.0
 11
26.0046726216
 21
9.8720845138
 31
0.0
  0
ARC
  5
2E3
330
1F
100
AcDbEntity
  8
SLD-0
  6
Continuous
370
    15
100
AcDbCircle
 10
26.0046726213
 20
9.8430845258
 30
0.0
 40
0.0289999999999999
100
AcDbArc
 50
90.0
 51
180.0
  0
ARC
  5
2E4
330
1F
100
AcDbEntity
  8
SLD-0
  6
Continuous
370
    15
100
AcDbCircle
 10
26.0046726213
 20
9.8430845258
 30
0.0
 40
0.004999999999999
100
AcDbArc
 50
90.0
 51
180.0
  0
LINE
  5
2E5
330
1F
100
AcDbEntity
  8
SLD-0
  6
Continuous
370
    15
100
AcDbLine
 10
26.4996726153
 20
9.8720845138
 30
0.0
 11
26.4996726153
 21
9.848084551
 31
0.0
  0
LINE
  5
2E6
330
1F
100
AcDbEntity
  8
SLD-0
  6
Continuous
370
    15
100
AcDbLine
 10
26.4996726153
 20
9.848084551
 30
0.0
 11
26.374672626
 21
9.848084551
 31
0.0
  0
LINE
  5
2E7
330
1F
100
AcDbEntity
  8
SLD-0
  6
Continuous
370
    15
100
AcDbLine
 10
26.374672626
 20
9.848084551
 30
0.0
 11
26.374672626
 21
9.8720845138
 31
0.0
  0
LINE
  5
2E8
330
1F
100
AcDbEntity
  8
SLD-0
  6
Continuous
370
    15
100
AcDbLine
 10
26.374672626
 20
9.8720845138
 30
0.0
 11
26.4441561099
 21
9.8720845138
 31
0.0
  0
LINE
  5
2E9
330
1F
100
AcDbEntity
  8
SLD-0
  6
Continuous
370
    15
100
AcDbLine
 10
26.374672626
 20
9.848084551
 30
0.0
 11
26.0046726216
 21
9.848084551
 31
0.0
  0
LINE
  5
2EA
330
1F
100
AcDbEntity
  8
SLD-0
  6
Continuous
370
    15
100
AcDbLine
 10
18.6246725913
 20
65.1110333554
 30
0.0
 11
18.6246725913
 21
65.0980235857
 31
0.0
  0
LINE
  5
2EB
330
1F
100
AcDbEntity
  8
SLD-0
  6
Continuous
370
    15
100
AcDbLine
 10
18.6246725913
 20
65.1110333554
 30
0.0
 11
20.4996727978
 21
65.1110333554
 31
0.0
  0
LINE
  5
2EC
330
1F
100
AcDbEntity
  8
SLD-0
  6
Continuous
370
    15
100
AcDbLine
 10
18.6246725913
 20
65.0980235857
 30
0.0
 11
20.4996727978
 21
65.0980235857
 31
0.0
  0
LINE
  5
2ED
330
1F
100
AcDbEntity
  8
SLD-0
  6
Continuous
370
    15
100
AcDbLine
 10
18.499672382
 20
64.9825407597
 30
0.0
 11
18.499672382
 21
64.6601594172
 31
0.0
  0
ARC
  5
2EE
330
1F
100
AcDbEntity
  8
SLD-0
  6
Continuous
370
    15
100
AcDbCircle
 10
18.6200956212
 20
64.97758537
 30
0.0
 40
0.1205251527156522
100
AcDbArc
 50
87.8236564423
 51
177.6436207542
  0
LINE
  5
2EF
330
1F
100
AcDbEntity
  8
SLD-0
  6
Continuous
370
    15
100
AcDbLine
 10
18.499672382
 20
64.9825407597
 30
0.0
 11
18.499672382
 21
64.9955505294
 31
0.0
  0
ARC
  5
2F0
330
1F
100
AcDbEntity
  8
SLD-0
  6
Continuous
370
    15
100
AcDbCircle
 10
18.6200956212
 20
64.9905951397
 30
0.0
 40
0.1205251527156656
100
AcDbArc
 50
87.8236564423
 51
177.6436207542
  0
LINE
  5
2F1
330
1F
100
AcDbEntity
  8
SLD-0
  6
Continuous
370
    15
100
AcDbLine
 10
18.499672382
 20
64.6360828954
 30
0.0
 11
20.4996727978
 21
64.6360828954
 31
0.0
  0
LINE
  5
2F2
330
1F
100
AcDbEntity
  8
SLD-0
  6
Continuous
370
    15
100
AcDbLine
 10
18.499672382
 20
64.6601594172
 30
0.0
 11
18.499672382
 21
64.6360828954
 31
0.0
  0
LINE
  5
2F3
330
1F
100
AcDbEntity
  8
SLD-0
  6
Continuous
370
    15
100
AcDbLine
 10
18.6246725913
 20
60.6477624621
 30
0.0
 11
18.6246725913
 21
60.6340252342
 31
0.0
  0
ARC
  5
2F4
330
1F
100
AcDbEntity
  8
SLD-0
  6
Continuous
370
    15
100
AcDbCircle
 10
18.6200954964
 20
60.5135873549
 30
0.0
 40
0.1205248213077323
100
AcDbArc
 50
87.8235910731
 51
177.646007326
  0
LINE
  5
2F5
330
1F
100
AcDbEntity
  8
SLD-0
  6
Continuous
370
    15
100
AcDbLine
 10
18.499672382
 20
60.5185377149
 30
0.0
 11
18.499672382
 21
60.5322796362
 31
0.0
  0
ARC
  5
2F6
330
1F
100
AcDbEntity
  8
SLD-0
  6
Continuous
370
    15
100
AcDbCircle
 10
18.6200956212
 20
60.5273242465
 30
0.0
 40
0.1205251527156458
100
AcDbArc
 50
87.8236564423
 51
177.6436207542
  0
LINE
  5
2F7
330
1F
100
AcDbEntity
  8
SLD-0
  6
Continuous
370
    15
100
AcDbLine
 10
18.499672382
 20
60.5185377149
 30
0.0
 11
18.499672382
 21
60.2164078718
 31
0.0
  0
LINE
  5
2F8
330
1F
100
AcDbEntity
  8
SLD-0
  6
Continuous
370
    15
100
AcDbLine
 10
18.6246725913
 20
60.6340252342
 30
0.0
 11
20.4996727978
 21
60.6340252342
 31
0.0
  0
LINE
  5
2F9
330
1F
100
AcDbEntity
  8
SLD-0
  6
Continuous
370
    15
100
AcDbLine
 10
18.6246725913
 20
60.6477624621
 30
0.0
 11
20.4996727978
 21
60.6477624621
 31
0.0
  0
LINE
  5
2FA
330
1F
100
AcDbEntity
  8
SLD-0
  6
Continuous
370
    15
100
AcDbLine
 10
18.499672382
 20
60.1720845439
 30
0.0
 11
20.4996727978
 21
60.1720845439
 31
0.0
  0
LINE
  5
2FB
330
1F
100
AcDbEntity
  8
SLD-0
  6
Continuous
370
    15
100
AcDbLine
 10
18.499672382
 20
60.2164078718
 30
0.0
 11
18.499672382
 21
60.1720845439
 31
0.0
  0
LINE
  5
2FC
330
1F
100
AcDbEntity
  8
SLD-0
  6
Continuous
370
    15
100
AcDbLine
 10
25.3996726359
 20
54.172083883
 30
0.0
 11
25.3996726359
 21
54.2060866902
 31
0.0
  0
LINE
  5
2FD
330
1F
100
AcDbEntity
  8
SLD-0
  6
Continuous
370
    15
100
AcDbLine
 10
20.5996724959
 20
54.2060866902
 30
0.0
 11
20.5996724959
 21
54.172083883
 31
0.0
  0
LINE
  5
2FE
330
1F
100
AcDbEntity
  8
SLD-0
  6
Continuous
370
    15
100
AcDbLine
 10
25.3996726359
 20
54.2060866902
 30
0.0
 11
20.5996724959
 21
54.2060866902
 31
0.0
  0
LINE
  5
2FF
330
1F
100
AcDbEntity
  8
SLD-0
  6
Continuous
370
    15
100
AcDbLine
 10
20.4996727978
 20
54.172083883
 30
0.0
 11
20.4996727978
 21
54.2060866902
 31
0.0
  0
LINE
  5
300
330
1F
100
AcDbEntity
  8
SLD-0
  6
Continuous
370
    15
100
AcDbLine
 10
20.4996727978
 20
54.2060866902
 30
0.0
 11
20.5996724959
 21
54.2060866902
 31
0.0
  0
LINE
  5
301
330
1F
100
AcDbEntity
  8
SLD-0
  6
Continuous
370
    15
100
AcDbLine
 10
25.4996726274
 20
54.2060866902
 30
0.0
 11
25.4996726274
 21
54.172083883
 31
0.0
  0
LINE
  5
302
330
1F
100
AcDbEntity
  8
SLD-0
  6
Continuous
370
    15
100
AcDbLine
 10
25.3996726359
 20
54.2060866902
 30
0.0
 11
25.4996726274
 21
54.2060866902
 31
0.0
  0
LINE
  5
303
330
1F
100
AcDbEntity
  8
SLD-0
  6
Continuous
370
    15
100
AcDbLine
 10
20.7496726298
 20
54.2091701746
 30
0.0
 11
20.4996727978
 21
54.2091701746
 31
0.0
  0
LINE
  5
304
330
1F
100
AcDbEntity
  8
SLD-0
  6
Continuous
370
    15
100
AcDbLine
 10
20.7496726298
 20
54.2060866902
 30
0.0
 11
20.7496726298
 21
54.2091701746
 31
0.0
  0
LINE
  5
305
330
1F
100
AcDbEntity
  8
SLD-0
  6
Continuous
370
    15
100
AcDbLine
 10
20.4996727978
 20
54.2091701746
 30
0.0
 11
20.4996727978
 21
54.2060866902
 31
0.0
  0
LINE
  5
306
330
1F
100
AcDbEntity
  8
SLD-0
  6
Continuous
370
    15
100
AcDbLine
 10
24.1246725615
 20
54.2091701746
 30
0.0
 11
21.8746727537
 21
54.2091701746
 31
0.0
  0
LINE
  5
307
330
1F
100
AcDbEntity
  8
SLD-0
  6
Continuous
370
    15
100
AcDbLine
 10
24.1246725615
 20
54.2060866902
 30
0.0
 11
24.1246725615
 21
54.2091701746
 31
0.0
  0
LINE
  5
308
330
1F
100
AcDbEntity
  8
SLD-0
  6
Continuous
370
    15
100
AcDbLine
 10
21.8746727537
 20
54.2091701746
 30
0.0
 11
21.8746727537
 21
54.2060866902
 31
0.0
  0
LINE
  5
309
330
1F
100
AcDbEntity
  8
SLD-0
  6
Continuous
370
    15
100
AcDbLine
 10
25.4996726274
 20
54.2091701746
 30
0.0
 11
25.2496726121
 21
54.2091701746
 31
0.0
  0
LINE
  5
30A
330
1F
100
AcDbEntity
  8
SLD-0
  6
Continuous
370
    15
100
AcDbLine
 10
25.4996726274
 20
54.2060866902
 30
0.0
 11
25.4996726274
 21
54.2091701746
 31
0.0
  0
LINE
  5
30B
330
1F
100
AcDbEntity
  8
SLD-0
  6
Continuous
370
    15
100
AcDbLine
 10
25.2496726121
 20
54.2091701746
 30
0.0
 11
25.2496726121
 21
54.2060866902
 31
0.0
  0
LINE
  5
30C
330
1F
100
AcDbEntity
  8
SLD-0
  6
Continuous
370
    15
100
AcDbLine
 10
25.2496726121
 20
54.22861443
 30
0.0
 11
24.1246725615
 21
54.22861443
 31
0.0
  0
LINE
  5
30D
330
1F
100
AcDbEntity
  8
SLD-0
  6
Continuous
370
    15
100
AcDbLine
 10
24.1246725615
 20
54.22861443
 30
0.0
 11
24.1246725615
 21
54.2091701746
 31
0.0
  0
LINE
  5
30E
330
1F
100
AcDbEntity
  8
SLD-0
  6
Continuous
370
    15
100
AcDbLine
 10
21.8746727537
 20
54.2091701746
 30
0.0
 11
21.8746727537
 21
54.22861443
 31
0.0
  0
LINE
  5
30F
330
1F
100
AcDbEntity
  8
SLD-0
  6
Continuous
370
    15
100
AcDbLine
 10
21.8746727537
 20
54.22861443
 30
0.0
 11
20.7496726298
 21
54.22861443
 31
0.0
  0
LINE
  5
310
330
1F
100
AcDbEntity
  8
SLD-0
  6
Continuous
370
    15
100
AcDbLine
 10
20.7496726298
 20
54.22861443
 30
0.0
 11
20.7496726298
 21
54.2091701746
 31
0.0
  0
LINE
  5
311
330
1F
100
AcDbEntity
  8
SLD-0
  6
Continuous
370
    15
100
AcDbLine
 10
25.4996726274
 20
66.1256358213
 30
0.0
 11
20.4996727978
 21
66.1256358213
 31
0.0
  0
LINE
  5
312
330
1F
100
AcDbEntity
  8
SLD-0
  6
Continuous
370
    15
100
AcDbLine
 10
25.4996726274
 20
54.2091701746
 30
0.0
 11
25.4996726274
 21
66.1256358213
 31
0.0
  0
LINE
  5
313
330
1F
100
AcDbEntity
  8
SLD-0
  6
Continuous
370
    15
100
AcDbLine
 10
25.2496726121
 20
54.2091701746
 30
0.0
 11
25.2496726121
 21
54.22861443
 31
0.0
  0
LINE
  5
314
330
1F
100
AcDbEntity
  8
SLD-0
  6
Continuous
370
    15
100
AcDbLine
 10
20.4996727978
 20
54.2091701746
 30
0.0
 11
20.4996727978
 21
66.1256358213
 31
0.0
  0
LINE
  5
315
330
1F
100
AcDbEntity
  8
SLD-0
  6
Continuous
370
    15
100
AcDbLine
 10
24.1246725615
 20
54.2156046603
 30
0.0
 11
25.2496726121
 21
54.2156046603
 31
0.0
  0
LINE
  5
316
330
1F
100
AcDbEntity
  8
SLD-0
  6
Continuous
370
    15
100
AcDbLine
 10
20.7496726298
 20
54.2156046603
 30
0.0
 11
21.8746727537
 21
54.2156046603
 31
0.0
  0
LINE
  5
317
330
1F
100
AcDbEntity
  8
SLD-0
  6
Continuous
370
    15
100
AcDbLine
 10
20.7496726298
 20
66.1565833038
 30
0.0
 11
20.7496726298
 21
66.1700858678
 31
0.0
  0
LINE
  5
318
330
1F
100
AcDbEntity
  8
SLD-0
  6
Continuous
370
    15
100
AcDbLine
 10
21.8746727537
 20
66.1565833038
 30
0.0
 11
20.7496726298
 21
66.1565833038
 31
0.0
  0
LINE
  5
319
330
1F
100
AcDbEntity
  8
SLD-0
  6
Continuous
370
    15
100
AcDbLine
 10
21.8746727537
 20
66.1700858678
 30
0.0
 11
21.8746727537
 21
66.1565833038
 31
0.0
  0
LINE
  5
31A
330
1F
100
AcDbEntity
  8
SLD-0
  6
Continuous
370
    15
100
AcDbLine
 10
25.4996726274
 20
66.1256358213
 30
0.0
 11
25.4996726274
 21
66.1700858678
 31
0.0
  0
LINE
  5
31B
330
1F
100
AcDbEntity
  8
SLD-0
  6
Continuous
370
    15
100
AcDbLine
 10
20.4996727978
 20
66.1700858678
 30
0.0
 11
20.4996727978
 21
66.1256358213
 31
0.0
  0
LINE
  5
31C
330
1F
100
AcDbEntity
  8
SLD-0
  6
Continuous
370
    15
100
AcDbLine
 10
25.2496726121
 20
66.1565833038
 30
0.0
 11
24.1246725615
 21
66.1565833038
 31
0.0
  0
LINE
  5
31D
330
1F
100
AcDbEntity
  8
SLD-0
  6
Continuous
370
    15
100
AcDbLine
 10
25.2496726121
 20
66.1700858678
 30
0.0
 11
25.2496726121
 21
66.1565833038
 31
0.0
  0
LINE
  5
31E
330
1F
100
AcDbEntity
  8
SLD-0
  6
Continuous
370
    15
100
AcDbLine
 10
24.1246725615
 20
66.1565833038
 30
0.0
 11
24.1246725615
 21
66.1700858678
 31
0.0
  0
LINE
  5
31F
330
1F
100
AcDbEntity
  8
SLD-0
  6
Continuous
370
    15
100
AcDbLine
 10
4.108672388
 20
9.8179424059
 30
0.0
 11
4.108672388
 21
53.2111537571
 31
0.0
  0
LINE
  5
320
330
1F
100
AcDbEntity
  8
SLD-0
  6
Continuous
370
    15
100
AcDbLine
 10
25.9466726211
 20
9.7950845233
 30
0.0
 11
25.9466726211
 21
53.2490848389
 31
0.0
  0
LINE
  5
321
330
1F
100
AcDbEntity
  8
SLD-0
  6
Continuous
370
    15
100
AcDbLine
 10
18.499672382
 20
64.6601594172
 30
0.0
 11
20.4996727978
 21
64.6601594172
 31
0.0
  0
LINE
  5
322
330
1F
100
AcDbEntity
  8
SLD-0
  6
Continuous
370
    15
100
AcDbLine
 10
18.499672382
 20
60.2164078718
 30
0.0
 11
20.4996727978
 21
60.2164078718
 31
0.0
  0
LINE
  5
323
330
1F
100
AcDbEntity
  8
DIM
100
AcDbLine
 10
18.9756726213
 20
12.9841501872
 30
0.0
 11
18.9756726213
 21
11.3080188645
 31
0.0
  0
LINE
  5
324
330
1F
100
AcDbEntity
  8
DIM
100
AcDbLine
 10
18.13760696
 20
12.1460845258
 30
0.0
 11
19.8137382826
 21
12.1460845258
 31
0.0
  0
DIMENSION
  5
325
330
1F
100
AcDbEntity
  8
DIM
100
AcDbDimension
  2
_D_10
 10
18.9756726213
 20
5.8720825573
 30
0.0
 11
22.7376726213
 21
5.8720825573
 31
0.0
 70
   160
  1
<>
 71
     2
 42
-1.0
  3
SLDDIMSTYLE0
100
AcDbAlignedDimension
 13
26.4996726213
 23
9.9970845258
 33
0.0
 14
18.9756726213
 24
11.3080188645
 34
0.0
100
AcDbRotatedDimension
  0
DIMENSION
  5
334
330
1F
100
AcDbEntity
  8
DIM
100
AcDbDimension
  2
_D_11
 10
15.0370520177
 20
12.1460845258
 30
0.0
 11
15.0370520177
 21
5.8720825573
 31
0.0
 70
   160
  1
<>
 71
     2
 42
-1.0
  3
SLDDIMSTYLE1
100
AcDbAlignedDimension
 13
25.9706726213
 23
8.8720845258
 33
0.0
 14
18.13760696
 24
12.1460845258
 34
0.0
 50
90.0
100
AcDbRotatedDimension
  0
LINE
  5
343
330
1F
100
AcDbEntity
  8
SLD-0
  6
Continuous
370
    15
100
AcDbLine
 10
98.6701314171
 20
81.8031674028
 30
0.0
 11
98.6435205245
 21
81.8762795982
 31
0.0
  0
LINE
  5
344
330
1F
100
AcDbEntity
  8
SLD-0
  6
Continuous
370
    15
100
AcDbLine
 10
98.6701314171
 20
81.8031674028
 30
0.0
 11
98.5704086224
 21
81.8031674028
 31
0.0
  0
LINE
  5
345
330
1F
100
AcDbEntity
  8
SLD-0
  6
Continuous
370
    15
100
AcDbLine
 10
53.0444091026
 20
81.8031674028
 30
0.0
 11
52.944686308
 21
81.8031674028
 31
0.0
  0
LINE
  5
346
330
1F
100
AcDbEntity
  8
SLD-0
  6
Continuous
370
    15
100
AcDbLine
 10
52.9712972006
 20
81.8762795982
 30
0.0
 11
52.944686308
 21
81.8031674028
 31
0.0
  0
LWPOLYLINE
  5
347
330
1F
100
AcDbEntity
  8
SLD-0
  6
Continuous
370
    15
100
AcDbPolyline
 90
        9
 70
   128
 43
0.0
 10
45.3074094144
 20
104.256095448
 10
45.307965568
 20
104.2561353409
 10
45.3096152556
 20
104.2562550195
 10
45.312295118
 20
104.2564450973
 10
45.315901903
 20
104.2567032276
 10
45.3202971589
 20
104.2570176773
 10
45.3253119276
 20
104.2573743665
 10
45.3307514381
 20
104.2577639087
 10
45.3364091861
 20
104.2581675307
  0
LWPOLYLINE
  5
348
330
1F
100
AcDbEntity
  8
SLD-0
  6
Continuous
370
    15
100
AcDbPolyline
 90
       10
 70
   128
 43
0.0
 10
45.3364091861
 20
104.2581675307
 10
45.336768222
 20
104.2632034192
 10
45.3371178713
 20
104.2680867761
 10
45.3374440542
 20
104.2726674165
 10
45.3377397307
 20
104.2768092354
 10
45.3379955144
 20
104.2803831674
 10
45.3382020187
 20
104.2832812673
 10
45.3383545503
 20
104.2854190559
 10
45.3384484159
 20
104.2867261341
 10
45.3384789222
 20
104.2871673024
  0
LINE
  5
349
330
1F
100
AcDbEntity
  8
SLD-0
  6
Continuous
370
    15
100
AcDbLine
 10
106.2763388028
 20
104.2871673024
 30
0.0
 11
45.3384789222
 21
104.2871673024
 31
0.0
  0
LWPOLYLINE
  5
34A
330
1F
100
AcDbEntity
  8
SLD-0
  6
Continuous
370
    15
100
AcDbPolyline
 90
       10
 70
   128
 43
0.0
 10
106.2763388028
 20
104.2871673024
 10
106.2763693092
 20
104.2867261341
 10
106.2764631747
 20
104.2854190559
 10
106.2766157063
 20
104.2832812673
 10
106.2768222106
 20
104.2803831674
 10
106.2770779943
 20
104.2768092354
 10
106.2773736709
 20
104.2726674165
 10
106.2776998538
 20
104.2680867761
 10
106.2780495031
 20
104.2632034192
 10
106.2784085389
 20
104.2581675307
  0
LINE
  5
34B
330
1F
100
AcDbEntity
  8
SLD-0
  6
Continuous
370
    15
100
AcDbLine
 10
106.2784085389
 20
104.2581675307
 30
0.0
 11
45.3364091861
 21
104.2581675307
 31
0.0
  0
LINE
  5
34C
330
1F
100
AcDbEntity
  8
SLD-0
  6
Continuous
370
    15
100
AcDbLine
 10
106.2784085389
 20
82.3321673976
 30
0.0
 11
106.2784085389
 21
104.2581675307
 31
0.0
  0
LINE
  5
34D
330
1F
100
AcDbEntity
  8
SLD-0
  6
Continuous
370
    15
100
AcDbLine
 10
45.3364091861
 20
82.3321673976
 30
0.0
 11
106.2784085389
 21
82.3321673976
 31
0.0
  0
LINE
  5
34E
330
1F
100
AcDbEntity
  8
SLD-0
  6
Continuous
370
    15
100
AcDbLine
 10
45.3364091861
 20
104.2581675307
 30
0.0
 11
45.3364091861
 21
82.3321673976
 31
0.0
  0
CIRCLE
  5
34F
330
1F
100
AcDbEntity
  8
SLD-0
  6
Continuous
370
    15
100
AcDbCircle
 10
75.8074088625
 20
97.5491673968
 30
0.0
 40
4.5
  0
LWPOLYLINE
  5
350
330
1F
100
AcDbEntity
  8
SLD-0
  6
Continuous
370
    15
100
AcDbPolyline
 90
       10
 70
   128
 43
0.0
 10
106.2784085389
 20
104.2581675307
 10
106.2834444274
 20
104.2578084949
 10
106.2883277843
 20
104.2574588456
 10
106.2929084248
 20
104.2571326627
 10
106.2970502436
 20
104.2568369861
 10
106.3006241756
 20
104.2565812024
 10
106.3035246221
 20
104.2563746981
 10
106.3056600641
 20
104.2562221665
 10
106.3069671424
 20
104.2561283009
 10
106.3074083106
 20
104.256095448
  0
LINE
  5
351
330
1F
100
AcDbEntity
  8
SLD-0
  6
Continuous
370
    15
100
AcDbLine
 10
45.3364091861
 20
82.3321673976
 30
0.0
 11
45.3074094144
 21
82.3321673976
 31
0.0
  0
LINE
  5
352
330
1F
100
AcDbEntity
  8
SLD-0
  6
Continuous
370
    15
100
AcDbLine
 10
45.3074094144
 20
104.256095448
 30
0.0
 11
45.3074094144
 21
82.3321673976
 31
0.0
  0
LINE
  5
353
330
1F
100
AcDbEntity
  8
SLD-0
  6
Continuous
370
    15
100
AcDbLine
 10
106.3074083106
 20
82.3321673976
 30
0.0
 11
106.3074083106
 21
104.256095448
 31
0.0
  0
LINE
  5
354
330
1F
100
AcDbEntity
  8
SLD-0
  6
Continuous
370
    15
100
AcDbLine
 10
106.3074083106
 20
82.3321673976
 30
0.0
 11
106.2784085389
 21
82.3321673976
 31
0.0
  0
LINE
  5
355
330
1F
100
AcDbEntity
  8
SLD-0
  6
Continuous
370
    15
100
AcDbLine
 10
45.3364091861
 20
82.3031673968
 30
0.0
 11
106.2784085389
 21
82.3031673968
 31
0.0
  0
LINE
  5
356
330
1F
100
AcDbEntity
  8
SLD-0
  6
Continuous
370
    15
100
AcDbLine
 10
45.3364091861
 20
82.3031673968
 30
0.0
 11
45.3364091861
 21
82.3321673976
 31
0.0
  0
LINE
  5
357
330
1F
100
AcDbEntity
  8
SLD-0
  6
Continuous
370
    15
100
AcDbLine
 10
106.2784085389
 20
82.3321673976
 30
0.0
 11
106.2784085389
 21
82.3031673968
 31
0.0
  0
LINE
  5
358
330
1F
100
AcDbEntity
  8
SLD-0
  6
Continuous
370
    15
100
AcDbLine
 10
52.9194083067
 20
82.2981673965
 30
0.0
 11
98.6954094184
 21
82.2981673965
 31
0.0
  0
LINE
  5
359
330
1F
100
AcDbEntity
  8
SLD-0
  6
Continuous
370
    15
100
AcDbLine
 10
52.9194083067
 20
82.3031673968
 30
0.0
 11
52.9194083067
 21
82.2981673965
 31
0.0
  0
LINE
  5
35A
330
1F
100
AcDbEntity
  8
SLD-0
  6
Continuous
370
    15
100
AcDbLine
 10
98.6954094184
 20
82.2981673965
 30
0.0
 11
98.6954094184
 21
82.3031673968
 31
0.0
  0
LINE
  5
35B
330
1F
100
AcDbEntity
  8
SLD-0
  6
Continuous
370
    15
100
AcDbLine
 10
52.9194083067
 20
81.9281673921
 30
0.0
 11
53.0444091026
 21
81.8031674028
 31
0.0
  0
LINE
  5
35C
330
1F
100
AcDbEntity
  8
SLD-0
  6
Continuous
370
    15
100
AcDbLine
 10
98.6954094184
 20
81.9281673921
 30
0.0
 11
98.6954094184
 21
82.2981673965
 31
0.0
  0
LINE
  5
35D
330
1F
100
AcDbEntity
  8
SLD-0
  6
Continuous
370
    15
100
AcDbLine
 10
98.5704086224
 20
81.8031674028
 30
0.0
 11
98.6954094184
 21
81.9281673921
 31
0.0
  0
LINE
  5
35E
330
1F
100
AcDbEntity
  8
SLD-0
  6
Continuous
370
    15
100
AcDbLine
 10
52.9194083067
 20
82.2981673965
 30
0.0
 11
52.9194083067
 21
81.9281673921
 31
0.0
  0
LINE
  5
35F
330
1F
100
AcDbEntity
  8
SLD-0
  6
Continuous
370
    15
100
AcDbLine
 10
53.0444091026
 20
81.8031674028
 30
0.0
 11
98.5704086224
 21
81.8031674028
 31
0.0
  0
LINE
  5
360
330
1F
100
AcDbEntity
  8
SLD-0
  6
Continuous
370
    15
100
AcDbLine
 10
98.741408247
 20
81.9281673921
 30
0.0
 11
98.7654096764
 21
81.9281673921
 31
0.0
  0
LINE
  5
361
330
1F
100
AcDbEntity
  8
SLD-0
  6
Continuous
370
    15
100
AcDbLine
 10
98.741408247
 20
82.3031673968
 30
0.0
 11
98.741408247
 21
81.9281673921
 31
0.0
  0
LINE
  5
362
330
1F
100
AcDbEntity
  8
SLD-0
  6
Continuous
370
    15
100
AcDbLine
 10
98.7654096764
 20
82.3031673968
 30
0.0
 11
98.7654096764
 21
81.9281673921
 31
0.0
  0
LINE
  5
363
330
1F
100
AcDbEntity
  8
SLD-0
  6
Continuous
370
    15
100
AcDbLine
 10
98.7654096764
 20
81.8031674028
 30
0.0
 11
98.741408247
 21
81.8031674028
 31
0.0
  0
LINE
  5
364
330
1F
100
AcDbEntity
  8
SLD-0
  6
Continuous
370
    15
100
AcDbLine
 10
98.741408247
 20
81.8031674028
 30
0.0
 11
98.741408247
 21
81.9281673921
 31
0.0
  0
LINE
  5
365
330
1F
100
AcDbEntity
  8
SLD-0
  6
Continuous
370
    15
100
AcDbLine
 10
98.7654096764
 20
81.9281673921
 30
0.0
 11
98.7654096764
 21
81.8031674028
 31
0.0
  0
LINE
  5
366
330
1F
100
AcDbEntity
  8
SLD-0
  6
Continuous
370
    15
100
AcDbLine
 10
52.873409478
 20
81.8031674028
 30
0.0
 11
52.8494080486
 21
81.8031674028
 31
0.0
  0
LINE
  5
367
330
1F
100
AcDbEntity
  8
SLD-0
  6
Continuous
370
    15
100
AcDbLine
 10
52.8494080486
 20
81.9281673921
 30
0.0
 11
52.873409478
 21
81.9281673921
 31
0.0
  0
LINE
  5
368
330
1F
100
AcDbEntity
  8
SLD-0
  6
Continuous
370
    15
100
AcDbLine
 10
52.8494080486
 20
81.8031674028
 30
0.0
 11
52.8494080486
 21
81.9281673921
 31
0.0
  0
LINE
  5
369
330
1F
100
AcDbEntity
  8
SLD-0
  6
Continuous
370
    15
100
AcDbLine
 10
52.873409478
 20
81.9281673921
 30
0.0
 11
52.873409478
 21
81.8031674028
 31
0.0
  0
LINE
  5
36A
330
1F
100
AcDbEntity
  8
SLD-0
  6
Continuous
370
    15
100
AcDbLine
 10
52.8494080486
 20
81.9281673921
 30
0.0
 11
52.8494080486
 21
82.3031673968
 31
0.0
  0
LINE
  5
36B
330
1F
100
AcDbEntity
  8
SLD-0
  6
Continuous
370
    15
100
AcDbLine
 10
52.873409478
 20
81.9281673921
 30
0.0
 11
52.873409478
 21
82.3031673968
 31
0.0
  0
LINE
  5
36C
330
1F
100
AcDbEntity
  8
SLD-0
  6
Continuous
370
    15
100
AcDbLine
 10
98.7194085011
 20
82.3031673968
 30
0.0
 11
98.7194085011
 21
82.2981673965
 31
0.0
  0
LINE
  5
36D
330
1F
100
AcDbEntity
  8
SLD-0
  6
Continuous
370
    15
100
AcDbLine
 10
52.8954092239
 20
82.2981673965
 30
0.0
 11
52.8954092239
 21
82.3031673968
 31
0.0
  0
LINE
  5
36E
330
1F
100
AcDbEntity
  8
SLD-0
  6
Continuous
370
    15
100
AcDbLine
 10
98.6499245038
 20
81.8586839081
 30
0.0
 11
98.7194085011
 21
81.9281673921
 31
0.0
  0
LINE
  5
36F
330
1F
100
AcDbEntity
  8
SLD-0
  6
Continuous
370
    15
100
AcDbLine
 10
52.8954092239
 20
81.9281673921
 30
0.0
 11
52.9648932212
 21
81.8586839081
 31
0.0
  0
LINE
  5
370
330
1F
100
AcDbEntity
  8
SLD-0
  6
Continuous
370
    15
100
AcDbLine
 10
52.8954092239
 20
81.9281673921
 30
0.0
 11
52.8954092239
 21
82.2981673965
 31
0.0
  0
LINE
  5
371
330
1F
100
AcDbEntity
  8
SLD-0
  6
Continuous
370
    15
100
AcDbLine
 10
98.7194085011
 20
82.2981673965
 30
0.0
 11
98.7194085011
 21
81.9281673921
 31
0.0
  0
CIRCLE
  5
372
330
1F
100
AcDbEntity
  8
SLD-0
  6
Continuous
370
    15
100
AcDbCircle
 10
75.8074088625
 20
97.5491673968
 30
0.0
 40
4.0
  0
CIRCLE
  5
373
330
1F
100
AcDbEntity
  8
SLD-0
  6
Continuous
370
    15
100
AcDbCircle
 10
75.8074088625
 20
97.5491673967
 30
0.0
 40
2.416373405054529
  0
CIRCLE
  5
374
330
1F
100
AcDbEntity
  8
SLD-0
  6
Continuous
370
    15
100
AcDbCircle
 10
75.8074088625
 20
97.5491673967
 30
0.0
 40
2.497893621736736
  0
LINE
  5
375
330
1F
100
AcDbEntity
  8
SLD-0
  6
Continuous
370
    15
100
AcDbLine
 10
92.9613498987
 20
82.8031673907
 30
0.0
 11
92.9613498987
 21
82.8371674113
 31
0.0
  0
LINE
  5
376
330
1F
100
AcDbEntity
  8
SLD-0
  6
Continuous
370
    15
100
AcDbLine
 10
92.9613498987
 20
82.8031673907
 30
0.0
 11
58.6534678263
 21
82.8031673907
 31
0.0
  0
LINE
  5
377
330
1F
100
AcDbEntity
  8
SLD-0
  6
Continuous
370
    15
100
AcDbLine
 10
58.6534678263
 20
82.8371674113
 30
0.0
 11
58.6534678263
 21
82.8031673907
 31
0.0
  0
LINE
  5
378
330
1F
100
AcDbEntity
  8
SLD-0
  6
Continuous
370
    15
100
AcDbLine
 10
92.9613498987
 20
82.8371674113
 30
0.0
 11
58.6534678263
 21
82.8371674113
 31
0.0
  0
LINE
  5
379
330
1F
100
AcDbEntity
  8
SLD-0
  6
Continuous
370
    15
100
AcDbLine
 10
58.5284682036
 20
82.8031673907
 30
0.0
 11
58.5284682036
 21
82.8371674113
 31
0.0
  0
LINE
  5
37A
330
1F
100
AcDbEntity
  8
SLD-0
  6
Continuous
370
    15
100
AcDbLine
 10
58.6534678263
 20
82.8031673907
 30
0.0
 11
58.5284682036
 21
82.8031673907
 31
0.0
  0
LINE
  5
37B
330
1F
100
AcDbEntity
  8
SLD-0
  6
Continuous
370
    15
100
AcDbLine
 10
58.5284682036
 20
82.8371674113
 30
0.0
 11
58.6534678263
 21
82.8371674113
 31
0.0
  0
LINE
  5
37C
330
1F
100
AcDbEntity
  8
SLD-0
  6
Continuous
370
    15
100
AcDbLine
 10
93.0863495214
 20
82.8371674113
 30
0.0
 11
93.0863495214
 21
82.8031673907
 31
0.0
  0
LINE
  5
37D
330
1F
100
AcDbEntity
  8
SLD-0
  6
Continuous
370
    15
100
AcDbLine
 10
93.0863495214
 20
82.8031673907
 30
0.0
 11
92.9613498987
 21
82.8031673907
 31
0.0
  0
LINE
  5
37E
330
1F
100
AcDbEntity
  8
SLD-0
  6
Continuous
370
    15
100
AcDbLine
 10
92.9613498987
 20
82.8371674113
 30
0.0
 11
93.0863495214
 21
82.8371674113
 31
0.0
  0
LINE
  5
37F
330
1F
100
AcDbEntity
  8
SLD-0
  6
Continuous
370
    15
100
AcDbLine
 10
58.3334788828
 20
89.6781674268
 30
0.0
 11
58.3020667657
 21
89.6781674268
 31
0.0
  0
LWPOLYLINE
  5
380
330
1F
100
AcDbEntity
  8
SLD-0
  6
Continuous
370
    15
100
AcDbPolyline
 90
        9
 70
   128
 43
0.0
 10
58.3020667657
 20
89.6781674268
 10
58.3029866484
 20
89.7025537051
 10
58.3057087503
 20
89.7260030875
 10
58.3101286459
 20
89.7476138779
 10
58.3160773772
 20
89.7665559524
 10
58.3233261468
 20
89.7821012661
 10
58.3315968779
 20
89.7936525994
 10
58.3405704276
 20
89.8007652639
 10
58.3499030131
 20
89.8031676361
  0
LINE
  5
381
330
1F
100
AcDbEntity
  8
SLD-0
  6
Continuous
370
    15
100
AcDbLine
 10
58.3499030131
 20
89.8031676361
 30
0.0
 11
58.3813139569
 21
89.8031676361
 31
0.0
  0
LWPOLYLINE
  5
382
330
1F
100
AcDbEntity
  8
SLD-0
  6
Continuous
370
    15
100
AcDbPolyline
 90
        9
 70
   128
 43
0.0
 10
58.3813139569
 20
89.8031676361
 10
58.3719825447
 20
89.8007652639
 10
58.363008995
 20
89.7936525994
 10
58.3547382639
 20
89.7821012661
 10
58.3474894943
 20
89.7665559524
 10
58.3415407631
 20
89.7476138779
 10
58.3371208674
 20
89.7260030875
 10
58.3343987656
 20
89.7025537051
 10
58.3334788828
 20
89.6781674268
  0
LINE
  5
383
330
1F
100
AcDbEntity
  8
SLD-0
  6
Continuous
370
    15
100
AcDbLine
 10
58.3813139569
 20
89.8031676361
 30
0.0
 11
58.5148483077
 21
89.8031676361
 31
0.0
  0
LINE
  5
384
330
1F
100
AcDbEntity
  8
SLD-0
  6
Continuous
370
    15
100
AcDbLine
 10
58.5148483077
 20
89.8031676361
 30
0.0
 11
58.5148483077
 21
82.8831674132
 31
0.0
  0
LINE
  5
385
330
1F
100
AcDbEntity
  8
SLD-0
  6
Continuous
370
    15
100
AcDbLine
 10
58.3813139569
 20
82.8831674132
 30
0.0
 11
58.5148483077
 21
82.8831674132
 31
0.0
  0
LWPOLYLINE
  5
386
330
1F
100
AcDbEntity
  8
SLD-0
  6
Continuous
370
    15
100
AcDbPolyline
 90
        9
 70
   128
 43
0.0
 10
58.3334788828
 20
83.0081673659
 10
58.3343987656
 20
82.9837810876
 10
58.3371208674
 20
82.9603319985
 10
58.3415407631
 20
82.9387211348
 10
58.3474894943
 20
82.9197790603
 10
58.3547382639
 20
82.9042337098
 10
58.363008995
 20
82.89268245
 10
58.3719825447
 20
82.8855692355
 10
58.3813139569
 20
82.8831674132
  0
LINE
  5
387
330
1F
100
AcDbEntity
  8
SLD-0
  6
Continuous
370
    15
100
AcDbLine
 10
58.3334788828
 20
89.6781674268
 30
0.0
 11
58.3334788828
 21
83.0081673659
 31
0.0
  0
LINE
  5
388
330
1F
100
AcDbEntity
  8
SLD-0
  6
Continuous
370
    15
100
AcDbLine
 10
58.3020667657
 20
83.0081673659
 30
0.0
 11
58.3334788828
 21
83.0081673659
 31
0.0
  0
LINE
  5
389
330
1F
100
AcDbEntity
  8
SLD-0
  6
Continuous
370
    15
100
AcDbLine
 10
58.3813139569
 20
82.8831674132
 30
0.0
 11
58.3499030131
 21
82.8831674132
 31
0.0
  0
LWPOLYLINE
  5
38A
330
1F
100
AcDbEntity
  8
SLD-0
  6
Continuous
370
    15
100
AcDbPolyline
 90
        9
 70
   128
 43
0.0
 10
58.3499030131
 20
82.8831674132
 10
58.3405704276
 20
82.8855692355
 10
58.3315968779
 20
82.89268245
 10
58.3233261468
 20
82.9042337098
 10
58.3160773772
 20
82.9197790603
 10
58.3101286459
 20
82.9387211348
 10
58.3057087503
 20
82.9603319985
 10
58.3029866484
 20
82.9837810876
 10
58.3020667657
 20
83.0081673659
  0
LINE
  5
38B
330
1F
100
AcDbEntity
  8
SLD-0
  6
Continuous
370
    15
100
AcDbLine
 10
58.3020667657
 20
89.6781674268
 30
0.0
 11
58.3020667657
 21
83.0081673659
 31
0.0
  0
LINE
  5
38C
330
1F
100
AcDbEntity
  8
SLD-0
  6
Continuous
370
    15
100
AcDbLine
 10
93.3127509593
 20
89.6781674268
 30
0.0
 11
93.2813388422
 21
89.6781674268
 31
0.0
  0
LINE
  5
38D
330
1F
100
AcDbEntity
  8
SLD-0
  6
Continuous
370
    15
100
AcDbLine
 10
93.3127509593
 20
89.6781674268
 30
0.0
 11
93.3127509593
 21
83.0081673659
 31
0.0
  0
LINE
  5
38E
330
1F
100
AcDbEntity
  8
SLD-0
  6
Continuous
370
    15
100
AcDbLine
 10
93.2813388422
 20
83.0081673659
 30
0.0
 11
93.3127509593
 21
83.0081673659
 31
0.0
  0
LINE
  5
38F
330
1F
100
AcDbEntity
  8
SLD-0
  6
Continuous
370
    15
100
AcDbLine
 10
93.2813388422
 20
89.6781674268
 30
0.0
 11
93.2813388422
 21
83.0081673659
 31
0.0
  0
LINE
  5
390
330
1F
100
AcDbEntity
  8
SLD-0
  6
Continuous
370
    15
100
AcDbLine
 10
93.2649147119
 20
82.8831674132
 30
0.0
 11
93.2335037681
 21
82.8831674132
 31
0.0
  0
LWPOLYLINE
  5
391
330
1F
100
AcDbEntity
  8
SLD-0
  6
Continuous
370
    15
100
AcDbPolyline
 90
        9
 70
   128
 43
0.0
 10
93.2335037681
 20
82.8831674132
 10
93.2428351803
 20
82.8855692355
 10
93.25180873
 20
82.89268245
 10
93.2600794611
 20
82.9042337098
 10
93.2673282307
 20
82.9197790603
 10
93.273276962
 20
82.9387211348
 10
93.2776968576
 20
82.9603319985
 10
93.2804189595
 20
82.9837810876
 10
93.2813388422
 20
83.0081673659
  0
LWPOLYLINE
  5
392
330
1F
100
AcDbEntity
  8
SLD-0
  6
Continuous
370
    15
100
AcDbPolyline
 90
        9
 70
   128
 43
0.0
 10
93.3127509593
 20
83.0081673659
 10
93.3118310766
 20
82.9837810876
 10
93.3091089747
 20
82.9603319985
 10
93.3046890791
 20
82.9387211348
 10
93.2987403478
 20
82.9197790603
 10
93.2914915782
 20
82.9042337098
 10
93.2832208471
 20
82.89268245
 10
93.2742472974
 20
82.8855692355
 10
93.2649147119
 20
82.8831674132
  0
LINE
  5
393
330
1F
100
AcDbEntity
  8
SLD-0
  6
Continuous
370
    15
100
AcDbLine
 10
93.0999694174
 20
89.8031676361
 30
0.0
 11
93.0999694174
 21
82.8831674132
 31
0.0
  0
LINE
  5
394
330
1F
100
AcDbEntity
  8
SLD-0
  6
Continuous
370
    15
100
AcDbLine
 10
93.0999694174
 20
89.8031676361
 30
0.0
 11
93.2335037681
 21
89.8031676361
 31
0.0
  0
LWPOLYLINE
  5
395
330
1F
100
AcDbEntity
  8
SLD-0
  6
Continuous
370
    15
100
AcDbPolyline
 90
        9
 70
   128
 43
0.0
 10
93.2813388422
 20
89.6781674268
 10
93.2804189595
 20
89.7025537051
 10
93.2776968576
 20
89.7260030875
 10
93.273276962
 20
89.7476138779
 10
93.2673282307
 20
89.7665559524
 10
93.2600794611
 20
89.7821012661
 10
93.25180873
 20
89.7936525994
 10
93.2428351803
 20
89.8007652639
 10
93.2335037681
 20
89.8031676361
  0
LINE
  5
396
330
1F
100
AcDbEntity
  8
SLD-0
  6
Continuous
370
    15
100
AcDbLine
 10
93.2335037681
 20
82.8831674132
 30
0.0
 11
93.0999694174
 21
82.8831674132
 31
0.0
  0
LINE
  5
397
330
1F
100
AcDbEntity
  8
SLD-0
  6
Continuous
370
    15
100
AcDbLine
 10
93.2335037681
 20
89.8031676361
 30
0.0
 11
93.2649147119
 21
89.8031676361
 31
0.0
  0
LWPOLYLINE
  5
398
330
1F
100
AcDbEntity
  8
SLD-0
  6
Continuous
370
    15
100
AcDbPolyline
 90
        9
 70
   128
 43
0.0
 10
93.2649147119
 20
89.8031676361
 10
93.2742472974
 20
89.8007652639
 10
93.2832208471
 20
89.7936525994
 10
93.2914915782
 20
89.7821012661
 10
93.2987403478
 20
89.7665559524
 10
93.3046890791
 20
89.7476138779
 10
93.3091089747
 20
89.7260030875
 10
93.3118310766
 20
89.7025537051
 10
93.3127509593
 20
89.6781674268
  0
LINE
  5
399
330
1F
100
AcDbEntity
  8
SLD-0
  6
Continuous
370
    15
100
AcDbLine
 10
93.0863495214
 20
82.8371674113
 30
0.0
 11
93.0863495214
 21
82.8421674035
 31
0.0
  0
LINE
  5
39A
330
1F
100
AcDbEntity
  8
SLD-0
  6
Continuous
370
    15
100
AcDbLine
 10
93.0863495214
 20
82.8421674035
 30
0.0
 11
58.5284682036
 21
82.8421674035
 31
0.0
  0
LINE
  5
39B
330
1F
100
AcDbEntity
  8
SLD-0
  6
Continuous
370
    15
100
AcDbLine
 10
58.5284682036
 20
82.8421674035
 30
0.0
 11
58.5284682036
 21
82.8371674113
 31
0.0
  0
LINE
  5
39C
330
1F
100
AcDbEntity
  8
SLD-0
  6
Continuous
370
    15
100
AcDbLine
 10
93.0953500574
 20
89.8031676361
 30
0.0
 11
93.0953500574
 21
82.8831674132
 31
0.0
  0
LINE
  5
39D
330
1F
100
AcDbEntity
  8
SLD-0
  6
Continuous
370
    15
100
AcDbLine
 10
93.0953500574
 20
89.8031676361
 30
0.0
 11
93.0999694174
 21
89.8031676361
 31
0.0
  0
LINE
  5
39E
330
1F
100
AcDbEntity
  8
SLD-0
  6
Continuous
370
    15
100
AcDbLine
 10
93.0999694174
 20
82.8831674132
 30
0.0
 11
93.0953500574
 21
82.8831674132
 31
0.0
  0
LINE
  5
39F
330
1F
100
AcDbEntity
  8
SLD-0
  6
Continuous
370
    15
100
AcDbLine
 10
58.5194676676
 20
89.8031676361
 30
0.0
 11
58.5194676676
 21
82.8831674132
 31
0.0
  0
LINE
  5
3A0
330
1F
100
AcDbEntity
  8
SLD-0
  6
Continuous
370
    15
100
AcDbLine
 10
58.5194676676
 20
82.8831674132
 30
0.0
 11
58.5148483077
 21
82.8831674132
 31
0.0
  0
LINE
  5
3A1
330
1F
100
AcDbEntity
  8
SLD-0
  6
Continuous
370
    15
100
AcDbLine
 10
58.5148483077
 20
89.8031676361
 30
0.0
 11
58.5194676676
 21
89.8031676361
 31
0.0
  0
LINE
  5
3A2
330
1F
100
AcDbEntity
  8
SLD-0
  6
Continuous
370
    15
100
AcDbLine
 10
58.5194676676
 20
89.8031676361
 30
0.0
 11
93.0953500574
 21
89.8031676361
 31
0.0
  0
LINE
  5
3A3
330
1F
100
AcDbEntity
  8
SLD-0
  6
Continuous
370
    15
100
AcDbLine
 10
93.0953500574
 20
82.8831674132
 30
0.0
 11
93.0863495214
 21
82.8831674132
 31
0.0
  0
LINE
  5
3A4
330
1F
100
AcDbEntity
  8
SLD-0
  6
Continuous
370
    15
100
AcDbLine
 10
93.0863495214
 20
82.8831674132
 30
0.0
 11
93.0863495214
 21
82.8421674035
 31
0.0
  0
LINE
  5
3A5
330
1F
100
AcDbEntity
  8
SLD-0
  6
Continuous
370
    15
100
AcDbLine
 10
58.5284682036
 20
82.8831674132
 30
0.0
 11
58.5194676676
 21
82.8831674132
 31
0.0
  0
LINE
  5
3A6
330
1F
100
AcDbEntity
  8
SLD-0
  6
Continuous
370
    15
100
AcDbLine
 10
58.5284682036
 20
82.8421674035
 30
0.0
 11
58.5284682036
 21
82.8831674132
 31
0.0
  0
LINE
  5
3A7
330
1F
100
AcDbEntity
  8
SLD-0
  6
Continuous
370
    15
100
AcDbLine
 10
93.849624544
 20
83.053167406
 30
0.0
 11
93.7656735138
 21
83.053167406
 31
0.0
  0
LINE
  5
3A8
330
1F
100
AcDbEntity
  8
SLD-0
  6
Continuous
370
    15
100
AcDbLine
 10
93.849624544
 20
84.1781674566
 30
0.0
 11
93.849624544
 21
83.053167406
 31
0.0
  0
LINE
  5
3A9
330
1F
100
AcDbEntity
  8
SLD-0
  6
Continuous
370
    15
100
AcDbLine
 10
93.7656735138
 20
84.1781674566
 30
0.0
 11
93.849624544
 21
84.1781674566
 31
0.0
  0
LINE
  5
3AA
330
1F
100
AcDbEntity
  8
SLD-0
  6
Continuous
370
    15
100
AcDbLine
 10
93.7656735138
 20
83.053167406
 30
0.0
 11
93.7656735138
 21
84.1781674566
 31
0.0
  0
LINE
  5
3AB
330
1F
100
AcDbEntity
  8
SLD-0
  6
Continuous
370
    15
100
AcDbLine
 10
93.7411300106
 20
87.8031672203
 30
0.0
 11
93.7411300106
 21
82.8031673907
 31
0.0
  0
LINE
  5
3AC
330
1F
100
AcDbEntity
  8
SLD-0
  6
Continuous
370
    15
100
AcDbLine
 10
93.8741680471
 20
87.8031672203
 30
0.0
 11
93.8741680471
 21
82.8031673907
 31
0.0
  0
LINE
  5
3AD
330
1F
100
AcDbEntity
  8
SLD-0
  6
Continuous
370
    15
100
AcDbLine
 10
93.7411300106
 20
82.8031673907
 30
0.0
 11
93.8741680471
 21
82.8031673907
 31
0.0
  0
LINE
  5
3AE
330
1F
100
AcDbEntity
  8
SLD-0
  6
Continuous
370
    15
100
AcDbLine
 10
93.849624544
 20
87.5531673883
 30
0.0
 11
93.849624544
 21
86.4281672644
 31
0.0
  0
LINE
  5
3AF
330
1F
100
AcDbEntity
  8
SLD-0
  6
Continuous
370
    15
100
AcDbLine
 10
93.7656735138
 20
87.5531673883
 30
0.0
 11
93.849624544
 21
87.5531673883
 31
0.0
  0
LINE
  5
3B0
330
1F
100
AcDbEntity
  8
SLD-0
  6
Continuous
370
    15
100
AcDbLine
 10
93.7656735138
 20
86.4281672644
 30
0.0
 11
93.7656735138
 21
87.5531673883
 31
0.0
  0
LINE
  5
3B1
330
1F
100
AcDbEntity
  8
SLD-0
  6
Continuous
370
    15
100
AcDbLine
 10
93.8741680471
 20
87.8031672203
 30
0.0
 11
93.7411300106
 21
87.8031672203
 31
0.0
  0
LINE
  5
3B2
330
1F
100
AcDbEntity
  8
SLD-0
  6
Continuous
370
    15
100
AcDbLine
 10
93.849624544
 20
86.4281672644
 30
0.0
 11
93.7656735138
 21
86.4281672644
 31
0.0
  0
LINE
  5
3B3
330
1F
100
AcDbEntity
  8
SLD-0
  6
Continuous
370
    15
100
AcDbLine
 10
93.7854955781
 20
86.4281672644
 30
0.0
 11
93.7854955781
 21
87.5531673883
 31
0.0
  0
LINE
  5
3B4
330
1F
100
AcDbEntity
  8
SLD-0
  6
Continuous
370
    15
100
AcDbLine
 10
93.8298024796
 20
87.5531673883
 30
0.0
 11
93.8298024796
 21
86.4281672644
 31
0.0
  0
LINE
  5
3B5
330
1F
100
AcDbEntity
  8
SLD-0
  6
Continuous
370
    15
100
AcDbLine
 10
93.8298024796
 20
84.1781674566
 30
0.0
 11
93.8298024796
 21
83.053167406
 31
0.0
  0
LINE
  5
3B6
330
1F
100
AcDbEntity
  8
SLD-0
  6
Continuous
370
    15
100
AcDbLine
 10
93.7854955781
 20
83.053167406
 30
0.0
 11
93.7854955781
 21
84.1781674566
 31
0.0
  0
LINE
  5
3B7
330
1F
100
AcDbEntity
  8
SLD-0
  6
Continuous
370
    15
100
AcDbLine
 10
93.7411300106
 20
82.8031673907
 30
0.0
 11
93.0863495214
 21
82.8031673907
 31
0.0
  0
LINE
  5
3B8
330
1F
100
AcDbEntity
  8
SLD-0
  6
Continuous
370
    15
100
AcDbLine
 10
93.7411300106
 20
87.8031672203
 30
0.0
 11
93.3127509593
 21
87.8031672203
 31
0.0
  0
LINE
  5
3B9
330
1F
100
AcDbEntity
  8
SLD-0
  6
Continuous
370
    15
100
AcDbLine
 10
98.8020759195
 20
87.5531673883
 30
0.0
 11
98.8020759195
 21
86.4281672644
 31
0.0
  0
LINE
  5
3BA
330
1F
100
AcDbEntity
  8
SLD-0
  6
Continuous
370
    15
100
AcDbLine
 10
98.8020759195
 20
86.4281672644
 30
0.0
 11
98.8101295865
 21
86.4281672644
 31
0.0
  0
LINE
  5
3BB
330
1F
100
AcDbEntity
  8
SLD-0
  6
Continuous
370
    15
100
AcDbLine
 10
98.8101295865
 20
86.4281672644
 30
0.0
 11
98.8101295865
 21
84.1781674566
 31
0.0
  0
LINE
  5
3BC
330
1F
100
AcDbEntity
  8
SLD-0
  6
Continuous
370
    15
100
AcDbLine
 10
98.8101295865
 20
84.1781674566
 30
0.0
 11
98.8020759195
 21
84.1781674566
 31
0.0
  0
LINE
  5
3BD
330
1F
100
AcDbEntity
  8
SLD-0
  6
Continuous
370
    15
100
AcDbLine
 10
98.8020759195
 20
84.1781674566
 30
0.0
 11
98.8020759195
 21
83.053167406
 31
0.0
  0
LINE
  5
3BE
330
1F
100
AcDbEntity
  8
SLD-0
  6
Continuous
370
    15
100
AcDbLine
 10
98.8020759195
 20
83.053167406
 30
0.0
 11
98.8101295865
 21
83.053167406
 31
0.0
  0
LINE
  5
3BF
330
1F
100
AcDbEntity
  8
SLD-0
  6
Continuous
370
    15
100
AcDbLine
 10
98.8101295865
 20
83.053167406
 30
0.0
 11
98.8101295865
 21
82.8031673907
 31
0.0
  0
LINE
  5
3C0
330
1F
100
AcDbEntity
  8
SLD-0
  6
Continuous
370
    15
100
AcDbLine
 10
98.8101295865
 20
82.8031673907
 30
0.0
 11
93.8741680471
 21
82.8031673907
 31
0.0
  0
LINE
  5
3C1
330
1F
100
AcDbEntity
  8
SLD-0
  6
Continuous
370
    15
100
AcDbLine
 10
98.8101295865
 20
87.8031672203
 30
0.0
 11
98.8101295865
 21
87.5531673883
 31
0.0
  0
LINE
  5
3C2
330
1F
100
AcDbEntity
  8
SLD-0
  6
Continuous
370
    15
100
AcDbLine
 10
98.8101295865
 20
87.5531673883
 30
0.0
 11
98.8020759195
 21
87.5531673883
 31
0.0
  0
LINE
  5
3C3
330
1F
100
AcDbEntity
  8
SLD-0
  6
Continuous
370
    15
100
AcDbLine
 10
98.8101295865
 20
87.8031672203
 30
0.0
 11
93.8741680471
 21
87.8031672203
 31
0.0
  0
LINE
  5
3C4
330
1F
100
AcDbEntity
  8
SLD-0
  6
Continuous
370
    15
100
AcDbLine
 10
98.8147501197
 20
86.4281672644
 30
0.0
 11
98.8101295865
 21
86.4281672644
 31
0.0
  0
LINE
  5
3C5
330
1F
100
AcDbEntity
  8
SLD-0
  6
Continuous
370
    15
100
AcDbLine
 10
98.8147501197
 20
86.4281672644
 30
0.0
 11
98.8147501197
 21
84.1781674566
 31
0.0
  0
LINE
  5
3C6
330
1F
100
AcDbEntity
  8
SLD-0
  6
Continuous
370
    15
100
AcDbLine
 10
98.8101295865
 20
84.1781674566
 30
0.0
 11
98.8147501197
 21
84.1781674566
 31
0.0
  0
LINE
  5
3C7
330
1F
100
AcDbEntity
  8
SLD-0
  6
Continuous
370
    15
100
AcDbLine
 10
98.8147501197
 20
87.8031672203
 30
0.0
 11
98.8147501197
 21
87.5531673883
 31
0.0
  0
LINE
  5
3C8
330
1F
100
AcDbEntity
  8
SLD-0
  6
Continuous
370
    15
100
AcDbLine
 10
98.8101295865
 20
87.5531673883
 30
0.0
 11
98.8147501197
 21
87.5531673883
 31
0.0
  0
LINE
  5
3C9
330
1F
100
AcDbEntity
  8
SLD-0
  6
Continuous
370
    15
100
AcDbLine
 10
98.8147501197
 20
87.8031672203
 30
0.0
 11
98.8101295865
 21
87.8031672203
 31
0.0
  0
LINE
  5
3CA
330
1F
100
AcDbEntity
  8
SLD-0
  6
Continuous
370
    15
100
AcDbLine
 10
98.8147501197
 20
83.053167406
 30
0.0
 11
98.8101295865
 21
83.053167406
 31
0.0
  0
LINE
  5
3CB
330
1F
100
AcDbEntity
  8
SLD-0
  6
Continuous
370
    15
100
AcDbLine
 10
98.8147501197
 20
83.053167406
 30
0.0
 11
98.8147501197
 21
82.8031673907
 31
0.0
  0
LINE
  5
3CC
330
1F
100
AcDbEntity
  8
SLD-0
  6
Continuous
370
    15
100
AcDbLine
 10
98.8101295865
 20
82.8031673907
 30
0.0
 11
98.8147501197
 21
82.8031673907
 31
0.0
  0
LINE
  5
3CD
330
1F
100
AcDbEntity
  8
SLD-0
  6
Continuous
370
    15
100
AcDbLine
 10
98.8147501197
 20
83.053167406
 30
0.0
 11
98.8357971299
 21
83.053167406
 31
0.0
  0
LINE
  5
3CE
330
1F
100
AcDbEntity
  8
SLD-0
  6
Continuous
370
    15
100
AcDbLine
 10
98.8357971299
 20
83.053167406
 30
0.0
 11
98.8357971299
 21
84.1781674566
 31
0.0
  0
LINE
  5
3CF
330
1F
100
AcDbEntity
  8
SLD-0
  6
Continuous
370
    15
100
AcDbLine
 10
98.8357971299
 20
84.1781674566
 30
0.0
 11
98.8147501197
 21
84.1781674566
 31
0.0
  0
LINE
  5
3D0
330
1F
100
AcDbEntity
  8
SLD-0
  6
Continuous
370
    15
100
AcDbLine
 10
98.8147501197
 20
86.4281672644
 30
0.0
 11
98.8357971299
 21
86.4281672644
 31
0.0
  0
LINE
  5
3D1
330
1F
100
AcDbEntity
  8
SLD-0
  6
Continuous
370
    15
100
AcDbLine
 10
98.8357971299
 20
86.4281672644
 30
0.0
 11
98.8357971299
 21
87.5531673883
 31
0.0
  0
LINE
  5
3D2
330
1F
100
AcDbEntity
  8
SLD-0
  6
Continuous
370
    15
100
AcDbLine
 10
98.8357971299
 20
87.5531673883
 30
0.0
 11
98.8147501197
 21
87.5531673883
 31
0.0
  0
LINE
  5
3D3
330
1F
100
AcDbEntity
  8
SLD-0
  6
Continuous
370
    15
100
AcDbLine
 10
99.3364080935
 20
87.8031672203
 30
0.0
 11
98.8147501197
 21
87.8031672203
 31
0.0
  0
ARC
  5
3D4
330
1F
100
AcDbEntity
  8
SLD-0
  6
Continuous
370
    15
100
AcDbCircle
 10
99.3364088625
 20
87.7031673968
 30
0.0
 40
0.1000000000000085
100
AcDbArc
 50
0.0
 51
90.0
  0
LINE
  5
3D5
330
1F
100
AcDbEntity
  8
SLD-0
  6
Continuous
370
    15
100
AcDbLine
 10
99.4364077916
 20
87.7031675222
 30
0.0
 11
99.4364077916
 21
82.9031673822
 31
0.0
  0
ARC
  5
3D6
330
1F
100
AcDbEntity
  8
SLD-0
  6
Continuous
370
    15
100
AcDbCircle
 10
99.3364088625
 20
82.9031673968
 30
0.0
 40
0.1000000000000085
100
AcDbArc
 50
270.0
 51
0.0
  0
LINE
  5
3D7
330
1F
100
AcDbEntity
  8
SLD-0
  6
Continuous
370
    15
100
AcDbLine
 10
99.3364080935
 20
82.8031673907
 30
0.0
 11
98.8147501197
 21
82.8031673907
 31
0.0
  0
LINE
  5
3D8
330
1F
100
AcDbEntity
  8
SLD-0
  6
Continuous
370
    15
100
AcDbLine
 10
57.7651931811
 20
87.5531673883
 30
0.0
 11
57.8491442113
 21
87.5531673883
 31
0.0
  0
LINE
  5
3D9
330
1F
100
AcDbEntity
  8
SLD-0
  6
Continuous
370
    15
100
AcDbLine
 10
57.7651931811
 20
86.4281672644
 30
0.0
 11
57.7651931811
 21
87.5531673883
 31
0.0
  0
LINE
  5
3DA
330
1F
100
AcDbEntity
  8
SLD-0
  6
Continuous
370
    15
100
AcDbLine
 10
57.8491442113
 20
86.4281672644
 30
0.0
 11
57.7651931811
 21
86.4281672644
 31
0.0
  0
LINE
  5
3DB
330
1F
100
AcDbEntity
  8
SLD-0
  6
Continuous
370
    15
100
AcDbLine
 10
57.8491442113
 20
87.5531673883
 30
0.0
 11
57.8491442113
 21
86.4281672644
 31
0.0
  0
LINE
  5
3DC
330
1F
100
AcDbEntity
  8
SLD-0
  6
Continuous
370
    15
100
AcDbLine
 10
57.8736877144
 20
82.8031673907
 30
0.0
 11
57.8736877144
 21
87.8031672203
 31
0.0
  0
LINE
  5
3DD
330
1F
100
AcDbEntity
  8
SLD-0
  6
Continuous
370
    15
100
AcDbLine
 10
57.7406496779
 20
82.8031673907
 30
0.0
 11
57.8736877144
 21
82.8031673907
 31
0.0
  0
LINE
  5
3DE
330
1F
100
AcDbEntity
  8
SLD-0
  6
Continuous
370
    15
100
AcDbLine
 10
57.7406496779
 20
82.8031673907
 30
0.0
 11
57.7406496779
 21
87.8031672203
 31
0.0
  0
LINE
  5
3DF
330
1F
100
AcDbEntity
  8
SLD-0
  6
Continuous
370
    15
100
AcDbLine
 10
57.7651931811
 20
83.053167406
 30
0.0
 11
57.7651931811
 21
84.1781674566
 31
0.0
  0
LINE
  5
3E0
330
1F
100
AcDbEntity
  8
SLD-0
  6
Continuous
370
    15
100
AcDbLine
 10
57.8491442113
 20
83.053167406
 30
0.0
 11
57.7651931811
 21
83.053167406
 31
0.0
  0
LINE
  5
3E1
330
1F
100
AcDbEntity
  8
SLD-0
  6
Continuous
370
    15
100
AcDbLine
 10
57.8491442113
 20
84.1781674566
 30
0.0
 11
57.8491442113
 21
83.053167406
 31
0.0
  0
LINE
  5
3E2
330
1F
100
AcDbEntity
  8
SLD-0
  6
Continuous
370
    15
100
AcDbLine
 10
57.7651931811
 20
84.1781674566
 30
0.0
 11
57.8491442113
 21
84.1781674566
 31
0.0
  0
LINE
  5
3E3
330
1F
100
AcDbEntity
  8
SLD-0
  6
Continuous
370
    15
100
AcDbLine
 10
57.8736877144
 20
87.8031672203
 30
0.0
 11
57.7406496779
 21
87.8031672203
 31
0.0
  0
LINE
  5
3E4
330
1F
100
AcDbEntity
  8
SLD-0
  6
Continuous
370
    15
100
AcDbLine
 10
57.7850152454
 20
86.4281672644
 30
0.0
 11
57.7850152454
 21
87.5531673883
 31
0.0
  0
LINE
  5
3E5
330
1F
100
AcDbEntity
  8
SLD-0
  6
Continuous
370
    15
100
AcDbLine
 10
57.8293221469
 20
87.5531673883
 30
0.0
 11
57.8293221469
 21
86.4281672644
 31
0.0
  0
LINE
  5
3E6
330
1F
100
AcDbEntity
  8
SLD-0
  6
Continuous
370
    15
100
AcDbLine
 10
57.7850152454
 20
83.053167406
 30
0.0
 11
57.7850152454
 21
84.1781674566
 31
0.0
  0
LINE
  5
3E7
330
1F
100
AcDbEntity
  8
SLD-0
  6
Continuous
370
    15
100
AcDbLine
 10
57.8293221469
 20
84.1781674566
 30
0.0
 11
57.8293221469
 21
83.053167406
 31
0.0
  0
LINE
  5
3E8
330
1F
100
AcDbEntity
  8
SLD-0
  6
Continuous
370
    15
100
AcDbLine
 10
57.8736877144
 20
82.8031673907
 30
0.0
 11
58.5284682036
 21
82.8031673907
 31
0.0
  0
LINE
  5
3E9
330
1F
100
AcDbEntity
  8
SLD-0
  6
Continuous
370
    15
100
AcDbLine
 10
57.8736877144
 20
87.8031672203
 30
0.0
 11
58.3020667657
 21
87.8031672203
 31
0.0
  0
LINE
  5
3EA
330
1F
100
AcDbEntity
  8
SLD-0
  6
Continuous
370
    15
100
AcDbLine
 10
52.8127418055
 20
83.053167406
 30
0.0
 11
52.8127418055
 21
84.1781674566
 31
0.0
  0
LINE
  5
3EB
330
1F
100
AcDbEntity
  8
SLD-0
  6
Continuous
370
    15
100
AcDbLine
 10
52.8127418055
 20
84.1781674566
 30
0.0
 11
52.8046881386
 21
84.1781674566
 31
0.0
  0
LINE
  5
3EC
330
1F
100
AcDbEntity
  8
SLD-0
  6
Continuous
370
    15
100
AcDbLine
 10
52.8046881386
 20
84.1781674566
 30
0.0
 11
52.8046881386
 21
86.4281672644
 31
0.0
  0
LINE
  5
3ED
330
1F
100
AcDbEntity
  8
SLD-0
  6
Continuous
370
    15
100
AcDbLine
 10
52.8046881386
 20
86.4281672644
 30
0.0
 11
52.8127418055
 21
86.4281672644
 31
0.0
  0
LINE
  5
3EE
330
1F
100
AcDbEntity
  8
SLD-0
  6
Continuous
370
    15
100
AcDbLine
 10
52.8127418055
 20
86.4281672644
 30
0.0
 11
52.8127418055
 21
87.5531673883
 31
0.0
  0
LINE
  5
3EF
330
1F
100
AcDbEntity
  8
SLD-0
  6
Continuous
370
    15
100
AcDbLine
 10
52.8127418055
 20
87.5531673883
 30
0.0
 11
52.8046881386
 21
87.5531673883
 31
0.0
  0
LINE
  5
3F0
330
1F
100
AcDbEntity
  8
SLD-0
  6
Continuous
370
    15
100
AcDbLine
 10
52.8046881386
 20
87.5531673883
 30
0.0
 11
52.8046881386
 21
87.8031672203
 31
0.0
  0
LINE
  5
3F1
330
1F
100
AcDbEntity
  8
SLD-0
  6
Continuous
370
    15
100
AcDbLine
 10
52.8046881386
 20
82.8031673907
 30
0.0
 11
57.7406496779
 21
82.8031673907
 31
0.0
  0
LINE
  5
3F2
330
1F
100
AcDbEntity
  8
SLD-0
  6
Continuous
370
    15
100
AcDbLine
 10
52.8046881386
 20
82.8031673907
 30
0.0
 11
52.8046881386
 21
83.053167406
 31
0.0
  0
LINE
  5
3F3
330
1F
100
AcDbEntity
  8
SLD-0
  6
Continuous
370
    15
100
AcDbLine
 10
52.8046881386
 20
83.053167406
 30
0.0
 11
52.8127418055
 21
83.053167406
 31
0.0
  0
LINE
  5
3F4
330
1F
100
AcDbEntity
  8
SLD-0
  6
Continuous
370
    15
100
AcDbLine
 10
52.8046881386
 20
87.8031672203
 30
0.0
 11
57.7406496779
 21
87.8031672203
 31
0.0
  0
LINE
  5
3F5
330
1F
100
AcDbEntity
  8
SLD-0
  6
Continuous
370
    15
100
AcDbLine
 10
52.8000676053
 20
84.1781674566
 30
0.0
 11
52.8046881386
 21
84.1781674566
 31
0.0
  0
LINE
  5
3F6
330
1F
100
AcDbEntity
  8
SLD-0
  6
Continuous
370
    15
100
AcDbLine
 10
52.8000676053
 20
84.1781674566
 30
0.0
 11
52.8000676053
 21
86.4281672644
 31
0.0
  0
LINE
  5
3F7
330
1F
100
AcDbEntity
  8
SLD-0
  6
Continuous
370
    15
100
AcDbLine
 10
52.8046881386
 20
86.4281672644
 30
0.0
 11
52.8000676053
 21
86.4281672644
 31
0.0
  0
LINE
  5
3F8
330
1F
100
AcDbEntity
  8
SLD-0
  6
Continuous
370
    15
100
AcDbLine
 10
52.8000676053
 20
87.5531673883
 30
0.0
 11
52.8046881386
 21
87.5531673883
 31
0.0
  0
LINE
  5
3F9
330
1F
100
AcDbEntity
  8
SLD-0
  6
Continuous
370
    15
100
AcDbLine
 10
52.8000676053
 20
87.5531673883
 30
0.0
 11
52.8000676053
 21
87.8031672203
 31
0.0
  0
LINE
  5
3FA
330
1F
100
AcDbEntity
  8
SLD-0
  6
Continuous
370
    15
100
AcDbLine
 10
52.8046881386
 20
87.8031672203
 30
0.0
 11
52.8000676053
 21
87.8031672203
 31
0.0
  0
LINE
  5
3FB
330
1F
100
AcDbEntity
  8
SLD-0
  6
Continuous
370
    15
100
AcDbLine
 10
52.8000676053
 20
82.8031673907
 30
0.0
 11
52.8000676053
 21
83.053167406
 31
0.0
  0
LINE
  5
3FC
330
1F
100
AcDbEntity
  8
SLD-0
  6
Continuous
370
    15
100
AcDbLine
 10
52.8046881386
 20
83.053167406
 30
0.0
 11
52.8000676053
 21
83.053167406
 31
0.0
  0
LINE
  5
3FD
330
1F
100
AcDbEntity
  8
SLD-0
  6
Continuous
370
    15
100
AcDbLine
 10
52.8000676053
 20
82.8031673907
 30
0.0
 11
52.8046881386
 21
82.8031673907
 31
0.0
  0
LINE
  5
3FE
330
1F
100
AcDbEntity
  8
SLD-0
  6
Continuous
370
    15
100
AcDbLine
 10
52.8000676053
 20
87.5531673883
 30
0.0
 11
52.7790205951
 21
87.5531673883
 31
0.0
  0
LINE
  5
3FF
330
1F
100
AcDbEntity
  8
SLD-0
  6
Continuous
370
    15
100
AcDbLine
 10
52.7790205951
 20
87.5531673883
 30
0.0
 11
52.7790205951
 21
86.4281672644
 31
0.0
  0
LINE
  5
400
330
1F
100
AcDbEntity
  8
SLD-0
  6
Continuous
370
    15
100
AcDbLine
 10
52.8000676053
 20
84.1781674566
 30
0.0
 11
52.7790205951
 21
84.1781674566
 31
0.0
  0
LINE
  5
401
330
1F
100
AcDbEntity
  8
SLD-0
  6
Continuous
370
    15
100
AcDbLine
 10
52.7790205951
 20
84.1781674566
 30
0.0
 11
52.7790205951
 21
83.053167406
 31
0.0
  0
LINE
  5
402
330
1F
100
AcDbEntity
  8
SLD-0
  6
Continuous
370
    15
100
AcDbLine
 10
52.7790205951
 20
83.053167406
 30
0.0
 11
52.8000676053
 21
83.053167406
 31
0.0
  0
LINE
  5
403
330
1F
100
AcDbEntity
  8
SLD-0
  6
Continuous
370
    15
100
AcDbLine
 10
52.2784096315
 20
82.8031673907
 30
0.0
 11
52.8000676053
 21
82.8031673907
 31
0.0
  0
ARC
  5
404
330
1F
100
AcDbEntity
  8
SLD-0
  6
Continuous
370
    15
100
AcDbCircle
 10
52.2784088625
 20
82.9031673968
 30
0.0
 40
0.0999999999999872
100
AcDbArc
 50
180.0
 51
270.0
  0
LINE
  5
405
330
1F
100
AcDbEntity
  8
SLD-0
  6
Continuous
370
    15
100
AcDbLine
 10
52.1784099334
 20
82.9031673822
 30
0.0
 11
52.1784099334
 21
87.7031675222
 31
0.0
  0
ARC
  5
406
330
1F
100
AcDbEntity
  8
SLD-0
  6
Continuous
370
    15
100
AcDbCircle
 10
52.2784088625
 20
87.7031673968
 30
0.0
 40
0.0999999999999943
100
AcDbArc
 50
90.0
 51
180.0
  0
LINE
  5
407
330
1F
100
AcDbEntity
  8
SLD-0
  6
Continuous
370
    15
100
AcDbLine
 10
52.2784096315
 20
87.8031672203
 30
0.0
 11
52.8000676053
 21
87.8031672203
 31
0.0
  0
LINE
  5
408
330
1F
100
AcDbEntity
  8
SLD-0
  6
Continuous
370
    15
100
AcDbLine
 10
52.7790205951
 20
86.4281672644
 30
0.0
 11
52.8000676053
 21
86.4281672644
 31
0.0
  0
LINE
  5
409
330
1F
100
AcDbEntity
  8
SLD-0
  6
Continuous
370
    15
100
AcDbLine
 10
98.7194085011
 20
82.2981673965
 30
0.0
 11
98.6954094184
 21
82.2981673965
 31
0.0
  0
LINE
  5
40A
330
1F
100
AcDbEntity
  8
SLD-0
  6
Continuous
370
    15
100
AcDbLine
 10
52.9194083067
 20
82.2981673965
 30
0.0
 11
52.8954092239
 21
82.2981673965
 31
0.0
  0
DIMENSION
  5
40B
330
1F
100
AcDbEntity
  8
DIM
100
AcDbDimension
  2
_D_12
 10
75.8074088625
 20
107.2871673968
 30
0.0
 11
60.5574088625
 21
107.2871673968
 31
0.0
 70
   160
  1
<>
 71
     2
 42
-1.0
  3
SLDDIMSTYLE0
100
AcDbAlignedDimension
 13
45.3074088625
 23
104.2560963289
 33
0.0
 14
75.8074088625
 24
100.0639659986
 34
0.0
 50
0.0
100
AcDbRotatedDimension
  0
DIMENSION
  5
41A
330
1F
100
AcDbEntity
  8
DIM
100
AcDbDimension
  2
_D_13
 10
111.3074088625
 20
97.5491673967
 30
0.0
 11
111.3074088625
 21
100.7927300354
 31
0.0
 70
   160
  1
<>
 71
     2
 42
-1.0
  3
SLDDIMSTYLE0
100
AcDbAlignedDimension
 13
106.2763377947
 23
104.2871673968
 33
0.0
 14
78.3222074644
 24
97.5491673967
 34
0.0
 50
90.0
100
AcDbRotatedDimension
  0
DIMENSION
  5
429
330
1F
100
AcDbEntity
  8
DIM
100
AcDbDimension
  2
_D_14
 10
111.3074088625
 20
97.5491673967
 30
0.0
 11
111.3074088625
 21
89.915558721
 31
0.0
 70
   160
  1
<>
 71
     2
 42
-1.0
  3
SLDDIMSTYLE0
100
AcDbAlignedDimension
 13
106.2784088625
 23
82.3031673968
 33
0.0
 14
78.3222074644
 24
97.5491673967
 34
0.0
 50
90.0
100
AcDbRotatedDimension
  0
DIMENSION
  5
438
330
1F
100
AcDbEntity
  8
DIM
100
AcDbDimension
  2
_D_15
 10
116.3074088625
 20
104.2871673968
 30
0.0
 11
116.3074088625
 21
93.9209997912
 31
0.0
 70
   160
  1
<>
 71
     2
 42
-1.0
  3
SLDDIMSTYLE0
100
AcDbAlignedDimension
 13
106.2784088625
 23
82.3031673968
 33
0.0
 14
106.2763377947
 24
104.2871673968
 34
0.0
 50
90.0
100
AcDbRotatedDimension
  0
DIMENSION
  5
443
330
1F
100
AcDbEntity
  8
DIM
100
AcDbDimension
  2
_D_16
 10
106.3074088625
 20
78.5038997714
 30
0.0
 11
73.8223854278
 21
78.5038997713
 31
0.0
 70
   160
  1
<>
 71
     2
 42
-1.0
  3
SLDDIMSTYLE0
100
AcDbAlignedDimension
 13
45.3074088625
 23
82.3321673968
 33
0.0
 14
106.3074088625
 24
82.3321673968
 34
0.0
 50
0.0
100
AcDbRotatedDimension
  0
DIMENSION
  5
44E
330
1F
100
AcDbEntity
  8
DIM
100
AcDbDimension
  2
_D_17
 10
75.2805989107
 20
95.1074581962
 30
0.0
 11
80.8656217459
 21
107.278381163
 31
0.0
 70
   163
  1
<>
 71
     1
 42
-1.0
  3
SLDDIMSTYLE2
100
AcDbDiametricDimension
 15
76.3342188143
 25
99.9908765973
 35
0.0
 40
0.0
  0
DIMENSION
  5
458
330
1F
100
AcDbEntity
  8
DIM
100
AcDbDimension
  2
_D_18
 10
73.3786583908
 20
94.3709334302
 30
0.0
 11
85.8413148566
 21
107.278381163
 31
0.0
 70
   163
  1
<>
 71
     1
 42
-1.0
  3
SLDDIMSTYLE2
100
AcDbDiametricDimension
 15
78.2361593342
 25
100.7274013633
 35
0.0
 40
0.0
  0
INSERT
  5
46C
330
1F
100
AcDbEntity
  8
DIM
100
AcDbBlockReference
  2
SW_CENTERMARKSYMBOL_0
 10
75.8074088625
 20
97.5491673967
 30
0.0
  0
ENDSEC
  0
SECTION
  2
OBJECTS
  0
DICTIONARY
  5
C
330
0
100
AcDbDictionary
281
     1
  3
ACAD_GROUP
350
D
  3
ACAD_LAYOUT
350
1A
  3
ACAD_MATERIAL
350
3B
  3
ACAD_MLEADERSTYLE
350
46E
  3
ACAD_MLINESTYLE
350
17
  3
ACAD_PLOTSETTINGS
350
19
  3
ACAD_PLOTSTYLENAME
350
E
  3
ACAD_TABLESTYLE
350
46D
  0
DICTIONARY
  5
D
102
{ACAD_REACTORS
330
C
102
}
330
C
100
AcDbDictionary
281
     1
  0
DICTIONARY
  5
1A
102
{ACAD_REACTORS
330
C
102
}
330
C
100
AcDbDictionary
281
     1
  3
Layout1
350
1E
  3
Layout2
350
26
  3
Model
350
22
  0
DICTIONARY
  5
3B
102
{ACAD_REACTORS
330
C
102
}
330
C
100
AcDbDictionary
281
     1
  3
ByBlock
350
3D
  3
ByLayer
350
3C
  3
Global
350
3E
  0
DICTIONARY
  5
46E
102
{ACAD_REACTORS
330
C
102
}
330
C
100
AcDbDictionary
281
     1
  0
DICTIONARY
  5
17
102
{ACAD_REACTORS
330
C
102
}
330
C
100
AcDbDictionary
281
     1
  3
Standard
350
18
  0
DICTIONARY
  5
19
102
{ACAD_REACTORS
330
C
102
}
330
C
100
AcDbDictionary
281
     1
  0
ACDBDICTIONARYWDFLT
  5
E
102
{ACAD_REACTORS
330
C
102
}
330
C
100
AcDbDictionary
281
     1
  3
Normal
350
F
100
AcDbDictionaryWithDefault
340
F
  0
DICTIONARY
  5
46D
102
{ACAD_REACTORS
330
C
102
}
330
C
100
AcDbDictionary
281
     1
  0
LAYOUT
  5
1E
102
{ACAD_REACTORS
330
1A
102
}
330
1A
100
AcDbPlotSettings
  1

  2
none_device
  4

  6

 40
0.0
 41
0.0
 42
0.0
 43
0.0
 44
0.0
 45
0.0
 46
0.0
 47
0.0
 48
0.0
 49
0.0
140
0.0
141
0.0
142
1.0
143
1.0
 70
   688
 72
     0
 73
     0
 74
     5
  7

 75
    16
 76
     0
 77
     2
 78
   300
147
1.0
148
0.0
149
0.0
100
AcDbLayout
  1
Layout1
 70
     1
 71
     1
 10
0.0
 20
0.0
 11
12.0
 21
9.0
 12
0.0
 22
0.0
 32
0.0
 14
1.0000000000E+20
 24
1.0000000000E+20
 34
1.0000000000E+20
 15
-1.0000000000E+20
 25
-1.0000000000E+20
 35
-1.0000000000E+20
146
0.0
 13
0.0
 23
0.0
 33
0.0
 16
1.0
 26
0.0
 36
0.0
 17
0.0
 27
1.0
 37
0.0
 76
     0
330
1B
  0
LAYOUT
  5
26
102
{ACAD_REACTORS
330
1A
102
}
330
1A
100
AcDbPlotSettings
  1

  2
none_device
  4

  6

 40
0.0
 41
0.0
 42
0.0
 43
0.0
 44
0.0
 45
0.0
 46
0.0
 47
0.0
 48
0.0
 49
0.0
140
0.0
141
0.0
142
1.0
143
1.0
 70
   688
 72
     0
 73
     0
 74
     5
  7

 75
    16
 76
     0
 77
     2
 78
   300
147
1.0
148
0.0
149
0.0
100
AcDbLayout
  1
Layout2
 70
     1
 71
     2
 10
0.0
 20
0.0
 11
0.0
 21
0.0
 12
0.0
 22
0.0
 32
0.0
 14
0.0
 24
0.0
 34
0.0
 15
0.0
 25
0.0
 35
0.0
146
0.0
 13
0.0
 23
0.0
 33
0.0
 16
1.0
 26
0.0
 36
0.0
 17
0.0
 27
1.0
 37
0.0
 76
     0
330
23
  0
LAYOUT
  5
22
102
{ACAD_REACTORS
330
1A
102
}
330
1A
100
AcDbPlotSettings
  1

  2
none_device
  4

  6

 40
0.0
 41
0.0
 42
0.0
 43
0.0
 44
0.0
 45
0.0
 46
0.0
 47
0.0
 48
0.0
 49
0.0
140
0.0
141
0.0
142
1.0
143
1.0
 70
  1712
 72
     0
 73
     0
 74
     0
  7

 75
     0
 76
     0
 77
     2
 78
   300
147
1.0
148
0.0
149
0.0
100
AcDbLayout
  1
Model
 70
     1
 71
     0
 10
0.0
 20
0.0
 11
150.0
 21
115.0
 12
0.0
 22
0.0
 32
0.0
 14
0.0
 24
0.0
 34
0.0
 15
150.0
 25
115.0
 35
0.0
146
0.0
 13
0.0
 23
0.0
 33
0.0
 16
1.0
 26
0.0
 36
0.0
 17
0.0
 27
1.0
 37
0.0
 76
     0
330
1F
331
29
  0
MATERIAL
  5
3D
102
{ACAD_REACTORS
330
3B
102
}
330
3B
100
AcDbMaterial
  1
ByBlock
  0
MATERIAL
  5
3C
102
{ACAD_REACTORS
330
3B
102
}
330
3B
100
AcDbMaterial
  1
ByLayer
  0
MATERIAL
  5
3E
102
{ACAD_REACTORS
330
3B
102
}
330
3B
100
AcDbMaterial
  1
Global
  0
MLINESTYLE
  5
18
102
{ACAD_REACTORS
330
17
102
}
330
17
100
AcDbMlineStyle
  2
Standard
 70
     0
  3

 62
   256
 51
90.0
 52
90.0
 71
     2
 49
0.5
 62
   256
  6
BYLAYER
 49
-0.5
 62
   256
  6
BYLAYER
  0
ACDBPLACEHOLDER
  5
F
102
{ACAD_REACTORS
330
E
102
}
330
E
  0
ENDSEC
  0
EOF
