  0
SECTION
  2
HEADER
  9
$ACADVER
  1
AC1018
  9
$ACADMAINTVER
 70
     0
  9
$DWGCODEPAGE
  3
ANSI_1252
  9
$INSBASE
 10
0.0
 20
0.0
 30
0.0
  9
$EXTMIN
 10
0.0
 20
0.0
 30
0.0
  9
$EXTMAX
 10
115.0
 20
70.0
 30
0.0
  9
$LIMMIN
 10
0.0
 20
0.0
  9
$LIMMAX
 10
115.0
 20
70.0
  9
$ORTHOMODE
 70
     0
  9
$REGENMODE
 70
     1
  9
$FILLMODE
 70
     1
  9
$QTEXTMODE
 70
     0
  9
$MIRRTEXT
 70
     1
  9
$LTSCALE
 40
1.0
  9
$ATTMODE
 70
     1
  9
$TEXTSIZE
 40
0.1388888889
  9
$TRACEWID
 40
0.05
  9
$TEXTSTYLE
  7
Standard
  9
$CLAYER
  8
0
  9
$CELTYPE
  6
ByLayer
  9
$CECOLOR
 62
   256
  9
$CELTSCALE
 40
1.0
  9
$DISPSILH
 70
     0
  9
$DIMSCALE
 40
1.0
  9
$DIMASZ
 40
1.0
  9
$DIMEXO
 40
0.0393700787
  9
$DIMDLI
 40
0.38
  9
$DIMRND
 40
0.0
  9
$DIMDLE
 40
0.0
  9
$DIMEXE
 40
0.0393700787
  9
$DIMTP
 40
0.0
  9
$DIMTM
 40
0.0
  9
$DIMTXT
 40
1.5
  9
$DIMCEN
 40
0.09
  9
$DIMTSZ
 40
0.0
  9
$DIMTOL
 70
     0
  9
$DIMLIM
 70
     0
  9
$DIMTIH
 70
     1
  9
$DIMTOH
 70
     1
  9
$DIMSE1
 70
     0
  9
$DIMSE2
 70
     0
  9
$DIMTAD
 70
     0
  9
$DIMZIN
 70
     0
  9
$DIMBLK
  1

  9
$DIMASO
 70
     1
  9
$DIMSHO
 70
     1
  9
$DIMPOST
  1

  9
$DIMAPOST
  1

  9
$DIMALT
 70
     0
  9
$DIMALTD
 70
     2
  9
$DIMALTF
 40
25.4
  9
$DIMLFAC
 40
1.0
  9
$DIMTOFL
 70
     0
  9
$DIMTVP
 40
0.0
  9
$DIMTIX
 70
     0
  9
$DIMSOXD
 70
     0
  9
$DIMSAH
 70
     0
  9
$DIMBLK1
  1

  9
$DIMBLK2
  1

  9
$DIMSTYLE
  2
Standard
  9
$DIMCLRD
 70
     0
  9
$DIMCLRE
 70
     0
  9
$DIMCLRT
 70
     0
  9
$DIMTFAC
 40
1.0
  9
$DIMGAP
 40
0.06
  9
$DIMJUST
 70
     0
  9
$DIMSD1
 70
     0
  9
$DIMSD2
 70
     0
  9
$DIMTOLJ
 70
     1
  9
$DIMTZIN
 70
     0
  9
$DIMALTZ
 70
     0
  9
$DIMALTTZ
 70
     0
  9
$DIMUPT
 70
     0
  9
$DIMDEC
 70
     3
  9
$DIMTDEC
 70
     2
  9
$DIMALTU
 70
     2
  9
$DIMALTTD
 70
     2
  9
$DIMTXSTY
  7
Standard
  9
$DIMAUNIT
 70
     0
  9
$DIMADEC
 70
     2
  9
$DIMALTRND
 40
0.0
  9
$DIMAZIN
 70
     0
  9
$DIMDSEP
 70
    46
  9
$DIMATFIT
 70
     3
  9
$DIMFRAC
 70
     0
  9
$DIMLDRBLK
  1

  9
$DIMLUNIT
 70
     2
  9
$DIMLWD
 70
    -2
  9
$DIMLWE
 70
    -2
  9
$DIMTMOVE
 70
     0
  9
$LUNITS
 70
     2
  9
$LUPREC
 70
     3
  9
$SKETCHINC
 40
0.1
  9
$FILLETRAD
 40
0.5
  9
$AUNITS
 70
     0
  9
$AUPREC
 70
     2
  9
$MENU
  1
.
  9
$ELEVATION
 40
0.0
  9
$PELEVATION
 40
0.0
  9
$THICKNESS
 40
0.0
  9
$LIMCHECK
 70
     0
  9
$CHAMFERA
 40
0.5
  9
$CHAMFERB
 40
0.5
  9
$CHAMFERC
 40
1.0
  9
$CHAMFERD
 40
0.0
  9
$SKPOLY
 70
     0
  9
$TDCREATE
 40
2456596.40256147
  9
$TDUCREATE
 40
2456596.610894803
  9
$TDUPDATE
 40
2456596.402565984
  9
$TDUUPDATE
 40
2456596.610899317
  9
$TDINDWG
 40
0.0000000116
  9
$TDUSRTIMER
 40
0.0000000116
  9
$USRTIMER
 70
     1
  9
$ANGBASE
 50
0.0
  9
$ANGDIR
 70
     0
  9
$PDMODE
 70
     0
  9
$PDSIZE
 40
-1.0
  9
$PLINEWID
 40
0.0
  9
$SPLFRAME
 70
     0
  9
$SPLINETYPE
 70
     6
  9
$SPLINESEGS
 70
     8
  9
$HANDSEED
  5
665
  9
$SURFTAB1
 70
     6
  9
$SURFTAB2
 70
     6
  9
$SURFTYPE
 70
     6
  9
$SURFU
 70
     6
  9
$SURFV
 70
     6
  9
$UCSBASE
  2

  9
$UCSNAME
  2

  9
$UCSORG
 10
0.0
 20
0.0
 30
0.0
  9
$UCSXDIR
 10
1.0
 20
0.0
 30
0.0
  9
$UCSYDIR
 10
0.0
 20
1.0
 30
0.0
  9
$UCSORTHOREF
  2

  9
$UCSORTHOVIEW
 70
     0
  9
$UCSORGTOP
 10
0.0
 20
0.0
 30
0.0
  9
$UCSORGBOTTOM
 10
0.0
 20
0.0
 30
0.0
  9
$UCSORGLEFT
 10
0.0
 20
0.0
 30
0.0
  9
$UCSORGRIGHT
 10
0.0
 20
0.0
 30
0.0
  9
$UCSORGFRONT
 10
0.0
 20
0.0
 30
0.0
  9
$UCSORGBACK
 10
0.0
 20
0.0
 30
0.0
  9
$PUCSBASE
  2

  9
$PUCSNAME
  2

  9
$PUCSORG
 10
0.0
 20
0.0
 30
0.0
  9
$PUCSXDIR
 10
1.0
 20
0.0
 30
0.0
  9
$PUCSYDIR
 10
0.0
 20
1.0
 30
0.0
  9
$PUCSORTHOREF
  2

  9
$PUCSORTHOVIEW
 70
     0
  9
$PUCSORGTOP
 10
0.0
 20
0.0
 30
0.0
  9
$PUCSORGBOTTOM
 10
0.0
 20
0.0
 30
0.0
  9
$PUCSORGLEFT
 10
0.0
 20
0.0
 30
0.0
  9
$PUCSORGRIGHT
 10
0.0
 20
0.0
 30
0.0
  9
$PUCSORGFRONT
 10
0.0
 20
0.0
 30
0.0
  9
$PUCSORGBACK
 10
0.0
 20
0.0
 30
0.0
  9
$USERI1
 70
     0
  9
$USERI2
 70
     0
  9
$USERI3
 70
     0
  9
$USERI4
 70
     0
  9
$USERI5
 70
     0
  9
$USERR1
 40
0.0
  9
$USERR2
 40
0.0
  9
$USERR3
 40
0.0
  9
$USERR4
 40
0.0
  9
$USERR5
 40
0.0
  9
$WORLDVIEW
 70
     1
  9
$SHADEDGE
 70
     3
  9
$SHADEDIF
 70
    70
  9
$TILEMODE
 70
     1
  9
$MAXACTVP
 70
    64
  9
$PINSBASE
 10
0.0
 20
0.0
 30
0.0
  9
$PLIMCHECK
 70
     0
  9
$PEXTMIN
 10
1.0000000000E+20
 20
1.0000000000E+20
 30
1.0000000000E+20
  9
$PEXTMAX
 10
-1.0000000000E+20
 20
-1.0000000000E+20
 30
-1.0000000000E+20
  9
$PLIMMIN
 10
0.0
 20
0.0
  9
$PLIMMAX
 10
12.0
 20
9.0
  9
$UNITMODE
 70
     0
  9
$VISRETAIN
 70
     1
  9
$PLINEGEN
 70
     0
  9
$PSLTSCALE
 70
     1
  9
$TREEDEPTH
 70
  3020
  9
$CMLSTYLE
  2
Standard
  9
$CMLJUST
 70
     0
  9
$CMLSCALE
 40
1.0
  9
$PROXYGRAPHICS
 70
     1
  9
$MEASUREMENT
 70
     0
  9
$CELWEIGHT
370
    -1
  9
$ENDCAPS
280
     0
  9
$JOINSTYLE
280
     0
  9
$LWDISPLAY
290
     1
  9
$INSUNITS
 70
     1
  9
$HYPERLINKBASE
  1

  9
$STYLESHEET
  1

  9
$XEDIT
290
     1
  9
$CEPSNTYPE
380
     0
  9
$PSTYLEMODE
290
     1
  9
$FINGERPRINTGUID
  2
{1616A148-1F9A-460E-9F10-1B482253F058}
  9
$VERSIONGUID
  2
{FAEB1C32-E019-11D5-929B-00C0DF256EC4}
  9
$EXTNAMES
290
     1
  9
$PSVPSCALE
 40
0.0
  9
$OLESTARTUP
290
     0
  9
$SORTENTS
280
   127
  9
$INDEXCTL
280
     0
  9
$HIDETEXT
280
     1
  9
$XCLIPFRAME
290
     0
  9
$HALOGAP
280
     0
  9
$OBSCOLOR
 70
   257
  9
$OBSLTYPE
280
     0
  9
$INTERSECTIONDISPLAY
280
     0
  9
$INTERSECTIONCOLOR
 70
   257
  9
$DIMASSOC
280
     2
  9
$PROJECTNAME
  1

  0
ENDSEC
  0
SECTION
  2
CLASSES
  0
CLASS
  1
ACDBDICTIONARYWDFLT
  2
AcDbDictionaryWithDefault
  3
ObjectDBX Classes
 90
        0
 91
        4
280
     0
281
     0
  0
CLASS
  1
VISUALSTYLE
  2
AcDbVisualStyle
  3
ObjectDBX Classes
 90
     4095
 91
        4
280
     0
281
     0
  0
CLASS
  1
MATERIAL
  2
AcDbMaterial
  3
ObjectDBX Classes
 90
     1153
 91
        4
280
     0
281
     0
  0
ENDSEC
  0
SECTION
  2
TABLES
  0
TABLE
  2
VPORT
  5
8
330
0
100
AcDbSymbolTable
 70
     1
  0
VPORT
  5
29
330
8
100
AcDbSymbolTableRecord
100
AcDbViewportTableRecord
  2
*Active
 70
     0
 10
0.0
 20
0.0
 11
1.0
 21
1.0
 12
57.5
 22
35.0
 13
0.0
 23
0.0
 14
0.5
 24
0.5
 15
0.5
 25
0.5
 16
0.0
 26
0.0
 36
1.0
 17
0.0
 27
0.0
 37
0.0
 40
70.0
 41
1.6428571429
 42
50.0
 43
0.0
 44
0.0
 50
0.0
 51
0.0
 71
     0
 72
  2000
 73
     1
 74
     3
 75
     0
 76
     0
 77
     0
 78
     0
281
     0
 65
     1
110
0.0
120
0.0
130
0.0
111
1.0
121
0.0
131
0.0
112
0.0
122
1.0
132
0.0
 79
     0
146
0.0
  0
ENDTAB
  0
TABLE
  2
LTYPE
  5
5
330
0
100
AcDbSymbolTable
 70
     6
  0
LTYPE
  5
14
330
5
100
AcDbSymbolTableRecord
100
AcDbLinetypeTableRecord
  2
ByBlock
 70
     0
  3

 72
    65
 73
     0
 40
0.0
  0
LTYPE
  5
15
330
5
100
AcDbSymbolTableRecord
100
AcDbLinetypeTableRecord
  2
ByLayer
 70
     0
  3

 72
    65
 73
     0
 40
0.0
  0
LTYPE
  5
16
330
5
100
AcDbSymbolTableRecord
100
AcDbLinetypeTableRecord
  2
Continuous
 70
     0
  3
Solid line
 72
    65
 73
     0
 40
0.0
  0
LTYPE
  5
3F
330
5
100
AcDbSymbolTableRecord
100
AcDbLinetypeTableRecord
  2
HIDDEN
 70
     0
  3
Hidden __ __ __ __ __ __ __ __ __ __ __ __ __ __
 72
    65
 73
     2
 40
0.075
 49
0.05
 74
     0
 49
-0.025
 74
     0
  0
LTYPE
  5
40
330
5
100
AcDbSymbolTableRecord
100
AcDbLinetypeTableRecord
  2
PHANTOM
 70
     0
  3
Phantom ______  __  __  ______  __  __  ______
 72
    65
 73
     6
 40
0.5
 49
0.25
 74
     0
 49
-0.05
 74
     0
 49
0.05
 74
     0
 49
-0.05
 74
     0
 49
0.05
 74
     0
 49
-0.05
 74
     0
  0
LTYPE
  5
41
330
5
100
AcDbSymbolTableRecord
100
AcDbLinetypeTableRecord
  2
CENTER
 70
     0
  3
Center ____ _ ____ _ ____ _ ____ _ ____ _ ____
 72
    65
 73
     4
 40
0.4
 49
0.25
 74
     0
 49
-0.05
 74
     0
 49
0.05
 74
     0
 49
-0.05
 74
     0
  0
LTYPE
  5
42
330
5
100
AcDbSymbolTableRecord
100
AcDbLinetypeTableRecord
  2
CENTERX2
 70
     0
  3
Center (2x) ________  __  ________  __  _____
 72
    65
 73
     4
 40
0.8
 49
0.5
 74
     0
 49
-0.1
 74
     0
 49
0.1
 74
     0
 49
-0.1
 74
     0
  0
LTYPE
  5
43
330
5
100
AcDbSymbolTableRecord
100
AcDbLinetypeTableRecord
  2
DOT2
 70
     0
  3
Dot (.5x) ........................................
 72
    65
 73
     2
 40
0.025
 49
0.0
 74
     0
 49
-0.025
 74
     0
  0
ENDTAB
  0
TABLE
  2
LAYER
  5
2
330
0
100
AcDbSymbolTable
 70
     4
  0
LAYER
  5
10
330
2
100
AcDbSymbolTableRecord
100
AcDbLayerTableRecord
  2
0
 70
     0
 62
     7
  6
Continuous
370
    -3
390
F
  0
LAYER
  5
44
330
2
100
AcDbSymbolTableRecord
100
AcDbLayerTableRecord
  2
SLD-0
 70
     0
 62
     7
  6
Continuous
370
    -3
390
F
  0
LAYER
  5
45
330
2
100
AcDbSymbolTableRecord
100
AcDbLayerTableRecord
  2
NOTES
 70
     0
 62
     1
  6
Continuous
370
    -3
390
F
  0
LAYER
  5
46
330
2
100
AcDbSymbolTableRecord
100
AcDbLayerTableRecord
  2
DIM
 70
     0
 62
   100
  6
Continuous
370
    -3
390
F
  0
ENDTAB
  0
TABLE
  2
STYLE
  5
3
330
0
100
AcDbSymbolTable
 70
     2
  0
STYLE
  5
11
330
3
100
AcDbSymbolTableRecord
100
AcDbTextStyleTableRecord
  2
Standard
 70
     0
 40
0.0
 41
1.0
 50
0.0
 71
     0
 42
0.1388888889
  3
txt
  4

  0
STYLE
  5
4A
330
3
100
AcDbSymbolTableRecord
100
AcDbTextStyleTableRecord
  2
SLDTEXTSTYLE0
 70
     0
 40
0.0
 41
0.75
 50
0.0
 71
     0
 42
0.2
  3
TXT
  4

  0
ENDTAB
  0
TABLE
  2
VIEW
  5
6
330
0
100
AcDbSymbolTable
 70
     0
  0
ENDTAB
  0
TABLE
  2
UCS
  5
7
330
0
100
AcDbSymbolTable
 70
     0
  0
ENDTAB
  0
TABLE
  2
APPID
  5
9
330
0
100
AcDbSymbolTable
 70
     1
  0
APPID
  5
12
330
9
100
AcDbSymbolTableRecord
100
AcDbRegAppTableRecord
  2
ACAD
 70
     0
  0
ENDTAB
  0
TABLE
  2
DIMSTYLE
  5
A
330
0
100
AcDbSymbolTable
 70
     3
100
AcDbDimStyleTable
  0
DIMSTYLE
105
27
330
A
100
AcDbSymbolTableRecord
100
AcDbDimStyleTableRecord
  2
Standard
 70
     0
178
     0
340
11
  0
DIMSTYLE
105
19E
102
{ACAD_REACTORS
330
19D
330
1AB
330
1BA
330
1C9
330
1D4
330
3D8
330
50F
330
51E
330
53C
102
}
330
A
100
AcDbSymbolTableRecord
100
AcDbDimStyleTableRecord
  2
SLDDIMSTYLE0
 70
     0
 41
1.0
 44
0.0
 45
0.000000001
 78
    12
 79
     3
140
1.5
147
0.375
173
     1
178
     0
271
     3
272
     2
276
     2
277
     5
284
    12
340
4A
  0
DIMSTYLE
105
3E8
102
{ACAD_REACTORS
330
3E7
330
3F6
330
52D
330
547
102
}
330
A
100
AcDbSymbolTableRecord
100
AcDbDimStyleTableRecord
  2
SLDDIMSTYLE1
 70
     0
 41
1.0
 44
0.0
 45
0.000000001
 78
    12
 79
     3
140
1.5
147
0.375
172
     1
173
     1
178
     0
271
     3
272
     2
276
     2
277
     5
284
    12
289
     0
340
4A
  0
ENDTAB
  0
TABLE
  2
BLOCK_RECORD
  5
1
330
0
100
AcDbSymbolTable
 70
    15
  0
BLOCK_RECORD
  5
1F
330
1
100
AcDbSymbolTableRecord
100
AcDbBlockTableRecord
  2
*Model_Space
340
22
  0
BLOCK_RECORD
  5
1B
330
1
100
AcDbSymbolTableRecord
100
AcDbBlockTableRecord
  2
*Paper_Space
340
1E
  0
BLOCK_RECORD
  5
23
330
1
100
AcDbSymbolTableRecord
100
AcDbBlockTableRecord
  2
*Paper_Space0
340
26
  0
BLOCK_RECORD
  5
47
330
1
100
AcDbSymbolTableRecord
100
AcDbBlockTableRecord
  2
SW_NOTE_0
340
0
102
{BLKREFS
331
4F
102
}
  0
BLOCK_RECORD
  5
19F
330
1
100
AcDbSymbolTableRecord
100
AcDbBlockTableRecord
  2
_D
340
0
  0
BLOCK_RECORD
  5
1AC
330
1
100
AcDbSymbolTableRecord
100
AcDbBlockTableRecord
  2
_D_1
340
0
  0
BLOCK_RECORD
  5
1BB
330
1
100
AcDbSymbolTableRecord
100
AcDbBlockTableRecord
  2
_D_2
340
0
  0
BLOCK_RECORD
  5
1CA
330
1
100
AcDbSymbolTableRecord
100
AcDbBlockTableRecord
  2
_D_3
340
0
  0
BLOCK_RECORD
  5
1D5
330
1
100
AcDbSymbolTableRecord
100
AcDbBlockTableRecord
  2
_D_4
340
0
  0
BLOCK_RECORD
  5
3D9
330
1
100
AcDbSymbolTableRecord
100
AcDbBlockTableRecord
  2
_D_5
340
0
  0
BLOCK_RECORD
  5
3E9
330
1
100
AcDbSymbolTableRecord
100
AcDbBlockTableRecord
  2
_D_6
340
0
  0
BLOCK_RECORD
  5
3F7
330
1
100
AcDbSymbolTableRecord
100
AcDbBlockTableRecord
  2
_D_7
340
0
  0
BLOCK_RECORD
  5
510
330
1
100
AcDbSymbolTableRecord
100
AcDbBlockTableRecord
  2
_D_8
340
0
  0
BLOCK_RECORD
  5
51F
330
1
100
AcDbSymbolTableRecord
100
AcDbBlockTableRecord
  2
_D_9
340
0
  0
BLOCK_RECORD
  5
52E
330
1
100
AcDbSymbolTableRecord
100
AcDbBlockTableRecord
  2
_D_10
340
0
  0
BLOCK_RECORD
  5
53D
330
1
100
AcDbSymbolTableRecord
100
AcDbBlockTableRecord
  2
_D_11
340
0
  0
BLOCK_RECORD
  5
548
330
1
100
AcDbSymbolTableRecord
100
AcDbBlockTableRecord
  2
_D_12
340
0
  0
ENDTAB
  0
ENDSEC
  0
SECTION
  2
BLOCKS
  0
BLOCK
  5
20
330
1F
100
AcDbEntity
  8
0
100
AcDbBlockBegin
  2
*Model_Space
 70
     0
 10
0.0
 20
0.0
 30
0.0
  3
*Model_Space
  1

  0
ENDBLK
  5
21
330
1F
100
AcDbEntity
  8
0
100
AcDbBlockEnd
  0
BLOCK
  5
1C
330
1B
100
AcDbEntity
 67
     1
  8
0
100
AcDbBlockBegin
  2
*Paper_Space
 70
     0
 10
0.0
 20
0.0
 30
0.0
  3
*Paper_Space
  1

  0
ENDBLK
  5
1D
330
1B
100
AcDbEntity
 67
     1
  8
0
100
AcDbBlockEnd
  0
BLOCK
  5
24
330
23
100
AcDbEntity
  8
0
100
AcDbBlockBegin
  2
*Paper_Space0
 70
     0
 10
0.0
 20
0.0
 30
0.0
  3
*Paper_Space0
  1

  0
ENDBLK
  5
25
330
23
100
AcDbEntity
  8
0
100
AcDbBlockEnd
  0
BLOCK
  5
48
330
47
100
AcDbEntity
  8
0
100
AcDbBlockBegin
  2
SW_NOTE_0
 70
     0
 10
0.0
 20
0.0
 30
0.0
  3
SW_NOTE_0
  1

  0
MTEXT
  5
4B
330
47
100
AcDbEntity
  8
NOTES
 62
     0
100
AcDbMText
 10
0.0
 20
2.2558685446
 30
0.0
 40
1.75
 41
0.0
 71
     1
 72
     1
  1
VFLL38FP30LN-1
  7
SLDTEXTSTYLE0
 73
     1
 44
1.0
  0
MTEXT
  5
4C
330
47
100
AcDbEntity
  8
NOTES
 62
     0
100
AcDbMText
 10
0.0
 20
-0.0069786748
 30
0.0
 40
1.75
 41
0.0
 71
     1
 72
     1
  1
VFLL38FP30LP-1
  7
SLDTEXTSTYLE0
 73
     1
 44
1.0
  0
MTEXT
  5
4D
330
47
100
AcDbEntity
  8
NOTES
 62
     0
100
AcDbMText
 10
0.0
 20
-2.2698258942
 30
0.0
 40
1.75
 41
0.0
 71
     1
 72
     1
  1
VFLL38FP90LN-1
  7
SLDTEXTSTYLE0
 73
     1
 44
1.0
  0
MTEXT
  5
4E
330
47
100
AcDbEntity
  8
NOTES
 62
     0
100
AcDbMText
 10
0.0
 20
-4.5326731136
 30
0.0
 40
1.75
 41
0.0
 71
     1
 72
     1
  1
VFLL38FP90LP-1
  7
SLDTEXTSTYLE0
 73
     1
 44
1.0
  0
ENDBLK
  5
49
330
47
100
AcDbEntity
  8
0
100
AcDbBlockEnd
  0
BLOCK
  5
1A0
330
19F
100
AcDbEntity
  8
0
100
AcDbBlockBegin
  2
_D
 70
     0
 10
0.0
 20
0.0
 30
0.0
  3
_D
  1

  0
SOLID
  5
1A2
330
19F
100
AcDbEntity
  8
DIM
100
AcDbTrace
 10
35.1000577158
 20
21.1342662268
 30
0.0
 11
36.1000577158
 21
20.8842662268
 31
0.0
 12
36.1000577158
 22
21.3842662268
 32
0.0
 13
36.1000577158
 23
21.3842662268
 33
0.0
  0
SOLID
  5
1A3
330
19F
100
AcDbEntity
  8
DIM
100
AcDbTrace
 10
73.3500577158
 20
21.1342662268
 30
0.0
 11
72.3500577158
 21
21.3842662268
 31
0.0
 12
72.3500577158
 22
20.8842662268
 32
0.0
 13
72.3500577158
 23
20.8842662268
 33
0.0
  0
LINE
  5
1A4
330
19F
100
AcDbEntity
  8
DIM
100
AcDbLine
 10
55.3146410502
 20
22.634266392
 30
0.0
 11
53.5146410279
 21
19.6342663549
 31
0.0
  0
LINE
  5
1A5
330
19F
100
AcDbEntity
  8
DIM
100
AcDbLine
 10
35.1000577158
 20
21.1342662268
 30
0.0
 11
51.0896410297
 21
21.1342662268
 31
0.0
  0
LINE
  5
1A6
330
19F
100
AcDbEntity
  8
DIM
100
AcDbLine
 10
73.3500577158
 20
21.1342662268
 30
0.0
 11
57.3604744019
 21
21.1342662268
 31
0.0
  0
MTEXT
  5
1A7
330
19F
100
AcDbEntity
  8
DIM
100
AcDbMText
 10
51.0896410297
 20
21.9939096162
 30
5.2118370079
 40
1.5
 41
0.0
 71
     1
 72
     1
  1
38
  7
SLDTEXTSTYLE0
 73
     1
 44
1.0
  0
MTEXT
  5
1A8
330
19F
100
AcDbEntity
  8
DIM
100
AcDbMText
 10
53.3063077026
 20
23.0678680197
 30
5.2118370079
 40
1.5
 41
0.0
 71
     1
 72
     1
  1
1
  7
SLDTEXTSTYLE0
 73
     1
 44
1.0
  0
MTEXT
  5
1A9
330
19F
100
AcDbEntity
  8
DIM
100
AcDbMText
 10
54.4146410391
 20
21.128284626
 30
5.2118370079
 40
1.5
 41
0.0
 71
     1
 72
     1
  1
4
  7
SLDTEXTSTYLE0
 73
     1
 44
1.0
  0
MTEXT
  5
1AA
330
19F
100
AcDbEntity
  8
DIM
100
AcDbMText
 10
55.5229743755
 20
21.9939096162
 30
5.2118370079
 40
1.5
 41
0.0
 71
     1
 72
     1
  1
"
  7
SLDTEXTSTYLE0
 73
     1
 44
1.0
  0
ENDBLK
  5
1A1
330
19F
100
AcDbEntity
  8
0
100
AcDbBlockEnd
  0
BLOCK
  5
1AD
330
1AC
100
AcDbEntity
  8
0
100
AcDbBlockBegin
  2
_D_1
 70
     0
 10
0.0
 20
0.0
 30
0.0
  3
_D_1
  1

  0
SOLID
  5
1AF
330
1AC
100
AcDbEntity
  8
DIM
100
AcDbTrace
 10
28.6899567315
 20
27.1588287268
 30
0.0
 11
28.4399567315
 21
26.1588287268
 31
0.0
 12
28.9399567315
 22
26.1588287268
 32
0.0
 13
28.9399567315
 23
26.1588287268
 33
0.0
  0
SOLID
  5
1B0
330
1AC
100
AcDbEntity
  8
DIM
100
AcDbTrace
 10
28.6899567315
 20
15.1097037268
 30
0.0
 11
28.9399567315
 21
16.1097037268
 31
0.0
 12
28.4399567315
 22
16.1097037268
 32
0.0
 13
28.4399567315
 23
16.1097037268
 33
0.0
  0
LINE
  5
1B1
330
1AC
100
AcDbEntity
  8
DIM
100
AcDbLine
 10
29.2253732144
 20
22.634266392
 30
0.0
 11
27.4253731921
 21
19.6342663549
 31
0.0
  0
LINE
  5
1B2
330
1AC
100
AcDbEntity
  8
DIM
100
AcDbLine
 10
35.0806876371
 20
27.1588287268
 30
0.0
 11
28.6505866528
 21
27.1588287268
 31
0.0
  0
LINE
  5
1B3
330
1AC
100
AcDbEntity
  8
DIM
100
AcDbLine
 10
35.0986876371
 20
15.1097037268
 30
0.0
 11
28.6505866528
 21
15.1097037268
 31
0.0
  0
LINE
  5
1B4
330
1AC
100
AcDbEntity
  8
DIM
100
AcDbLine
 10
28.6899567315
 20
27.1588287268
 30
0.0
 11
28.6899567315
 21
23.0738496205
 31
0.0
  0
LINE
  5
1B5
330
1AC
100
AcDbEntity
  8
DIM
100
AcDbLine
 10
28.6899567315
 20
15.1097037268
 30
0.0
 11
28.6899567315
 21
19.194682833
 31
0.0
  0
MTEXT
  5
1B6
330
1AC
100
AcDbEntity
  8
DIM
100
AcDbMText
 10
25.0003731939
 20
21.9939096162
 30
5.2118370079
 40
1.5
 41
0.0
 71
     1
 72
     1
  1
12
  7
SLDTEXTSTYLE0
 73
     1
 44
1.0
  0
MTEXT
  5
1B7
330
1AC
100
AcDbEntity
  8
DIM
100
AcDbMText
 10
27.2170398668
 20
23.0678680197
 30
5.2118370079
 40
1.5
 41
0.0
 71
     1
 72
     1
  1
1
  7
SLDTEXTSTYLE0
 73
     1
 44
1.0
  0
MTEXT
  5
1B8
330
1AC
100
AcDbEntity
  8
DIM
100
AcDbMText
 10
28.3253732032
 20
21.128284626
 30
5.2118370079
 40
1.5
 41
0.0
 71
     1
 72
     1
  1
16
  7
SLDTEXTSTYLE0
 73
     1
 44
1.0
  0
MTEXT
  5
1B9
330
1AC
100
AcDbEntity
  8
DIM
100
AcDbMText
 10
30.5420399495
 20
21.9939096162
 30
5.2118370079
 40
1.5
 41
0.0
 71
     1
 72
     1
  1
"
  7
SLDTEXTSTYLE0
 73
     1
 44
1.0
  0
ENDBLK
  5
1AE
330
1AC
100
AcDbEntity
  8
0
100
AcDbBlockEnd
  0
BLOCK
  5
1BC
330
1BB
100
AcDbEntity
  8
0
100
AcDbBlockBegin
  2
_D_2
 70
     0
 10
0.0
 20
0.0
 30
0.0
  3
_D_2
  1

  0
SOLID
  5
1BE
330
1BB
100
AcDbEntity
  8
DIM
100
AcDbTrace
 10
32.6900577158
 20
3.7294989397
 30
0.0
 11
33.6900577158
 21
3.4794989397
 31
0.0
 12
33.6900577158
 22
3.9794989397
 32
0.0
 13
33.6900577158
 23
3.9794989397
 33
0.0
  0
SOLID
  5
1BF
330
1BB
100
AcDbEntity
  8
DIM
100
AcDbTrace
 10
75.7600577158
 20
3.7294989397
 30
0.0
 11
74.7600577158
 21
3.9794989397
 31
0.0
 12
74.7600577158
 22
3.4794989397
 32
0.0
 13
74.7600577158
 23
3.4794989397
 33
0.0
  0
LINE
  5
1C0
330
1BB
100
AcDbEntity
  8
DIM
100
AcDbLine
 10
53.5909511328
 20
5.2294991049
 30
0.0
 11
51.7909511106
 21
2.2294990678
 31
0.0
  0
LINE
  5
1C1
330
1BB
100
AcDbEntity
  8
DIM
100
AcDbLine
 10
32.6900577158
 20
9.234333648
 30
0.0
 11
32.6900577158
 21
3.6901288609
 31
0.0
  0
LINE
  5
1C2
330
1BB
100
AcDbEntity
  8
DIM
100
AcDbLine
 10
75.7600577158
 20
9.234333648
 30
0.0
 11
75.7600577158
 21
3.6901288609
 31
0.0
  0
LINE
  5
1C3
330
1BB
100
AcDbEntity
  8
DIM
100
AcDbLine
 10
32.6900577158
 20
3.7294989397
 30
0.0
 11
49.3659511124
 21
3.7294989397
 31
0.0
  0
LINE
  5
1C4
330
1BB
100
AcDbEntity
  8
DIM
100
AcDbLine
 10
75.7600577158
 20
3.7294989397
 30
0.0
 11
56.7451181876
 21
3.7294989397
 31
0.0
  0
MTEXT
  5
1C5
330
1BB
100
AcDbEntity
  8
DIM
100
AcDbMText
 10
49.3659511124
 20
4.5891423291
 30
5.2118370079
 40
1.5
 41
0.0
 71
     1
 72
     1
  1
43
  7
SLDTEXTSTYLE0
 73
     1
 44
1.0
  0
MTEXT
  5
1C6
330
1BB
100
AcDbEntity
  8
DIM
100
AcDbMText
 10
51.5826177853
 20
5.6631007326
 30
5.2118370079
 40
1.5
 41
0.0
 71
     1
 72
     1
  1
1
  7
SLDTEXTSTYLE0
 73
     1
 44
1.0
  0
MTEXT
  5
1C7
330
1BB
100
AcDbEntity
  8
DIM
100
AcDbMText
 10
52.6909511217
 20
3.7235173389
 30
5.2118370079
 40
1.5
 41
0.0
 71
     1
 72
     1
  1
16
  7
SLDTEXTSTYLE0
 73
     1
 44
1.0
  0
MTEXT
  5
1C8
330
1BB
100
AcDbEntity
  8
DIM
100
AcDbMText
 10
54.9076178679
 20
4.5891423291
 30
5.2118370079
 40
1.5
 41
0.0
 71
     1
 72
     1
  1
"
  7
SLDTEXTSTYLE0
 73
     1
 44
1.0
  0
ENDBLK
  5
1BD
330
1BB
100
AcDbEntity
  8
0
100
AcDbBlockEnd
  0
BLOCK
  5
1CB
330
1CA
100
AcDbEntity
  8
0
100
AcDbBlockBegin
  2
_D_3
 70
     0
 10
0.0
 20
0.0
 30
0.0
  3
_D_3
  1

  0
SOLID
  5
1CD
330
1CA
100
AcDbEntity
  8
DIM
100
AcDbTrace
 10
80.4482837001
 20
7.6777037268
 30
0.0
 11
80.6982837001
 21
8.6777037268
 31
0.0
 12
80.1982837001
 22
8.6777037268
 32
0.0
 13
80.1982837001
 23
8.6777037268
 33
0.0
  0
SOLID
  5
1CE
330
1CA
100
AcDbEntity
  8
DIM
100
AcDbTrace
 10
80.4482837001
 20
42.703024501
 30
0.0
 11
80.1982837001
 21
41.703024501
 31
0.0
 12
80.6982837001
 22
41.703024501
 32
0.0
 13
80.6982837001
 23
41.703024501
 33
0.0
  0
LINE
  5
1CF
330
1CA
100
AcDbEntity
  8
DIM
100
AcDbLine
 10
75.3926849499
 20
7.6777037268
 30
0.0
 11
80.4876537788
 21
7.6777037268
 31
0.0
  0
LINE
  5
1D0
330
1CA
100
AcDbEntity
  8
DIM
100
AcDbLine
 10
68.5272212006
 20
42.703024501
 30
0.0
 11
80.4876537788
 21
42.703024501
 31
0.0
  0
LINE
  5
1D1
330
1CA
100
AcDbEntity
  8
DIM
100
AcDbLine
 10
80.4482837001
 20
7.6777037268
 30
0.0
 11
80.4482837001
 21
23.9997391147
 31
0.0
  0
LINE
  5
1D2
330
1CA
100
AcDbEntity
  8
DIM
100
AcDbLine
 10
80.4482837001
 20
42.703024501
 30
0.0
 11
80.4482837001
 21
26.380989113
 31
0.0
  0
MTEXT
  5
1D3
330
1CA
100
AcDbEntity
  8
DIM
100
AcDbMText
 10
78.4212004238
 20
25.9333407244
 30
5.2118370079
 40
1.5
 41
0.0
 71
     1
 72
     1
  1
35"
  7
SLDTEXTSTYLE0
 73
     1
 44
1.0
  0
ENDBLK
  5
1CC
330
1CA
100
AcDbEntity
  8
0
100
AcDbBlockEnd
  0
BLOCK
  5
1D6
330
1D5
100
AcDbEntity
  8
0
100
AcDbBlockBegin
  2
_D_4
 70
     0
 10
0.0
 20
0.0
 30
0.0
  3
_D_4
  1

  0
SOLID
  5
1D8
330
1D5
100
AcDbEntity
  8
DIM
100
AcDbTrace
 10
28.6899567315
 20
7.6777037268
 30
0.0
 11
28.9399567315
 21
8.6777037268
 31
0.0
 12
28.4399567315
 22
8.6777037268
 32
0.0
 13
28.4399567315
 23
8.6777037268
 33
0.0
  0
SOLID
  5
1D9
330
1D5
100
AcDbEntity
  8
DIM
100
AcDbTrace
 10
28.6899567315
 20
15.1097037268
 30
0.0
 11
28.4399567315
 21
14.1097037268
 31
0.0
 12
28.9399567315
 22
14.1097037268
 32
0.0
 13
28.9399567315
 23
14.1097037268
 33
0.0
  0
LINE
  5
1DA
330
1D5
100
AcDbEntity
  8
DIM
100
AcDbLine
 10
28.6712067295
 20
12.893703892
 30
0.0
 11
26.8712067072
 21
9.8937038549
 31
0.0
  0
LINE
  5
1DB
330
1D5
100
AcDbEntity
  8
DIM
100
AcDbLine
 10
33.0574304817
 20
7.6777037268
 30
0.0
 11
28.6505866528
 21
7.6777037268
 31
0.0
  0
LINE
  5
1DC
330
1D5
100
AcDbEntity
  8
DIM
100
AcDbLine
 10
35.0986876371
 20
15.1097037268
 30
0.0
 11
28.6505866528
 21
15.1097037268
 31
0.0
  0
LINE
  5
1DD
330
1D5
100
AcDbEntity
  8
DIM
100
AcDbLine
 10
28.6899567315
 20
7.6777037268
 30
0.0
 11
28.6899567315
 21
9.454120333
 31
0.0
  0
LINE
  5
1DE
330
1D5
100
AcDbEntity
  8
DIM
100
AcDbLine
 10
28.6899567315
 20
15.1097037268
 30
0.0
 11
28.6899567315
 21
13.3332871205
 31
0.0
  0
MTEXT
  5
1DF
330
1D5
100
AcDbEntity
  8
DIM
100
AcDbMText
 10
25.5545400455
 20
12.2533471162
 30
5.2118370079
 40
1.5
 41
0.0
 71
     1
 72
     1
  1
7
  7
SLDTEXTSTYLE0
 73
     1
 44
1.0
  0
MTEXT
  5
1E0
330
1D5
100
AcDbEntity
  8
DIM
100
AcDbMText
 10
26.6628733819
 20
13.3273055197
 30
5.2118370079
 40
1.5
 41
0.0
 71
     1
 72
     1
  1
7
  7
SLDTEXTSTYLE0
 73
     1
 44
1.0
  0
MTEXT
  5
1E1
330
1D5
100
AcDbEntity
  8
DIM
100
AcDbMText
 10
27.7712067184
 20
11.387722126
 30
5.2118370079
 40
1.5
 41
0.0
 71
     1
 72
     1
  1
16
  7
SLDTEXTSTYLE0
 73
     1
 44
1.0
  0
MTEXT
  5
1E2
330
1D5
100
AcDbEntity
  8
DIM
100
AcDbMText
 10
29.9878733912
 20
12.2533471162
 30
5.2118370079
 40
1.5
 41
0.0
 71
     1
 72
     1
  1
"
  7
SLDTEXTSTYLE0
 73
     1
 44
1.0
  0
ENDBLK
  5
1D7
330
1D5
100
AcDbEntity
  8
0
100
AcDbBlockEnd
  0
BLOCK
  5
3DA
330
3D9
100
AcDbEntity
  8
0
100
AcDbBlockBegin
  2
_D_5
 70
     0
 10
0.0
 20
0.0
 30
0.0
  3
_D_5
  1

  0
SOLID
  5
3DC
330
3D9
100
AcDbEntity
  8
DIM
100
AcDbTrace
 10
33.4410577158
 20
65.203867304
 30
0.0
 11
34.4410577158
 21
64.953867304
 31
0.0
 12
34.4410577158
 22
65.453867304
 32
0.0
 13
34.4410577158
 23
65.453867304
 33
0.0
  0
SOLID
  5
3DD
330
3D9
100
AcDbEntity
  8
DIM
100
AcDbTrace
 10
75.0090577158
 20
65.203867304
 30
0.0
 11
74.0090577158
 21
65.453867304
 31
0.0
 12
74.0090577158
 22
64.953867304
 32
0.0
 13
74.0090577158
 23
64.953867304
 33
0.0
  0
LINE
  5
3DE
330
3D9
100
AcDbEntity
  8
DIM
100
AcDbLine
 10
54.7604741986
 20
66.7038674693
 30
0.0
 11
52.9604741764
 21
63.7038674322
 31
0.0
  0
LINE
  5
3DF
330
3D9
100
AcDbEntity
  8
DIM
100
AcDbLine
 10
33.4410577158
 20
61.2432373828
 30
0.0
 11
33.4410577158
 21
65.2432373828
 31
0.0
  0
LINE
  5
3E0
330
3D9
100
AcDbEntity
  8
DIM
100
AcDbLine
 10
75.0090577158
 20
61.2432373828
 30
0.0
 11
75.0090577158
 21
65.2432373828
 31
0.0
  0
LINE
  5
3E1
330
3D9
100
AcDbEntity
  8
DIM
100
AcDbLine
 10
33.4410577158
 20
65.203867304
 30
0.0
 11
50.5354741782
 21
65.203867304
 31
0.0
  0
LINE
  5
3E2
330
3D9
100
AcDbEntity
  8
DIM
100
AcDbLine
 10
75.0090577158
 20
65.203867304
 30
0.0
 11
57.9146412534
 21
65.203867304
 31
0.0
  0
MTEXT
  5
3E3
330
3D9
100
AcDbEntity
  8
DIM
100
AcDbMText
 10
50.5354741782
 20
66.0635106935
 30
-16.5707233792
 40
1.5
 41
0.0
 71
     1
 72
     1
  1
41
  7
SLDTEXTSTYLE0
 73
     1
 44
1.0
  0
MTEXT
  5
3E4
330
3D9
100
AcDbEntity
  8
DIM
100
AcDbMText
 10
52.7521408511
 20
67.137469097
 30
-16.5707233792
 40
1.5
 41
0.0
 71
     1
 72
     1
  1
9
  7
SLDTEXTSTYLE0
 73
     1
 44
1.0
  0
MTEXT
  5
3E5
330
3D9
100
AcDbEntity
  8
DIM
100
AcDbMText
 10
53.8604741875
 20
65.1978857033
 30
-16.5707233792
 40
1.5
 41
0.0
 71
     1
 72
     1
  1
16
  7
SLDTEXTSTYLE0
 73
     1
 44
1.0
  0
MTEXT
  5
3E6
330
3D9
100
AcDbEntity
  8
DIM
100
AcDbMText
 10
56.0771409337
 20
66.0635106935
 30
-16.5707233792
 40
1.5
 41
0.0
 71
     1
 72
     1
  1
"
  7
SLDTEXTSTYLE0
 73
     1
 44
1.0
  0
ENDBLK
  5
3DB
330
3D9
100
AcDbEntity
  8
0
100
AcDbBlockEnd
  0
BLOCK
  5
3EA
330
3E9
100
AcDbEntity
  8
0
100
AcDbBlockBegin
  2
_D_6
 70
     0
 10
0.0
 20
0.0
 30
0.0
  3
_D_6
  1

  0
SOLID
  5
3EC
330
3E9
100
AcDbEntity
  8
DIM
100
AcDbTrace
 10
75.7601577158
 20
65.203867304
 30
0.0
 11
76.7601577158
 21
64.953867304
 31
0.0
 12
76.7601577158
 22
65.453867304
 32
0.0
 13
76.7601577158
 23
65.453867304
 33
0.0
  0
SOLID
  5
3ED
330
3E9
100
AcDbEntity
  8
DIM
100
AcDbTrace
 10
75.0090577158
 20
65.203867304
 30
0.0
 11
74.0090577158
 21
65.453867304
 31
0.0
 12
74.0090577158
 22
64.953867304
 32
0.0
 13
74.0090577158
 23
64.953867304
 33
0.0
  0
LINE
  5
3EE
330
3E9
100
AcDbEntity
  8
DIM
100
AcDbLine
 10
82.1775655253
 20
66.7038674693
 30
0.0
 11
80.377565503
 21
63.7038674322
 31
0.0
  0
LINE
  5
3EF
330
3E9
100
AcDbEntity
  8
DIM
100
AcDbLine
 10
75.7601577158
 20
59.7733958674
 30
0.0
 11
75.7601577158
 21
65.2432373828
 31
0.0
  0
LINE
  5
3F0
330
3E9
100
AcDbEntity
  8
DIM
100
AcDbLine
 10
75.0090577158
 20
61.2432373828
 30
0.0
 11
75.0090577158
 21
65.2432373828
 31
0.0
  0
LINE
  5
3F1
330
3E9
100
AcDbEntity
  8
DIM
100
AcDbLine
 10
75.7601577158
 20
65.203867304
 30
0.0
 11
80.1692321777
 21
65.203867304
 31
0.0
  0
LINE
  5
3F2
330
3E9
100
AcDbEntity
  8
DIM
100
AcDbLine
 10
75.0090577158
 20
65.203867304
 30
0.0
 11
73.5090577158
 21
65.203867304
 31
0.0
  0
MTEXT
  5
3F3
330
3E9
100
AcDbEntity
  8
DIM
100
AcDbMText
 10
80.1692321777
 20
67.137469097
 30
-16.5707233792
 40
1.5
 41
0.0
 71
     1
 72
     1
  1
3
  7
SLDTEXTSTYLE0
 73
     1
 44
1.0
  0
MTEXT
  5
3F4
330
3E9
100
AcDbEntity
  8
DIM
100
AcDbMText
 10
81.2775655141
 20
65.1978857033
 30
-16.5707233792
 40
1.5
 41
0.0
 71
     1
 72
     1
  1
4
  7
SLDTEXTSTYLE0
 73
     1
 44
1.0
  0
MTEXT
  5
3F5
330
3E9
100
AcDbEntity
  8
DIM
100
AcDbMText
 10
82.3858988506
 20
66.0635106935
 30
-16.5707233792
 40
1.5
 41
0.0
 71
     1
 72
     1
  1
"
  7
SLDTEXTSTYLE0
 73
     1
 44
1.0
  0
ENDBLK
  5
3EB
330
3E9
100
AcDbEntity
  8
0
100
AcDbBlockEnd
  0
BLOCK
  5
3F8
330
3F7
100
AcDbEntity
  8
0
100
AcDbBlockBegin
  2
_D_7
 70
     0
 10
0.0
 20
0.0
 30
0.0
  3
_D_7
  1

  0
SOLID
  5
3FA
330
3F7
100
AcDbEntity
  8
DIM
100
AcDbTrace
 10
33.4410577158
 20
65.203867304
 30
0.0
 11
34.4410577158
 21
64.953867304
 31
0.0
 12
34.4410577158
 22
65.453867304
 32
0.0
 13
34.4410577158
 23
65.453867304
 33
0.0
  0
SOLID
  5
3FB
330
3F7
100
AcDbEntity
  8
DIM
100
AcDbTrace
 10
32.6899577158
 20
65.203867304
 30
0.0
 11
31.6899577158
 21
65.453867304
 31
0.0
 12
31.6899577158
 22
64.953867304
 32
0.0
 13
31.6899577158
 23
64.953867304
 33
0.0
  0
LINE
  5
3FC
330
3F7
100
AcDbEntity
  8
DIM
100
AcDbLine
 10
28.1094692491
 20
66.7038674693
 30
0.0
 11
26.3094692268
 21
63.7038674322
 31
0.0
  0
LINE
  5
3FD
330
3F7
100
AcDbEntity
  8
DIM
100
AcDbLine
 10
33.4410577158
 20
61.2432373828
 30
0.0
 11
33.4410577158
 21
65.2432373828
 31
0.0
  0
LINE
  5
3FE
330
3F7
100
AcDbEntity
  8
DIM
100
AcDbLine
 10
32.6899577158
 20
59.7733958674
 30
0.0
 11
32.6899577158
 21
65.2432373828
 31
0.0
  0
LINE
  5
3FF
330
3F7
100
AcDbEntity
  8
DIM
100
AcDbLine
 10
33.4410577158
 20
65.203867304
 30
0.0
 11
34.9410577158
 21
65.203867304
 31
0.0
  0
LINE
  5
400
330
3F7
100
AcDbEntity
  8
DIM
100
AcDbLine
 10
32.6899577158
 20
65.203867304
 30
0.0
 11
30.1553024541
 21
65.203867304
 31
0.0
  0
MTEXT
  5
401
330
3F7
100
AcDbEntity
  8
DIM
100
AcDbMText
 10
26.1011359015
 20
67.137469097
 30
-16.5707233792
 40
1.5
 41
0.0
 71
     1
 72
     1
  1
3
  7
SLDTEXTSTYLE0
 73
     1
 44
1.0
  0
MTEXT
  5
402
330
3F7
100
AcDbEntity
  8
DIM
100
AcDbMText
 10
27.209469238
 20
65.1978857033
 30
-16.5707233792
 40
1.5
 41
0.0
 71
     1
 72
     1
  1
4
  7
SLDTEXTSTYLE0
 73
     1
 44
1.0
  0
MTEXT
  5
403
330
3F7
100
AcDbEntity
  8
DIM
100
AcDbMText
 10
28.3178025744
 20
66.0635106935
 30
-16.5707233792
 40
1.5
 41
0.0
 71
     1
 72
     1
  1
"
  7
SLDTEXTSTYLE0
 73
     1
 44
1.0
  0
ENDBLK
  5
3F9
330
3F7
100
AcDbEntity
  8
0
100
AcDbBlockEnd
  0
BLOCK
  5
511
330
510
100
AcDbEntity
  8
0
100
AcDbBlockBegin
  2
_D_8
 70
     0
 10
0.0
 20
0.0
 30
0.0
  3
_D_8
  1

  0
SOLID
  5
513
330
510
100
AcDbEntity
  8
DIM
100
AcDbTrace
 10
106.0140720253
 20
42.703024501
 30
0.0
 11
105.7640720253
 21
41.703024501
 31
0.0
 12
106.2640720253
 22
41.703024501
 32
0.0
 13
106.2640720253
 23
41.703024501
 33
0.0
  0
SOLID
  5
514
330
510
100
AcDbEntity
  8
DIM
100
AcDbTrace
 10
106.0140720253
 20
29.7658287268
 30
0.0
 11
106.2640720253
 21
30.7658287268
 31
0.0
 12
105.7640720253
 22
30.7658287268
 32
0.0
 13
105.7640720253
 23
30.7658287268
 33
0.0
  0
LINE
  5
515
330
510
100
AcDbEntity
  8
DIM
100
AcDbLine
 10
107.1036552863
 20
37.7344267791
 30
0.0
 11
105.3036552641
 21
34.734426742
 31
0.0
  0
LINE
  5
516
330
510
100
AcDbEntity
  8
DIM
100
AcDbLine
 10
94.810642104
 20
42.703024501
 30
0.0
 11
106.053442104
 21
42.703024501
 31
0.0
  0
LINE
  5
517
330
510
100
AcDbEntity
  8
DIM
100
AcDbLine
 10
102.002342104
 20
29.7658287268
 30
0.0
 11
106.053442104
 21
29.7658287268
 31
0.0
  0
LINE
  5
518
330
510
100
AcDbEntity
  8
DIM
100
AcDbLine
 10
106.0140720253
 20
42.703024501
 30
0.0
 11
106.0140720253
 21
38.1740100076
 31
0.0
  0
LINE
  5
519
330
510
100
AcDbEntity
  8
DIM
100
AcDbLine
 10
106.0140720253
 20
29.7658287268
 30
0.0
 11
106.0140720253
 21
34.2948432201
 31
0.0
  0
MTEXT
  5
51A
330
510
100
AcDbEntity
  8
DIM
100
AcDbMText
 10
101.7703219294
 20
37.0940700033
 30
0.0039370079
 40
1.5
 41
0.0
 71
     1
 72
     1
  1
12
  7
SLDTEXTSTYLE0
 73
     1
 44
1.0
  0
MTEXT
  5
51B
330
510
100
AcDbEntity
  8
DIM
100
AcDbMText
 10
103.9869886023
 20
38.1680284069
 30
0.0039370079
 40
1.5
 41
0.0
 71
     1
 72
     1
  1
15
  7
SLDTEXTSTYLE0
 73
     1
 44
1.0
  0
MTEXT
  5
51C
330
510
100
AcDbEntity
  8
DIM
100
AcDbMText
 10
106.2036552752
 20
36.2284450131
 30
0.0039370079
 40
1.5
 41
0.0
 71
     1
 72
     1
  1
16
  7
SLDTEXTSTYLE0
 73
     1
 44
1.0
  0
MTEXT
  5
51D
330
510
100
AcDbEntity
  8
DIM
100
AcDbMText
 10
108.4203218014
 20
37.0940700033
 30
0.0039370079
 40
1.5
 41
0.0
 71
     1
 72
     1
  1
"
  7
SLDTEXTSTYLE0
 73
     1
 44
1.0
  0
ENDBLK
  5
512
330
510
100
AcDbEntity
  8
0
100
AcDbBlockEnd
  0
BLOCK
  5
520
330
51F
100
AcDbEntity
  8
0
100
AcDbBlockBegin
  2
_D_9
 70
     0
 10
0.0
 20
0.0
 30
0.0
  3
_D_9
  1

  0
SOLID
  5
522
330
51F
100
AcDbEntity
  8
DIM
100
AcDbTrace
 10
106.0140720253
 20
29.7658287268
 30
0.0
 11
105.7640720253
 21
28.7658287268
 31
0.0
 12
106.2640720253
 22
28.7658287268
 32
0.0
 13
106.2640720253
 23
28.7658287268
 33
0.0
  0
SOLID
  5
523
330
51F
100
AcDbEntity
  8
DIM
100
AcDbTrace
 10
106.0140720253
 20
8.6157037268
 30
0.0
 11
106.2640720253
 21
9.6157037268
 31
0.0
 12
105.7640720253
 22
9.6157037268
 32
0.0
 13
105.7640720253
 23
9.6157037268
 33
0.0
  0
LINE
  5
524
330
51F
100
AcDbEntity
  8
DIM
100
AcDbLine
 10
107.1036553597
 20
20.690766392
 30
0.0
 11
105.3036553374
 21
17.6907663549
 31
0.0
  0
LINE
  5
525
330
51F
100
AcDbEntity
  8
DIM
100
AcDbLine
 10
102.002342104
 20
29.7658287268
 30
0.0
 11
106.053442104
 21
29.7658287268
 31
0.0
  0
LINE
  5
526
330
51F
100
AcDbEntity
  8
DIM
100
AcDbLine
 10
102.010892104
 20
8.6157037268
 30
0.0
 11
106.053442104
 21
8.6157037268
 31
0.0
  0
LINE
  5
527
330
51F
100
AcDbEntity
  8
DIM
100
AcDbLine
 10
106.0140720253
 20
29.7658287268
 30
0.0
 11
106.0140720253
 21
21.1303496205
 31
0.0
  0
LINE
  5
528
330
51F
100
AcDbEntity
  8
DIM
100
AcDbLine
 10
106.0140720253
 20
8.6157037268
 30
0.0
 11
106.0140720253
 21
17.251182833
 31
0.0
  0
MTEXT
  5
529
330
51F
100
AcDbEntity
  8
DIM
100
AcDbMText
 10
102.8786553392
 20
20.0504096162
 30
0.0039370079
 40
1.5
 41
0.0
 71
     1
 72
     1
  1
21
  7
SLDTEXTSTYLE0
 73
     1
 44
1.0
  0
MTEXT
  5
52A
330
51F
100
AcDbEntity
  8
DIM
100
AcDbMText
 10
105.0953220121
 20
21.1243680197
 30
0.0039370079
 40
1.5
 41
0.0
 71
     1
 72
     1
  1
1
  7
SLDTEXTSTYLE0
 73
     1
 44
1.0
  0
MTEXT
  5
52B
330
51F
100
AcDbEntity
  8
DIM
100
AcDbMText
 10
106.2036553485
 20
19.184784626
 30
0.0039370079
 40
1.5
 41
0.0
 71
     1
 72
     1
  1
8
  7
SLDTEXTSTYLE0
 73
     1
 44
1.0
  0
MTEXT
  5
52C
330
51F
100
AcDbEntity
  8
DIM
100
AcDbMText
 10
107.311988685
 20
20.0504096162
 30
0.0039370079
 40
1.5
 41
0.0
 71
     1
 72
     1
  1
"
  7
SLDTEXTSTYLE0
 73
     1
 44
1.0
  0
ENDBLK
  5
521
330
51F
100
AcDbEntity
  8
0
100
AcDbBlockEnd
  0
BLOCK
  5
52F
330
52E
100
AcDbEntity
  8
0
100
AcDbBlockBegin
  2
_D_10
 70
     0
 10
0.0
 20
0.0
 30
0.0
  3
_D_10
  1

  0
SOLID
  5
531
330
52E
100
AcDbEntity
  8
DIM
100
AcDbTrace
 10
106.0140720253
 20
7.6777037268
 30
0.0
 11
105.7640720253
 21
6.6777037268
 31
0.0
 12
106.2640720253
 22
6.6777037268
 32
0.0
 13
106.2640720253
 23
6.6777037268
 33
0.0
  0
SOLID
  5
532
330
52E
100
AcDbEntity
  8
DIM
100
AcDbTrace
 10
106.0140720253
 20
8.6157037268
 30
0.0
 11
106.2640720253
 21
9.6157037268
 31
0.0
 12
105.7640720253
 22
9.6157037268
 32
0.0
 13
105.7640720253
 23
9.6157037268
 33
0.0
  0
LINE
  5
533
330
52E
100
AcDbEntity
  8
DIM
100
AcDbLine
 10
110.7763727491
 20
5.177703892
 30
0.0
 11
108.9763727268
 21
2.1777038549
 31
0.0
  0
LINE
  5
534
330
52E
100
AcDbEntity
  8
DIM
100
AcDbLine
 10
100.5439407748
 20
7.6777037268
 30
0.0
 11
106.053442104
 21
7.6777037268
 31
0.0
  0
LINE
  5
535
330
52E
100
AcDbEntity
  8
DIM
100
AcDbLine
 10
102.010892104
 20
8.6157037268
 30
0.0
 11
106.053442104
 21
8.6157037268
 31
0.0
  0
LINE
  5
536
330
52E
100
AcDbEntity
  8
DIM
100
AcDbLine
 10
107.6597060651
 20
3.6777037268
 30
0.0
 11
106.0140720253
 21
3.6777037268
 31
0.0
  0
LINE
  5
537
330
52E
100
AcDbEntity
  8
DIM
100
AcDbLine
 10
106.0140720253
 20
3.6777037268
 30
0.0
 11
106.0140720253
 21
7.6777037268
 31
0.0
  0
LINE
  5
538
330
52E
100
AcDbEntity
  8
DIM
100
AcDbLine
 10
106.0140720253
 20
8.6157037268
 30
0.0
 11
106.0140720253
 21
10.1157037268
 31
0.0
  0
MTEXT
  5
539
330
52E
100
AcDbEntity
  8
DIM
100
AcDbMText
 10
107.6597060651
 20
5.6113055197
 30
0.0039370079
 40
1.5
 41
0.0
 71
     1
 72
     1
  1
15
  7
SLDTEXTSTYLE0
 73
     1
 44
1.0
  0
MTEXT
  5
53A
330
52E
100
AcDbEntity
  8
DIM
100
AcDbMText
 10
109.876372738
 20
3.671722126
 30
0.0039370079
 40
1.5
 41
0.0
 71
     1
 72
     1
  1
16
  7
SLDTEXTSTYLE0
 73
     1
 44
1.0
  0
MTEXT
  5
53B
330
52E
100
AcDbEntity
  8
DIM
100
AcDbMText
 10
112.0930394108
 20
4.5373471162
 30
0.0039370079
 40
1.5
 41
0.0
 71
     1
 72
     1
  1
"
  7
SLDTEXTSTYLE0
 73
     1
 44
1.0
  0
ENDBLK
  5
530
330
52E
100
AcDbEntity
  8
0
100
AcDbBlockEnd
  0
BLOCK
  5
53E
330
53D
100
AcDbEntity
  8
0
100
AcDbBlockBegin
  2
_D_11
 70
     0
 10
0.0
 20
0.0
 30
0.0
  3
_D_11
  1

  0
SOLID
  5
540
330
53D
100
AcDbEntity
  8
DIM
100
AcDbTrace
 10
91.0322720253
 20
3.6777037268
 30
0.0
 11
92.0322720253
 21
3.4277037268
 31
0.0
 12
92.0322720253
 22
3.9277037268
 32
0.0
 13
92.0322720253
 23
3.9277037268
 33
0.0
  0
SOLID
  5
541
330
53D
100
AcDbEntity
  8
DIM
100
AcDbTrace
 10
102.0045220253
 20
3.6777037268
 30
0.0
 11
101.0045220253
 21
3.9277037268
 31
0.0
 12
101.0045220253
 22
3.4277037268
 32
0.0
 13
101.0045220253
 23
3.4277037268
 33
0.0
  0
LINE
  5
542
330
53D
100
AcDbEntity
  8
DIM
100
AcDbLine
 10
91.0322720253
 20
8.604333648
 30
0.0
 11
91.0322720253
 21
3.638333648
 31
0.0
  0
LINE
  5
543
330
53D
100
AcDbEntity
  8
DIM
100
AcDbLine
 10
102.0045220253
 20
8.609333648
 30
0.0
 11
102.0045220253
 21
3.638333648
 31
0.0
  0
LINE
  5
544
330
53D
100
AcDbEntity
  8
DIM
100
AcDbLine
 10
91.0322720253
 20
3.6777037268
 30
0.0
 11
94.7699900083
 21
3.6777037268
 31
0.0
  0
LINE
  5
545
330
53D
100
AcDbEntity
  8
DIM
100
AcDbLine
 10
102.0045220253
 20
3.6777037268
 30
0.0
 11
98.8241565609
 21
3.6777037268
 31
0.0
  0
MTEXT
  5
546
330
53D
100
AcDbEntity
  8
DIM
100
AcDbMText
 10
94.7699900083
 20
4.4206803373
 30
0.0039370079
 40
1.5
 41
0.0
 71
     1
 72
     1
  1
11"
  7
SLDTEXTSTYLE0
 73
     1
 44
1.0
  0
ENDBLK
  5
53F
330
53D
100
AcDbEntity
  8
0
100
AcDbBlockEnd
  0
BLOCK
  5
549
330
548
100
AcDbEntity
  8
0
100
AcDbBlockBegin
  2
_D_12
 70
     0
 10
0.0
 20
0.0
 30
0.0
  3
_D_12
  1

  0
SOLID
  5
54B
330
548
100
AcDbEntity
  8
DIM
100
AcDbTrace
 10
90.5322720253
 20
3.6777037268
 30
0.0
 11
89.5322720253
 21
3.9277037268
 31
0.0
 12
89.5322720253
 22
3.4277037268
 32
0.0
 13
89.5322720253
 23
3.4277037268
 33
0.0
  0
SOLID
  5
54C
330
548
100
AcDbEntity
  8
DIM
100
AcDbTrace
 10
91.0322720253
 20
3.6777037268
 30
0.0
 11
92.0322720253
 21
3.4277037268
 31
0.0
 12
92.0322720253
 22
3.9277037268
 32
0.0
 13
92.0322720253
 23
3.9277037268
 33
0.0
  0
LINE
  5
54D
330
548
100
AcDbEntity
  8
DIM
100
AcDbLine
 10
86.9509253442
 20
5.177703892
 30
0.0
 11
85.150925322
 21
2.1777038549
 31
0.0
  0
LINE
  5
54E
330
548
100
AcDbEntity
  8
DIM
100
AcDbLine
 10
90.5322720253
 20
15.054833648
 30
0.0
 11
90.5322720253
 21
3.638333648
 31
0.0
  0
LINE
  5
54F
330
548
100
AcDbEntity
  8
DIM
100
AcDbLine
 10
91.0322720253
 20
8.604333648
 30
0.0
 11
91.0322720253
 21
3.638333648
 31
0.0
  0
LINE
  5
550
330
548
100
AcDbEntity
  8
DIM
100
AcDbLine
 10
90.5322720253
 20
3.6777037268
 30
0.0
 11
88.9967585492
 21
3.6777037268
 31
0.0
  0
LINE
  5
551
330
548
100
AcDbEntity
  8
DIM
100
AcDbLine
 10
91.0322720253
 20
3.6777037268
 30
0.0
 11
92.5322720253
 21
3.6777037268
 31
0.0
  0
MTEXT
  5
552
330
548
100
AcDbEntity
  8
DIM
100
AcDbMText
 10
84.9425919966
 20
5.6113055197
 30
0.0039370079
 40
1.5
 41
0.0
 71
     1
 72
     1
  1
1
  7
SLDTEXTSTYLE0
 73
     1
 44
1.0
  0
MTEXT
  5
553
330
548
100
AcDbEntity
  8
DIM
100
AcDbMText
 10
86.0509253331
 20
3.671722126
 30
0.0039370079
 40
1.5
 41
0.0
 71
     1
 72
     1
  1
2
  7
SLDTEXTSTYLE0
 73
     1
 44
1.0
  0
MTEXT
  5
554
330
548
100
AcDbEntity
  8
DIM
100
AcDbMText
 10
87.1592586695
 20
4.5373471162
 30
0.0039370079
 40
1.5
 41
0.0
 71
     1
 72
     1
  1
"
  7
SLDTEXTSTYLE0
 73
     1
 44
1.0
  0
ENDBLK
  5
54A
330
548
100
AcDbEntity
  8
0
100
AcDbBlockEnd
  0
ENDSEC
  0
SECTION
  2
ENTITIES
  0
INSERT
  5
4F
330
1F
100
AcDbEntity
  8
NOTES
100
AcDbBlockReference
  2
SW_NOTE_0
 10
1.0847926317
 20
66.1544438025
 30
0.0
  0
LINE
  5
50
330
1F
100
AcDbEntity
  8
SLD-0
  6
Continuous
370
    15
100
AcDbLine
 10
35.5085363307
 20
27.0822669328
 30
0.0
 11
38.9554553382
 21
26.3358642486
 31
0.0
  0
LINE
  5
51
330
1F
100
AcDbEntity
  8
SLD-0
  6
Continuous
370
    15
100
AcDbLine
 10
69.4946600934
 20
26.3358642486
 30
0.0
 11
72.9415791009
 21
27.0822669328
 31
0.0
  0
LINE
  5
52
330
1F
100
AcDbEntity
  8
SLD-0
  6
Continuous
370
    15
100
AcDbLine
 10
38.9987696112
 20
26.3246954176
 30
0.0
 11
69.4513458204
 21
26.3246954176
 31
0.0
  0
LINE
  5
53
330
1F
100
AcDbEntity
  8
SLD-0
  6
Continuous
370
    15
100
AcDbLine
 10
35.1800572453
 20
27.0822669328
 30
0.0
 11
73.2700581863
 21
27.0822669328
 31
0.0
  0
LINE
  5
54
330
1F
100
AcDbEntity
  8
SLD-0
  6
Continuous
370
    15
100
AcDbLine
 10
35.1800572453
 20
27.1582041889
 30
0.0
 11
73.2700581863
 21
27.1582041889
 31
0.0
  0
LINE
  5
55
330
1F
100
AcDbEntity
  8
SLD-0
  6
Continuous
370
    15
100
AcDbLine
 10
35.1800572453
 20
27.1582041889
 30
0.0
 11
35.1800572453
 21
27.0822669328
 31
0.0
  0
LINE
  5
56
330
1F
100
AcDbEntity
  8
SLD-0
  6
Continuous
370
    15
100
AcDbLine
 10
73.2700581863
 20
27.1582041889
 30
0.0
 11
73.2700581863
 21
27.0822669328
 31
0.0
  0
LWPOLYLINE
  5
57
330
1F
100
AcDbEntity
  8
SLD-0
  6
Continuous
370
    15
100
AcDbPolyline
 90
        3
 70
   128
 43
0.0
 10
38.9554553382
 20
26.3358642486
 10
38.957296277
 20
26.3354958262
 10
38.9700573029
 20
26.334563037
  0
LINE
  5
58
330
1F
100
AcDbEntity
  8
SLD-0
  6
Continuous
370
    15
100
AcDbLine
 10
69.4800581287
 20
26.3305479367
 30
0.0
 11
69.4800581287
 21
26.334563037
 31
0.0
  0
LINE
  5
59
330
1F
100
AcDbEntity
  8
SLD-0
  6
Continuous
370
    15
100
AcDbLine
 10
38.9700573029
 20
26.3305479367
 30
0.0
 11
38.9700573029
 21
26.334563037
 31
0.0
  0
LWPOLYLINE
  5
5A
330
1F
100
AcDbEntity
  8
SLD-0
  6
Continuous
370
    15
100
AcDbPolyline
 90
        3
 70
   128
 43
0.0
 10
69.4946600934
 20
26.3358642486
 10
69.4928191547
 20
26.3354958262
 10
69.4800581287
 20
26.334563037
  0
LINE
  5
5B
330
1F
100
AcDbEntity
  8
SLD-0
  6
Continuous
370
    15
100
AcDbLine
 10
73.3200580354
 20
27.1582041889
 30
0.0
 11
73.3200580354
 21
27.158828395
 31
0.0
  0
LINE
  5
5C
330
1F
100
AcDbEntity
  8
SLD-0
  6
Continuous
370
    15
100
AcDbLine
 10
73.3200580354
 20
27.1582041889
 30
0.0
 11
73.2700581863
 21
27.1582041889
 31
0.0
  0
LINE
  5
5D
330
1F
100
AcDbEntity
  8
SLD-0
  6
Continuous
370
    15
100
AcDbLine
 10
35.1800572453
 20
27.1582041889
 30
0.0
 11
35.1300573962
 21
27.1582041889
 31
0.0
  0
LINE
  5
5E
330
1F
100
AcDbEntity
  8
SLD-0
  6
Continuous
370
    15
100
AcDbLine
 10
35.1300573962
 20
27.1582041889
 30
0.0
 11
35.1300573962
 21
27.158828395
 31
0.0
  0
LINE
  5
5F
330
1F
100
AcDbEntity
  8
SLD-0
  6
Continuous
370
    15
100
AcDbLine
 10
73.3300582399
 20
27.158828395
 30
0.0
 11
35.1200571917
 21
27.158828395
 31
0.0
  0
LINE
  5
60
330
1F
100
AcDbEntity
  8
SLD-0
  6
Continuous
370
    15
100
AcDbLine
 10
73.3300582399
 20
27.1858288298
 30
0.0
 11
35.1200571917
 21
27.1858288298
 31
0.0
  0
LINE
  5
61
330
1F
100
AcDbEntity
  8
SLD-0
  6
Continuous
370
    15
100
AcDbLine
 10
73.3300582399
 20
27.1858288298
 30
0.0
 11
73.3300582399
 21
27.158828395
 31
0.0
  0
LINE
  5
62
330
1F
100
AcDbEntity
  8
SLD-0
  6
Continuous
370
    15
100
AcDbLine
 10
35.1200571917
 20
27.1858288298
 30
0.0
 11
35.1200571917
 21
27.158828395
 31
0.0
  0
LINE
  5
63
330
1F
100
AcDbEntity
  8
SLD-0
  6
Continuous
370
    15
100
AcDbLine
 10
73.3300582399
 20
27.209928818
 30
0.0
 11
35.1200571917
 21
27.209928818
 31
0.0
  0
LINE
  5
64
330
1F
100
AcDbEntity
  8
SLD-0
  6
Continuous
370
    15
100
AcDbLine
 10
73.3300582399
 20
27.209928818
 30
0.0
 11
73.3300582399
 21
27.1858288298
 31
0.0
  0
LINE
  5
65
330
1F
100
AcDbEntity
  8
SLD-0
  6
Continuous
370
    15
100
AcDbLine
 10
35.1200571917
 20
27.209928818
 30
0.0
 11
35.1200571917
 21
27.1858288298
 31
0.0
  0
LINE
  5
66
330
1F
100
AcDbEntity
  8
SLD-0
  6
Continuous
370
    15
100
AcDbLine
 10
35.0450574181
 20
29.7147295357
 30
0.0
 11
35.0450574181
 21
27.2188284485
 31
0.0
  0
LINE
  5
67
330
1F
100
AcDbEntity
  8
SLD-0
  6
Continuous
370
    15
100
AcDbLine
 10
73.4050580135
 20
29.7147295357
 30
0.0
 11
35.0450574181
 21
29.7147295357
 31
0.0
  0
LINE
  5
68
330
1F
100
AcDbEntity
  8
SLD-0
  6
Continuous
370
    15
100
AcDbLine
 10
73.4050580135
 20
29.7147295357
 30
0.0
 11
73.4050580135
 21
27.2188284485
 31
0.0
  0
LINE
  5
69
330
1F
100
AcDbEntity
  8
SLD-0
  6
Continuous
370
    15
100
AcDbLine
 10
35.0450574181
 20
27.2188284485
 30
0.0
 11
35.1200571917
 21
27.2188284485
 31
0.0
  0
LINE
  5
6A
330
1F
100
AcDbEntity
  8
SLD-0
  6
Continuous
370
    15
100
AcDbLine
 10
73.4050580135
 20
27.2188284485
 30
0.0
 11
73.3300582399
 21
27.2188284485
 31
0.0
  0
LINE
  5
6B
330
1F
100
AcDbEntity
  8
SLD-0
  6
Continuous
370
    15
100
AcDbLine
 10
73.3300582399
 20
27.2188284485
 30
0.0
 11
73.3300582399
 21
27.209928818
 31
0.0
  0
LINE
  5
6C
330
1F
100
AcDbEntity
  8
SLD-0
  6
Continuous
370
    15
100
AcDbLine
 10
35.1200571917
 20
27.2188284485
 30
0.0
 11
35.1200571917
 21
27.209928818
 31
0.0
  0
LINE
  5
6D
330
1F
100
AcDbEntity
  8
SLD-0
  6
Continuous
370
    15
100
AcDbLine
 10
35.0450574181
 20
29.7635466784
 30
0.0
 11
33.441058881
 21
29.7635466784
 31
0.0
  0
LINE
  5
6E
330
1F
100
AcDbEntity
  8
SLD-0
  6
Continuous
370
    15
100
AcDbLine
 10
33.441058881
 20
29.7635466784
 30
0.0
 11
33.441058881
 21
29.7658276121
 31
0.0
  0
LINE
  5
6F
330
1F
100
AcDbEntity
  8
SLD-0
  6
Continuous
370
    15
100
AcDbLine
 10
75.0090565506
 20
29.7658276121
 30
0.0
 11
33.441058881
 21
29.7658276121
 31
0.0
  0
LINE
  5
70
330
1F
100
AcDbEntity
  8
SLD-0
  6
Continuous
370
    15
100
AcDbLine
 10
75.0090565506
 20
29.7635466784
 30
0.0
 11
75.0090565506
 21
29.7658276121
 31
0.0
  0
LINE
  5
71
330
1F
100
AcDbEntity
  8
SLD-0
  6
Continuous
370
    15
100
AcDbLine
 10
73.4050580135
 20
29.7635466784
 30
0.0
 11
75.0090565506
 21
29.7635466784
 31
0.0
  0
LINE
  5
72
330
1F
100
AcDbEntity
  8
SLD-0
  6
Continuous
370
    15
100
AcDbLine
 10
35.0450574181
 20
29.7635466784
 30
0.0
 11
35.0450574181
 21
29.7147295357
 31
0.0
  0
LINE
  5
73
330
1F
100
AcDbEntity
  8
SLD-0
  6
Continuous
370
    15
100
AcDbLine
 10
73.4050580135
 20
29.7635466784
 30
0.0
 11
73.4050580135
 21
29.7147295357
 31
0.0
  0
LINE
  5
74
330
1F
100
AcDbEntity
  8
SLD-0
  6
Continuous
370
    15
100
AcDbLine
 10
35.0450574181
 20
29.7377524164
 30
0.0
 11
33.441058881
 21
29.7377524164
 31
0.0
  0
LINE
  5
75
330
1F
100
AcDbEntity
  8
SLD-0
  6
Continuous
370
    15
100
AcDbLine
 10
73.4050580135
 20
29.7377524164
 30
0.0
 11
75.0090565506
 21
29.7377524164
 31
0.0
  0
LINE
  5
76
330
1F
100
AcDbEntity
  8
SLD-0
  6
Continuous
370
    15
100
AcDbLine
 10
75.0090565506
 20
29.7635466784
 30
0.0
 11
75.0090565506
 21
29.7377524164
 31
0.0
  0
LINE
  5
77
330
1F
100
AcDbEntity
  8
SLD-0
  6
Continuous
370
    15
100
AcDbLine
 10
33.441058881
 20
29.7635466784
 30
0.0
 11
33.441058881
 21
29.7377524164
 31
0.0
  0
ARC
  5
78
330
1F
100
AcDbEntity
  8
SLD-0
  6
Continuous
370
    15
100
AcDbCircle
 10
75.0090577158
 20
29.7147287268
 30
0.0
 40
0.0511000000000053
100
AcDbArc
 50
0.0
 51
90.0
  0
LINE
  5
79
330
1F
100
AcDbEntity
  8
SLD-0
  6
Continuous
370
    15
100
AcDbLine
 10
75.0331588855
 20
29.7147295357
 30
0.0
 11
75.0601569736
 21
29.7147295357
 31
0.0
  0
ARC
  5
7A
330
1F
100
AcDbEntity
  8
SLD-0
  6
Continuous
370
    15
100
AcDbCircle
 10
75.0090577158
 20
29.7147287268
 30
0.0
 40
0.0241000000000042
100
AcDbArc
 50
0.0
 51
90.0
  0
LINE
  5
7B
330
1F
100
AcDbEntity
  8
SLD-0
  6
Continuous
370
    15
100
AcDbLine
 10
75.0331588855
 20
29.10234813
 30
0.0
 11
75.0331588855
 21
29.7147295357
 31
0.0
  0
LINE
  5
7C
330
1F
100
AcDbEntity
  8
SLD-0
  6
Continuous
370
    15
100
AcDbLine
 10
75.0601569736
 20
29.10234813
 30
0.0
 11
75.0601569736
 21
29.7147295357
 31
0.0
  0
LINE
  5
7D
330
1F
100
AcDbEntity
  8
SLD-0
  6
Continuous
370
    15
100
AcDbLine
 10
75.0601569736
 20
29.10234813
 30
0.0
 11
75.0331588855
 21
29.10234813
 31
0.0
  0
LINE
  5
7E
330
1F
100
AcDbEntity
  8
SLD-0
  6
Continuous
370
    15
100
AcDbLine
 10
33.4169565461
 20
29.7147295357
 30
0.0
 11
33.389958458
 21
29.7147295357
 31
0.0
  0
ARC
  5
7F
330
1F
100
AcDbEntity
  8
SLD-0
  6
Continuous
370
    15
100
AcDbCircle
 10
33.4410577158
 20
29.7147287268
 30
0.0
 40
0.0241000000000042
100
AcDbArc
 50
90.0
 51
180.0
  0
ARC
  5
80
330
1F
100
AcDbEntity
  8
SLD-0
  6
Continuous
370
    15
100
AcDbCircle
 10
33.4410577158
 20
29.7147287268
 30
0.0
 40
0.0510999999999981
100
AcDbArc
 50
90.0
 51
180.0
  0
LINE
  5
81
330
1F
100
AcDbEntity
  8
SLD-0
  6
Continuous
370
    15
100
AcDbLine
 10
33.389958458
 20
29.10234813
 30
0.0
 11
33.389958458
 21
29.7147295357
 31
0.0
  0
LINE
  5
82
330
1F
100
AcDbEntity
  8
SLD-0
  6
Continuous
370
    15
100
AcDbLine
 10
33.4169565461
 20
29.10234813
 30
0.0
 11
33.4169565461
 21
29.7147295357
 31
0.0
  0
LINE
  5
83
330
1F
100
AcDbEntity
  8
SLD-0
  6
Continuous
370
    15
100
AcDbLine
 10
33.389958458
 20
29.10234813
 30
0.0
 11
33.4169565461
 21
29.10234813
 31
0.0
  0
ARC
  5
84
330
1F
100
AcDbEntity
  8
SLD-0
  6
Continuous
370
    15
100
AcDbCircle
 10
75.0842577158
 20
29.0988287268
 30
0.0
 40
0.0241000000000007
100
AcDbArc
 50
180.0
 51
270.0
  0
LINE
  5
85
330
1F
100
AcDbEntity
  8
SLD-0
  6
Continuous
370
    15
100
AcDbLine
 10
75.0842569619
 20
29.0477277476
 30
0.0
 11
75.0842569619
 21
29.0747281824
 31
0.0
  0
ARC
  5
86
330
1F
100
AcDbEntity
  8
SLD-0
  6
Continuous
370
    15
100
AcDbCircle
 10
75.0842577158
 20
29.0988287268
 30
0.0
 40
0.0510999999999946
100
AcDbArc
 50
180.0
 51
270.0
  0
LINE
  5
87
330
1F
100
AcDbEntity
  8
SLD-0
  6
Continuous
370
    15
100
AcDbLine
 10
75.0601569736
 20
29.0988281706
 30
0.0
 11
75.0331588855
 21
29.0988281706
 31
0.0
  0
LINE
  5
88
330
1F
100
AcDbEntity
  8
SLD-0
  6
Continuous
370
    15
100
AcDbLine
 10
75.7601572072
 20
29.0747281824
 30
0.0
 11
75.0842569619
 21
29.0747281824
 31
0.0
  0
LINE
  5
89
330
1F
100
AcDbEntity
  8
SLD-0
  6
Continuous
370
    15
100
AcDbLine
 10
75.7601572072
 20
29.0477277476
 30
0.0
 11
75.7601572072
 21
29.0747281824
 31
0.0
  0
LINE
  5
8A
330
1F
100
AcDbEntity
  8
SLD-0
  6
Continuous
370
    15
100
AcDbLine
 10
75.0842569619
 20
29.0477277476
 30
0.0
 11
75.7601572072
 21
29.0477277476
 31
0.0
  0
LINE
  5
8B
330
1F
100
AcDbEntity
  8
SLD-0
  6
Continuous
370
    15
100
AcDbLine
 10
32.6899582244
 20
29.0477277476
 30
0.0
 11
32.6899582244
 21
29.0747281824
 31
0.0
  0
LINE
  5
8C
330
1F
100
AcDbEntity
  8
SLD-0
  6
Continuous
370
    15
100
AcDbLine
 10
32.6899582244
 20
29.0747281824
 30
0.0
 11
33.3658584697
 21
29.0747281824
 31
0.0
  0
LINE
  5
8D
330
1F
100
AcDbEntity
  8
SLD-0
  6
Continuous
370
    15
100
AcDbLine
 10
33.3658584697
 20
29.0477277476
 30
0.0
 11
33.3658584697
 21
29.0747281824
 31
0.0
  0
LINE
  5
8E
330
1F
100
AcDbEntity
  8
SLD-0
  6
Continuous
370
    15
100
AcDbLine
 10
33.3658584697
 20
29.0477277476
 30
0.0
 11
32.6899582244
 21
29.0477277476
 31
0.0
  0
ARC
  5
8F
330
1F
100
AcDbEntity
  8
SLD-0
  6
Continuous
370
    15
100
AcDbCircle
 10
33.3658577158
 20
29.0988287268
 30
0.0
 40
0.0241000000000007
100
AcDbArc
 50
270.0
 51
0.0
  0
LINE
  5
90
330
1F
100
AcDbEntity
  8
SLD-0
  6
Continuous
370
    15
100
AcDbLine
 10
33.389958458
 20
29.0988281706
 30
0.0
 11
33.4169565461
 21
29.0988281706
 31
0.0
  0
ARC
  5
91
330
1F
100
AcDbEntity
  8
SLD-0
  6
Continuous
370
    15
100
AcDbCircle
 10
33.3658577158
 20
29.0988287268
 30
0.0
 40
0.0510999999999981
100
AcDbArc
 50
270.0
 51
0.0
  0
LINE
  5
92
330
1F
100
AcDbEntity
  8
SLD-0
  6
Continuous
370
    15
100
AcDbLine
 10
33.389958458
 20
29.0988281706
 30
0.0
 11
33.389958458
 21
29.10234813
 31
0.0
  0
LINE
  5
93
330
1F
100
AcDbEntity
  8
SLD-0
  6
Continuous
370
    15
100
AcDbLine
 10
33.4169565461
 20
29.0988281706
 30
0.0
 11
33.4169565461
 21
29.10234813
 31
0.0
  0
LINE
  5
94
330
1F
100
AcDbEntity
  8
SLD-0
  6
Continuous
370
    15
100
AcDbLine
 10
75.0601569736
 20
29.0988281706
 30
0.0
 11
75.0601569736
 21
29.10234813
 31
0.0
  0
LINE
  5
95
330
1F
100
AcDbEntity
  8
SLD-0
  6
Continuous
370
    15
100
AcDbLine
 10
75.0331588855
 20
29.0988281706
 30
0.0
 11
75.0331588855
 21
29.10234813
 31
0.0
  0
LINE
  5
96
330
1F
100
AcDbEntity
  8
SLD-0
  6
Continuous
370
    15
100
AcDbLine
 10
75.0090565506
 20
29.7377524164
 30
0.0
 11
75.0090565506
 21
29.7147295357
 31
0.0
  0
LINE
  5
97
330
1F
100
AcDbEntity
  8
SLD-0
  6
Continuous
370
    15
100
AcDbLine
 10
33.441058881
 20
29.7377524164
 30
0.0
 11
33.441058881
 21
29.7147295357
 31
0.0
  0
LINE
  5
98
330
1F
100
AcDbEntity
  8
SLD-0
  6
Continuous
370
    15
100
AcDbLine
 10
75.0090565506
 20
29.7147295357
 30
0.0
 11
75.0090565506
 21
29.2058278946
 31
0.0
  0
LINE
  5
99
330
1F
100
AcDbEntity
  8
SLD-0
  6
Continuous
370
    15
100
AcDbLine
 10
33.441058881
 20
29.7147295357
 30
0.0
 11
33.441058881
 21
29.2058278946
 31
0.0
  0
LINE
  5
9A
330
1F
100
AcDbEntity
  8
SLD-0
  6
Continuous
370
    15
100
AcDbLine
 10
75.0090565506
 20
29.2058278946
 30
0.0
 11
75.0030585399
 21
29.2058278946
 31
0.0
  0
LINE
  5
9B
330
1F
100
AcDbEntity
  8
SLD-0
  6
Continuous
370
    15
100
AcDbLine
 10
33.4470568917
 20
29.2058278946
 30
0.0
 11
33.441058881
 21
29.2058278946
 31
0.0
  0
LINE
  5
9C
330
1F
100
AcDbEntity
  8
SLD-0
  6
Continuous
370
    15
100
AcDbLine
 10
75.2913150499
 20
8.6157037268
 30
0.0
 11
75.0070572137
 21
8.6157037268
 31
0.0
  0
LINE
  5
9D
330
1F
100
AcDbEntity
  8
SLD-0
  6
Continuous
370
    15
100
AcDbLine
 10
75.2913150499
 20
8.583703726
 30
0.0
 11
75.2913150499
 21
8.6157037268
 31
0.0
  0
LINE
  5
9E
330
1F
100
AcDbEntity
  8
SLD-0
  6
Continuous
370
    15
100
AcDbLine
 10
75.2913150499
 20
8.583703726
 30
0.0
 11
74.2903137069
 21
8.583703726
 31
0.0
  0
LINE
  5
9F
330
1F
100
AcDbEntity
  8
SLD-0
  6
Continuous
370
    15
100
AcDbLine
 10
74.2903137069
 20
8.583703726
 30
0.0
 11
74.2903137069
 21
8.6157037268
 31
0.0
  0
LINE
  5
A0
330
1F
100
AcDbEntity
  8
SLD-0
  6
Continuous
370
    15
100
AcDbLine
 10
75.32131449
 20
8.5537037267
 30
0.0
 11
75.3533156137
 21
8.5537037267
 31
0.0
  0
LINE
  5
A1
330
1F
100
AcDbEntity
  8
SLD-0
  6
Continuous
370
    15
100
AcDbLine
 10
75.32131449
 20
8.5537037267
 30
0.0
 11
75.32131449
 21
7.6777037159
 31
0.0
  0
LINE
  5
A2
330
1F
100
AcDbEntity
  8
SLD-0
  6
Continuous
370
    15
100
AcDbLine
 10
75.3533156137
 20
8.5537037267
 30
0.0
 11
75.3533156137
 21
7.6777037159
 31
0.0
  0
LINE
  5
A3
330
1F
100
AcDbEntity
  8
SLD-0
  6
Continuous
370
    15
100
AcDbLine
 10
75.3533156137
 20
7.6777037159
 30
0.0
 11
75.32131449
 21
7.6777037159
 31
0.0
  0
ARC
  5
A4
330
1F
100
AcDbEntity
  8
SLD-0
  6
Continuous
370
    15
100
AcDbCircle
 10
75.2913148712
 20
8.5537037268
 30
0.0
 40
0.0620000000000118
100
AcDbArc
 50
0.0
 51
90.0
  0
ARC
  5
A5
330
1F
100
AcDbEntity
  8
SLD-0
  6
Continuous
370
    15
100
AcDbCircle
 10
75.2913148712
 20
8.5537037268
 30
0.0
 40
0.0300000000000153
100
AcDbArc
 50
0.0
 51
90.0
  0
LINE
  5
A6
330
1F
100
AcDbEntity
  8
SLD-0
  6
Continuous
370
    15
100
AcDbLine
 10
74.2603142668
 20
8.5537037267
 30
0.0
 11
74.2283154898
 21
8.5537037267
 31
0.0
  0
ARC
  5
A7
330
1F
100
AcDbEntity
  8
SLD-0
  6
Continuous
370
    15
100
AcDbCircle
 10
74.2903148712
 20
8.5537037268
 30
0.0
 40
0.0300000000000011
100
AcDbArc
 50
90.0
 51
180.0
  0
ARC
  5
A8
330
1F
100
AcDbEntity
  8
SLD-0
  6
Continuous
370
    15
100
AcDbCircle
 10
74.2903148712
 20
8.5537037268
 30
0.0
 40
0.0619999999999994
100
AcDbArc
 50
90.0
 51
180.0
  0
LINE
  5
A9
330
1F
100
AcDbEntity
  8
SLD-0
  6
Continuous
370
    15
100
AcDbLine
 10
74.2283154898
 20
7.6777037159
 30
0.0
 11
74.2603142668
 21
7.6777037159
 31
0.0
  0
LINE
  5
AA
330
1F
100
AcDbEntity
  8
SLD-0
  6
Continuous
370
    15
100
AcDbLine
 10
74.2603142668
 20
7.6777037159
 30
0.0
 11
74.2603142668
 21
8.5537037267
 31
0.0
  0
LINE
  5
AB
330
1F
100
AcDbEntity
  8
SLD-0
  6
Continuous
370
    15
100
AcDbLine
 10
74.2283154898
 20
7.6777037159
 30
0.0
 11
74.2283154898
 21
8.5537037267
 31
0.0
  0
LINE
  5
AC
330
1F
100
AcDbEntity
  8
SLD-0
  6
Continuous
370
    15
100
AcDbLine
 10
34.1598017247
 20
8.583703726
 30
0.0
 11
34.1598017247
 21
8.6157037268
 31
0.0
  0
ARC
  5
AD
330
1F
100
AcDbEntity
  8
SLD-0
  6
Continuous
370
    15
100
AcDbCircle
 10
34.1598005604
 20
8.5537037268
 30
0.0
 40
0.0619999999999994
100
AcDbArc
 50
0.0
 51
90.0
  0
LINE
  5
AE
330
1F
100
AcDbEntity
  8
SLD-0
  6
Continuous
370
    15
100
AcDbLine
 10
34.1898011648
 20
8.5537037267
 30
0.0
 11
34.2217999418
 21
8.5537037267
 31
0.0
  0
ARC
  5
AF
330
1F
100
AcDbEntity
  8
SLD-0
  6
Continuous
370
    15
100
AcDbCircle
 10
34.1598005604
 20
8.5537037268
 30
0.0
 40
0.0300000000000011
100
AcDbArc
 50
0.0
 51
90.0
  0
LINE
  5
B0
330
1F
100
AcDbEntity
  8
SLD-0
  6
Continuous
370
    15
100
AcDbLine
 10
33.4430582179
 20
8.6157037268
 30
0.0
 11
33.1588003817
 21
8.6157037268
 31
0.0
  0
LINE
  5
B1
330
1F
100
AcDbEntity
  8
SLD-0
  6
Continuous
370
    15
100
AcDbLine
 10
34.1598017247
 20
8.583703726
 30
0.0
 11
33.1588003817
 21
8.583703726
 31
0.0
  0
LINE
  5
B2
330
1F
100
AcDbEntity
  8
SLD-0
  6
Continuous
370
    15
100
AcDbLine
 10
33.1588003817
 20
8.583703726
 30
0.0
 11
33.1588003817
 21
8.6157037268
 31
0.0
  0
LINE
  5
B3
330
1F
100
AcDbEntity
  8
SLD-0
  6
Continuous
370
    15
100
AcDbLine
 10
34.2217999418
 20
8.5537037267
 30
0.0
 11
34.2217999418
 21
7.6777037159
 31
0.0
  0
LINE
  5
B4
330
1F
100
AcDbEntity
  8
SLD-0
  6
Continuous
370
    15
100
AcDbLine
 10
34.2217999418
 20
7.6777037159
 30
0.0
 11
34.1898011648
 21
7.6777037159
 31
0.0
  0
LINE
  5
B5
330
1F
100
AcDbEntity
  8
SLD-0
  6
Continuous
370
    15
100
AcDbLine
 10
34.1898011648
 20
8.5537037267
 30
0.0
 11
34.1898011648
 21
7.6777037159
 31
0.0
  0
ARC
  5
B6
330
1F
100
AcDbEntity
  8
SLD-0
  6
Continuous
370
    15
100
AcDbCircle
 10
33.1588005604
 20
8.5537037268
 30
0.0
 40
0.0620000000000047
100
AcDbArc
 50
90.0
 51
180.0
  0
ARC
  5
B7
330
1F
100
AcDbEntity
  8
SLD-0
  6
Continuous
370
    15
100
AcDbCircle
 10
33.1588005604
 20
8.5537037268
 30
0.0
 40
0.0300000000000082
100
AcDbArc
 50
90.0
 51
180.0
  0
LINE
  5
B8
330
1F
100
AcDbEntity
  8
SLD-0
  6
Continuous
370
    15
100
AcDbLine
 10
33.1288009416
 20
8.5537037267
 30
0.0
 11
33.0967998179
 21
8.5537037267
 31
0.0
  0
LINE
  5
B9
330
1F
100
AcDbEntity
  8
SLD-0
  6
Continuous
370
    15
100
AcDbLine
 10
33.1288009416
 20
7.6777037159
 30
0.0
 11
33.1288009416
 21
8.5537037267
 31
0.0
  0
LINE
  5
BA
330
1F
100
AcDbEntity
  8
SLD-0
  6
Continuous
370
    15
100
AcDbLine
 10
33.0967998179
 20
7.6777037159
 30
0.0
 11
33.0967998179
 21
8.5537037267
 31
0.0
  0
LINE
  5
BB
330
1F
100
AcDbEntity
  8
SLD-0
  6
Continuous
370
    15
100
AcDbLine
 10
33.0967998179
 20
7.6777037159
 30
0.0
 11
33.1288009416
 21
7.6777037159
 31
0.0
  0
ARC
  5
BC
330
1F
100
AcDbEntity
  8
SLD-0
  6
Continuous
370
    15
100
AcDbCircle
 10
39.9622643098
 20
42.631024501
 30
0.0
 40
0.0720000000000091
100
AcDbArc
 50
5.75
 51
174.25
  0
LINE
  5
BD
330
1F
100
AcDbEntity
  8
SLD-0
  6
Continuous
370
    15
100
AcDbLine
 10
40.0339016532
 20
42.6382391222
 30
0.0
 11
39.9941038197
 21
42.6342310618
 31
0.0
  0
ARC
  5
BE
330
1F
100
AcDbEntity
  8
SLD-0
  6
Continuous
370
    15
100
AcDbCircle
 10
39.9622643098
 20
42.631024501
 30
0.0
 40
0.032000000000005
100
AcDbArc
 50
5.75
 51
174.25
  0
LINE
  5
BF
330
1F
100
AcDbEntity
  8
SLD-0
  6
Continuous
370
    15
100
AcDbLine
 10
39.9304254086
 20
42.6342310618
 30
0.0
 11
39.8906264017
 21
42.6382391222
 31
0.0
  0
LINE
  5
C0
330
1F
100
AcDbEntity
  8
SLD-0
  6
Continuous
370
    15
100
AcDbLine
 10
37.9734711622
 20
29.7658276121
 30
0.0
 11
37.9734711622
 21
29.80582843
 31
0.0
  0
LINE
  5
C1
330
1F
100
AcDbEntity
  8
SLD-0
  6
Continuous
370
    15
100
AcDbLine
 10
38.0734708603
 20
29.80582843
 30
0.0
 11
38.0734708603
 21
29.7658276121
 31
0.0
  0
LINE
  5
C2
330
1F
100
AcDbEntity
  8
SLD-0
  6
Continuous
370
    15
100
AcDbLine
 10
37.9734711622
 20
29.80582843
 30
0.0
 11
38.0734708603
 21
29.80582843
 31
0.0
  0
LINE
  5
C3
330
1F
100
AcDbEntity
  8
SLD-0
  6
Continuous
370
    15
100
AcDbLine
 10
38.5939496477
 20
29.7658276121
 30
0.0
 11
38.5939496477
 21
29.80582843
 31
0.0
  0
LINE
  5
C4
330
1F
100
AcDbEntity
  8
SLD-0
  6
Continuous
370
    15
100
AcDbLine
 10
38.0734708603
 20
29.80582843
 30
0.0
 11
38.5939496477
 21
29.80582843
 31
0.0
  0
LINE
  5
C5
330
1F
100
AcDbEntity
  8
SLD-0
  6
Continuous
370
    15
100
AcDbLine
 10
38.5989233502
 20
29.810326938
 30
0.0
 11
38.6387223571
 21
29.8063212243
 31
0.0
  0
LINE
  5
C6
330
1F
100
AcDbEntity
  8
SLD-0
  6
Continuous
370
    15
100
AcDbLine
 10
38.5989233502
 20
29.810326938
 30
0.0
 11
39.8906264017
 21
42.6382391222
 31
0.0
  0
LINE
  5
C7
330
1F
100
AcDbEntity
  8
SLD-0
  6
Continuous
370
    15
100
AcDbLine
 10
38.6387223571
 20
29.8063212243
 30
0.0
 11
39.9304254086
 21
42.6342310618
 31
0.0
  0
ARC
  5
C8
330
1F
100
AcDbEntity
  8
SLD-0
  6
Continuous
370
    15
100
AcDbCircle
 10
38.5939490926
 20
29.8108287268
 30
0.0
 40
0.004999999999999
100
AcDbArc
 50
270.0000000029
 51
354.25
  0
ARC
  5
C9
330
1F
100
AcDbEntity
  8
SLD-0
  6
Continuous
370
    15
100
AcDbCircle
 10
38.5939490926
 20
29.8108287268
 30
0.0
 40
0.0450000000000033
100
AcDbArc
 50
270.0000000003
 51
354.25
  0
LINE
  5
CA
330
1F
100
AcDbEntity
  8
SLD-0
  6
Continuous
370
    15
100
AcDbLine
 10
41.3305795806
 20
29.80582843
 30
0.0
 11
41.3305795806
 21
29.7658276121
 31
0.0
  0
LINE
  5
CB
330
1F
100
AcDbEntity
  8
SLD-0
  6
Continuous
370
    15
100
AcDbLine
 10
41.8510571946
 20
29.7658276121
 30
0.0
 11
41.8510571946
 21
29.80582843
 31
0.0
  0
LINE
  5
CC
330
1F
100
AcDbEntity
  8
SLD-0
  6
Continuous
370
    15
100
AcDbLine
 10
41.3305795806
 20
29.80582843
 30
0.0
 11
41.8510571946
 21
29.80582843
 31
0.0
  0
ARC
  5
CD
330
1F
100
AcDbEntity
  8
SLD-0
  6
Continuous
370
    15
100
AcDbCircle
 10
41.3305795269
 20
29.8108287268
 30
0.0
 40
0.0449999999999964
100
AcDbArc
 50
185.7500000114
 51
270.0
  0
LINE
  5
CE
330
1F
100
AcDbEntity
  8
SLD-0
  6
Continuous
370
    15
100
AcDbLine
 10
41.2858056978
 20
29.8063212243
 30
0.0
 11
41.3256047047
 21
29.810326938
 31
0.0
  0
ARC
  5
CF
330
1F
100
AcDbEntity
  8
SLD-0
  6
Continuous
370
    15
100
AcDbCircle
 10
41.3305795269
 20
29.8108287268
 30
0.0
 40
0.0050000000000048
100
AcDbArc
 50
185.7500000113
 51
270.0
  0
LINE
  5
D0
330
1F
100
AcDbEntity
  8
SLD-0
  6
Continuous
370
    15
100
AcDbLine
 10
39.9941038197
 20
42.6342310618
 30
0.0
 11
41.2858056978
 21
29.8063212243
 31
0.0
  0
LINE
  5
D1
330
1F
100
AcDbEntity
  8
SLD-0
  6
Continuous
370
    15
100
AcDbLine
 10
40.0339016532
 20
42.6382391222
 30
0.0
 11
41.3256047047
 21
29.810326938
 31
0.0
  0
LINE
  5
D2
330
1F
100
AcDbEntity
  8
SLD-0
  6
Continuous
370
    15
100
AcDbLine
 10
41.9510580661
 20
29.80582843
 30
0.0
 11
41.9510580661
 21
29.7658276121
 31
0.0
  0
LINE
  5
D3
330
1F
100
AcDbEntity
  8
SLD-0
  6
Continuous
370
    15
100
AcDbLine
 10
41.8510571946
 20
29.80582843
 30
0.0
 11
41.9510580661
 21
29.80582843
 31
0.0
  0
LINE
  5
D4
330
1F
100
AcDbEntity
  8
SLD-0
  6
Continuous
370
    15
100
AcDbLine
 10
69.8561657839
 20
29.80582843
 30
0.0
 11
69.8561657839
 21
29.7658276121
 31
0.0
  0
LINE
  5
D5
330
1F
100
AcDbEntity
  8
SLD-0
  6
Continuous
370
    15
100
AcDbLine
 10
70.3766445713
 20
29.7658276121
 30
0.0
 11
70.3766445713
 21
29.80582843
 31
0.0
  0
LINE
  5
D6
330
1F
100
AcDbEntity
  8
SLD-0
  6
Continuous
370
    15
100
AcDbLine
 10
70.3766445713
 20
29.80582843
 30
0.0
 11
69.8561657839
 21
29.80582843
 31
0.0
  0
LINE
  5
D7
330
1F
100
AcDbEntity
  8
SLD-0
  6
Continuous
370
    15
100
AcDbLine
 10
70.4766442694
 20
29.80582843
 30
0.0
 11
70.4766442694
 21
29.7658276121
 31
0.0
  0
LINE
  5
D8
330
1F
100
AcDbEntity
  8
SLD-0
  6
Continuous
370
    15
100
AcDbLine
 10
70.3766445713
 20
29.80582843
 30
0.0
 11
70.4766442694
 21
29.80582843
 31
0.0
  0
LINE
  5
D9
330
1F
100
AcDbEntity
  8
SLD-0
  6
Continuous
370
    15
100
AcDbLine
 10
69.8113930745
 20
29.8063212243
 30
0.0
 11
69.8511920814
 21
29.810326938
 31
0.0
  0
LINE
  5
DA
330
1F
100
AcDbEntity
  8
SLD-0
  6
Continuous
370
    15
100
AcDbLine
 10
69.8113930745
 20
29.8063212243
 30
0.0
 11
68.519690023
 21
42.6342310618
 31
0.0
  0
LINE
  5
DB
330
1F
100
AcDbEntity
  8
SLD-0
  6
Continuous
370
    15
100
AcDbLine
 10
68.5594890299
 20
42.6382391222
 30
0.0
 11
68.519690023
 21
42.6342310618
 31
0.0
  0
LINE
  5
DC
330
1F
100
AcDbEntity
  8
SLD-0
  6
Continuous
370
    15
100
AcDbLine
 10
69.8511920814
 20
29.810326938
 30
0.0
 11
68.5594890299
 21
42.6382391222
 31
0.0
  0
ARC
  5
DD
330
1F
100
AcDbEntity
  8
SLD-0
  6
Continuous
370
    15
100
AcDbCircle
 10
69.856166339
 20
29.8108287268
 30
0.0
 40
0.0449999999999963
100
AcDbArc
 50
185.75
 51
269.9999999997
  0
ARC
  5
DE
330
1F
100
AcDbEntity
  8
SLD-0
  6
Continuous
370
    15
100
AcDbCircle
 10
69.856166339
 20
29.8108287268
 30
0.0
 40
0.004999999999999
100
AcDbArc
 50
185.75
 51
269.9999999971
  0
LINE
  5
DF
330
1F
100
AcDbEntity
  8
SLD-0
  6
Continuous
370
    15
100
AcDbLine
 10
68.4560116119
 20
42.6342310618
 30
0.0
 11
68.4162137784
 21
42.6382391222
 31
0.0
  0
LINE
  5
E0
330
1F
100
AcDbEntity
  8
SLD-0
  6
Continuous
370
    15
100
AcDbLine
 10
67.1245107269
 20
29.810326938
 30
0.0
 11
67.1643097338
 21
29.8063212243
 31
0.0
  0
LINE
  5
E1
330
1F
100
AcDbEntity
  8
SLD-0
  6
Continuous
370
    15
100
AcDbLine
 10
68.4560116119
 20
42.6342310618
 30
0.0
 11
67.1643097338
 21
29.8063212243
 31
0.0
  0
LINE
  5
E2
330
1F
100
AcDbEntity
  8
SLD-0
  6
Continuous
370
    15
100
AcDbLine
 10
68.4162137784
 20
42.6382391222
 30
0.0
 11
67.1245107269
 21
29.810326938
 31
0.0
  0
ARC
  5
E3
330
1F
100
AcDbEntity
  8
SLD-0
  6
Continuous
370
    15
100
AcDbCircle
 10
68.4878511218
 20
42.631024501
 30
0.0
 40
0.0719999999999964
100
AcDbArc
 50
5.75
 51
174.25
  0
ARC
  5
E4
330
1F
100
AcDbEntity
  8
SLD-0
  6
Continuous
370
    15
100
AcDbCircle
 10
68.4878511218
 20
42.631024501
 30
0.0
 40
0.0320000000000121
100
AcDbArc
 50
5.75
 51
174.25
  0
ARC
  5
E5
330
1F
100
AcDbEntity
  8
SLD-0
  6
Continuous
370
    15
100
AcDbCircle
 10
67.1195359047
 20
29.8108287268
 30
0.0
 40
0.004999999999999
100
AcDbArc
 50
270.0
 51
354.2499999886
  0
ARC
  5
E6
330
1F
100
AcDbEntity
  8
SLD-0
  6
Continuous
370
    15
100
AcDbCircle
 10
67.1195359047
 20
29.8108287268
 30
0.0
 40
0.0449999999999982
100
AcDbArc
 50
270.0
 51
354.2499999987
  0
LINE
  5
E7
330
1F
100
AcDbEntity
  8
SLD-0
  6
Continuous
370
    15
100
AcDbLine
 10
67.119535851
 20
29.7658276121
 30
0.0
 11
67.119535851
 21
29.80582843
 31
0.0
  0
LINE
  5
E8
330
1F
100
AcDbEntity
  8
SLD-0
  6
Continuous
370
    15
100
AcDbLine
 10
66.599058237
 20
29.80582843
 30
0.0
 11
66.599058237
 21
29.7658276121
 31
0.0
  0
LINE
  5
E9
330
1F
100
AcDbEntity
  8
SLD-0
  6
Continuous
370
    15
100
AcDbLine
 10
67.119535851
 20
29.80582843
 30
0.0
 11
66.599058237
 21
29.80582843
 31
0.0
  0
LINE
  5
EA
330
1F
100
AcDbEntity
  8
SLD-0
  6
Continuous
370
    15
100
AcDbLine
 10
66.4990573655
 20
29.7658276121
 30
0.0
 11
66.4990573655
 21
29.80582843
 31
0.0
  0
LINE
  5
EB
330
1F
100
AcDbEntity
  8
SLD-0
  6
Continuous
370
    15
100
AcDbLine
 10
66.4990573655
 20
29.80582843
 30
0.0
 11
66.599058237
 21
29.80582843
 31
0.0
  0
LINE
  5
EC
330
1F
100
AcDbEntity
  8
SLD-0
  6
Continuous
370
    15
100
AcDbLine
 10
69.4309312296
 20
15.1097036942
 30
0.0
 11
69.4309312296
 21
17.1124537849
 31
0.0
  0
LINE
  5
ED
330
1F
100
AcDbEntity
  8
SLD-0
  6
Continuous
370
    15
100
AcDbLine
 10
69.4309312296
 20
25.1124542749
 30
0.0
 11
69.4309312296
 21
26.3246954176
 31
0.0
  0
LINE
  5
EE
330
1F
100
AcDbEntity
  8
SLD-0
  6
Continuous
370
    15
100
AcDbLine
 10
73.2779593217
 20
27.1582041889
 30
0.0
 11
73.2779593217
 21
25.1124542749
 31
0.0
  0
LINE
  5
EF
330
1F
100
AcDbEntity
  8
SLD-0
  6
Continuous
370
    15
100
AcDbLine
 10
73.2779593217
 20
17.1124537849
 30
0.0
 11
73.2779593217
 21
15.1097036942
 31
0.0
  0
LINE
  5
F0
330
1F
100
AcDbEntity
  8
SLD-0
  6
Continuous
370
    15
100
AcDbLine
 10
73.3103347344
 20
27.1582041889
 30
0.0
 11
73.3103347344
 21
25.1124542749
 31
0.0
  0
LINE
  5
F1
330
1F
100
AcDbEntity
  8
SLD-0
  6
Continuous
370
    15
100
AcDbLine
 10
73.3103347344
 20
17.1124537849
 30
0.0
 11
73.3103347344
 21
15.1097036942
 31
0.0
  0
LINE
  5
F2
330
1F
100
AcDbEntity
  8
SLD-0
  6
Continuous
370
    15
100
AcDbLine
 10
35.1721561099
 20
27.1582041889
 30
0.0
 11
35.1721561099
 21
25.1124542749
 31
0.0
  0
LINE
  5
F3
330
1F
100
AcDbEntity
  8
SLD-0
  6
Continuous
370
    15
100
AcDbLine
 10
35.1721561099
 20
17.1124537849
 30
0.0
 11
35.1721561099
 21
15.1097036942
 31
0.0
  0
LINE
  5
F4
330
1F
100
AcDbEntity
  8
SLD-0
  6
Continuous
370
    15
100
AcDbLine
 10
39.019184202
 20
15.1097036942
 30
0.0
 11
39.019184202
 21
17.1124537849
 31
0.0
  0
LINE
  5
F5
330
1F
100
AcDbEntity
  8
SLD-0
  6
Continuous
370
    15
100
AcDbLine
 10
39.019184202
 20
25.1124542749
 30
0.0
 11
39.019184202
 21
26.3246954176
 31
0.0
  0
LINE
  5
F6
330
1F
100
AcDbEntity
  8
SLD-0
  6
Continuous
370
    15
100
AcDbLine
 10
35.1397806972
 20
27.1582041889
 30
0.0
 11
35.1397806972
 21
25.1124542749
 31
0.0
  0
LINE
  5
F7
330
1F
100
AcDbEntity
  8
SLD-0
  6
Continuous
370
    15
100
AcDbLine
 10
35.1397806972
 20
17.1124537849
 30
0.0
 11
35.1397806972
 21
15.1097036942
 31
0.0
  0
LINE
  5
F8
330
1F
100
AcDbEntity
  8
SLD-0
  6
Continuous
370
    15
100
AcDbLine
 10
73.4158079693
 20
25.1124542749
 30
0.0
 11
73.386057273
 21
25.1124542749
 31
0.0
  0
LINE
  5
F9
330
1F
100
AcDbEntity
  8
SLD-0
  6
Continuous
370
    15
100
AcDbLine
 10
73.3500574755
 20
25.1124542749
 30
0.0
 11
35.1000579561
 21
25.1124542749
 31
0.0
  0
LINE
  5
FA
330
1F
100
AcDbEntity
  8
SLD-0
  6
Continuous
370
    15
100
AcDbLine
 10
35.0640581586
 20
25.1124542749
 30
0.0
 11
35.0343074623
 21
25.1124542749
 31
0.0
  0
LINE
  5
FB
330
1F
100
AcDbEntity
  8
SLD-0
  6
Continuous
370
    15
100
AcDbLine
 10
74.0400586779
 20
17.1124537849
 30
0.0
 11
74.0400586779
 21
17.4712039339
 31
0.0
  0
LINE
  5
FC
330
1F
100
AcDbEntity
  8
SLD-0
  6
Continuous
370
    15
100
AcDbLine
 10
34.4100567537
 20
17.1124537849
 30
0.0
 11
34.4773067502
 21
17.1124537849
 31
0.0
  0
LINE
  5
FD
330
1F
100
AcDbEntity
  8
SLD-0
  6
Continuous
370
    15
100
AcDbLine
 10
35.0343074623
 20
17.1124537849
 30
0.0
 11
35.0640581586
 21
17.1124537849
 31
0.0
  0
LINE
  5
FE
330
1F
100
AcDbEntity
  8
SLD-0
  6
Continuous
370
    15
100
AcDbLine
 10
35.1000579561
 20
17.1124537849
 30
0.0
 11
73.3500574755
 21
17.1124537849
 31
0.0
  0
LINE
  5
FF
330
1F
100
AcDbEntity
  8
SLD-0
  6
Continuous
370
    15
100
AcDbLine
 10
73.386057273
 20
17.1124537849
 30
0.0
 11
73.4158079693
 21
17.1124537849
 31
0.0
  0
LINE
  5
100
330
1F
100
AcDbEntity
  8
SLD-0
  6
Continuous
370
    15
100
AcDbLine
 10
73.9728086814
 20
17.1124537849
 30
0.0
 11
74.0400586779
 21
17.1124537849
 31
0.0
  0
LINE
  5
101
330
1F
100
AcDbEntity
  8
SLD-0
  6
Continuous
370
    15
100
AcDbLine
 10
34.4100567537
 20
17.4712039339
 30
0.0
 11
34.4100567537
 21
17.1124537849
 31
0.0
  0
LINE
  5
102
330
1F
100
AcDbEntity
  8
SLD-0
  6
Continuous
370
    15
100
AcDbLine
 10
33.4470568917
 20
17.1880302452
 30
0.0
 11
33.3990587262
 21
17.1880302452
 31
0.0
  0
ARC
  5
103
330
1F
100
AcDbEntity
  8
SLD-0
  6
Continuous
370
    15
100
AcDbCircle
 10
33.4520577158
 20
17.1880304272
 30
0.0
 40
0.0529999999999985
100
AcDbArc
 50
95.413312274
 51
180.0
  0
LINE
  5
104
330
1F
100
AcDbEntity
  8
SLD-0
  6
Continuous
370
    15
100
AcDbLine
 10
33.3990587262
 20
16.4874539116
 30
0.0
 11
33.4470568917
 21
16.4874539116
 31
0.0
  0
LINE
  5
105
330
1F
100
AcDbEntity
  8
SLD-0
  6
Continuous
370
    15
100
AcDbLine
 10
33.3990587262
 20
17.1880302452
 30
0.0
 11
33.3990587262
 21
16.4874539116
 31
0.0
  0
LINE
  5
106
330
1F
100
AcDbEntity
  8
SLD-0
  6
Continuous
370
    15
100
AcDbLine
 10
75.0510567054
 20
16.4874539116
 30
0.0
 11
75.0030585399
 21
16.4874539116
 31
0.0
  0
LINE
  5
107
330
1F
100
AcDbEntity
  8
SLD-0
  6
Continuous
370
    15
100
AcDbLine
 10
75.0510567054
 20
17.1880302452
 30
0.0
 11
75.0030585399
 21
17.1880302452
 31
0.0
  0
LINE
  5
108
330
1F
100
AcDbEntity
  8
SLD-0
  6
Continuous
370
    15
100
AcDbLine
 10
75.0510567054
 20
17.1880302452
 30
0.0
 11
75.0510567054
 21
16.4874539116
 31
0.0
  0
ARC
  5
109
330
1F
100
AcDbEntity
  8
SLD-0
  6
Continuous
370
    15
100
AcDbCircle
 10
74.9980577158
 20
17.1880304272
 30
0.0
 40
0.052999999999999
100
AcDbArc
 50
0.0
 51
84.5866877255
  0
LINE
  5
10A
330
1F
100
AcDbEntity
  8
SLD-0
  6
Continuous
370
    15
100
AcDbLine
 10
73.4158079693
 20
29.7062041942
 30
0.0
 11
73.4158079693
 21
8.6437037268
 31
0.0
  0
LINE
  5
10B
330
1F
100
AcDbEntity
  8
SLD-0
  6
Continuous
370
    15
100
AcDbLine
 10
73.4158079693
 20
29.7062041942
 30
0.0
 11
73.4488075881
 21
29.7062041942
 31
0.0
  0
LINE
  5
10C
330
1F
100
AcDbEntity
  8
SLD-0
  6
Continuous
370
    15
100
AcDbLine
 10
73.4488075881
 20
29.7062041942
 30
0.0
 11
73.4488075881
 21
8.6437037268
 31
0.0
  0
LINE
  5
10D
330
1F
100
AcDbEntity
  8
SLD-0
  6
Continuous
370
    15
100
AcDbLine
 10
73.4488075881
 20
8.6437037268
 30
0.0
 11
73.4158079693
 21
8.6437037268
 31
0.0
  0
LINE
  5
10E
330
1F
100
AcDbEntity
  8
SLD-0
  6
Continuous
370
    15
100
AcDbLine
 10
73.4488075881
 20
29.7062041942
 30
0.0
 11
74.9700577478
 21
29.7062041942
 31
0.0
  0
LINE
  5
10F
330
1F
100
AcDbEntity
  8
SLD-0
  6
Continuous
370
    15
100
AcDbLine
 10
74.9700577478
 20
29.7062041942
 30
0.0
 11
74.9700577478
 21
8.6437037268
 31
0.0
  0
LINE
  5
110
330
1F
100
AcDbEntity
  8
SLD-0
  6
Continuous
370
    15
100
AcDbLine
 10
73.9728086814
 20
15.9712037687
 30
0.0
 11
73.9728086814
 21
17.4712039339
 31
0.0
  0
LINE
  5
111
330
1F
100
AcDbEntity
  8
SLD-0
  6
Continuous
370
    15
100
AcDbLine
 10
74.2228079268
 20
15.9712037687
 30
0.0
 11
73.9728086814
 21
15.9712037687
 31
0.0
  0
LINE
  5
112
330
1F
100
AcDbEntity
  8
SLD-0
  6
Continuous
370
    15
100
AcDbLine
 10
74.2228079268
 20
17.4712039339
 30
0.0
 11
74.2228079268
 21
15.9712037687
 31
0.0
  0
LINE
  5
113
330
1F
100
AcDbEntity
  8
SLD-0
  6
Continuous
370
    15
100
AcDbLine
 10
73.9728086814
 20
17.4712039339
 30
0.0
 11
74.2228079268
 21
17.4712039339
 31
0.0
  0
LINE
  5
114
330
1F
100
AcDbEntity
  8
SLD-0
  6
Continuous
370
    15
100
AcDbLine
 10
73.4488075881
 20
8.6437037268
 30
0.0
 11
74.9700577478
 21
8.6437037268
 31
0.0
  0
LINE
  5
115
330
1F
100
AcDbEntity
  8
SLD-0
  6
Continuous
370
    15
100
AcDbLine
 10
75.0030585399
 20
29.7062041942
 30
0.0
 11
75.0030585399
 21
8.6437037268
 31
0.0
  0
LINE
  5
116
330
1F
100
AcDbEntity
  8
SLD-0
  6
Continuous
370
    15
100
AcDbLine
 10
75.0030585399
 20
8.6437037268
 30
0.0
 11
74.9700577478
 21
8.6437037268
 31
0.0
  0
LINE
  5
117
330
1F
100
AcDbEntity
  8
SLD-0
  6
Continuous
370
    15
100
AcDbLine
 10
74.9700577478
 20
29.7062041942
 30
0.0
 11
75.0030585399
 21
29.7062041942
 31
0.0
  0
LINE
  5
118
330
1F
100
AcDbEntity
  8
SLD-0
  6
Continuous
370
    15
100
AcDbLine
 10
73.4158079693
 20
29.7062041942
 30
0.0
 11
73.4050580135
 21
29.7062041942
 31
0.0
  0
LINE
  5
119
330
1F
100
AcDbEntity
  8
SLD-0
  6
Continuous
370
    15
100
AcDbLine
 10
35.0013078435
 20
29.7062041942
 30
0.0
 11
35.0013078435
 21
8.6437037268
 31
0.0
  0
LINE
  5
11A
330
1F
100
AcDbEntity
  8
SLD-0
  6
Continuous
370
    15
100
AcDbLine
 10
35.0343074623
 20
29.7062041942
 30
0.0
 11
35.0013078435
 21
29.7062041942
 31
0.0
  0
LINE
  5
11B
330
1F
100
AcDbEntity
  8
SLD-0
  6
Continuous
370
    15
100
AcDbLine
 10
35.0343074623
 20
29.7062041942
 30
0.0
 11
35.0343074623
 21
8.6437037268
 31
0.0
  0
LINE
  5
11C
330
1F
100
AcDbEntity
  8
SLD-0
  6
Continuous
370
    15
100
AcDbLine
 10
35.0013078435
 20
8.6437037268
 30
0.0
 11
35.0343074623
 21
8.6437037268
 31
0.0
  0
LINE
  5
11D
330
1F
100
AcDbEntity
  8
SLD-0
  6
Continuous
370
    15
100
AcDbLine
 10
33.4800576838
 20
29.7062041942
 30
0.0
 11
33.4800576838
 21
8.6437037268
 31
0.0
  0
LINE
  5
11E
330
1F
100
AcDbEntity
  8
SLD-0
  6
Continuous
370
    15
100
AcDbLine
 10
35.0013078435
 20
29.7062041942
 30
0.0
 11
33.4800576838
 21
29.7062041942
 31
0.0
  0
LINE
  5
11F
330
1F
100
AcDbEntity
  8
SLD-0
  6
Continuous
370
    15
100
AcDbLine
 10
34.4773067502
 20
15.9712037687
 30
0.0
 11
34.4773067502
 21
17.4712039339
 31
0.0
  0
LINE
  5
120
330
1F
100
AcDbEntity
  8
SLD-0
  6
Continuous
370
    15
100
AcDbLine
 10
34.2273075049
 20
17.4712039339
 30
0.0
 11
34.2273075049
 21
15.9712037687
 31
0.0
  0
LINE
  5
121
330
1F
100
AcDbEntity
  8
SLD-0
  6
Continuous
370
    15
100
AcDbLine
 10
35.0013078435
 20
8.6437037268
 30
0.0
 11
33.4800576838
 21
8.6437037268
 31
0.0
  0
LINE
  5
122
330
1F
100
AcDbEntity
  8
SLD-0
  6
Continuous
370
    15
100
AcDbLine
 10
34.2273075049
 20
15.9712037687
 30
0.0
 11
34.4773067502
 21
15.9712037687
 31
0.0
  0
LINE
  5
123
330
1F
100
AcDbEntity
  8
SLD-0
  6
Continuous
370
    15
100
AcDbLine
 10
34.4773067502
 20
17.4712039339
 30
0.0
 11
34.2273075049
 21
17.4712039339
 31
0.0
  0
LINE
  5
124
330
1F
100
AcDbEntity
  8
SLD-0
  6
Continuous
370
    15
100
AcDbLine
 10
33.4470568917
 20
29.7062041942
 30
0.0
 11
33.4470568917
 21
8.6437037268
 31
0.0
  0
LINE
  5
125
330
1F
100
AcDbEntity
  8
SLD-0
  6
Continuous
370
    15
100
AcDbLine
 10
33.4800576838
 20
29.7062041942
 30
0.0
 11
33.4470568917
 21
29.7062041942
 31
0.0
  0
LINE
  5
126
330
1F
100
AcDbEntity
  8
SLD-0
  6
Continuous
370
    15
100
AcDbLine
 10
33.4470568917
 20
8.6437037268
 30
0.0
 11
33.4800576838
 21
8.6437037268
 31
0.0
  0
LINE
  5
127
330
1F
100
AcDbEntity
  8
SLD-0
  6
Continuous
370
    15
100
AcDbLine
 10
35.0343074623
 20
29.7062041942
 30
0.0
 11
35.0450574181
 21
29.7062041942
 31
0.0
  0
LINE
  5
128
330
1F
100
AcDbEntity
  8
SLD-0
  6
Continuous
370
    15
100
AcDbLine
 10
73.386057273
 20
27.20282906
 30
0.0
 11
73.3500574755
 21
27.20282906
 31
0.0
  0
LINE
  5
129
330
1F
100
AcDbEntity
  8
SLD-0
  6
Continuous
370
    15
100
AcDbLine
 10
73.386057273
 20
15.0942035532
 30
0.0
 11
73.3500574755
 21
15.0942035532
 31
0.0
  0
LINE
  5
12A
330
1F
100
AcDbEntity
  8
SLD-0
  6
Continuous
370
    15
100
AcDbLine
 10
73.386057273
 20
27.20282906
 30
0.0
 11
73.386057273
 21
15.0942035532
 31
0.0
  0
LINE
  5
12B
330
1F
100
AcDbEntity
  8
SLD-0
  6
Continuous
370
    15
100
AcDbLine
 10
73.3500574755
 20
27.20282906
 30
0.0
 11
73.3500574755
 21
15.0942035532
 31
0.0
  0
LINE
  5
12C
330
1F
100
AcDbEntity
  8
SLD-0
  6
Continuous
370
    15
100
AcDbLine
 10
35.0640581586
 20
27.20282906
 30
0.0
 11
35.1000579561
 21
27.20282906
 31
0.0
  0
LINE
  5
12D
330
1F
100
AcDbEntity
  8
SLD-0
  6
Continuous
370
    15
100
AcDbLine
 10
35.0640581586
 20
15.0942035532
 30
0.0
 11
35.1000579561
 21
15.0942035532
 31
0.0
  0
LINE
  5
12E
330
1F
100
AcDbEntity
  8
SLD-0
  6
Continuous
370
    15
100
AcDbLine
 10
35.1000579561
 20
27.20282906
 30
0.0
 11
35.1000579561
 21
15.0942035532
 31
0.0
  0
LINE
  5
12F
330
1F
100
AcDbEntity
  8
SLD-0
  6
Continuous
370
    15
100
AcDbLine
 10
35.0640581586
 20
27.20282906
 30
0.0
 11
35.0640581586
 21
15.0942035532
 31
0.0
  0
LINE
  5
130
330
1F
100
AcDbEntity
  8
SLD-0
  6
Continuous
370
    15
100
AcDbLine
 10
35.0640581586
 20
8.6437037268
 30
0.0
 11
35.1000579561
 21
8.6437037268
 31
0.0
  0
LINE
  5
131
330
1F
100
AcDbEntity
  8
SLD-0
  6
Continuous
370
    15
100
AcDbLine
 10
35.1000579561
 20
8.6437037268
 30
0.0
 11
35.1000579561
 21
15.0942035532
 31
0.0
  0
LINE
  5
132
330
1F
100
AcDbEntity
  8
SLD-0
  6
Continuous
370
    15
100
AcDbLine
 10
35.0640581586
 20
8.6437037268
 30
0.0
 11
35.0640581586
 21
15.0942035532
 31
0.0
  0
LINE
  5
133
330
1F
100
AcDbEntity
  8
SLD-0
  6
Continuous
370
    15
100
AcDbLine
 10
73.386057273
 20
8.6437037268
 30
0.0
 11
73.3500574755
 21
8.6437037268
 31
0.0
  0
LINE
  5
134
330
1F
100
AcDbEntity
  8
SLD-0
  6
Continuous
370
    15
100
AcDbLine
 10
73.386057273
 20
8.6437037268
 30
0.0
 11
73.386057273
 21
15.0942035532
 31
0.0
  0
LINE
  5
135
330
1F
100
AcDbEntity
  8
SLD-0
  6
Continuous
370
    15
100
AcDbLine
 10
73.3500574755
 20
8.6437037268
 30
0.0
 11
73.3500574755
 21
15.0942035532
 31
0.0
  0
LINE
  5
136
330
1F
100
AcDbEntity
  8
SLD-0
  6
Continuous
370
    15
100
AcDbLine
 10
73.386057273
 20
27.20282906
 30
0.0
 11
73.386057273
 21
27.2188284485
 31
0.0
  0
LINE
  5
137
330
1F
100
AcDbEntity
  8
SLD-0
  6
Continuous
370
    15
100
AcDbLine
 10
73.3500574755
 20
27.20282906
 30
0.0
 11
73.3500574755
 21
27.2188284485
 31
0.0
  0
LINE
  5
138
330
1F
100
AcDbEntity
  8
SLD-0
  6
Continuous
370
    15
100
AcDbLine
 10
35.1000579561
 20
27.20282906
 30
0.0
 11
35.1000579561
 21
27.2188284485
 31
0.0
  0
LINE
  5
139
330
1F
100
AcDbEntity
  8
SLD-0
  6
Continuous
370
    15
100
AcDbLine
 10
35.0640581586
 20
27.20282906
 30
0.0
 11
35.0640581586
 21
27.2188284485
 31
0.0
  0
LINE
  5
13A
330
1F
100
AcDbEntity
  8
SLD-0
  6
Continuous
370
    15
100
AcDbLine
 10
67.9750572746
 20
15.7687034414
 30
0.0
 11
40.475058157
 21
15.7687034414
 31
0.0
  0
LINE
  5
13B
330
1F
100
AcDbEntity
  8
SLD-0
  6
Continuous
370
    15
100
AcDbLine
 10
40.475058157
 20
15.7687034414
 30
0.0
 11
40.475058157
 21
15.1097036942
 31
0.0
  0
LINE
  5
13C
330
1F
100
AcDbEntity
  8
SLD-0
  6
Continuous
370
    15
100
AcDbLine
 10
67.9750572746
 20
15.1097036942
 30
0.0
 11
67.9750572746
 21
15.7687034414
 31
0.0
  0
LINE
  5
13D
330
1F
100
AcDbEntity
  8
SLD-0
  6
Continuous
370
    15
100
AcDbLine
 10
35.1380582638
 20
15.1097036942
 30
0.0
 11
73.3120571678
 21
15.1097036942
 31
0.0
  0
LINE
  5
13E
330
1F
100
AcDbEntity
  8
SLD-0
  6
Continuous
370
    15
100
AcDbLine
 10
73.3120571678
 20
15.081703591
 30
0.0
 11
73.3120571678
 21
15.1097036942
 31
0.0
  0
LINE
  5
13F
330
1F
100
AcDbEntity
  8
SLD-0
  6
Continuous
370
    15
100
AcDbLine
 10
35.1380582638
 20
15.081703591
 30
0.0
 11
73.3120571678
 21
15.081703591
 31
0.0
  0
LINE
  5
140
330
1F
100
AcDbEntity
  8
SLD-0
  6
Continuous
370
    15
100
AcDbLine
 10
35.1380582638
 20
15.1097036942
 30
0.0
 11
35.1380582638
 21
15.081703591
 31
0.0
  0
LINE
  5
141
330
1F
100
AcDbEntity
  8
SLD-0
  6
Continuous
370
    15
100
AcDbLine
 10
35.1380582638
 20
15.0767034887
 30
0.0
 11
73.3120571678
 21
15.0767034887
 31
0.0
  0
LINE
  5
142
330
1F
100
AcDbEntity
  8
SLD-0
  6
Continuous
370
    15
100
AcDbLine
 10
35.1380582638
 20
15.0767034887
 30
0.0
 11
35.1380582638
 21
15.081703591
 31
0.0
  0
LINE
  5
143
330
1F
100
AcDbEntity
  8
SLD-0
  6
Continuous
370
    15
100
AcDbLine
 10
73.3120571678
 20
15.081703591
 30
0.0
 11
73.3120571678
 21
15.0767034887
 31
0.0
  0
SPLINE
  5
144
330
1F
100
AcDbEntity
  8
SLD-0
  6
Continuous
370
    15
100
AcDbSpline
210
0.0
220
0.0
230
1.0
 70
     8
 71
     3
 72
    13
 73
     9
 74
     0
 42
0.00000001
 43
0.00000001
 12
1.0
 22
0.0
 32
0.0
 13
1.0
 23
0.0
 33
0.0
 40
0.0
 40
0.0
 40
0.0
 40
0.0
 40
0.1942217279695966
 40
0.376583705957372
 40
0.5476246236763094
 40
0.7079933915820166
 40
0.858471972387825
 40
1.0
 40
1.0
 40
1.0
 40
1.0
 10
35.11768271580154
 20
8.643703726757185
 30
0.0
 10
35.11965108653546
 20
8.643709389875397
 30
0.0
 10
35.12346763349663
 20
8.643720370305168
 30
0.0
 10
35.12897101708552
 20
8.643918197968654
 30
0.0
 10
35.13407826757915
 20
8.6443990870633
 30
0.0
 10
35.1387816992135
 20
8.64530873975188
 30
0.0
 10
35.1431028177666
 20
8.646690733059353
 30
0.0
 10
35.14575608798954
 20
8.648046581966497
 30
0.0
 10
35.14704205923317
 20
8.648703726757185
 30
0.0
  0
SPLINE
  5
145
330
1F
100
AcDbEntity
  8
SLD-0
  6
Continuous
370
    15
100
AcDbSpline
210
0.0
220
0.0
230
1.0
 70
     8
 71
     3
 72
    14
 73
    10
 74
     0
 42
0.00000001
 43
0.00000001
 12
1.0
 22
0.0
 32
0.0
 13
1.0
 23
0.0
 33
0.0
 40
0.0
 40
0.0
 40
0.0
 40
0.0
 40
0.25
 40
0.25
 40
0.5
 40
0.5
 40
0.75
 40
0.75
 40
1.0
 40
1.0
 40
1.0
 40
1.0
 10
35.11768271580154
 20
8.615703726757184
 30
0.0
 10
35.12072842979602
 20
8.615703726757186
 30
0.0
 10
35.12362947148
 20
8.615862298731583
 30
0.0
 10
35.12912471354137
 20
8.617295751945612
 30
0.0
 10
35.13172183003304
 20
8.618583984827808
 30
0.0
 10
35.13661505393831
 20
8.6232430068087
 30
0.0
 10
35.13891116135192
 20
8.626645428696879
 30
0.0
 10
35.14320236710109
 20
8.636008247939982
 30
0.0
 10
35.14518832785891
 20
8.641976864872424
 30
0.0
 10
35.14704205923317
 20
8.64870372675718
 30
0.0
  0
LINE
  5
146
330
1F
100
AcDbEntity
  8
SLD-0
  6
Continuous
370
    15
100
AcDbLine
 10
35.1176823925
 20
8.6157037268
 30
0.0
 11
35.1176823925
 21
8.6437037268
 31
0.0
  0
SPLINE
  5
147
330
1F
100
AcDbEntity
  8
SLD-0
  6
Continuous
370
    15
100
AcDbSpline
210
0.0
220
0.0
230
1.0
 70
     8
 71
     3
 72
    14
 73
    10
 74
     0
 42
0.00000001
 43
0.00000001
 12
1.0
 22
0.0
 32
0.0
 13
1.0
 23
0.0
 33
0.0
 40
0.0
 40
0.0
 40
0.0
 40
0.0
 40
0.25
 40
0.25
 40
0.5
 40
0.5
 40
0.75
 40
0.75
 40
1.0
 40
1.0
 40
1.0
 40
1.0
 10
73.30307337236991
 20
8.64870372675718
 30
0.0
 10
73.30578068169379
 20
8.640937393153838
 30
0.0
 10
73.30838854130911
 20
8.634307721021498
 30
0.0
 10
73.31352287666236
 20
8.624543995278646
 30
0.0
 10
73.31602976647699
 20
8.621373866246058
 30
0.0
 10
73.32092299038226
 20
8.617406047235642
 30
0.0
 10
73.3233093244729
 20
8.616555408044347
 30
0.0
 10
73.32796143693021
 20
8.61571122446182
 30
0.0
 10
73.33022898198581
 20
8.615703726757184
 30
0.0
 10
73.33243271580154
 20
8.615703726757184
 30
0.0
  0
LINE
  5
148
330
1F
100
AcDbEntity
  8
SLD-0
  6
Continuous
370
    15
100
AcDbLine
 10
73.3324330391
 20
8.6157037268
 30
0.0
 11
35.1176823925
 21
8.6157037268
 31
0.0
  0
LINE
  5
149
330
1F
100
AcDbEntity
  8
SLD-0
  6
Continuous
370
    15
100
AcDbLine
 10
73.3030730583
 20
8.648703726
 30
0.0
 11
35.1470423733
 21
8.648703726
 31
0.0
  0
LINE
  5
14A
330
1F
100
AcDbEntity
  8
SLD-0
  6
Continuous
370
    15
100
AcDbLine
 10
73.3120571678
 20
14.7431550752
 30
0.0
 11
73.3120571678
 21
15.0767034887
 31
0.0
  0
LINE
  5
14B
330
1F
100
AcDbEntity
  8
SLD-0
  6
Continuous
370
    15
100
AcDbLine
 10
73.3170578567
 20
14.7431550752
 30
0.0
 11
73.3120571678
 21
14.7431550752
 31
0.0
  0
LINE
  5
14C
330
1F
100
AcDbEntity
  8
SLD-0
  6
Continuous
370
    15
100
AcDbLine
 10
73.3170578567
 20
8.9488521115
 30
0.0
 11
73.3170578567
 21
14.7431550752
 31
0.0
  0
LINE
  5
14D
330
1F
100
AcDbEntity
  8
SLD-0
  6
Continuous
370
    15
100
AcDbLine
 10
73.3120571678
 20
8.9488521115
 30
0.0
 11
73.3170578567
 21
8.9488521115
 31
0.0
  0
LINE
  5
14E
330
1F
100
AcDbEntity
  8
SLD-0
  6
Continuous
370
    15
100
AcDbLine
 10
73.3120571678
 20
8.6820186882
 30
0.0
 11
73.3120571678
 21
8.9488521115
 31
0.0
  0
ARC
  5
14F
330
1F
100
AcDbEntity
  8
SLD-0
  6
Continuous
370
    15
100
AcDbCircle
 10
73.3324327158
 20
8.658655056
 30
0.0
 40
0.0310000000000059
100
AcDbArc
 50
131.0910909455
 51
198.7240539076
  0
LINE
  5
150
330
1F
100
AcDbEntity
  8
SLD-0
  6
Continuous
370
    15
100
AcDbLine
 10
35.1380582638
 20
8.6834265482
 30
0.0
 11
35.1363205772
 21
8.6834265482
 31
0.0
  0
LINE
  5
151
330
1F
100
AcDbEntity
  8
SLD-0
  6
Continuous
370
    15
100
AcDbLine
 10
35.1380582638
 20
8.6834265482
 30
0.0
 11
35.1380582638
 21
8.9741054731
 31
0.0
  0
LINE
  5
152
330
1F
100
AcDbEntity
  8
SLD-0
  6
Continuous
370
    15
100
AcDbLine
 10
35.1330575749
 20
8.9741054731
 30
0.0
 11
35.1380582638
 21
8.9741054731
 31
0.0
  0
LINE
  5
153
330
1F
100
AcDbEntity
  8
SLD-0
  6
Continuous
370
    15
100
AcDbLine
 10
35.1330575749
 20
14.7579471177
 30
0.0
 11
35.1330575749
 21
8.9741054731
 31
0.0
  0
LINE
  5
154
330
1F
100
AcDbEntity
  8
SLD-0
  6
Continuous
370
    15
100
AcDbLine
 10
35.1380582638
 20
14.7579471177
 30
0.0
 11
35.1330575749
 21
14.7579471177
 31
0.0
  0
LINE
  5
155
330
1F
100
AcDbEntity
  8
SLD-0
  6
Continuous
370
    15
100
AcDbLine
 10
35.1380582638
 20
15.0767034887
 30
0.0
 11
35.1380582638
 21
14.7579471177
 31
0.0
  0
ARC
  5
156
330
1F
100
AcDbEntity
  8
SLD-0
  6
Continuous
370
    15
100
AcDbCircle
 10
35.1176827158
 20
8.658655056
 30
0.0
 40
0.0309999999999991
100
AcDbArc
 50
341.2759460924
 51
53.0423806707
  0
SPLINE
  5
157
330
1F
100
AcDbEntity
  8
SLD-0
  6
Continuous
370
    15
100
AcDbSpline
210
0.0
220
0.0
230
1.0
 70
     8
 71
     3
 72
    17
 73
    13
 74
     0
 42
0.00000001
 43
0.00000001
 12
1.0
 22
0.0
 32
0.0
 13
1.0
 23
0.0
 33
0.0
 40
0.0
 40
0.0
 40
0.0
 40
0.0
 40
0.1134536007034328
 40
0.2236541008243736
 40
0.3306840242780033
 40
0.4346343319520703
 40
0.535605123867846
 40
0.633706361729045
 40
0.7290585948881779
 40
0.8217936662224589
 40
0.9120553668042347
 40
1.0
 40
1.0
 40
1.0
 40
1.0
 10
73.30307337236991
 20
8.648703726757185
 30
0.0
 10
73.30413633437114
 20
8.648251178584687
 30
0.0
 10
73.30623177963793
 20
8.647359058334887
 30
0.0
 10
73.30937280166798
 20
8.646232121649211
 30
0.0
 10
73.31245376108487
 20
8.645340489513616
 30
0.0
 10
73.31547763158257
 20
8.644686438691288
 30
0.0
 10
73.31844367089597
 20
8.644239598587626
 30
0.0
 10
73.32135210988926
 20
8.643959966630353
 30
0.0
 10
73.32420285883634
 20
8.643803791207343
 30
0.0
 10
73.32699616069705
 20
8.643730506306744
 30
0.0
 10
73.32973126575229
 20
8.643705263841754
 30
0.0
 10
73.33154007191457
 20
8.64370423465817
 30
0.0
 10
73.33243271580154
 20
8.643703726757185
 30
0.0
  0
LINE
  5
158
330
1F
100
AcDbEntity
  8
SLD-0
  6
Continuous
370
    15
100
AcDbLine
 10
73.3324330391
 20
8.6157037268
 30
0.0
 11
73.3324330391
 21
8.6437037268
 31
0.0
  0
ELLIPSE
  5
159
330
1F
100
AcDbEntity
  8
SLD-0
  6
Continuous
370
    15
100
AcDbEllipse
 10
35.1330577158
 20
14.7525029846
 30
0.0
 11
0.03300000000000125
 21
0.0
 31
0.0
210
0.0
220
0.0
230
1.0
 40
0.1649800675
 41
1.570796326794897
 42
3.141592653589793
  0
ELLIPSE
  5
15A
330
1F
100
AcDbEntity
  8
SLD-0
  6
Continuous
370
    15
100
AcDbEllipse
 10
35.1330577158
 20
8.9783993054
 30
0.0
 11
0.03300000000000125
 21
0.0
 31
0.0
210
0.0
220
0.0
230
1.0
 40
0.1301157956
 41
3.141592653589792
 42
4.712388980384691
  0
ELLIPSE
  5
15B
330
1F
100
AcDbEntity
  8
SLD-0
  6
Continuous
370
    15
100
AcDbEllipse
 10
73.3170577158
 20
8.9538521172
 30
0.0
 11
0.03300000000000125
 21
0.0
 31
0.0
210
0.0
220
0.0
230
1.0
 40
0.1515151515
 41
4.712388980384691
 42
6.283185307179586
  0
ELLIPSE
  5
15C
330
1F
100
AcDbEntity
  8
SLD-0
  6
Continuous
370
    15
100
AcDbEllipse
 10
73.3170577158
 20
14.738155056
 30
0.0
 11
0.03300000000000125
 21
0.0
 31
0.0
210
0.0
220
0.0
230
1.0
 40
0.1515151515
 41
0.0
 42
1.570796326794466
  0
LINE
  5
15D
330
1F
100
AcDbEntity
  8
SLD-0
  6
Continuous
370
    15
100
AcDbLine
 10
73.3324330391
 20
8.6437037268
 30
0.0
 11
73.3500574755
 21
8.6437037268
 31
0.0
  0
LINE
  5
15E
330
1F
100
AcDbEntity
  8
SLD-0
  6
Continuous
370
    15
100
AcDbLine
 10
73.386057273
 20
8.6437037268
 30
0.0
 11
73.4158079693
 21
8.6437037268
 31
0.0
  0
LINE
  5
15F
330
1F
100
AcDbEntity
  8
SLD-0
  6
Continuous
370
    15
100
AcDbLine
 10
74.9070575156
 20
8.6157037268
 30
0.0
 11
74.9070575156
 21
8.6437037268
 31
0.0
  0
LINE
  5
160
330
1F
100
AcDbEntity
  8
SLD-0
  6
Continuous
370
    15
100
AcDbLine
 10
73.3324330391
 20
8.6157037268
 30
0.0
 11
74.9070575156
 21
8.6157037268
 31
0.0
  0
LINE
  5
161
330
1F
100
AcDbEntity
  8
SLD-0
  6
Continuous
370
    15
100
AcDbLine
 10
33.543057916
 20
8.6437037268
 30
0.0
 11
33.543057916
 21
8.6157037268
 31
0.0
  0
LINE
  5
162
330
1F
100
AcDbEntity
  8
SLD-0
  6
Continuous
370
    15
100
AcDbLine
 10
33.543057916
 20
8.6157037268
 30
0.0
 11
35.1176823925
 21
8.6157037268
 31
0.0
  0
LINE
  5
163
330
1F
100
AcDbEntity
  8
SLD-0
  6
Continuous
370
    15
100
AcDbLine
 10
35.0343074623
 20
8.6437037268
 30
0.0
 11
35.0640581586
 21
8.6437037268
 31
0.0
  0
LINE
  5
164
330
1F
100
AcDbEntity
  8
SLD-0
  6
Continuous
370
    15
100
AcDbLine
 10
35.1000579561
 20
8.6437037268
 30
0.0
 11
35.1176823925
 21
8.6437037268
 31
0.0
  0
LINE
  5
165
330
1F
100
AcDbEntity
  8
SLD-0
  6
Continuous
370
    15
100
AcDbLine
 10
75.0070572137
 20
8.6437037268
 30
0.0
 11
75.0070572137
 21
8.6157037268
 31
0.0
  0
LINE
  5
166
330
1F
100
AcDbEntity
  8
SLD-0
  6
Continuous
370
    15
100
AcDbLine
 10
75.0070572137
 20
8.6157037268
 30
0.0
 11
74.9070575156
 21
8.6157037268
 31
0.0
  0
LINE
  5
167
330
1F
100
AcDbEntity
  8
SLD-0
  6
Continuous
370
    15
100
AcDbLine
 10
75.0030585399
 20
8.6437037268
 30
0.0
 11
75.0070572137
 21
8.6437037268
 31
0.0
  0
LINE
  5
168
330
1F
100
AcDbEntity
  8
SLD-0
  6
Continuous
370
    15
100
AcDbLine
 10
33.4430582179
 20
8.6157037268
 30
0.0
 11
33.4430582179
 21
8.6437037268
 31
0.0
  0
LINE
  5
169
330
1F
100
AcDbEntity
  8
SLD-0
  6
Continuous
370
    15
100
AcDbLine
 10
33.543057916
 20
8.6157037268
 30
0.0
 11
33.4430582179
 21
8.6157037268
 31
0.0
  0
LINE
  5
16A
330
1F
100
AcDbEntity
  8
SLD-0
  6
Continuous
370
    15
100
AcDbLine
 10
33.4430582179
 20
8.6437037268
 30
0.0
 11
33.4470568917
 21
8.6437037268
 31
0.0
  0
LINE
  5
16B
330
1F
100
AcDbEntity
  8
SLD-0
  6
Continuous
370
    15
100
AcDbLine
 10
75.7600586483
 20
9.2737037322
 30
0.0
 11
75.4337584177
 21
9.2737037322
 31
0.0
  0
LINE
  5
16C
330
1F
100
AcDbEntity
  8
SLD-0
  6
Continuous
370
    15
100
AcDbLine
 10
75.4337584177
 20
9.301703762
 30
0.0
 11
75.4337584177
 21
9.2737037322
 31
0.0
  0
LINE
  5
16D
330
1F
100
AcDbEntity
  8
SLD-0
  6
Continuous
370
    15
100
AcDbLine
 10
75.7600586483
 20
9.301703762
 30
0.0
 11
75.4337584177
 21
9.301703762
 31
0.0
  0
LINE
  5
16E
330
1F
100
AcDbEntity
  8
SLD-0
  6
Continuous
370
    15
100
AcDbLine
 10
75.7600586483
 20
9.2737037322
 30
0.0
 11
75.7600586483
 21
9.301703762
 31
0.0
  0
LINE
  5
16F
330
1F
100
AcDbEntity
  8
SLD-0
  6
Continuous
370
    15
100
AcDbLine
 10
33.4100574258
 20
8.648703726
 30
0.0
 11
33.438057529
 21
8.648703726
 31
0.0
  0
ARC
  5
170
330
1F
100
AcDbEntity
  8
SLD-0
  6
Continuous
370
    15
100
AcDbCircle
 10
33.4430577158
 20
8.6487037268
 30
0.0
 40
0.0050000000000026
100
AcDbArc
 50
180.0
 51
270.0000000001
  0
ARC
  5
171
330
1F
100
AcDbEntity
  8
SLD-0
  6
Continuous
370
    15
100
AcDbCircle
 10
33.4430577158
 20
8.6487037268
 30
0.0
 40
0.0330000000000013
100
AcDbArc
 50
180.0
 51
270.0000000001
  0
LINE
  5
172
330
1F
100
AcDbEntity
  8
SLD-0
  6
Continuous
370
    15
100
AcDbLine
 10
33.4100574258
 20
9.2374537242
 30
0.0
 11
33.438057529
 21
9.2374537242
 31
0.0
  0
LINE
  5
173
330
1F
100
AcDbEntity
  8
SLD-0
  6
Continuous
370
    15
100
AcDbLine
 10
33.4100574258
 20
9.2374537242
 30
0.0
 11
33.4100574258
 21
8.648703726
 31
0.0
  0
LINE
  5
174
330
1F
100
AcDbEntity
  8
SLD-0
  6
Continuous
370
    15
100
AcDbLine
 10
33.438057529
 20
9.2374537242
 30
0.0
 11
33.438057529
 21
8.648703726
 31
0.0
  0
LINE
  5
175
330
1F
100
AcDbEntity
  8
SLD-0
  6
Continuous
370
    15
100
AcDbLine
 10
75.0120579026
 20
8.648703726
 30
0.0
 11
75.0400580058
 21
8.648703726
 31
0.0
  0
ARC
  5
176
330
1F
100
AcDbEntity
  8
SLD-0
  6
Continuous
370
    15
100
AcDbCircle
 10
75.0070577158
 20
8.6487037268
 30
0.0
 40
0.0330000000000013
100
AcDbArc
 50
270.0
 51
0.0
  0
ARC
  5
177
330
1F
100
AcDbEntity
  8
SLD-0
  6
Continuous
370
    15
100
AcDbCircle
 10
75.0070577158
 20
8.6487037268
 30
0.0
 40
0.0050000000000008
100
AcDbArc
 50
270.0
 51
0.0000000001
  0
LINE
  5
178
330
1F
100
AcDbEntity
  8
SLD-0
  6
Continuous
370
    15
100
AcDbLine
 10
75.0120579026
 20
9.2374537242
 30
0.0
 11
75.0400580058
 21
9.2374537242
 31
0.0
  0
LINE
  5
179
330
1F
100
AcDbEntity
  8
SLD-0
  6
Continuous
370
    15
100
AcDbLine
 10
75.0120579026
 20
8.648703726
 30
0.0
 11
75.0120579026
 21
9.2374537242
 31
0.0
  0
LINE
  5
17A
330
1F
100
AcDbEntity
  8
SLD-0
  6
Continuous
370
    15
100
AcDbLine
 10
75.0400580058
 20
8.648703726
 30
0.0
 11
75.0400580058
 21
9.2374537242
 31
0.0
  0
LINE
  5
17B
330
1F
100
AcDbEntity
  8
SLD-0
  6
Continuous
370
    15
100
AcDbLine
 10
75.0867584797
 20
9.301703762
 30
0.0
 11
75.0867584797
 21
9.2737037322
 31
0.0
  0
LINE
  5
17C
330
1F
100
AcDbEntity
  8
SLD-0
  6
Continuous
370
    15
100
AcDbLine
 10
75.4337584177
 20
9.2737037322
 30
0.0
 11
75.0867584797
 21
9.2737037322
 31
0.0
  0
LINE
  5
17D
330
1F
100
AcDbEntity
  8
SLD-0
  6
Continuous
370
    15
100
AcDbLine
 10
75.4337584177
 20
9.301703762
 30
0.0
 11
75.0867584797
 21
9.301703762
 31
0.0
  0
LINE
  5
17E
330
1F
100
AcDbEntity
  8
SLD-0
  6
Continuous
370
    15
100
AcDbLine
 10
32.6900567833
 20
9.301703762
 30
0.0
 11
32.6900567833
 21
9.2737037322
 31
0.0
  0
LINE
  5
17F
330
1F
100
AcDbEntity
  8
SLD-0
  6
Continuous
370
    15
100
AcDbLine
 10
33.3633569519
 20
9.301703762
 30
0.0
 11
32.6900567833
 21
9.301703762
 31
0.0
  0
LINE
  5
180
330
1F
100
AcDbEntity
  8
SLD-0
  6
Continuous
370
    15
100
AcDbLine
 10
33.3633569519
 20
9.2737037322
 30
0.0
 11
32.6900567833
 21
9.2737037322
 31
0.0
  0
LINE
  5
181
330
1F
100
AcDbEntity
  8
SLD-0
  6
Continuous
370
    15
100
AcDbLine
 10
33.3633569519
 20
9.301703762
 30
0.0
 11
33.3633569519
 21
9.2737037322
 31
0.0
  0
LINE
  5
182
330
1F
100
AcDbEntity
  8
SLD-0
  6
Continuous
370
    15
100
AcDbLine
 10
75.0450586947
 20
9.2737037322
 30
0.0
 11
75.0450586947
 21
9.301703762
 31
0.0
  0
LINE
  5
183
330
1F
100
AcDbEntity
  8
SLD-0
  6
Continuous
370
    15
100
AcDbLine
 10
75.0120579026
 20
9.2687037032
 30
0.0
 11
75.0400580058
 21
9.2687037032
 31
0.0
  0
ARC
  5
184
330
1F
100
AcDbEntity
  8
SLD-0
  6
Continuous
370
    15
100
AcDbCircle
 10
75.0450577158
 20
9.2687037268
 30
0.0
 40
0.0329999999999995
100
AcDbArc
 50
89.9999999998
 51
180.0
  0
ARC
  5
185
330
1F
100
AcDbEntity
  8
SLD-0
  6
Continuous
370
    15
100
AcDbCircle
 10
75.0450577158
 20
9.2687037268
 30
0.0
 40
0.0050000000001305
100
AcDbArc
 50
89.9999999985
 51
180.0
  0
LINE
  5
186
330
1F
100
AcDbEntity
  8
SLD-0
  6
Continuous
370
    15
100
AcDbLine
 10
75.0867584797
 20
9.2737037322
 30
0.0
 11
75.0450586947
 21
9.2737037322
 31
0.0
  0
LINE
  5
187
330
1F
100
AcDbEntity
  8
SLD-0
  6
Continuous
370
    15
100
AcDbLine
 10
75.0867584797
 20
9.301703762
 30
0.0
 11
75.0450586947
 21
9.301703762
 31
0.0
  0
LINE
  5
188
330
1F
100
AcDbEntity
  8
SLD-0
  6
Continuous
370
    15
100
AcDbLine
 10
75.0120579026
 20
9.2687037032
 30
0.0
 11
75.0120579026
 21
9.2374537242
 31
0.0
  0
LINE
  5
189
330
1F
100
AcDbEntity
  8
SLD-0
  6
Continuous
370
    15
100
AcDbLine
 10
75.0400580058
 20
9.2687037032
 30
0.0
 11
75.0400580058
 21
9.2374537242
 31
0.0
  0
LINE
  5
18A
330
1F
100
AcDbEntity
  8
SLD-0
  6
Continuous
370
    15
100
AcDbLine
 10
33.4050567369
 20
9.301703762
 30
0.0
 11
33.4050567369
 21
9.2737037322
 31
0.0
  0
LINE
  5
18B
330
1F
100
AcDbEntity
  8
SLD-0
  6
Continuous
370
    15
100
AcDbLine
 10
33.4050567369
 20
9.301703762
 30
0.0
 11
33.3633569519
 21
9.301703762
 31
0.0
  0
LINE
  5
18C
330
1F
100
AcDbEntity
  8
SLD-0
  6
Continuous
370
    15
100
AcDbLine
 10
33.3633569519
 20
9.2737037322
 30
0.0
 11
33.4050567369
 21
9.2737037322
 31
0.0
  0
ARC
  5
18D
330
1F
100
AcDbEntity
  8
SLD-0
  6
Continuous
370
    15
100
AcDbCircle
 10
33.4050577158
 20
9.2687037268
 30
0.0
 40
0.0330000000000013
100
AcDbArc
 50
0.0
 51
90.0
  0
LINE
  5
18E
330
1F
100
AcDbEntity
  8
SLD-0
  6
Continuous
370
    15
100
AcDbLine
 10
33.4100574258
 20
9.2687037032
 30
0.0
 11
33.438057529
 21
9.2687037032
 31
0.0
  0
ARC
  5
18F
330
1F
100
AcDbEntity
  8
SLD-0
  6
Continuous
370
    15
100
AcDbCircle
 10
33.4050577158
 20
9.2687037268
 30
0.0
 40
0.004999999999999
100
AcDbArc
 50
0.0
 51
90.0000000001
  0
LINE
  5
190
330
1F
100
AcDbEntity
  8
SLD-0
  6
Continuous
370
    15
100
AcDbLine
 10
33.4100574258
 20
9.2374537242
 30
0.0
 11
33.4100574258
 21
9.2687037032
 31
0.0
  0
LINE
  5
191
330
1F
100
AcDbEntity
  8
SLD-0
  6
Continuous
370
    15
100
AcDbLine
 10
33.438057529
 20
9.2374537242
 30
0.0
 11
33.438057529
 21
9.2687037032
 31
0.0
  0
LINE
  5
192
330
1F
100
AcDbEntity
  8
SLD-0
  6
Continuous
370
    15
100
AcDbLine
 10
38.9700573029
 20
26.334563037
 30
0.0
 11
35.517134418
 21
27.0822669328
 31
0.0
  0
LINE
  5
193
330
1F
100
AcDbEntity
  8
SLD-0
  6
Continuous
370
    15
100
AcDbLine
 10
69.4800581287
 20
26.334563037
 30
0.0
 11
72.9329810136
 21
27.0822669328
 31
0.0
  0
LINE
  5
194
330
1F
100
AcDbEntity
  8
SLD-0
  6
Continuous
370
    15
100
AcDbLine
 10
69.4538168319
 20
26.3249582413
 30
0.0
 11
38.9962985997
 21
26.3249582413
 31
0.0
  0
LINE
  5
195
330
1F
100
AcDbEntity
  8
SLD-0
  6
Continuous
370
    15
100
AcDbLine
 10
75.0090565506
 20
29.7147295357
 30
0.0
 11
73.4050580135
 21
29.7147295357
 31
0.0
  0
LINE
  5
196
330
1F
100
AcDbEntity
  8
SLD-0
  6
Continuous
370
    15
100
AcDbLine
 10
35.0450574181
 20
29.7147295357
 30
0.0
 11
33.441058881
 21
29.7147295357
 31
0.0
  0
LINE
  5
197
330
1F
100
AcDbEntity
  8
SLD-0
  6
Continuous
370
    15
100
AcDbLine
 10
35.1004216852
 20
27.2188284485
 30
0.0
 11
35.1004216852
 21
25.1124542749
 31
0.0
  0
LINE
  5
198
330
1F
100
AcDbEntity
  8
SLD-0
  6
Continuous
370
    15
100
AcDbLine
 10
35.1004216852
 20
17.1124537849
 30
0.0
 11
35.1004216852
 21
14.7533095713
 31
0.0
  0
LINE
  5
199
330
1F
100
AcDbEntity
  8
SLD-0
  6
Continuous
370
    15
100
AcDbLine
 10
35.1004216852
 20
8.9777632609
 30
0.0
 11
35.1004216852
 21
8.6437037268
 31
0.0
  0
LINE
  5
19A
330
1F
100
AcDbEntity
  8
SLD-0
  6
Continuous
370
    15
100
AcDbLine
 10
73.3496937464
 20
27.2188284485
 30
0.0
 11
73.3496937464
 21
25.1124542749
 31
0.0
  0
LINE
  5
19B
330
1F
100
AcDbEntity
  8
SLD-0
  6
Continuous
370
    15
100
AcDbLine
 10
73.3496937464
 20
17.1124537849
 30
0.0
 11
73.3496937464
 21
14.7388959245
 31
0.0
  0
LINE
  5
19C
330
1F
100
AcDbEntity
  8
SLD-0
  6
Continuous
370
    15
100
AcDbLine
 10
73.3496937464
 20
8.9531114457
 30
0.0
 11
73.3496937464
 21
8.6437037268
 31
0.0
  0
DIMENSION
  5
19D
330
1F
100
AcDbEntity
  8
DIM
100
AcDbDimension
  2
_D
 10
73.3500577158
 20
21.1342662268
 30
0.0
 11
54.2250577158
 21
21.1342662268
 31
0.0
 70
   160
  1
<>
 71
     2
 42
-1.0
  3
SLDDIMSTYLE0
100
AcDbAlignedDimension
 13
35.1000577158
 23
29.2062037268
 33
0.0
 14
73.3500577158
 24
29.2062037268
 34
0.0
 50
0.0
100
AcDbRotatedDimension
  0
DIMENSION
  5
1AB
330
1F
100
AcDbEntity
  8
DIM
100
AcDbDimension
  2
_D_1
 10
28.6899567315
 20
15.1097037268
 30
0.0
 11
28.6899567315
 21
21.1342662268
 31
0.0
 70
   160
  1
<>
 71
     2
 42
-1.0
  3
SLDDIMSTYLE0
100
AcDbAlignedDimension
 13
35.1200577158
 23
27.1588287268
 33
0.0
 14
35.1380577158
 24
15.1097037268
 34
0.0
 50
90.0
100
AcDbRotatedDimension
  0
DIMENSION
  5
1BA
330
1F
100
AcDbEntity
  8
DIM
100
AcDbDimension
  2
_D_2
 10
75.7600577158
 20
3.7294989397
 30
0.0
 11
53.05553465
 21
3.7294989397
 31
0.0
 70
   160
  1
<>
 71
     2
 42
-1.0
  3
SLDDIMSTYLE0
100
AcDbAlignedDimension
 13
32.6900577158
 23
9.2737037268
 33
0.0
 14
75.7600577158
 24
9.2737037268
 34
0.0
 50
0.0
100
AcDbRotatedDimension
  0
DIMENSION
  5
1C9
330
1F
100
AcDbEntity
  8
DIM
100
AcDbDimension
  2
_D_3
 10
80.4482837001
 20
42.703024501
 30
0.0
 11
80.4482837001
 21
25.1903641139
 31
0.0
 70
   160
  1
<>
 71
     2
 42
-1.0
  3
SLDDIMSTYLE0
100
AcDbAlignedDimension
 13
75.3533148712
 23
7.6777037268
 33
0.0
 14
68.4878511218
 24
42.703024501
 34
0.0
 50
90.0
100
AcDbRotatedDimension
  0
DIMENSION
  5
1D4
330
1F
100
AcDbEntity
  8
DIM
100
AcDbDimension
  2
_D_4
 10
28.6899567315
 20
15.1097037268
 30
0.0
 11
28.6899567315
 21
11.3937037268
 31
0.0
 70
   160
  1
<>
 71
     2
 42
-1.0
  3
SLDDIMSTYLE0
100
AcDbAlignedDimension
 13
33.0968005604
 23
7.6777037268
 33
0.0
 14
35.1380577158
 24
15.1097037268
 34
0.0
 50
90.0
100
AcDbRotatedDimension
  0
LINE
  5
1E3
330
1F
100
AcDbEntity
  8
SLD-0
  6
Continuous
370
    15
100
AcDbLine
 10
33.4169565461
 20
61.1214657212
 30
0.0
 11
33.4169565461
 21
61.1527675462
 31
0.0
  0
LINE
  5
1E4
330
1F
100
AcDbEntity
  8
SLD-0
  6
Continuous
370
    15
100
AcDbLine
 10
33.441058881
 20
61.1527675462
 30
0.0
 11
33.4169565461
 21
61.1527675462
 31
0.0
  0
LINE
  5
1E5
330
1F
100
AcDbEntity
  8
SLD-0
  6
Continuous
370
    15
100
AcDbLine
 10
33.441058881
 20
50.2671673041
 30
0.0
 11
33.441058881
 21
61.1527675462
 31
0.0
  0
LINE
  5
1E6
330
1F
100
AcDbEntity
  8
SLD-0
  6
Continuous
370
    15
100
AcDbLine
 10
33.389958458
 20
50.2671673041
 30
0.0
 11
33.441058881
 21
50.2671673041
 31
0.0
  0
LINE
  5
1E7
330
1F
100
AcDbEntity
  8
SLD-0
  6
Continuous
370
    15
100
AcDbLine
 10
33.389958458
 20
61.0764055484
 30
0.0
 11
33.389958458
 21
50.2671673041
 31
0.0
  0
ARC
  5
1E8
330
1F
100
AcDbEntity
  8
SLD-0
  6
Continuous
370
    15
100
AcDbCircle
 10
33.4410577158
 20
61.0764054304
 30
0.0
 40
0.0511000000000016
100
AcDbArc
 50
118.139782917
 51
180.0
  0
LINE
  5
1E9
330
1F
100
AcDbEntity
  8
SLD-0
  6
Continuous
370
    15
100
AcDbLine
 10
75.0090565506
 20
50.2671673041
 30
0.0
 11
75.0090565506
 21
61.1527675462
 31
0.0
  0
LINE
  5
1EA
330
1F
100
AcDbEntity
  8
SLD-0
  6
Continuous
370
    15
100
AcDbLine
 10
75.0090565506
 20
50.2671673041
 30
0.0
 11
33.441058881
 21
50.2671673041
 31
0.0
  0
LINE
  5
1EB
330
1F
100
AcDbEntity
  8
SLD-0
  6
Continuous
370
    15
100
AcDbLine
 10
75.0090565506
 20
61.1527675462
 30
0.0
 11
33.441058881
 21
61.1527675462
 31
0.0
  0
LINE
  5
1EC
330
1F
100
AcDbEntity
  8
SLD-0
  6
Continuous
370
    15
100
AcDbLine
 10
75.0601569736
 20
61.0764055484
 30
0.0
 11
75.0601569736
 21
50.2671673041
 31
0.0
  0
LINE
  5
1ED
330
1F
100
AcDbEntity
  8
SLD-0
  6
Continuous
370
    15
100
AcDbLine
 10
75.0601569736
 20
50.2671673041
 30
0.0
 11
75.0090565506
 21
50.2671673041
 31
0.0
  0
LINE
  5
1EE
330
1F
100
AcDbEntity
  8
SLD-0
  6
Continuous
370
    15
100
AcDbLine
 10
75.0331588855
 20
61.1214657212
 30
0.0
 11
75.0331588855
 21
61.1527675462
 31
0.0
  0
ARC
  5
1EF
330
1F
100
AcDbEntity
  8
SLD-0
  6
Continuous
370
    15
100
AcDbCircle
 10
75.0090577158
 20
61.0764054304
 30
0.0
 40
0.0511000000000053
100
AcDbArc
 50
0.0
 51
61.860217083
  0
LINE
  5
1F0
330
1F
100
AcDbEntity
  8
SLD-0
  6
Continuous
370
    15
100
AcDbLine
 10
75.0090565506
 20
61.1527675462
 30
0.0
 11
75.0331588855
 21
61.1527675462
 31
0.0
  0
LINE
  5
1F1
330
1F
100
AcDbEntity
  8
SLD-0
  6
Continuous
370
    15
100
AcDbLine
 10
33.441058881
 20
61.1527675462
 30
0.0
 11
33.441058881
 21
61.2038667959
 31
0.0
  0
LINE
  5
1F2
330
1F
100
AcDbEntity
  8
SLD-0
  6
Continuous
370
    15
100
AcDbLine
 10
75.0090565506
 20
61.2038667959
 30
0.0
 11
33.441058881
 21
61.2038667959
 31
0.0
  0
LINE
  5
1F3
330
1F
100
AcDbEntity
  8
SLD-0
  6
Continuous
370
    15
100
AcDbLine
 10
75.0090565506
 20
61.1527675462
 30
0.0
 11
75.0090565506
 21
61.2038667959
 31
0.0
  0
LINE
  5
1F4
330
1F
100
AcDbEntity
  8
SLD-0
  6
Continuous
370
    15
100
AcDbLine
 10
73.4050580135
 20
50.216067305
 30
0.0
 11
35.0450574181
 21
50.216067305
 31
0.0
  0
LINE
  5
1F5
330
1F
100
AcDbEntity
  8
SLD-0
  6
Continuous
370
    15
100
AcDbLine
 10
35.0450574181
 20
50.2520673041
 30
0.0
 11
35.0450574181
 21
50.216067305
 31
0.0
  0
LINE
  5
1F6
330
1F
100
AcDbEntity
  8
SLD-0
  6
Continuous
370
    15
100
AcDbLine
 10
35.0450574181
 20
50.2520673041
 30
0.0
 11
33.441058881
 21
50.2520673041
 31
0.0
  0
LINE
  5
1F7
330
1F
100
AcDbEntity
  8
SLD-0
  6
Continuous
370
    15
100
AcDbLine
 10
73.4050580135
 20
50.2520673041
 30
0.0
 11
75.0090565506
 21
50.2520673041
 31
0.0
  0
LINE
  5
1F8
330
1F
100
AcDbEntity
  8
SLD-0
  6
Continuous
370
    15
100
AcDbLine
 10
73.4050580135
 20
50.2520673041
 30
0.0
 11
73.4050580135
 21
50.216067305
 31
0.0
  0
LINE
  5
1F9
330
1F
100
AcDbEntity
  8
SLD-0
  6
Continuous
370
    15
100
AcDbLine
 10
33.441058881
 20
50.2520673041
 30
0.0
 11
33.441058881
 21
50.2671673041
 31
0.0
  0
LINE
  5
1FA
330
1F
100
AcDbEntity
  8
SLD-0
  6
Continuous
370
    15
100
AcDbLine
 10
75.0090565506
 20
50.2520673041
 30
0.0
 11
75.0090565506
 21
50.2671673041
 31
0.0
  0
LINE
  5
1FB
330
1F
100
AcDbEntity
  8
SLD-0
  6
Continuous
370
    15
100
AcDbLine
 10
75.0842569619
 20
60.1171673496
 30
0.0
 11
75.0842569619
 21
60.4099258876
 31
0.0
  0
LINE
  5
1FC
330
1F
100
AcDbEntity
  8
SLD-0
  6
Continuous
370
    15
100
AcDbLine
 10
75.0601569736
 20
60.1171673496
 30
0.0
 11
75.0842569619
 21
60.1171673496
 31
0.0
  0
SPLINE
  5
1FD
330
1F
100
AcDbEntity
  8
SLD-0
  6
Continuous
370
    15
100
AcDbSpline
210
0.0
220
0.0
230
1.0
 70
     8
 71
     3
 72
    11
 73
     7
 74
     0
 42
0.00000001
 43
0.00000001
 12
1.0
 22
0.0
 32
0.0
 13
1.0
 23
0.0
 33
0.0
 40
0.0
 40
0.0
 40
0.0
 40
0.0
 40
0.249998785837052
 40
0.5000000000000001
 40
0.7500012141629481
 40
1.0
 40
1.0
 40
1.0
 40
1.0
 10
75.0842569618852
 20
60.40992588758906
 30
0.0
 10
75.08109918840104
 20
60.41414085357717
 30
0.0
 10
75.07478361076018
 20
60.42257082649482
 30
0.0
 10
75.06681640796593
 20
60.43521562210655
 30
0.0
 10
75.06124474210615
 20
60.4478604177183
 30
0.0
 10
75.06051956194383
 20
60.45629039063595
 30
0.0
 10
75.06015697362366
 20
60.46050535662405
 30
0.0
  0
LINE
  5
1FE
330
1F
100
AcDbEntity
  8
SLD-0
  6
Continuous
370
    15
100
AcDbLine
 10
33.389958458
 20
60.1171673496
 30
0.0
 11
33.3658584697
 21
60.1171673496
 31
0.0
  0
LINE
  5
1FF
330
1F
100
AcDbEntity
  8
SLD-0
  6
Continuous
370
    15
100
AcDbLine
 10
33.3658584697
 20
60.1171673496
 30
0.0
 11
33.3658584697
 21
60.4099258876
 31
0.0
  0
SPLINE
  5
200
330
1F
100
AcDbEntity
  8
SLD-0
  6
Continuous
370
    15
100
AcDbSpline
210
0.0
220
0.0
230
1.0
 70
     8
 71
     3
 72
    11
 73
     7
 74
     0
 42
0.00000001
 43
0.00000001
 12
1.0
 22
0.0
 32
0.0
 13
1.0
 23
0.0
 33
0.0
 40
0.0
 40
0.0
 40
0.0
 40
0.0
 40
0.249998785837052
 40
0.5000000000000001
 40
0.7500012141629481
 40
1.0
 40
1.0
 40
1.0
 40
1.0
 10
33.36585846971789
 20
60.40992588758906
 30
0.0
 10
33.36901624320204
 20
60.41414085357717
 30
0.0
 10
33.37533182084291
 20
60.42257082649482
 30
0.0
 10
33.38329902363715
 20
60.43521562210655
 30
0.0
 10
33.38887068949693
 20
60.4478604177183
 30
0.0
 10
33.38959586965925
 20
60.45629039063595
 30
0.0
 10
33.38995845797943
 20
60.46050535662405
 30
0.0
  0
LINE
  5
201
330
1F
100
AcDbEntity
  8
SLD-0
  6
Continuous
370
    15
100
AcDbLine
 10
33.3658584697
 20
58.1671673695
 30
0.0
 11
33.3658584697
 21
58.3171675033
 31
0.0
  0
LINE
  5
202
330
1F
100
AcDbEntity
  8
SLD-0
  6
Continuous
370
    15
100
AcDbLine
 10
33.3658584697
 20
58.3171675033
 30
0.0
 11
33.389958458
 21
58.3171675033
 31
0.0
  0
LINE
  5
203
330
1F
100
AcDbEntity
  8
SLD-0
  6
Continuous
370
    15
100
AcDbLine
 10
33.389958458
 20
58.1671673695
 30
0.0
 11
33.3658584697
 21
58.1671673695
 31
0.0
  0
LINE
  5
204
330
1F
100
AcDbEntity
  8
SLD-0
  6
Continuous
370
    15
100
AcDbLine
 10
75.0842569619
 20
58.1671673695
 30
0.0
 11
75.0842569619
 21
58.3171675033
 31
0.0
  0
LINE
  5
205
330
1F
100
AcDbEntity
  8
SLD-0
  6
Continuous
370
    15
100
AcDbLine
 10
75.0842569619
 20
58.3171675033
 30
0.0
 11
75.0601569736
 21
58.3171675033
 31
0.0
  0
LINE
  5
206
330
1F
100
AcDbEntity
  8
SLD-0
  6
Continuous
370
    15
100
AcDbLine
 10
75.0601569736
 20
58.1671673695
 30
0.0
 11
75.0842569619
 21
58.1671673695
 31
0.0
  0
LINE
  5
207
330
1F
100
AcDbEntity
  8
SLD-0
  6
Continuous
370
    15
100
AcDbLine
 10
33.3658584697
 20
56.2171673894
 30
0.0
 11
33.3658584697
 21
56.3671675232
 31
0.0
  0
LINE
  5
208
330
1F
100
AcDbEntity
  8
SLD-0
  6
Continuous
370
    15
100
AcDbLine
 10
33.389958458
 20
56.2171673894
 30
0.0
 11
33.3658584697
 21
56.2171673894
 31
0.0
  0
LINE
  5
209
330
1F
100
AcDbEntity
  8
SLD-0
  6
Continuous
370
    15
100
AcDbLine
 10
33.3658584697
 20
56.3671675232
 30
0.0
 11
33.389958458
 21
56.3671675232
 31
0.0
  0
LINE
  5
20A
330
1F
100
AcDbEntity
  8
SLD-0
  6
Continuous
370
    15
100
AcDbLine
 10
75.0842569619
 20
56.2171673894
 30
0.0
 11
75.0842569619
 21
56.3671675232
 31
0.0
  0
LINE
  5
20B
330
1F
100
AcDbEntity
  8
SLD-0
  6
Continuous
370
    15
100
AcDbLine
 10
75.0842569619
 20
56.3671675232
 30
0.0
 11
75.0601569736
 21
56.3671675232
 31
0.0
  0
LINE
  5
20C
330
1F
100
AcDbEntity
  8
SLD-0
  6
Continuous
370
    15
100
AcDbLine
 10
75.0601569736
 20
56.2171673894
 30
0.0
 11
75.0842569619
 21
56.2171673894
 31
0.0
  0
LINE
  5
20D
330
1F
100
AcDbEntity
  8
SLD-0
  6
Continuous
370
    15
100
AcDbLine
 10
75.0842569619
 20
54.4171672498
 30
0.0
 11
75.0601569736
 21
54.4171672498
 31
0.0
  0
LINE
  5
20E
330
1F
100
AcDbEntity
  8
SLD-0
  6
Continuous
370
    15
100
AcDbLine
 10
75.0842569619
 20
54.2671674093
 30
0.0
 11
75.0842569619
 21
54.4171672498
 31
0.0
  0
LINE
  5
20F
330
1F
100
AcDbEntity
  8
SLD-0
  6
Continuous
370
    15
100
AcDbLine
 10
75.0601569736
 20
54.2671674093
 30
0.0
 11
75.0842569619
 21
54.2671674093
 31
0.0
  0
LINE
  5
210
330
1F
100
AcDbEntity
  8
SLD-0
  6
Continuous
370
    15
100
AcDbLine
 10
33.3658584697
 20
54.2671674093
 30
0.0
 11
33.3658584697
 21
54.4171672498
 31
0.0
  0
LINE
  5
211
330
1F
100
AcDbEntity
  8
SLD-0
  6
Continuous
370
    15
100
AcDbLine
 10
33.3658584697
 20
54.4171672498
 30
0.0
 11
33.389958458
 21
54.4171672498
 31
0.0
  0
LINE
  5
212
330
1F
100
AcDbEntity
  8
SLD-0
  6
Continuous
370
    15
100
AcDbLine
 10
33.389958458
 20
54.2671674093
 30
0.0
 11
33.3658584697
 21
54.2671674093
 31
0.0
  0
LINE
  5
213
330
1F
100
AcDbEntity
  8
SLD-0
  6
Continuous
370
    15
100
AcDbLine
 10
33.3658584697
 20
52.3171672825
 30
0.0
 11
33.3658584697
 21
52.4671672697
 31
0.0
  0
LINE
  5
214
330
1F
100
AcDbEntity
  8
SLD-0
  6
Continuous
370
    15
100
AcDbLine
 10
33.3658584697
 20
52.4671672697
 30
0.0
 11
33.389958458
 21
52.4671672697
 31
0.0
  0
LINE
  5
215
330
1F
100
AcDbEntity
  8
SLD-0
  6
Continuous
370
    15
100
AcDbLine
 10
33.389958458
 20
52.3171672825
 30
0.0
 11
33.3658584697
 21
52.3171672825
 31
0.0
  0
LINE
  5
216
330
1F
100
AcDbEntity
  8
SLD-0
  6
Continuous
370
    15
100
AcDbLine
 10
75.0842569619
 20
52.3171672825
 30
0.0
 11
75.0842569619
 21
52.4671672697
 31
0.0
  0
LINE
  5
217
330
1F
100
AcDbEntity
  8
SLD-0
  6
Continuous
370
    15
100
AcDbLine
 10
75.0601569736
 20
52.3171672825
 30
0.0
 11
75.0842569619
 21
52.3171672825
 31
0.0
  0
LINE
  5
218
330
1F
100
AcDbEntity
  8
SLD-0
  6
Continuous
370
    15
100
AcDbLine
 10
75.0842569619
 20
52.4671672697
 30
0.0
 11
75.0601569736
 21
52.4671672697
 31
0.0
  0
LINE
  5
219
330
1F
100
AcDbEntity
  8
SLD-0
  6
Continuous
370
    15
100
AcDbLine
 10
75.0842569619
 20
50.8921673309
 30
0.0
 11
75.0842569619
 21
51.0791672973
 31
0.0
  0
LINE
  5
21A
330
1F
100
AcDbEntity
  8
SLD-0
  6
Continuous
370
    15
100
AcDbLine
 10
75.0601569736
 20
50.8921673309
 30
0.0
 11
75.0842569619
 21
50.8921673309
 31
0.0
  0
LINE
  5
21B
330
1F
100
AcDbEntity
  8
SLD-0
  6
Continuous
370
    15
100
AcDbLine
 10
75.0842569619
 20
51.0791672973
 30
0.0
 11
75.0601569736
 21
51.0791672973
 31
0.0
  0
LINE
  5
21C
330
1F
100
AcDbEntity
  8
SLD-0
  6
Continuous
370
    15
100
AcDbLine
 10
33.3658584697
 20
50.8921673309
 30
0.0
 11
33.3658584697
 21
51.0791672973
 31
0.0
  0
LINE
  5
21D
330
1F
100
AcDbEntity
  8
SLD-0
  6
Continuous
370
    15
100
AcDbLine
 10
33.3658584697
 20
51.0791672973
 30
0.0
 11
33.389958458
 21
51.0791672973
 31
0.0
  0
LINE
  5
21E
330
1F
100
AcDbEntity
  8
SLD-0
  6
Continuous
370
    15
100
AcDbLine
 10
33.389958458
 20
50.8921673309
 30
0.0
 11
33.3658584697
 21
50.8921673309
 31
0.0
  0
LINE
  5
21F
330
1F
100
AcDbEntity
  8
SLD-0
  6
Continuous
370
    15
100
AcDbLine
 10
33.3658584697
 20
58.3171675033
 30
0.0
 11
33.3609586863
 21
58.3171675033
 31
0.0
  0
LINE
  5
220
330
1F
100
AcDbEntity
  8
SLD-0
  6
Continuous
370
    15
100
AcDbLine
 10
33.3609586863
 20
58.1671673695
 30
0.0
 11
33.3658584697
 21
58.1671673695
 31
0.0
  0
LINE
  5
221
330
1F
100
AcDbEntity
  8
SLD-0
  6
Continuous
370
    15
100
AcDbLine
 10
33.3609586863
 20
56.3671675232
 30
0.0
 11
33.3609586863
 21
58.1671673695
 31
0.0
  0
LINE
  5
222
330
1F
100
AcDbEntity
  8
SLD-0
  6
Continuous
370
    15
100
AcDbLine
 10
33.3658584697
 20
56.3671675232
 30
0.0
 11
33.3609586863
 21
56.3671675232
 31
0.0
  0
LINE
  5
223
330
1F
100
AcDbEntity
  8
SLD-0
  6
Continuous
370
    15
100
AcDbLine
 10
33.3609586863
 20
56.2171673894
 30
0.0
 11
33.3658584697
 21
56.2171673894
 31
0.0
  0
LINE
  5
224
330
1F
100
AcDbEntity
  8
SLD-0
  6
Continuous
370
    15
100
AcDbLine
 10
33.3609586863
 20
54.4171672498
 30
0.0
 11
33.3609586863
 21
56.2171673894
 31
0.0
  0
LINE
  5
225
330
1F
100
AcDbEntity
  8
SLD-0
  6
Continuous
370
    15
100
AcDbLine
 10
33.3658584697
 20
54.4171672498
 30
0.0
 11
33.3609586863
 21
54.4171672498
 31
0.0
  0
LINE
  5
226
330
1F
100
AcDbEntity
  8
SLD-0
  6
Continuous
370
    15
100
AcDbLine
 10
33.3609586863
 20
54.2671674093
 30
0.0
 11
33.3658584697
 21
54.2671674093
 31
0.0
  0
LINE
  5
227
330
1F
100
AcDbEntity
  8
SLD-0
  6
Continuous
370
    15
100
AcDbLine
 10
33.3609586863
 20
52.4671672697
 30
0.0
 11
33.3609586863
 21
54.2671674093
 31
0.0
  0
LINE
  5
228
330
1F
100
AcDbEntity
  8
SLD-0
  6
Continuous
370
    15
100
AcDbLine
 10
33.3658584697
 20
52.4671672697
 30
0.0
 11
33.3609586863
 21
52.4671672697
 31
0.0
  0
LINE
  5
229
330
1F
100
AcDbEntity
  8
SLD-0
  6
Continuous
370
    15
100
AcDbLine
 10
33.3609586863
 20
52.3171672825
 30
0.0
 11
33.3658584697
 21
52.3171672825
 31
0.0
  0
LINE
  5
22A
330
1F
100
AcDbEntity
  8
SLD-0
  6
Continuous
370
    15
100
AcDbLine
 10
33.3609586863
 20
51.0791672973
 30
0.0
 11
33.3609586863
 21
52.3171672825
 31
0.0
  0
LINE
  5
22B
330
1F
100
AcDbEntity
  8
SLD-0
  6
Continuous
370
    15
100
AcDbLine
 10
33.3658584697
 20
51.0791672973
 30
0.0
 11
33.3609586863
 21
51.0791672973
 31
0.0
  0
LINE
  5
22C
330
1F
100
AcDbEntity
  8
SLD-0
  6
Continuous
370
    15
100
AcDbLine
 10
32.6899582244
 20
50.8921673309
 30
0.0
 11
33.3658584697
 21
50.8921673309
 31
0.0
  0
LINE
  5
22D
330
1F
100
AcDbEntity
  8
SLD-0
  6
Continuous
370
    15
100
AcDbLine
 10
32.6899582244
 20
50.8921673309
 30
0.0
 11
32.6899582244
 21
59.7340256423
 31
0.0
  0
LINE
  5
22E
330
1F
100
AcDbEntity
  8
SLD-0
  6
Continuous
370
    15
100
AcDbLine
 10
32.6899582244
 20
59.7340256423
 30
0.0
 11
33.3658584697
 21
60.4099258876
 31
0.0
  0
LINE
  5
22F
330
1F
100
AcDbEntity
  8
SLD-0
  6
Continuous
370
    15
100
AcDbLine
 10
33.3609586863
 20
60.1171673496
 30
0.0
 11
33.3658584697
 21
60.1171673496
 31
0.0
  0
LINE
  5
230
330
1F
100
AcDbEntity
  8
SLD-0
  6
Continuous
370
    15
100
AcDbLine
 10
33.3609586863
 20
58.3171675033
 30
0.0
 11
33.3609586863
 21
60.1171673496
 31
0.0
  0
LINE
  5
231
330
1F
100
AcDbEntity
  8
SLD-0
  6
Continuous
370
    15
100
AcDbLine
 10
75.0891567453
 20
60.1171673496
 30
0.0
 11
75.0842569619
 21
60.1171673496
 31
0.0
  0
LINE
  5
232
330
1F
100
AcDbEntity
  8
SLD-0
  6
Continuous
370
    15
100
AcDbLine
 10
75.7601572072
 20
50.8921673309
 30
0.0
 11
75.7601572072
 21
59.7340256423
 31
0.0
  0
LINE
  5
233
330
1F
100
AcDbEntity
  8
SLD-0
  6
Continuous
370
    15
100
AcDbLine
 10
75.7601572072
 20
50.8921673309
 30
0.0
 11
75.0842569619
 21
50.8921673309
 31
0.0
  0
LINE
  5
234
330
1F
100
AcDbEntity
  8
SLD-0
  6
Continuous
370
    15
100
AcDbLine
 10
75.0842569619
 20
51.0791672973
 30
0.0
 11
75.0891567453
 21
51.0791672973
 31
0.0
  0
LINE
  5
235
330
1F
100
AcDbEntity
  8
SLD-0
  6
Continuous
370
    15
100
AcDbLine
 10
75.0891567453
 20
51.0791672973
 30
0.0
 11
75.0891567453
 21
52.3171672825
 31
0.0
  0
LINE
  5
236
330
1F
100
AcDbEntity
  8
SLD-0
  6
Continuous
370
    15
100
AcDbLine
 10
75.0891567453
 20
52.3171672825
 30
0.0
 11
75.0842569619
 21
52.3171672825
 31
0.0
  0
LINE
  5
237
330
1F
100
AcDbEntity
  8
SLD-0
  6
Continuous
370
    15
100
AcDbLine
 10
75.0842569619
 20
52.4671672697
 30
0.0
 11
75.0891567453
 21
52.4671672697
 31
0.0
  0
LINE
  5
238
330
1F
100
AcDbEntity
  8
SLD-0
  6
Continuous
370
    15
100
AcDbLine
 10
75.0891567453
 20
52.4671672697
 30
0.0
 11
75.0891567453
 21
54.2671674093
 31
0.0
  0
LINE
  5
239
330
1F
100
AcDbEntity
  8
SLD-0
  6
Continuous
370
    15
100
AcDbLine
 10
75.0891567453
 20
54.2671674093
 30
0.0
 11
75.0842569619
 21
54.2671674093
 31
0.0
  0
LINE
  5
23A
330
1F
100
AcDbEntity
  8
SLD-0
  6
Continuous
370
    15
100
AcDbLine
 10
75.0842569619
 20
54.4171672498
 30
0.0
 11
75.0891567453
 21
54.4171672498
 31
0.0
  0
LINE
  5
23B
330
1F
100
AcDbEntity
  8
SLD-0
  6
Continuous
370
    15
100
AcDbLine
 10
75.0891567453
 20
54.4171672498
 30
0.0
 11
75.0891567453
 21
56.2171673894
 31
0.0
  0
LINE
  5
23C
330
1F
100
AcDbEntity
  8
SLD-0
  6
Continuous
370
    15
100
AcDbLine
 10
75.0891567453
 20
56.2171673894
 30
0.0
 11
75.0842569619
 21
56.2171673894
 31
0.0
  0
LINE
  5
23D
330
1F
100
AcDbEntity
  8
SLD-0
  6
Continuous
370
    15
100
AcDbLine
 10
75.0842569619
 20
56.3671675232
 30
0.0
 11
75.0891567453
 21
56.3671675232
 31
0.0
  0
LINE
  5
23E
330
1F
100
AcDbEntity
  8
SLD-0
  6
Continuous
370
    15
100
AcDbLine
 10
75.0891567453
 20
56.3671675232
 30
0.0
 11
75.0891567453
 21
58.1671673695
 31
0.0
  0
LINE
  5
23F
330
1F
100
AcDbEntity
  8
SLD-0
  6
Continuous
370
    15
100
AcDbLine
 10
75.0891567453
 20
58.1671673695
 30
0.0
 11
75.0842569619
 21
58.1671673695
 31
0.0
  0
LINE
  5
240
330
1F
100
AcDbEntity
  8
SLD-0
  6
Continuous
370
    15
100
AcDbLine
 10
75.0842569619
 20
58.3171675033
 30
0.0
 11
75.0891567453
 21
58.3171675033
 31
0.0
  0
LINE
  5
241
330
1F
100
AcDbEntity
  8
SLD-0
  6
Continuous
370
    15
100
AcDbLine
 10
75.0891567453
 20
58.3171675033
 30
0.0
 11
75.0891567453
 21
60.1171673496
 31
0.0
  0
LINE
  5
242
330
1F
100
AcDbEntity
  8
SLD-0
  6
Continuous
370
    15
100
AcDbLine
 10
75.7601572072
 20
59.7340256423
 30
0.0
 11
75.0842569619
 21
60.4099258876
 31
0.0
  0
LINE
  5
243
330
1F
100
AcDbEntity
  8
SLD-0
  6
Continuous
370
    15
100
AcDbLine
 10
73.3300582399
 20
50.191967303
 30
0.0
 11
35.1200571917
 21
50.191967303
 31
0.0
  0
LINE
  5
244
330
1F
100
AcDbEntity
  8
SLD-0
  6
Continuous
370
    15
100
AcDbLine
 10
35.1200571917
 20
50.216067305
 30
0.0
 11
35.1200571917
 21
50.191967303
 31
0.0
  0
LINE
  5
245
330
1F
100
AcDbEntity
  8
SLD-0
  6
Continuous
370
    15
100
AcDbLine
 10
73.3300582399
 20
50.216067305
 30
0.0
 11
73.3300582399
 21
50.191967303
 31
0.0
  0
LINE
  5
246
330
1F
100
AcDbEntity
  8
SLD-0
  6
Continuous
370
    15
100
AcDbLine
 10
73.3300582399
 20
49.7320673091
 30
0.0
 11
35.1200571917
 21
49.7320673091
 31
0.0
  0
LINE
  5
247
330
1F
100
AcDbEntity
  8
SLD-0
  6
Continuous
370
    15
100
AcDbLine
 10
35.1200571917
 20
50.191967303
 30
0.0
 11
35.1200571917
 21
49.7320673091
 31
0.0
  0
LINE
  5
248
330
1F
100
AcDbEntity
  8
SLD-0
  6
Continuous
370
    15
100
AcDbLine
 10
73.3300582399
 20
50.191967303
 30
0.0
 11
73.3300582399
 21
49.7320673091
 31
0.0
  0
LINE
  5
249
330
1F
100
AcDbEntity
  8
SLD-0
  6
Continuous
370
    15
100
AcDbLine
 10
75.0601569736
 20
59.6943662605
 30
0.0
 11
75.0867584797
 21
59.6943662605
 31
0.0
  0
LINE
  5
24A
330
1F
100
AcDbEntity
  8
SLD-0
  6
Continuous
370
    15
100
AcDbLine
 10
75.0867584797
 20
51.6943659171
 30
0.0
 11
75.0601569736
 21
51.6943659171
 31
0.0
  0
LINE
  5
24B
330
1F
100
AcDbEntity
  8
SLD-0
  6
Continuous
370
    15
100
AcDbLine
 10
33.3633569519
 20
59.6943662605
 30
0.0
 11
33.389958458
 21
59.6943662605
 31
0.0
  0
LINE
  5
24C
330
1F
100
AcDbEntity
  8
SLD-0
  6
Continuous
370
    15
100
AcDbLine
 10
33.389958458
 20
51.6943659171
 30
0.0
 11
33.3609586863
 21
51.6943659171
 31
0.0
  0
LINE
  5
24D
330
1F
100
AcDbEntity
  8
SLD-0
  6
Continuous
370
    15
100
AcDbLine
 10
40.0092642845
 20
51.5548172759
 30
0.0
 11
40.0092642845
 21
51.0548173186
 31
0.0
  0
LINE
  5
24E
330
1F
100
AcDbEntity
  8
SLD-0
  6
Continuous
370
    15
100
AcDbLine
 10
39.9153752358
 20
51.5548172759
 30
0.0
 11
40.0092642845
 21
51.5548172759
 31
0.0
  0
LINE
  5
24F
330
1F
100
AcDbEntity
  8
SLD-0
  6
Continuous
370
    15
100
AcDbLine
 10
39.9153752358
 20
51.0548173186
 30
0.0
 11
39.9153752358
 21
51.5548172759
 31
0.0
  0
LINE
  5
250
330
1F
100
AcDbEntity
  8
SLD-0
  6
Continuous
370
    15
100
AcDbLine
 10
40.0092642845
 20
51.0548173186
 30
0.0
 11
39.9153752358
 21
51.0548173186
 31
0.0
  0
LINE
  5
251
330
1F
100
AcDbEntity
  8
SLD-0
  6
Continuous
370
    15
100
AcDbLine
 10
40.0092642845
 20
52.7110673055
 30
0.0
 11
40.0092642845
 21
52.2110673482
 31
0.0
  0
LINE
  5
252
330
1F
100
AcDbEntity
  8
SLD-0
  6
Continuous
370
    15
100
AcDbLine
 10
39.9153752358
 20
52.7110673055
 30
0.0
 11
40.0092642845
 21
52.7110673055
 31
0.0
  0
LINE
  5
253
330
1F
100
AcDbEntity
  8
SLD-0
  6
Continuous
370
    15
100
AcDbLine
 10
39.9153752358
 20
52.2110673482
 30
0.0
 11
39.9153752358
 21
52.7110673055
 31
0.0
  0
LINE
  5
254
330
1F
100
AcDbEntity
  8
SLD-0
  6
Continuous
370
    15
100
AcDbLine
 10
40.0092642845
 20
52.2110673482
 30
0.0
 11
39.9153752358
 21
52.2110673482
 31
0.0
  0
LINE
  5
255
330
1F
100
AcDbEntity
  8
SLD-0
  6
Continuous
370
    15
100
AcDbLine
 10
40.0092642845
 20
53.867317335
 30
0.0
 11
40.0092642845
 21
53.3673173777
 31
0.0
  0
LINE
  5
256
330
1F
100
AcDbEntity
  8
SLD-0
  6
Continuous
370
    15
100
AcDbLine
 10
39.9153752358
 20
53.3673173777
 30
0.0
 11
39.9153752358
 21
53.867317335
 31
0.0
  0
LINE
  5
257
330
1F
100
AcDbEntity
  8
SLD-0
  6
Continuous
370
    15
100
AcDbLine
 10
40.0092642845
 20
53.3673173777
 30
0.0
 11
39.9153752358
 21
53.3673173777
 31
0.0
  0
LINE
  5
258
330
1F
100
AcDbEntity
  8
SLD-0
  6
Continuous
370
    15
100
AcDbLine
 10
40.0339016532
 20
50.9610673083
 30
0.0
 11
40.0339016532
 21
53.9610673454
 31
0.0
  0
LINE
  5
259
330
1F
100
AcDbEntity
  8
SLD-0
  6
Continuous
370
    15
100
AcDbLine
 10
39.8906264017
 20
50.9610673083
 30
0.0
 11
40.0339016532
 21
50.9610673083
 31
0.0
  0
LINE
  5
25A
330
1F
100
AcDbEntity
  8
SLD-0
  6
Continuous
370
    15
100
AcDbLine
 10
39.8906264017
 20
50.9610673083
 30
0.0
 11
39.8906264017
 21
53.9610673454
 31
0.0
  0
LINE
  5
25B
330
1F
100
AcDbEntity
  8
SLD-0
  6
Continuous
370
    15
100
AcDbLine
 10
40.0092642845
 20
53.2891921736
 30
0.0
 11
40.0092642845
 21
52.7891922163
 31
0.0
  0
LINE
  5
25C
330
1F
100
AcDbEntity
  8
SLD-0
  6
Continuous
370
    15
100
AcDbLine
 10
39.9153752358
 20
53.2891921736
 30
0.0
 11
40.0092642845
 21
53.2891921736
 31
0.0
  0
LINE
  5
25D
330
1F
100
AcDbEntity
  8
SLD-0
  6
Continuous
370
    15
100
AcDbLine
 10
39.9153752358
 20
52.7891922163
 30
0.0
 11
39.9153752358
 21
53.2891921736
 31
0.0
  0
LINE
  5
25E
330
1F
100
AcDbEntity
  8
SLD-0
  6
Continuous
370
    15
100
AcDbLine
 10
40.0092642845
 20
52.7891922163
 30
0.0
 11
39.9153752358
 21
52.7891922163
 31
0.0
  0
LINE
  5
25F
330
1F
100
AcDbEntity
  8
SLD-0
  6
Continuous
370
    15
100
AcDbLine
 10
40.0092642845
 20
52.1329422907
 30
0.0
 11
40.0092642845
 21
51.6329423334
 31
0.0
  0
LINE
  5
260
330
1F
100
AcDbEntity
  8
SLD-0
  6
Continuous
370
    15
100
AcDbLine
 10
39.9153752358
 20
52.1329422907
 30
0.0
 11
40.0092642845
 21
52.1329422907
 31
0.0
  0
LINE
  5
261
330
1F
100
AcDbEntity
  8
SLD-0
  6
Continuous
370
    15
100
AcDbLine
 10
39.9153752358
 20
51.6329423334
 30
0.0
 11
39.9153752358
 21
52.1329422907
 31
0.0
  0
LINE
  5
262
330
1F
100
AcDbEntity
  8
SLD-0
  6
Continuous
370
    15
100
AcDbLine
 10
40.0092642845
 20
51.6329423334
 30
0.0
 11
39.9153752358
 21
51.6329423334
 31
0.0
  0
LINE
  5
263
330
1F
100
AcDbEntity
  8
SLD-0
  6
Continuous
370
    15
100
AcDbLine
 10
40.0339016532
 20
53.9610673454
 30
0.0
 11
39.8906264017
 21
53.9610673454
 31
0.0
  0
LINE
  5
264
330
1F
100
AcDbEntity
  8
SLD-0
  6
Continuous
370
    15
100
AcDbLine
 10
39.9153752358
 20
53.867317335
 30
0.0
 11
40.0092642845
 21
53.867317335
 31
0.0
  0
LINE
  5
265
330
1F
100
AcDbEntity
  8
SLD-0
  6
Continuous
370
    15
100
AcDbLine
 10
39.9414252815
 20
51.0548173186
 30
0.0
 11
39.9414252815
 21
51.5548172759
 31
0.0
  0
LINE
  5
266
330
1F
100
AcDbEntity
  8
SLD-0
  6
Continuous
370
    15
100
AcDbLine
 10
39.9414252815
 20
53.3673173777
 30
0.0
 11
39.9414252815
 21
53.867317335
 31
0.0
  0
LINE
  5
267
330
1F
100
AcDbEntity
  8
SLD-0
  6
Continuous
370
    15
100
AcDbLine
 10
39.9414252815
 20
52.2110673482
 30
0.0
 11
39.9414252815
 21
52.7110673055
 31
0.0
  0
LINE
  5
268
330
1F
100
AcDbEntity
  8
SLD-0
  6
Continuous
370
    15
100
AcDbLine
 10
39.9414252815
 20
51.6329423334
 30
0.0
 11
39.9414252815
 21
52.1329422907
 31
0.0
  0
LINE
  5
269
330
1F
100
AcDbEntity
  8
SLD-0
  6
Continuous
370
    15
100
AcDbLine
 10
39.9414252815
 20
52.7891922163
 30
0.0
 11
39.9414252815
 21
53.2891921736
 31
0.0
  0
LINE
  5
26A
330
1F
100
AcDbEntity
  8
SLD-0
  6
Continuous
370
    15
100
AcDbLine
 10
39.9831532262
 20
51.5548172759
 30
0.0
 11
39.9831532262
 21
51.0548173186
 31
0.0
  0
LINE
  5
26B
330
1F
100
AcDbEntity
  8
SLD-0
  6
Continuous
370
    15
100
AcDbLine
 10
39.9831532262
 20
52.7110673055
 30
0.0
 11
39.9831532262
 21
52.2110673482
 31
0.0
  0
LINE
  5
26C
330
1F
100
AcDbEntity
  8
SLD-0
  6
Continuous
370
    15
100
AcDbLine
 10
39.9831532262
 20
53.867317335
 30
0.0
 11
39.9831532262
 21
53.3673173777
 31
0.0
  0
LINE
  5
26D
330
1F
100
AcDbEntity
  8
SLD-0
  6
Continuous
370
    15
100
AcDbLine
 10
39.9831532262
 20
52.1329422907
 30
0.0
 11
39.9831532262
 21
51.6329423334
 31
0.0
  0
LINE
  5
26E
330
1F
100
AcDbEntity
  8
SLD-0
  6
Continuous
370
    15
100
AcDbLine
 10
39.9831532262
 20
53.2891921736
 30
0.0
 11
39.9831532262
 21
52.7891922163
 31
0.0
  0
LINE
  5
26F
330
1F
100
AcDbEntity
  8
SLD-0
  6
Continuous
370
    15
100
AcDbLine
 10
38.5989233502
 20
51.5548172759
 30
0.0
 11
38.5989233502
 21
51.6329423334
 31
0.0
  0
LINE
  5
270
330
1F
100
AcDbEntity
  8
SLD-0
  6
Continuous
370
    15
100
AcDbLine
 10
38.5989233502
 20
51.6329423334
 30
0.0
 11
38.6000039778
 21
51.6329423334
 31
0.0
  0
LINE
  5
271
330
1F
100
AcDbEntity
  8
SLD-0
  6
Continuous
370
    15
100
AcDbLine
 10
38.6000039778
 20
51.6329423334
 30
0.0
 11
38.6000039778
 21
52.1329422907
 31
0.0
  0
LINE
  5
272
330
1F
100
AcDbEntity
  8
SLD-0
  6
Continuous
370
    15
100
AcDbLine
 10
38.6000039778
 20
52.1329422907
 30
0.0
 11
38.5989233502
 21
52.1329422907
 31
0.0
  0
LINE
  5
273
330
1F
100
AcDbEntity
  8
SLD-0
  6
Continuous
370
    15
100
AcDbLine
 10
38.5989233502
 20
52.1329422907
 30
0.0
 11
38.5989233502
 21
52.2110673482
 31
0.0
  0
LINE
  5
274
330
1F
100
AcDbEntity
  8
SLD-0
  6
Continuous
370
    15
100
AcDbLine
 10
38.5989233502
 20
52.2110673482
 30
0.0
 11
38.6000039778
 21
52.2110673482
 31
0.0
  0
LINE
  5
275
330
1F
100
AcDbEntity
  8
SLD-0
  6
Continuous
370
    15
100
AcDbLine
 10
38.6000039778
 20
52.2110673482
 30
0.0
 11
38.6000039778
 21
52.7110673055
 31
0.0
  0
LINE
  5
276
330
1F
100
AcDbEntity
  8
SLD-0
  6
Continuous
370
    15
100
AcDbLine
 10
38.6000039778
 20
52.7110673055
 30
0.0
 11
38.5989233502
 21
52.7110673055
 31
0.0
  0
LINE
  5
277
330
1F
100
AcDbEntity
  8
SLD-0
  6
Continuous
370
    15
100
AcDbLine
 10
38.5989233502
 20
52.7110673055
 30
0.0
 11
38.5989233502
 21
52.7891922163
 31
0.0
  0
LINE
  5
278
330
1F
100
AcDbEntity
  8
SLD-0
  6
Continuous
370
    15
100
AcDbLine
 10
38.5989233502
 20
52.7891922163
 30
0.0
 11
38.6000039778
 21
52.7891922163
 31
0.0
  0
LINE
  5
279
330
1F
100
AcDbEntity
  8
SLD-0
  6
Continuous
370
    15
100
AcDbLine
 10
38.6000039778
 20
52.7891922163
 30
0.0
 11
38.6000039778
 21
53.2891921736
 31
0.0
  0
LINE
  5
27A
330
1F
100
AcDbEntity
  8
SLD-0
  6
Continuous
370
    15
100
AcDbLine
 10
38.6000039778
 20
53.2891921736
 30
0.0
 11
38.5989233502
 21
53.2891921736
 31
0.0
  0
LINE
  5
27B
330
1F
100
AcDbEntity
  8
SLD-0
  6
Continuous
370
    15
100
AcDbLine
 10
38.5989233502
 20
53.2891921736
 30
0.0
 11
38.5989233502
 21
53.3673173777
 31
0.0
  0
LINE
  5
27C
330
1F
100
AcDbEntity
  8
SLD-0
  6
Continuous
370
    15
100
AcDbLine
 10
38.5989233502
 20
53.3673173777
 30
0.0
 11
38.6000039778
 21
53.3673173777
 31
0.0
  0
LINE
  5
27D
330
1F
100
AcDbEntity
  8
SLD-0
  6
Continuous
370
    15
100
AcDbLine
 10
38.6000039778
 20
53.3673173777
 30
0.0
 11
38.6000039778
 21
53.867317335
 31
0.0
  0
LINE
  5
27E
330
1F
100
AcDbEntity
  8
SLD-0
  6
Continuous
370
    15
100
AcDbLine
 10
38.6000039778
 20
53.867317335
 30
0.0
 11
38.5989233502
 21
53.867317335
 31
0.0
  0
LINE
  5
27F
330
1F
100
AcDbEntity
  8
SLD-0
  6
Continuous
370
    15
100
AcDbLine
 10
38.5989233502
 20
53.867317335
 30
0.0
 11
38.5989233502
 21
53.9610673454
 31
0.0
  0
LINE
  5
280
330
1F
100
AcDbEntity
  8
SLD-0
  6
Continuous
370
    15
100
AcDbLine
 10
38.5989233502
 20
50.9610673083
 30
0.0
 11
39.8906264017
 21
50.9610673083
 31
0.0
  0
LINE
  5
281
330
1F
100
AcDbEntity
  8
SLD-0
  6
Continuous
370
    15
100
AcDbLine
 10
38.5989233502
 20
50.9610673083
 30
0.0
 11
38.5989233502
 21
51.0548173186
 31
0.0
  0
LINE
  5
282
330
1F
100
AcDbEntity
  8
SLD-0
  6
Continuous
370
    15
100
AcDbLine
 10
38.5989233502
 20
51.0548173186
 30
0.0
 11
38.6000039778
 21
51.0548173186
 31
0.0
  0
LINE
  5
283
330
1F
100
AcDbEntity
  8
SLD-0
  6
Continuous
370
    15
100
AcDbLine
 10
38.6000039778
 20
51.0548173186
 30
0.0
 11
38.6000039778
 21
51.5548172759
 31
0.0
  0
LINE
  5
284
330
1F
100
AcDbEntity
  8
SLD-0
  6
Continuous
370
    15
100
AcDbLine
 10
38.6000039778
 20
51.5548172759
 30
0.0
 11
38.5989233502
 21
51.5548172759
 31
0.0
  0
LINE
  5
285
330
1F
100
AcDbEntity
  8
SLD-0
  6
Continuous
370
    15
100
AcDbLine
 10
38.5989233502
 20
53.9610673454
 30
0.0
 11
39.8906264017
 21
53.9610673454
 31
0.0
  0
LINE
  5
286
330
1F
100
AcDbEntity
  8
SLD-0
  6
Continuous
370
    15
100
AcDbLine
 10
41.3245252505
 20
53.867317335
 30
0.0
 11
41.3245252505
 21
53.3673173777
 31
0.0
  0
LINE
  5
287
330
1F
100
AcDbEntity
  8
SLD-0
  6
Continuous
370
    15
100
AcDbLine
 10
41.3245252505
 20
53.3673173777
 30
0.0
 11
41.3256047047
 21
53.3673173777
 31
0.0
  0
LINE
  5
288
330
1F
100
AcDbEntity
  8
SLD-0
  6
Continuous
370
    15
100
AcDbLine
 10
41.3256047047
 20
53.2891921736
 30
0.0
 11
41.3256047047
 21
53.3673173777
 31
0.0
  0
LINE
  5
289
330
1F
100
AcDbEntity
  8
SLD-0
  6
Continuous
370
    15
100
AcDbLine
 10
41.3256047047
 20
53.2891921736
 30
0.0
 11
41.3245252505
 21
53.2891921736
 31
0.0
  0
LINE
  5
28A
330
1F
100
AcDbEntity
  8
SLD-0
  6
Continuous
370
    15
100
AcDbLine
 10
41.3245252505
 20
53.2891921736
 30
0.0
 11
41.3245252505
 21
52.7891922163
 31
0.0
  0
LINE
  5
28B
330
1F
100
AcDbEntity
  8
SLD-0
  6
Continuous
370
    15
100
AcDbLine
 10
41.3245252505
 20
52.7891922163
 30
0.0
 11
41.3256047047
 21
52.7891922163
 31
0.0
  0
LINE
  5
28C
330
1F
100
AcDbEntity
  8
SLD-0
  6
Continuous
370
    15
100
AcDbLine
 10
41.3256047047
 20
52.7110673055
 30
0.0
 11
41.3256047047
 21
52.7891922163
 31
0.0
  0
LINE
  5
28D
330
1F
100
AcDbEntity
  8
SLD-0
  6
Continuous
370
    15
100
AcDbLine
 10
41.3256047047
 20
52.7110673055
 30
0.0
 11
41.3245252505
 21
52.7110673055
 31
0.0
  0
LINE
  5
28E
330
1F
100
AcDbEntity
  8
SLD-0
  6
Continuous
370
    15
100
AcDbLine
 10
41.3245252505
 20
52.7110673055
 30
0.0
 11
41.3245252505
 21
52.2110673482
 31
0.0
  0
LINE
  5
28F
330
1F
100
AcDbEntity
  8
SLD-0
  6
Continuous
370
    15
100
AcDbLine
 10
41.3245252505
 20
52.2110673482
 30
0.0
 11
41.3256047047
 21
52.2110673482
 31
0.0
  0
LINE
  5
290
330
1F
100
AcDbEntity
  8
SLD-0
  6
Continuous
370
    15
100
AcDbLine
 10
41.3256047047
 20
52.1329422907
 30
0.0
 11
41.3256047047
 21
52.2110673482
 31
0.0
  0
LINE
  5
291
330
1F
100
AcDbEntity
  8
SLD-0
  6
Continuous
370
    15
100
AcDbLine
 10
41.3256047047
 20
52.1329422907
 30
0.0
 11
41.3245252505
 21
52.1329422907
 31
0.0
  0
LINE
  5
292
330
1F
100
AcDbEntity
  8
SLD-0
  6
Continuous
370
    15
100
AcDbLine
 10
41.3245252505
 20
52.1329422907
 30
0.0
 11
41.3245252505
 21
51.6329423334
 31
0.0
  0
LINE
  5
293
330
1F
100
AcDbEntity
  8
SLD-0
  6
Continuous
370
    15
100
AcDbLine
 10
41.3245252505
 20
51.6329423334
 30
0.0
 11
41.3256047047
 21
51.6329423334
 31
0.0
  0
LINE
  5
294
330
1F
100
AcDbEntity
  8
SLD-0
  6
Continuous
370
    15
100
AcDbLine
 10
41.3256047047
 20
51.5548172759
 30
0.0
 11
41.3256047047
 21
51.6329423334
 31
0.0
  0
LINE
  5
295
330
1F
100
AcDbEntity
  8
SLD-0
  6
Continuous
370
    15
100
AcDbLine
 10
41.3256047047
 20
51.5548172759
 30
0.0
 11
41.3245252505
 21
51.5548172759
 31
0.0
  0
LINE
  5
296
330
1F
100
AcDbEntity
  8
SLD-0
  6
Continuous
370
    15
100
AcDbLine
 10
41.3245252505
 20
51.5548172759
 30
0.0
 11
41.3245252505
 21
51.0548173186
 31
0.0
  0
LINE
  5
297
330
1F
100
AcDbEntity
  8
SLD-0
  6
Continuous
370
    15
100
AcDbLine
 10
41.3245252505
 20
51.0548173186
 30
0.0
 11
41.3256047047
 21
51.0548173186
 31
0.0
  0
LINE
  5
298
330
1F
100
AcDbEntity
  8
SLD-0
  6
Continuous
370
    15
100
AcDbLine
 10
41.3256047047
 20
50.9610673083
 30
0.0
 11
41.3256047047
 21
51.0548173186
 31
0.0
  0
LINE
  5
299
330
1F
100
AcDbEntity
  8
SLD-0
  6
Continuous
370
    15
100
AcDbLine
 10
40.0339016532
 20
50.9610673083
 30
0.0
 11
41.3256047047
 21
50.9610673083
 31
0.0
  0
LINE
  5
29A
330
1F
100
AcDbEntity
  8
SLD-0
  6
Continuous
370
    15
100
AcDbLine
 10
41.3256047047
 20
53.867317335
 30
0.0
 11
41.3256047047
 21
53.9610673454
 31
0.0
  0
LINE
  5
29B
330
1F
100
AcDbEntity
  8
SLD-0
  6
Continuous
370
    15
100
AcDbLine
 10
41.3256047047
 20
53.867317335
 30
0.0
 11
41.3245252505
 21
53.867317335
 31
0.0
  0
LINE
  5
29C
330
1F
100
AcDbEntity
  8
SLD-0
  6
Continuous
370
    15
100
AcDbLine
 10
40.0339016532
 20
53.9610673454
 30
0.0
 11
41.3256047047
 21
53.9610673454
 31
0.0
  0
LINE
  5
29D
330
1F
100
AcDbEntity
  8
SLD-0
  6
Continuous
370
    15
100
AcDbLine
 10
38.5939496477
 20
53.867317335
 30
0.0
 11
38.5989233502
 21
53.867317335
 31
0.0
  0
LINE
  5
29E
330
1F
100
AcDbEntity
  8
SLD-0
  6
Continuous
370
    15
100
AcDbLine
 10
38.5939496477
 20
53.867317335
 30
0.0
 11
38.5939496477
 21
53.9610673454
 31
0.0
  0
LINE
  5
29F
330
1F
100
AcDbEntity
  8
SLD-0
  6
Continuous
370
    15
100
AcDbLine
 10
38.5989233502
 20
53.9610673454
 30
0.0
 11
38.5939496477
 21
53.9610673454
 31
0.0
  0
LINE
  5
2A0
330
1F
100
AcDbEntity
  8
SLD-0
  6
Continuous
370
    15
100
AcDbLine
 10
38.5939496477
 20
53.2891921736
 30
0.0
 11
38.5989233502
 21
53.2891921736
 31
0.0
  0
LINE
  5
2A1
330
1F
100
AcDbEntity
  8
SLD-0
  6
Continuous
370
    15
100
AcDbLine
 10
38.5939496477
 20
53.2891921736
 30
0.0
 11
38.5939496477
 21
53.3673173777
 31
0.0
  0
LINE
  5
2A2
330
1F
100
AcDbEntity
  8
SLD-0
  6
Continuous
370
    15
100
AcDbLine
 10
38.5989233502
 20
53.3673173777
 30
0.0
 11
38.5939496477
 21
53.3673173777
 31
0.0
  0
LINE
  5
2A3
330
1F
100
AcDbEntity
  8
SLD-0
  6
Continuous
370
    15
100
AcDbLine
 10
38.5939496477
 20
52.7110673055
 30
0.0
 11
38.5989233502
 21
52.7110673055
 31
0.0
  0
LINE
  5
2A4
330
1F
100
AcDbEntity
  8
SLD-0
  6
Continuous
370
    15
100
AcDbLine
 10
38.5939496477
 20
52.7110673055
 30
0.0
 11
38.5939496477
 21
52.7891922163
 31
0.0
  0
LINE
  5
2A5
330
1F
100
AcDbEntity
  8
SLD-0
  6
Continuous
370
    15
100
AcDbLine
 10
38.5989233502
 20
52.7891922163
 30
0.0
 11
38.5939496477
 21
52.7891922163
 31
0.0
  0
LINE
  5
2A6
330
1F
100
AcDbEntity
  8
SLD-0
  6
Continuous
370
    15
100
AcDbLine
 10
38.5939496477
 20
52.1329422907
 30
0.0
 11
38.5989233502
 21
52.1329422907
 31
0.0
  0
LINE
  5
2A7
330
1F
100
AcDbEntity
  8
SLD-0
  6
Continuous
370
    15
100
AcDbLine
 10
38.5939496477
 20
52.1329422907
 30
0.0
 11
38.5939496477
 21
52.2110673482
 31
0.0
  0
LINE
  5
2A8
330
1F
100
AcDbEntity
  8
SLD-0
  6
Continuous
370
    15
100
AcDbLine
 10
38.5989233502
 20
52.2110673482
 30
0.0
 11
38.5939496477
 21
52.2110673482
 31
0.0
  0
LINE
  5
2A9
330
1F
100
AcDbEntity
  8
SLD-0
  6
Continuous
370
    15
100
AcDbLine
 10
38.5939496477
 20
51.5548172759
 30
0.0
 11
38.5939496477
 21
51.6329423334
 31
0.0
  0
LINE
  5
2AA
330
1F
100
AcDbEntity
  8
SLD-0
  6
Continuous
370
    15
100
AcDbLine
 10
38.5989233502
 20
51.6329423334
 30
0.0
 11
38.5939496477
 21
51.6329423334
 31
0.0
  0
LINE
  5
2AB
330
1F
100
AcDbEntity
  8
SLD-0
  6
Continuous
370
    15
100
AcDbLine
 10
38.5939496477
 20
51.5548172759
 30
0.0
 11
38.5989233502
 21
51.5548172759
 31
0.0
  0
LINE
  5
2AC
330
1F
100
AcDbEntity
  8
SLD-0
  6
Continuous
370
    15
100
AcDbLine
 10
38.5939496477
 20
50.9610673083
 30
0.0
 11
38.5939496477
 21
51.0548173186
 31
0.0
  0
LINE
  5
2AD
330
1F
100
AcDbEntity
  8
SLD-0
  6
Continuous
370
    15
100
AcDbLine
 10
38.5989233502
 20
51.0548173186
 30
0.0
 11
38.5939496477
 21
51.0548173186
 31
0.0
  0
LINE
  5
2AE
330
1F
100
AcDbEntity
  8
SLD-0
  6
Continuous
370
    15
100
AcDbLine
 10
38.5939496477
 20
50.9610673083
 30
0.0
 11
38.5989233502
 21
50.9610673083
 31
0.0
  0
LINE
  5
2AF
330
1F
100
AcDbEntity
  8
SLD-0
  6
Continuous
370
    15
100
AcDbLine
 10
41.3305795806
 20
52.7891922163
 30
0.0
 11
41.3256047047
 21
52.7891922163
 31
0.0
  0
LINE
  5
2B0
330
1F
100
AcDbEntity
  8
SLD-0
  6
Continuous
370
    15
100
AcDbLine
 10
41.3305795806
 20
52.7110673055
 30
0.0
 11
41.3305795806
 21
52.7891922163
 31
0.0
  0
LINE
  5
2B1
330
1F
100
AcDbEntity
  8
SLD-0
  6
Continuous
370
    15
100
AcDbLine
 10
41.3256047047
 20
52.7110673055
 30
0.0
 11
41.3305795806
 21
52.7110673055
 31
0.0
  0
LINE
  5
2B2
330
1F
100
AcDbEntity
  8
SLD-0
  6
Continuous
370
    15
100
AcDbLine
 10
41.3305795806
 20
53.3673173777
 30
0.0
 11
41.3256047047
 21
53.3673173777
 31
0.0
  0
LINE
  5
2B3
330
1F
100
AcDbEntity
  8
SLD-0
  6
Continuous
370
    15
100
AcDbLine
 10
41.3305795806
 20
53.2891921736
 30
0.0
 11
41.3305795806
 21
53.3673173777
 31
0.0
  0
LINE
  5
2B4
330
1F
100
AcDbEntity
  8
SLD-0
  6
Continuous
370
    15
100
AcDbLine
 10
41.3256047047
 20
53.2891921736
 30
0.0
 11
41.3305795806
 21
53.2891921736
 31
0.0
  0
LINE
  5
2B5
330
1F
100
AcDbEntity
  8
SLD-0
  6
Continuous
370
    15
100
AcDbLine
 10
41.3305795806
 20
52.1329422907
 30
0.0
 11
41.3305795806
 21
52.2110673482
 31
0.0
  0
LINE
  5
2B6
330
1F
100
AcDbEntity
  8
SLD-0
  6
Continuous
370
    15
100
AcDbLine
 10
41.3256047047
 20
52.1329422907
 30
0.0
 11
41.3305795806
 21
52.1329422907
 31
0.0
  0
LINE
  5
2B7
330
1F
100
AcDbEntity
  8
SLD-0
  6
Continuous
370
    15
100
AcDbLine
 10
41.3305795806
 20
52.2110673482
 30
0.0
 11
41.3256047047
 21
52.2110673482
 31
0.0
  0
LINE
  5
2B8
330
1F
100
AcDbEntity
  8
SLD-0
  6
Continuous
370
    15
100
AcDbLine
 10
41.3305795806
 20
51.6329423334
 30
0.0
 11
41.3256047047
 21
51.6329423334
 31
0.0
  0
LINE
  5
2B9
330
1F
100
AcDbEntity
  8
SLD-0
  6
Continuous
370
    15
100
AcDbLine
 10
41.3305795806
 20
51.5548172759
 30
0.0
 11
41.3305795806
 21
51.6329423334
 31
0.0
  0
LINE
  5
2BA
330
1F
100
AcDbEntity
  8
SLD-0
  6
Continuous
370
    15
100
AcDbLine
 10
41.3256047047
 20
51.5548172759
 30
0.0
 11
41.3305795806
 21
51.5548172759
 31
0.0
  0
LINE
  5
2BB
330
1F
100
AcDbEntity
  8
SLD-0
  6
Continuous
370
    15
100
AcDbLine
 10
41.3305795806
 20
51.0548173186
 30
0.0
 11
41.3256047047
 21
51.0548173186
 31
0.0
  0
LINE
  5
2BC
330
1F
100
AcDbEntity
  8
SLD-0
  6
Continuous
370
    15
100
AcDbLine
 10
41.3305795806
 20
50.9610673083
 30
0.0
 11
41.3305795806
 21
51.0548173186
 31
0.0
  0
LINE
  5
2BD
330
1F
100
AcDbEntity
  8
SLD-0
  6
Continuous
370
    15
100
AcDbLine
 10
41.3256047047
 20
50.9610673083
 30
0.0
 11
41.3305795806
 21
50.9610673083
 31
0.0
  0
LINE
  5
2BE
330
1F
100
AcDbEntity
  8
SLD-0
  6
Continuous
370
    15
100
AcDbLine
 10
41.3305795806
 20
53.867317335
 30
0.0
 11
41.3305795806
 21
53.9610673454
 31
0.0
  0
LINE
  5
2BF
330
1F
100
AcDbEntity
  8
SLD-0
  6
Continuous
370
    15
100
AcDbLine
 10
41.3256047047
 20
53.867317335
 30
0.0
 11
41.3305795806
 21
53.867317335
 31
0.0
  0
LINE
  5
2C0
330
1F
100
AcDbEntity
  8
SLD-0
  6
Continuous
370
    15
100
AcDbLine
 10
41.3305795806
 20
53.9610673454
 30
0.0
 11
41.3256047047
 21
53.9610673454
 31
0.0
  0
LINE
  5
2C1
330
1F
100
AcDbEntity
  8
SLD-0
  6
Continuous
370
    15
100
AcDbLine
 10
41.3305795806
 20
53.9610673454
 30
0.0
 11
41.8510571946
 21
53.9610673454
 31
0.0
  0
ARC
  5
2C2
330
1F
100
AcDbEntity
  8
SLD-0
  6
Continuous
370
    15
100
AcDbCircle
 10
41.8510577158
 20
51.061067304
 30
0.0
 40
0.1000000000000014
100
AcDbArc
 50
270.0
 51
0.0
  0
LINE
  5
2C3
330
1F
100
AcDbEntity
  8
SLD-0
  6
Continuous
370
    15
100
AcDbLine
 10
41.3305795806
 20
50.9610673083
 30
0.0
 11
41.8510571946
 21
50.9610673083
 31
0.0
  0
LINE
  5
2C4
330
1F
100
AcDbEntity
  8
SLD-0
  6
Continuous
370
    15
100
AcDbLine
 10
41.3305795806
 20
51.0548173186
 30
0.0
 11
41.3573078051
 21
51.0548173186
 31
0.0
  0
LINE
  5
2C5
330
1F
100
AcDbEntity
  8
SLD-0
  6
Continuous
370
    15
100
AcDbLine
 10
41.3573078051
 20
51.0548173186
 30
0.0
 11
41.3573078051
 21
51.5548172759
 31
0.0
  0
LINE
  5
2C6
330
1F
100
AcDbEntity
  8
SLD-0
  6
Continuous
370
    15
100
AcDbLine
 10
41.3573078051
 20
51.5548172759
 30
0.0
 11
41.3305795806
 21
51.5548172759
 31
0.0
  0
LINE
  5
2C7
330
1F
100
AcDbEntity
  8
SLD-0
  6
Continuous
370
    15
100
AcDbLine
 10
41.3305795806
 20
51.6329423334
 30
0.0
 11
41.3573078051
 21
51.6329423334
 31
0.0
  0
LINE
  5
2C8
330
1F
100
AcDbEntity
  8
SLD-0
  6
Continuous
370
    15
100
AcDbLine
 10
41.3573078051
 20
51.6329423334
 30
0.0
 11
41.3573078051
 21
52.1329422907
 31
0.0
  0
LINE
  5
2C9
330
1F
100
AcDbEntity
  8
SLD-0
  6
Continuous
370
    15
100
AcDbLine
 10
41.3573078051
 20
52.1329422907
 30
0.0
 11
41.3305795806
 21
52.1329422907
 31
0.0
  0
LINE
  5
2CA
330
1F
100
AcDbEntity
  8
SLD-0
  6
Continuous
370
    15
100
AcDbLine
 10
41.3305795806
 20
52.2110673482
 30
0.0
 11
41.3573078051
 21
52.2110673482
 31
0.0
  0
LINE
  5
2CB
330
1F
100
AcDbEntity
  8
SLD-0
  6
Continuous
370
    15
100
AcDbLine
 10
41.3573078051
 20
52.2110673482
 30
0.0
 11
41.3573078051
 21
52.7110673055
 31
0.0
  0
LINE
  5
2CC
330
1F
100
AcDbEntity
  8
SLD-0
  6
Continuous
370
    15
100
AcDbLine
 10
41.3573078051
 20
52.7110673055
 30
0.0
 11
41.3305795806
 21
52.7110673055
 31
0.0
  0
LINE
  5
2CD
330
1F
100
AcDbEntity
  8
SLD-0
  6
Continuous
370
    15
100
AcDbLine
 10
41.3305795806
 20
52.7891922163
 30
0.0
 11
41.3573078051
 21
52.7891922163
 31
0.0
  0
LINE
  5
2CE
330
1F
100
AcDbEntity
  8
SLD-0
  6
Continuous
370
    15
100
AcDbLine
 10
41.3573078051
 20
52.7891922163
 30
0.0
 11
41.3573078051
 21
53.2891921736
 31
0.0
  0
LINE
  5
2CF
330
1F
100
AcDbEntity
  8
SLD-0
  6
Continuous
370
    15
100
AcDbLine
 10
41.3573078051
 20
53.2891921736
 30
0.0
 11
41.3305795806
 21
53.2891921736
 31
0.0
  0
LINE
  5
2D0
330
1F
100
AcDbEntity
  8
SLD-0
  6
Continuous
370
    15
100
AcDbLine
 10
41.3305795806
 20
53.3673173777
 30
0.0
 11
41.3573078051
 21
53.3673173777
 31
0.0
  0
LINE
  5
2D1
330
1F
100
AcDbEntity
  8
SLD-0
  6
Continuous
370
    15
100
AcDbLine
 10
41.3573078051
 20
53.3673173777
 30
0.0
 11
41.3573078051
 21
53.867317335
 31
0.0
  0
LINE
  5
2D2
330
1F
100
AcDbEntity
  8
SLD-0
  6
Continuous
370
    15
100
AcDbLine
 10
41.3573078051
 20
53.867317335
 30
0.0
 11
41.3305795806
 21
53.867317335
 31
0.0
  0
LINE
  5
2D3
330
1F
100
AcDbEntity
  8
SLD-0
  6
Continuous
370
    15
100
AcDbLine
 10
41.9510580661
 20
51.0610672997
 30
0.0
 11
41.9510580661
 21
53.8610673539
 31
0.0
  0
ARC
  5
2D4
330
1F
100
AcDbEntity
  8
SLD-0
  6
Continuous
370
    15
100
AcDbCircle
 10
41.8510577158
 20
53.861067304
 30
0.0
 40
0.1000000000000014
100
AcDbArc
 50
0.0
 51
90.0
  0
LINE
  5
2D5
330
1F
100
AcDbEntity
  8
SLD-0
  6
Continuous
370
    15
100
AcDbLine
 10
38.5672214231
 20
51.5548172759
 30
0.0
 11
38.5672214231
 21
51.0548173186
 31
0.0
  0
LINE
  5
2D6
330
1F
100
AcDbEntity
  8
SLD-0
  6
Continuous
370
    15
100
AcDbLine
 10
38.5672214231
 20
51.0548173186
 30
0.0
 11
38.5939496477
 21
51.0548173186
 31
0.0
  0
LINE
  5
2D7
330
1F
100
AcDbEntity
  8
SLD-0
  6
Continuous
370
    15
100
AcDbLine
 10
38.0734708603
 20
50.9610673083
 30
0.0
 11
38.5939496477
 21
50.9610673083
 31
0.0
  0
ARC
  5
2D8
330
1F
100
AcDbEntity
  8
SLD-0
  6
Continuous
370
    15
100
AcDbCircle
 10
38.0734709037
 20
51.061067304
 30
0.0
 40
0.1000000000000014
100
AcDbArc
 50
180.0
 51
270.0
  0
LINE
  5
2D9
330
1F
100
AcDbEntity
  8
SLD-0
  6
Continuous
370
    15
100
AcDbLine
 10
37.9734711622
 20
51.0610672997
 30
0.0
 11
37.9734711622
 21
53.8610673539
 31
0.0
  0
ARC
  5
2DA
330
1F
100
AcDbEntity
  8
SLD-0
  6
Continuous
370
    15
100
AcDbCircle
 10
38.0734709037
 20
53.861067304
 30
0.0
 40
0.1000000000000014
100
AcDbArc
 50
90.0
 51
180.0
  0
LINE
  5
2DB
330
1F
100
AcDbEntity
  8
SLD-0
  6
Continuous
370
    15
100
AcDbLine
 10
38.0734708603
 20
53.9610673454
 30
0.0
 11
38.5939496477
 21
53.9610673454
 31
0.0
  0
LINE
  5
2DC
330
1F
100
AcDbEntity
  8
SLD-0
  6
Continuous
370
    15
100
AcDbLine
 10
38.5939496477
 20
53.867317335
 30
0.0
 11
38.5672214231
 21
53.867317335
 31
0.0
  0
LINE
  5
2DD
330
1F
100
AcDbEntity
  8
SLD-0
  6
Continuous
370
    15
100
AcDbLine
 10
38.5672214231
 20
53.3673173777
 30
0.0
 11
38.5939496477
 21
53.3673173777
 31
0.0
  0
LINE
  5
2DE
330
1F
100
AcDbEntity
  8
SLD-0
  6
Continuous
370
    15
100
AcDbLine
 10
38.5939496477
 20
53.2891921736
 30
0.0
 11
38.5672214231
 21
53.2891921736
 31
0.0
  0
LINE
  5
2DF
330
1F
100
AcDbEntity
  8
SLD-0
  6
Continuous
370
    15
100
AcDbLine
 10
38.5672214231
 20
53.2891921736
 30
0.0
 11
38.5672214231
 21
52.7891922163
 31
0.0
  0
LINE
  5
2E0
330
1F
100
AcDbEntity
  8
SLD-0
  6
Continuous
370
    15
100
AcDbLine
 10
38.5672214231
 20
52.7891922163
 30
0.0
 11
38.5939496477
 21
52.7891922163
 31
0.0
  0
LINE
  5
2E1
330
1F
100
AcDbEntity
  8
SLD-0
  6
Continuous
370
    15
100
AcDbLine
 10
38.5939496477
 20
52.7110673055
 30
0.0
 11
38.5672214231
 21
52.7110673055
 31
0.0
  0
LINE
  5
2E2
330
1F
100
AcDbEntity
  8
SLD-0
  6
Continuous
370
    15
100
AcDbLine
 10
38.5672214231
 20
52.7110673055
 30
0.0
 11
38.5672214231
 21
52.2110673482
 31
0.0
  0
LINE
  5
2E3
330
1F
100
AcDbEntity
  8
SLD-0
  6
Continuous
370
    15
100
AcDbLine
 10
38.5672214231
 20
52.2110673482
 30
0.0
 11
38.5939496477
 21
52.2110673482
 31
0.0
  0
LINE
  5
2E4
330
1F
100
AcDbEntity
  8
SLD-0
  6
Continuous
370
    15
100
AcDbLine
 10
38.5939496477
 20
52.1329422907
 30
0.0
 11
38.5672214231
 21
52.1329422907
 31
0.0
  0
LINE
  5
2E5
330
1F
100
AcDbEntity
  8
SLD-0
  6
Continuous
370
    15
100
AcDbLine
 10
38.5672214231
 20
52.1329422907
 30
0.0
 11
38.5672214231
 21
51.6329423334
 31
0.0
  0
LINE
  5
2E6
330
1F
100
AcDbEntity
  8
SLD-0
  6
Continuous
370
    15
100
AcDbLine
 10
38.5672214231
 20
51.6329423334
 30
0.0
 11
38.5939496477
 21
51.6329423334
 31
0.0
  0
LINE
  5
2E7
330
1F
100
AcDbEntity
  8
SLD-0
  6
Continuous
370
    15
100
AcDbLine
 10
38.5939496477
 20
51.5548172759
 30
0.0
 11
38.5672214231
 21
51.5548172759
 31
0.0
  0
LINE
  5
2E8
330
1F
100
AcDbEntity
  8
SLD-0
  6
Continuous
370
    15
100
AcDbLine
 10
38.5672214231
 20
53.867317335
 30
0.0
 11
38.5672214231
 21
53.3673173777
 31
0.0
  0
LINE
  5
2E9
330
1F
100
AcDbEntity
  8
SLD-0
  6
Continuous
370
    15
100
AcDbLine
 10
68.4408511471
 20
53.3673173777
 30
0.0
 11
68.4408511471
 21
53.867317335
 31
0.0
  0
LINE
  5
2EA
330
1F
100
AcDbEntity
  8
SLD-0
  6
Continuous
370
    15
100
AcDbLine
 10
68.5347401958
 20
53.3673173777
 30
0.0
 11
68.4408511471
 21
53.3673173777
 31
0.0
  0
LINE
  5
2EB
330
1F
100
AcDbEntity
  8
SLD-0
  6
Continuous
370
    15
100
AcDbLine
 10
68.5347401958
 20
53.867317335
 30
0.0
 11
68.5347401958
 21
53.3673173777
 31
0.0
  0
LINE
  5
2EC
330
1F
100
AcDbEntity
  8
SLD-0
  6
Continuous
370
    15
100
AcDbLine
 10
68.4408511471
 20
52.2110673482
 30
0.0
 11
68.4408511471
 21
52.7110673055
 31
0.0
  0
LINE
  5
2ED
330
1F
100
AcDbEntity
  8
SLD-0
  6
Continuous
370
    15
100
AcDbLine
 10
68.5347401958
 20
52.2110673482
 30
0.0
 11
68.4408511471
 21
52.2110673482
 31
0.0
  0
LINE
  5
2EE
330
1F
100
AcDbEntity
  8
SLD-0
  6
Continuous
370
    15
100
AcDbLine
 10
68.5347401958
 20
52.7110673055
 30
0.0
 11
68.5347401958
 21
52.2110673482
 31
0.0
  0
LINE
  5
2EF
330
1F
100
AcDbEntity
  8
SLD-0
  6
Continuous
370
    15
100
AcDbLine
 10
68.4408511471
 20
52.7110673055
 30
0.0
 11
68.5347401958
 21
52.7110673055
 31
0.0
  0
LINE
  5
2F0
330
1F
100
AcDbEntity
  8
SLD-0
  6
Continuous
370
    15
100
AcDbLine
 10
68.4408511471
 20
51.0548173186
 30
0.0
 11
68.4408511471
 21
51.5548172759
 31
0.0
  0
LINE
  5
2F1
330
1F
100
AcDbEntity
  8
SLD-0
  6
Continuous
370
    15
100
AcDbLine
 10
68.5347401958
 20
51.0548173186
 30
0.0
 11
68.4408511471
 21
51.0548173186
 31
0.0
  0
LINE
  5
2F2
330
1F
100
AcDbEntity
  8
SLD-0
  6
Continuous
370
    15
100
AcDbLine
 10
68.5347401958
 20
51.5548172759
 30
0.0
 11
68.5347401958
 21
51.0548173186
 31
0.0
  0
LINE
  5
2F3
330
1F
100
AcDbEntity
  8
SLD-0
  6
Continuous
370
    15
100
AcDbLine
 10
68.4408511471
 20
51.5548172759
 30
0.0
 11
68.5347401958
 21
51.5548172759
 31
0.0
  0
LINE
  5
2F4
330
1F
100
AcDbEntity
  8
SLD-0
  6
Continuous
370
    15
100
AcDbLine
 10
68.4162137784
 20
53.9610673454
 30
0.0
 11
68.4162137784
 21
50.9610673083
 31
0.0
  0
LINE
  5
2F5
330
1F
100
AcDbEntity
  8
SLD-0
  6
Continuous
370
    15
100
AcDbLine
 10
68.5594890299
 20
53.9610673454
 30
0.0
 11
68.4162137784
 21
53.9610673454
 31
0.0
  0
LINE
  5
2F6
330
1F
100
AcDbEntity
  8
SLD-0
  6
Continuous
370
    15
100
AcDbLine
 10
68.5594890299
 20
53.9610673454
 30
0.0
 11
68.5594890299
 21
50.9610673083
 31
0.0
  0
LINE
  5
2F7
330
1F
100
AcDbEntity
  8
SLD-0
  6
Continuous
370
    15
100
AcDbLine
 10
68.4162137784
 20
50.9610673083
 30
0.0
 11
68.5594890299
 21
50.9610673083
 31
0.0
  0
LINE
  5
2F8
330
1F
100
AcDbEntity
  8
SLD-0
  6
Continuous
370
    15
100
AcDbLine
 10
68.4408511471
 20
51.6329423334
 30
0.0
 11
68.4408511471
 21
52.1329422907
 31
0.0
  0
LINE
  5
2F9
330
1F
100
AcDbEntity
  8
SLD-0
  6
Continuous
370
    15
100
AcDbLine
 10
68.5347401958
 20
51.6329423334
 30
0.0
 11
68.4408511471
 21
51.6329423334
 31
0.0
  0
LINE
  5
2FA
330
1F
100
AcDbEntity
  8
SLD-0
  6
Continuous
370
    15
100
AcDbLine
 10
68.5347401958
 20
52.1329422907
 30
0.0
 11
68.5347401958
 21
51.6329423334
 31
0.0
  0
LINE
  5
2FB
330
1F
100
AcDbEntity
  8
SLD-0
  6
Continuous
370
    15
100
AcDbLine
 10
68.4408511471
 20
52.1329422907
 30
0.0
 11
68.5347401958
 21
52.1329422907
 31
0.0
  0
LINE
  5
2FC
330
1F
100
AcDbEntity
  8
SLD-0
  6
Continuous
370
    15
100
AcDbLine
 10
68.4408511471
 20
52.7891922163
 30
0.0
 11
68.4408511471
 21
53.2891921736
 31
0.0
  0
LINE
  5
2FD
330
1F
100
AcDbEntity
  8
SLD-0
  6
Continuous
370
    15
100
AcDbLine
 10
68.5347401958
 20
52.7891922163
 30
0.0
 11
68.4408511471
 21
52.7891922163
 31
0.0
  0
LINE
  5
2FE
330
1F
100
AcDbEntity
  8
SLD-0
  6
Continuous
370
    15
100
AcDbLine
 10
68.5347401958
 20
53.2891921736
 30
0.0
 11
68.5347401958
 21
52.7891922163
 31
0.0
  0
LINE
  5
2FF
330
1F
100
AcDbEntity
  8
SLD-0
  6
Continuous
370
    15
100
AcDbLine
 10
68.4408511471
 20
53.2891921736
 30
0.0
 11
68.5347401958
 21
53.2891921736
 31
0.0
  0
LINE
  5
300
330
1F
100
AcDbEntity
  8
SLD-0
  6
Continuous
370
    15
100
AcDbLine
 10
68.4408511471
 20
53.867317335
 30
0.0
 11
68.5347401958
 21
53.867317335
 31
0.0
  0
LINE
  5
301
330
1F
100
AcDbEntity
  8
SLD-0
  6
Continuous
370
    15
100
AcDbLine
 10
68.5086901501
 20
53.867317335
 30
0.0
 11
68.5086901501
 21
53.3673173777
 31
0.0
  0
LINE
  5
302
330
1F
100
AcDbEntity
  8
SLD-0
  6
Continuous
370
    15
100
AcDbLine
 10
68.5086901501
 20
52.7110673055
 30
0.0
 11
68.5086901501
 21
52.2110673482
 31
0.0
  0
LINE
  5
303
330
1F
100
AcDbEntity
  8
SLD-0
  6
Continuous
370
    15
100
AcDbLine
 10
68.5086901501
 20
52.1329422907
 30
0.0
 11
68.5086901501
 21
51.6329423334
 31
0.0
  0
LINE
  5
304
330
1F
100
AcDbEntity
  8
SLD-0
  6
Continuous
370
    15
100
AcDbLine
 10
68.5086901501
 20
53.2891921736
 30
0.0
 11
68.5086901501
 21
52.7891922163
 31
0.0
  0
LINE
  5
305
330
1F
100
AcDbEntity
  8
SLD-0
  6
Continuous
370
    15
100
AcDbLine
 10
68.5086901501
 20
51.5548172759
 30
0.0
 11
68.5086901501
 21
51.0548173186
 31
0.0
  0
LINE
  5
306
330
1F
100
AcDbEntity
  8
SLD-0
  6
Continuous
370
    15
100
AcDbLine
 10
68.4669622054
 20
53.3673173777
 30
0.0
 11
68.4669622054
 21
53.867317335
 31
0.0
  0
LINE
  5
307
330
1F
100
AcDbEntity
  8
SLD-0
  6
Continuous
370
    15
100
AcDbLine
 10
68.4669622054
 20
52.2110673482
 30
0.0
 11
68.4669622054
 21
52.7110673055
 31
0.0
  0
LINE
  5
308
330
1F
100
AcDbEntity
  8
SLD-0
  6
Continuous
370
    15
100
AcDbLine
 10
68.4669622054
 20
52.7891922163
 30
0.0
 11
68.4669622054
 21
53.2891921736
 31
0.0
  0
LINE
  5
309
330
1F
100
AcDbEntity
  8
SLD-0
  6
Continuous
370
    15
100
AcDbLine
 10
68.4669622054
 20
51.6329423334
 30
0.0
 11
68.4669622054
 21
52.1329422907
 31
0.0
  0
LINE
  5
30A
330
1F
100
AcDbEntity
  8
SLD-0
  6
Continuous
370
    15
100
AcDbLine
 10
68.4669622054
 20
51.0548173186
 30
0.0
 11
68.4669622054
 21
51.5548172759
 31
0.0
  0
LINE
  5
30B
330
1F
100
AcDbEntity
  8
SLD-0
  6
Continuous
370
    15
100
AcDbLine
 10
69.8511920814
 20
53.3673173777
 30
0.0
 11
69.8511920814
 21
53.2891921736
 31
0.0
  0
LINE
  5
30C
330
1F
100
AcDbEntity
  8
SLD-0
  6
Continuous
370
    15
100
AcDbLine
 10
69.8511920814
 20
53.2891921736
 30
0.0
 11
69.8501114538
 21
53.2891921736
 31
0.0
  0
LINE
  5
30D
330
1F
100
AcDbEntity
  8
SLD-0
  6
Continuous
370
    15
100
AcDbLine
 10
69.8501114538
 20
53.2891921736
 30
0.0
 11
69.8501114538
 21
52.7891922163
 31
0.0
  0
LINE
  5
30E
330
1F
100
AcDbEntity
  8
SLD-0
  6
Continuous
370
    15
100
AcDbLine
 10
69.8501114538
 20
52.7891922163
 30
0.0
 11
69.8511920814
 21
52.7891922163
 31
0.0
  0
LINE
  5
30F
330
1F
100
AcDbEntity
  8
SLD-0
  6
Continuous
370
    15
100
AcDbLine
 10
69.8511920814
 20
52.7891922163
 30
0.0
 11
69.8511920814
 21
52.7110673055
 31
0.0
  0
LINE
  5
310
330
1F
100
AcDbEntity
  8
SLD-0
  6
Continuous
370
    15
100
AcDbLine
 10
69.8511920814
 20
52.7110673055
 30
0.0
 11
69.8501114538
 21
52.7110673055
 31
0.0
  0
LINE
  5
311
330
1F
100
AcDbEntity
  8
SLD-0
  6
Continuous
370
    15
100
AcDbLine
 10
69.8501114538
 20
52.7110673055
 30
0.0
 11
69.8501114538
 21
52.2110673482
 31
0.0
  0
LINE
  5
312
330
1F
100
AcDbEntity
  8
SLD-0
  6
Continuous
370
    15
100
AcDbLine
 10
69.8501114538
 20
52.2110673482
 30
0.0
 11
69.8511920814
 21
52.2110673482
 31
0.0
  0
LINE
  5
313
330
1F
100
AcDbEntity
  8
SLD-0
  6
Continuous
370
    15
100
AcDbLine
 10
69.8511920814
 20
52.2110673482
 30
0.0
 11
69.8511920814
 21
52.1329422907
 31
0.0
  0
LINE
  5
314
330
1F
100
AcDbEntity
  8
SLD-0
  6
Continuous
370
    15
100
AcDbLine
 10
69.8511920814
 20
52.1329422907
 30
0.0
 11
69.8501114538
 21
52.1329422907
 31
0.0
  0
LINE
  5
315
330
1F
100
AcDbEntity
  8
SLD-0
  6
Continuous
370
    15
100
AcDbLine
 10
69.8501114538
 20
52.1329422907
 30
0.0
 11
69.8501114538
 21
51.6329423334
 31
0.0
  0
LINE
  5
316
330
1F
100
AcDbEntity
  8
SLD-0
  6
Continuous
370
    15
100
AcDbLine
 10
69.8501114538
 20
51.6329423334
 30
0.0
 11
69.8511920814
 21
51.6329423334
 31
0.0
  0
LINE
  5
317
330
1F
100
AcDbEntity
  8
SLD-0
  6
Continuous
370
    15
100
AcDbLine
 10
69.8511920814
 20
51.6329423334
 30
0.0
 11
69.8511920814
 21
51.5548172759
 31
0.0
  0
LINE
  5
318
330
1F
100
AcDbEntity
  8
SLD-0
  6
Continuous
370
    15
100
AcDbLine
 10
69.8511920814
 20
51.5548172759
 30
0.0
 11
69.8501114538
 21
51.5548172759
 31
0.0
  0
LINE
  5
319
330
1F
100
AcDbEntity
  8
SLD-0
  6
Continuous
370
    15
100
AcDbLine
 10
69.8501114538
 20
51.5548172759
 30
0.0
 11
69.8501114538
 21
51.0548173186
 31
0.0
  0
LINE
  5
31A
330
1F
100
AcDbEntity
  8
SLD-0
  6
Continuous
370
    15
100
AcDbLine
 10
69.8501114538
 20
51.0548173186
 30
0.0
 11
69.8511920814
 21
51.0548173186
 31
0.0
  0
LINE
  5
31B
330
1F
100
AcDbEntity
  8
SLD-0
  6
Continuous
370
    15
100
AcDbLine
 10
69.8511920814
 20
51.0548173186
 30
0.0
 11
69.8511920814
 21
50.9610673083
 31
0.0
  0
LINE
  5
31C
330
1F
100
AcDbEntity
  8
SLD-0
  6
Continuous
370
    15
100
AcDbLine
 10
69.8511920814
 20
50.9610673083
 30
0.0
 11
68.5594890299
 21
50.9610673083
 31
0.0
  0
LINE
  5
31D
330
1F
100
AcDbEntity
  8
SLD-0
  6
Continuous
370
    15
100
AcDbLine
 10
69.8511920814
 20
53.9610673454
 30
0.0
 11
68.5594890299
 21
53.9610673454
 31
0.0
  0
LINE
  5
31E
330
1F
100
AcDbEntity
  8
SLD-0
  6
Continuous
370
    15
100
AcDbLine
 10
69.8511920814
 20
53.9610673454
 30
0.0
 11
69.8511920814
 21
53.867317335
 31
0.0
  0
LINE
  5
31F
330
1F
100
AcDbEntity
  8
SLD-0
  6
Continuous
370
    15
100
AcDbLine
 10
69.8511920814
 20
53.867317335
 30
0.0
 11
69.8501114538
 21
53.867317335
 31
0.0
  0
LINE
  5
320
330
1F
100
AcDbEntity
  8
SLD-0
  6
Continuous
370
    15
100
AcDbLine
 10
69.8501114538
 20
53.867317335
 30
0.0
 11
69.8501114538
 21
53.3673173777
 31
0.0
  0
LINE
  5
321
330
1F
100
AcDbEntity
  8
SLD-0
  6
Continuous
370
    15
100
AcDbLine
 10
69.8501114538
 20
53.3673173777
 30
0.0
 11
69.8511920814
 21
53.3673173777
 31
0.0
  0
LINE
  5
322
330
1F
100
AcDbEntity
  8
SLD-0
  6
Continuous
370
    15
100
AcDbLine
 10
67.1255901811
 20
51.0548173186
 30
0.0
 11
67.1255901811
 21
51.5548172759
 31
0.0
  0
LINE
  5
323
330
1F
100
AcDbEntity
  8
SLD-0
  6
Continuous
370
    15
100
AcDbLine
 10
67.1255901811
 20
51.5548172759
 30
0.0
 11
67.1245107269
 21
51.5548172759
 31
0.0
  0
LINE
  5
324
330
1F
100
AcDbEntity
  8
SLD-0
  6
Continuous
370
    15
100
AcDbLine
 10
67.1245107269
 20
51.6329423334
 30
0.0
 11
67.1245107269
 21
51.5548172759
 31
0.0
  0
LINE
  5
325
330
1F
100
AcDbEntity
  8
SLD-0
  6
Continuous
370
    15
100
AcDbLine
 10
67.1245107269
 20
51.6329423334
 30
0.0
 11
67.1255901811
 21
51.6329423334
 31
0.0
  0
LINE
  5
326
330
1F
100
AcDbEntity
  8
SLD-0
  6
Continuous
370
    15
100
AcDbLine
 10
67.1255901811
 20
51.6329423334
 30
0.0
 11
67.1255901811
 21
52.1329422907
 31
0.0
  0
LINE
  5
327
330
1F
100
AcDbEntity
  8
SLD-0
  6
Continuous
370
    15
100
AcDbLine
 10
67.1255901811
 20
52.1329422907
 30
0.0
 11
67.1245107269
 21
52.1329422907
 31
0.0
  0
LINE
  5
328
330
1F
100
AcDbEntity
  8
SLD-0
  6
Continuous
370
    15
100
AcDbLine
 10
67.1245107269
 20
52.2110673482
 30
0.0
 11
67.1245107269
 21
52.1329422907
 31
0.0
  0
LINE
  5
329
330
1F
100
AcDbEntity
  8
SLD-0
  6
Continuous
370
    15
100
AcDbLine
 10
67.1245107269
 20
52.2110673482
 30
0.0
 11
67.1255901811
 21
52.2110673482
 31
0.0
  0
LINE
  5
32A
330
1F
100
AcDbEntity
  8
SLD-0
  6
Continuous
370
    15
100
AcDbLine
 10
67.1255901811
 20
52.2110673482
 30
0.0
 11
67.1255901811
 21
52.7110673055
 31
0.0
  0
LINE
  5
32B
330
1F
100
AcDbEntity
  8
SLD-0
  6
Continuous
370
    15
100
AcDbLine
 10
67.1255901811
 20
52.7110673055
 30
0.0
 11
67.1245107269
 21
52.7110673055
 31
0.0
  0
LINE
  5
32C
330
1F
100
AcDbEntity
  8
SLD-0
  6
Continuous
370
    15
100
AcDbLine
 10
67.1245107269
 20
52.7891922163
 30
0.0
 11
67.1245107269
 21
52.7110673055
 31
0.0
  0
LINE
  5
32D
330
1F
100
AcDbEntity
  8
SLD-0
  6
Continuous
370
    15
100
AcDbLine
 10
67.1245107269
 20
52.7891922163
 30
0.0
 11
67.1255901811
 21
52.7891922163
 31
0.0
  0
LINE
  5
32E
330
1F
100
AcDbEntity
  8
SLD-0
  6
Continuous
370
    15
100
AcDbLine
 10
67.1255901811
 20
52.7891922163
 30
0.0
 11
67.1255901811
 21
53.2891921736
 31
0.0
  0
LINE
  5
32F
330
1F
100
AcDbEntity
  8
SLD-0
  6
Continuous
370
    15
100
AcDbLine
 10
67.1255901811
 20
53.2891921736
 30
0.0
 11
67.1245107269
 21
53.2891921736
 31
0.0
  0
LINE
  5
330
330
1F
100
AcDbEntity
  8
SLD-0
  6
Continuous
370
    15
100
AcDbLine
 10
67.1245107269
 20
53.3673173777
 30
0.0
 11
67.1245107269
 21
53.2891921736
 31
0.0
  0
LINE
  5
331
330
1F
100
AcDbEntity
  8
SLD-0
  6
Continuous
370
    15
100
AcDbLine
 10
67.1245107269
 20
53.3673173777
 30
0.0
 11
67.1255901811
 21
53.3673173777
 31
0.0
  0
LINE
  5
332
330
1F
100
AcDbEntity
  8
SLD-0
  6
Continuous
370
    15
100
AcDbLine
 10
67.1255901811
 20
53.3673173777
 30
0.0
 11
67.1255901811
 21
53.867317335
 31
0.0
  0
LINE
  5
333
330
1F
100
AcDbEntity
  8
SLD-0
  6
Continuous
370
    15
100
AcDbLine
 10
67.1255901811
 20
53.867317335
 30
0.0
 11
67.1245107269
 21
53.867317335
 31
0.0
  0
LINE
  5
334
330
1F
100
AcDbEntity
  8
SLD-0
  6
Continuous
370
    15
100
AcDbLine
 10
67.1245107269
 20
53.9610673454
 30
0.0
 11
67.1245107269
 21
53.867317335
 31
0.0
  0
LINE
  5
335
330
1F
100
AcDbEntity
  8
SLD-0
  6
Continuous
370
    15
100
AcDbLine
 10
68.4162137784
 20
50.9610673083
 30
0.0
 11
67.1245107269
 21
50.9610673083
 31
0.0
  0
LINE
  5
336
330
1F
100
AcDbEntity
  8
SLD-0
  6
Continuous
370
    15
100
AcDbLine
 10
67.1245107269
 20
51.0548173186
 30
0.0
 11
67.1245107269
 21
50.9610673083
 31
0.0
  0
LINE
  5
337
330
1F
100
AcDbEntity
  8
SLD-0
  6
Continuous
370
    15
100
AcDbLine
 10
67.1245107269
 20
51.0548173186
 30
0.0
 11
67.1255901811
 21
51.0548173186
 31
0.0
  0
LINE
  5
338
330
1F
100
AcDbEntity
  8
SLD-0
  6
Continuous
370
    15
100
AcDbLine
 10
68.4162137784
 20
53.9610673454
 30
0.0
 11
67.1245107269
 21
53.9610673454
 31
0.0
  0
LINE
  5
339
330
1F
100
AcDbEntity
  8
SLD-0
  6
Continuous
370
    15
100
AcDbLine
 10
69.8561657839
 20
53.9610673454
 30
0.0
 11
69.8561657839
 21
53.867317335
 31
0.0
  0
LINE
  5
33A
330
1F
100
AcDbEntity
  8
SLD-0
  6
Continuous
370
    15
100
AcDbLine
 10
69.8511920814
 20
53.867317335
 30
0.0
 11
69.8561657839
 21
53.867317335
 31
0.0
  0
LINE
  5
33B
330
1F
100
AcDbEntity
  8
SLD-0
  6
Continuous
370
    15
100
AcDbLine
 10
69.8561657839
 20
53.9610673454
 30
0.0
 11
69.8511920814
 21
53.9610673454
 31
0.0
  0
LINE
  5
33C
330
1F
100
AcDbEntity
  8
SLD-0
  6
Continuous
370
    15
100
AcDbLine
 10
69.8561657839
 20
53.3673173777
 30
0.0
 11
69.8511920814
 21
53.3673173777
 31
0.0
  0
LINE
  5
33D
330
1F
100
AcDbEntity
  8
SLD-0
  6
Continuous
370
    15
100
AcDbLine
 10
69.8561657839
 20
53.3673173777
 30
0.0
 11
69.8561657839
 21
53.2891921736
 31
0.0
  0
LINE
  5
33E
330
1F
100
AcDbEntity
  8
SLD-0
  6
Continuous
370
    15
100
AcDbLine
 10
69.8511920814
 20
53.2891921736
 30
0.0
 11
69.8561657839
 21
53.2891921736
 31
0.0
  0
LINE
  5
33F
330
1F
100
AcDbEntity
  8
SLD-0
  6
Continuous
370
    15
100
AcDbLine
 10
69.8561657839
 20
51.0548173186
 30
0.0
 11
69.8511920814
 21
51.0548173186
 31
0.0
  0
LINE
  5
340
330
1F
100
AcDbEntity
  8
SLD-0
  6
Continuous
370
    15
100
AcDbLine
 10
69.8561657839
 20
51.0548173186
 30
0.0
 11
69.8561657839
 21
50.9610673083
 31
0.0
  0
LINE
  5
341
330
1F
100
AcDbEntity
  8
SLD-0
  6
Continuous
370
    15
100
AcDbLine
 10
69.8511920814
 20
50.9610673083
 30
0.0
 11
69.8561657839
 21
50.9610673083
 31
0.0
  0
LINE
  5
342
330
1F
100
AcDbEntity
  8
SLD-0
  6
Continuous
370
    15
100
AcDbLine
 10
69.8561657839
 20
52.2110673482
 30
0.0
 11
69.8561657839
 21
52.1329422907
 31
0.0
  0
LINE
  5
343
330
1F
100
AcDbEntity
  8
SLD-0
  6
Continuous
370
    15
100
AcDbLine
 10
69.8511920814
 20
52.1329422907
 30
0.0
 11
69.8561657839
 21
52.1329422907
 31
0.0
  0
LINE
  5
344
330
1F
100
AcDbEntity
  8
SLD-0
  6
Continuous
370
    15
100
AcDbLine
 10
69.8561657839
 20
52.2110673482
 30
0.0
 11
69.8511920814
 21
52.2110673482
 31
0.0
  0
LINE
  5
345
330
1F
100
AcDbEntity
  8
SLD-0
  6
Continuous
370
    15
100
AcDbLine
 10
69.8561657839
 20
52.7891922163
 30
0.0
 11
69.8561657839
 21
52.7110673055
 31
0.0
  0
LINE
  5
346
330
1F
100
AcDbEntity
  8
SLD-0
  6
Continuous
370
    15
100
AcDbLine
 10
69.8511920814
 20
52.7110673055
 30
0.0
 11
69.8561657839
 21
52.7110673055
 31
0.0
  0
LINE
  5
347
330
1F
100
AcDbEntity
  8
SLD-0
  6
Continuous
370
    15
100
AcDbLine
 10
69.8561657839
 20
52.7891922163
 30
0.0
 11
69.8511920814
 21
52.7891922163
 31
0.0
  0
LINE
  5
348
330
1F
100
AcDbEntity
  8
SLD-0
  6
Continuous
370
    15
100
AcDbLine
 10
69.8561657839
 20
51.6329423334
 30
0.0
 11
69.8511920814
 21
51.6329423334
 31
0.0
  0
LINE
  5
349
330
1F
100
AcDbEntity
  8
SLD-0
  6
Continuous
370
    15
100
AcDbLine
 10
69.8561657839
 20
51.6329423334
 30
0.0
 11
69.8561657839
 21
51.5548172759
 31
0.0
  0
LINE
  5
34A
330
1F
100
AcDbEntity
  8
SLD-0
  6
Continuous
370
    15
100
AcDbLine
 10
69.8511920814
 20
51.5548172759
 30
0.0
 11
69.8561657839
 21
51.5548172759
 31
0.0
  0
LINE
  5
34B
330
1F
100
AcDbEntity
  8
SLD-0
  6
Continuous
370
    15
100
AcDbLine
 10
67.119535851
 20
53.9610673454
 30
0.0
 11
67.119535851
 21
53.867317335
 31
0.0
  0
LINE
  5
34C
330
1F
100
AcDbEntity
  8
SLD-0
  6
Continuous
370
    15
100
AcDbLine
 10
67.119535851
 20
53.867317335
 30
0.0
 11
67.1245107269
 21
53.867317335
 31
0.0
  0
LINE
  5
34D
330
1F
100
AcDbEntity
  8
SLD-0
  6
Continuous
370
    15
100
AcDbLine
 10
67.1245107269
 20
53.9610673454
 30
0.0
 11
67.119535851
 21
53.9610673454
 31
0.0
  0
LINE
  5
34E
330
1F
100
AcDbEntity
  8
SLD-0
  6
Continuous
370
    15
100
AcDbLine
 10
67.119535851
 20
53.3673173777
 30
0.0
 11
67.119535851
 21
53.2891921736
 31
0.0
  0
LINE
  5
34F
330
1F
100
AcDbEntity
  8
SLD-0
  6
Continuous
370
    15
100
AcDbLine
 10
67.1245107269
 20
53.3673173777
 30
0.0
 11
67.119535851
 21
53.3673173777
 31
0.0
  0
LINE
  5
350
330
1F
100
AcDbEntity
  8
SLD-0
  6
Continuous
370
    15
100
AcDbLine
 10
67.119535851
 20
53.2891921736
 30
0.0
 11
67.1245107269
 21
53.2891921736
 31
0.0
  0
LINE
  5
351
330
1F
100
AcDbEntity
  8
SLD-0
  6
Continuous
370
    15
100
AcDbLine
 10
67.119535851
 20
52.2110673482
 30
0.0
 11
67.119535851
 21
52.1329422907
 31
0.0
  0
LINE
  5
352
330
1F
100
AcDbEntity
  8
SLD-0
  6
Continuous
370
    15
100
AcDbLine
 10
67.1245107269
 20
52.2110673482
 30
0.0
 11
67.119535851
 21
52.2110673482
 31
0.0
  0
LINE
  5
353
330
1F
100
AcDbEntity
  8
SLD-0
  6
Continuous
370
    15
100
AcDbLine
 10
67.119535851
 20
52.1329422907
 30
0.0
 11
67.1245107269
 21
52.1329422907
 31
0.0
  0
LINE
  5
354
330
1F
100
AcDbEntity
  8
SLD-0
  6
Continuous
370
    15
100
AcDbLine
 10
67.119535851
 20
52.7891922163
 30
0.0
 11
67.119535851
 21
52.7110673055
 31
0.0
  0
LINE
  5
355
330
1F
100
AcDbEntity
  8
SLD-0
  6
Continuous
370
    15
100
AcDbLine
 10
67.1245107269
 20
52.7891922163
 30
0.0
 11
67.119535851
 21
52.7891922163
 31
0.0
  0
LINE
  5
356
330
1F
100
AcDbEntity
  8
SLD-0
  6
Continuous
370
    15
100
AcDbLine
 10
67.119535851
 20
52.7110673055
 30
0.0
 11
67.1245107269
 21
52.7110673055
 31
0.0
  0
LINE
  5
357
330
1F
100
AcDbEntity
  8
SLD-0
  6
Continuous
370
    15
100
AcDbLine
 10
67.119535851
 20
51.5548172759
 30
0.0
 11
67.1245107269
 21
51.5548172759
 31
0.0
  0
LINE
  5
358
330
1F
100
AcDbEntity
  8
SLD-0
  6
Continuous
370
    15
100
AcDbLine
 10
67.119535851
 20
51.6329423334
 30
0.0
 11
67.119535851
 21
51.5548172759
 31
0.0
  0
LINE
  5
359
330
1F
100
AcDbEntity
  8
SLD-0
  6
Continuous
370
    15
100
AcDbLine
 10
67.1245107269
 20
51.6329423334
 30
0.0
 11
67.119535851
 21
51.6329423334
 31
0.0
  0
LINE
  5
35A
330
1F
100
AcDbEntity
  8
SLD-0
  6
Continuous
370
    15
100
AcDbLine
 10
67.119535851
 20
51.0548173186
 30
0.0
 11
67.119535851
 21
50.9610673083
 31
0.0
  0
LINE
  5
35B
330
1F
100
AcDbEntity
  8
SLD-0
  6
Continuous
370
    15
100
AcDbLine
 10
67.1245107269
 20
51.0548173186
 30
0.0
 11
67.119535851
 21
51.0548173186
 31
0.0
  0
LINE
  5
35C
330
1F
100
AcDbEntity
  8
SLD-0
  6
Continuous
370
    15
100
AcDbLine
 10
67.119535851
 20
50.9610673083
 30
0.0
 11
67.1245107269
 21
50.9610673083
 31
0.0
  0
LINE
  5
35D
330
1F
100
AcDbEntity
  8
SLD-0
  6
Continuous
370
    15
100
AcDbLine
 10
67.119535851
 20
50.9610673083
 30
0.0
 11
66.599058237
 21
50.9610673083
 31
0.0
  0
ARC
  5
35E
330
1F
100
AcDbEntity
  8
SLD-0
  6
Continuous
370
    15
100
AcDbCircle
 10
66.5990577158
 20
51.061067304
 30
0.0
 40
0.1000000000000085
100
AcDbArc
 50
180.0
 51
270.0
  0
LINE
  5
35F
330
1F
100
AcDbEntity
  8
SLD-0
  6
Continuous
370
    15
100
AcDbLine
 10
66.4990573655
 20
53.8610673539
 30
0.0
 11
66.4990573655
 21
51.0610672997
 31
0.0
  0
ARC
  5
360
330
1F
100
AcDbEntity
  8
SLD-0
  6
Continuous
370
    15
100
AcDbCircle
 10
66.5990577158
 20
53.861067304
 30
0.0
 40
0.1000000000000014
100
AcDbArc
 50
90.0
 51
180.0
  0
LINE
  5
361
330
1F
100
AcDbEntity
  8
SLD-0
  6
Continuous
370
    15
100
AcDbLine
 10
67.119535851
 20
53.9610673454
 30
0.0
 11
66.599058237
 21
53.9610673454
 31
0.0
  0
LINE
  5
362
330
1F
100
AcDbEntity
  8
SLD-0
  6
Continuous
370
    15
100
AcDbLine
 10
67.119535851
 20
53.867317335
 30
0.0
 11
67.0928076265
 21
53.867317335
 31
0.0
  0
LINE
  5
363
330
1F
100
AcDbEntity
  8
SLD-0
  6
Continuous
370
    15
100
AcDbLine
 10
67.0928076265
 20
53.867317335
 30
0.0
 11
67.0928076265
 21
53.3673173777
 31
0.0
  0
LINE
  5
364
330
1F
100
AcDbEntity
  8
SLD-0
  6
Continuous
370
    15
100
AcDbLine
 10
67.0928076265
 20
53.3673173777
 30
0.0
 11
67.119535851
 21
53.3673173777
 31
0.0
  0
LINE
  5
365
330
1F
100
AcDbEntity
  8
SLD-0
  6
Continuous
370
    15
100
AcDbLine
 10
67.119535851
 20
53.2891921736
 30
0.0
 11
67.0928076265
 21
53.2891921736
 31
0.0
  0
LINE
  5
366
330
1F
100
AcDbEntity
  8
SLD-0
  6
Continuous
370
    15
100
AcDbLine
 10
67.0928076265
 20
53.2891921736
 30
0.0
 11
67.0928076265
 21
52.7891922163
 31
0.0
  0
LINE
  5
367
330
1F
100
AcDbEntity
  8
SLD-0
  6
Continuous
370
    15
100
AcDbLine
 10
67.0928076265
 20
52.7891922163
 30
0.0
 11
67.119535851
 21
52.7891922163
 31
0.0
  0
LINE
  5
368
330
1F
100
AcDbEntity
  8
SLD-0
  6
Continuous
370
    15
100
AcDbLine
 10
67.119535851
 20
52.7110673055
 30
0.0
 11
67.0928076265
 21
52.7110673055
 31
0.0
  0
LINE
  5
369
330
1F
100
AcDbEntity
  8
SLD-0
  6
Continuous
370
    15
100
AcDbLine
 10
67.0928076265
 20
52.7110673055
 30
0.0
 11
67.0928076265
 21
52.2110673482
 31
0.0
  0
LINE
  5
36A
330
1F
100
AcDbEntity
  8
SLD-0
  6
Continuous
370
    15
100
AcDbLine
 10
67.0928076265
 20
52.2110673482
 30
0.0
 11
67.119535851
 21
52.2110673482
 31
0.0
  0
LINE
  5
36B
330
1F
100
AcDbEntity
  8
SLD-0
  6
Continuous
370
    15
100
AcDbLine
 10
67.119535851
 20
52.1329422907
 30
0.0
 11
67.0928076265
 21
52.1329422907
 31
0.0
  0
LINE
  5
36C
330
1F
100
AcDbEntity
  8
SLD-0
  6
Continuous
370
    15
100
AcDbLine
 10
67.0928076265
 20
52.1329422907
 30
0.0
 11
67.0928076265
 21
51.6329423334
 31
0.0
  0
LINE
  5
36D
330
1F
100
AcDbEntity
  8
SLD-0
  6
Continuous
370
    15
100
AcDbLine
 10
67.0928076265
 20
51.6329423334
 30
0.0
 11
67.119535851
 21
51.6329423334
 31
0.0
  0
LINE
  5
36E
330
1F
100
AcDbEntity
  8
SLD-0
  6
Continuous
370
    15
100
AcDbLine
 10
67.119535851
 20
51.5548172759
 30
0.0
 11
67.0928076265
 21
51.5548172759
 31
0.0
  0
LINE
  5
36F
330
1F
100
AcDbEntity
  8
SLD-0
  6
Continuous
370
    15
100
AcDbLine
 10
67.0928076265
 20
51.5548172759
 30
0.0
 11
67.0928076265
 21
51.0548173186
 31
0.0
  0
LINE
  5
370
330
1F
100
AcDbEntity
  8
SLD-0
  6
Continuous
370
    15
100
AcDbLine
 10
67.0928076265
 20
51.0548173186
 30
0.0
 11
67.119535851
 21
51.0548173186
 31
0.0
  0
LINE
  5
371
330
1F
100
AcDbEntity
  8
SLD-0
  6
Continuous
370
    15
100
AcDbLine
 10
69.8828940085
 20
53.3673173777
 30
0.0
 11
69.8828940085
 21
53.867317335
 31
0.0
  0
LINE
  5
372
330
1F
100
AcDbEntity
  8
SLD-0
  6
Continuous
370
    15
100
AcDbLine
 10
70.3766445713
 20
53.9610673454
 30
0.0
 11
69.8561657839
 21
53.9610673454
 31
0.0
  0
ARC
  5
373
330
1F
100
AcDbEntity
  8
SLD-0
  6
Continuous
370
    15
100
AcDbCircle
 10
70.3766445279
 20
53.861067304
 30
0.0
 40
0.1000000000000014
100
AcDbArc
 50
0.0
 51
90.0
  0
LINE
  5
374
330
1F
100
AcDbEntity
  8
SLD-0
  6
Continuous
370
    15
100
AcDbLine
 10
70.4766442694
 20
53.8610673539
 30
0.0
 11
70.4766442694
 21
51.0610672997
 31
0.0
  0
ARC
  5
375
330
1F
100
AcDbEntity
  8
SLD-0
  6
Continuous
370
    15
100
AcDbCircle
 10
70.3766445279
 20
51.061067304
 30
0.0
 40
0.1000000000000085
100
AcDbArc
 50
270.0
 51
0.0
  0
LINE
  5
376
330
1F
100
AcDbEntity
  8
SLD-0
  6
Continuous
370
    15
100
AcDbLine
 10
70.3766445713
 20
50.9610673083
 30
0.0
 11
69.8561657839
 21
50.9610673083
 31
0.0
  0
LINE
  5
377
330
1F
100
AcDbEntity
  8
SLD-0
  6
Continuous
370
    15
100
AcDbLine
 10
69.8561657839
 20
51.0548173186
 30
0.0
 11
69.8828940085
 21
51.0548173186
 31
0.0
  0
LINE
  5
378
330
1F
100
AcDbEntity
  8
SLD-0
  6
Continuous
370
    15
100
AcDbLine
 10
69.8828940085
 20
51.0548173186
 30
0.0
 11
69.8828940085
 21
51.5548172759
 31
0.0
  0
LINE
  5
379
330
1F
100
AcDbEntity
  8
SLD-0
  6
Continuous
370
    15
100
AcDbLine
 10
69.8828940085
 20
51.5548172759
 30
0.0
 11
69.8561657839
 21
51.5548172759
 31
0.0
  0
LINE
  5
37A
330
1F
100
AcDbEntity
  8
SLD-0
  6
Continuous
370
    15
100
AcDbLine
 10
69.8561657839
 20
51.6329423334
 30
0.0
 11
69.8828940085
 21
51.6329423334
 31
0.0
  0
LINE
  5
37B
330
1F
100
AcDbEntity
  8
SLD-0
  6
Continuous
370
    15
100
AcDbLine
 10
69.8828940085
 20
51.6329423334
 30
0.0
 11
69.8828940085
 21
52.1329422907
 31
0.0
  0
LINE
  5
37C
330
1F
100
AcDbEntity
  8
SLD-0
  6
Continuous
370
    15
100
AcDbLine
 10
69.8828940085
 20
52.1329422907
 30
0.0
 11
69.8561657839
 21
52.1329422907
 31
0.0
  0
LINE
  5
37D
330
1F
100
AcDbEntity
  8
SLD-0
  6
Continuous
370
    15
100
AcDbLine
 10
69.8561657839
 20
52.2110673482
 30
0.0
 11
69.8828940085
 21
52.2110673482
 31
0.0
  0
LINE
  5
37E
330
1F
100
AcDbEntity
  8
SLD-0
  6
Continuous
370
    15
100
AcDbLine
 10
69.8828940085
 20
52.2110673482
 30
0.0
 11
69.8828940085
 21
52.7110673055
 31
0.0
  0
LINE
  5
37F
330
1F
100
AcDbEntity
  8
SLD-0
  6
Continuous
370
    15
100
AcDbLine
 10
69.8828940085
 20
52.7110673055
 30
0.0
 11
69.8561657839
 21
52.7110673055
 31
0.0
  0
LINE
  5
380
330
1F
100
AcDbEntity
  8
SLD-0
  6
Continuous
370
    15
100
AcDbLine
 10
69.8561657839
 20
52.7891922163
 30
0.0
 11
69.8828940085
 21
52.7891922163
 31
0.0
  0
LINE
  5
381
330
1F
100
AcDbEntity
  8
SLD-0
  6
Continuous
370
    15
100
AcDbLine
 10
69.8828940085
 20
52.7891922163
 30
0.0
 11
69.8828940085
 21
53.2891921736
 31
0.0
  0
LINE
  5
382
330
1F
100
AcDbEntity
  8
SLD-0
  6
Continuous
370
    15
100
AcDbLine
 10
69.8828940085
 20
53.2891921736
 30
0.0
 11
69.8561657839
 21
53.2891921736
 31
0.0
  0
LINE
  5
383
330
1F
100
AcDbEntity
  8
SLD-0
  6
Continuous
370
    15
100
AcDbLine
 10
69.8561657839
 20
53.3673173777
 30
0.0
 11
69.8828940085
 21
53.3673173777
 31
0.0
  0
LINE
  5
384
330
1F
100
AcDbEntity
  8
SLD-0
  6
Continuous
370
    15
100
AcDbLine
 10
69.8828940085
 20
53.867317335
 30
0.0
 11
69.8561657839
 21
53.867317335
 31
0.0
  0
LINE
  5
385
330
1F
100
AcDbEntity
  8
SLD-0
  6
Continuous
370
    15
100
AcDbLine
 10
73.4488075881
 20
50.2220673049
 30
0.0
 11
73.4488075881
 21
50.2500673038
 31
0.0
  0
ARC
  5
386
330
1F
100
AcDbEntity
  8
SLD-0
  6
Continuous
370
    15
100
AcDbCircle
 10
73.4488077158
 20
50.255067304
 30
0.0
 40
0.0329999999999941
100
AcDbArc
 50
185.2159085703
 51
270.0
  0
ARC
  5
387
330
1F
100
AcDbEntity
  8
SLD-0
  6
Continuous
370
    15
100
AcDbCircle
 10
73.4488077158
 20
50.255067304
 30
0.0
 40
0.0049999999999955
100
AcDbArc
 50
216.8698976447
 51
270.0
  0
ARC
  5
388
330
1F
100
AcDbEntity
  8
SLD-0
  6
Continuous
370
    15
100
AcDbCircle
 10
74.9700577158
 20
50.255067304
 30
0.0
 40
0.0049999999999983
100
AcDbArc
 50
270.0
 51
323.1301023554
  0
ARC
  5
389
330
1F
100
AcDbEntity
  8
SLD-0
  6
Continuous
370
    15
100
AcDbCircle
 10
74.9700577158
 20
50.255067304
 30
0.0
 40
0.0330000000000062
100
AcDbArc
 50
270.0
 51
354.7840914297
  0
LINE
  5
38A
330
1F
100
AcDbEntity
  8
SLD-0
  6
Continuous
370
    15
100
AcDbLine
 10
74.9700577478
 20
50.2500673038
 30
0.0
 11
74.9700577478
 21
50.2220673049
 31
0.0
  0
LINE
  5
38B
330
1F
100
AcDbEntity
  8
SLD-0
  6
Continuous
370
    15
100
AcDbLine
 10
73.4488075881
 20
50.2220673049
 30
0.0
 11
74.9700577478
 21
50.2220673049
 31
0.0
  0
LINE
  5
38C
330
1F
100
AcDbEntity
  8
SLD-0
  6
Continuous
370
    15
100
AcDbLine
 10
73.4488075881
 20
50.2500673038
 30
0.0
 11
74.9700577478
 21
50.2500673038
 31
0.0
  0
LINE
  5
38D
330
1F
100
AcDbEntity
  8
SLD-0
  6
Continuous
370
    15
100
AcDbLine
 10
35.0013078435
 20
50.2220673049
 30
0.0
 11
35.0013078435
 21
50.2500673038
 31
0.0
  0
ARC
  5
38E
330
1F
100
AcDbEntity
  8
SLD-0
  6
Continuous
370
    15
100
AcDbCircle
 10
35.0013077158
 20
50.255067304
 30
0.0
 40
0.0050000000000026
100
AcDbArc
 50
270.0
 51
323.1301023551
  0
ARC
  5
38F
330
1F
100
AcDbEntity
  8
SLD-0
  6
Continuous
370
    15
100
AcDbCircle
 10
35.0013077158
 20
50.255067304
 30
0.0
 40
0.0330000000000013
100
AcDbArc
 50
270.0
 51
354.7840914297
  0
LINE
  5
390
330
1F
100
AcDbEntity
  8
SLD-0
  6
Continuous
370
    15
100
AcDbLine
 10
33.4800576838
 20
50.2500673038
 30
0.0
 11
33.4800576838
 21
50.2220673049
 31
0.0
  0
LINE
  5
391
330
1F
100
AcDbEntity
  8
SLD-0
  6
Continuous
370
    15
100
AcDbLine
 10
35.0013078435
 20
50.2220673049
 30
0.0
 11
33.4800576838
 21
50.2220673049
 31
0.0
  0
LINE
  5
392
330
1F
100
AcDbEntity
  8
SLD-0
  6
Continuous
370
    15
100
AcDbLine
 10
35.0013078435
 20
50.2500673038
 30
0.0
 11
33.4800576838
 21
50.2500673038
 31
0.0
  0
ARC
  5
393
330
1F
100
AcDbEntity
  8
SLD-0
  6
Continuous
370
    15
100
AcDbCircle
 10
33.4800577158
 20
50.255067304
 30
0.0
 40
0.0330000000000013
100
AcDbArc
 50
185.2159085703
 51
270.0
  0
ARC
  5
394
330
1F
100
AcDbEntity
  8
SLD-0
  6
Continuous
370
    15
100
AcDbCircle
 10
33.4800577158
 20
50.255067304
 30
0.0
 40
0.0050000000000054
100
AcDbArc
 50
216.8698976449
 51
270.0
  0
LINE
  5
395
330
1F
100
AcDbEntity
  8
SLD-0
  6
Continuous
370
    15
100
AcDbLine
 10
73.386057273
 20
49.722067288
 30
0.0
 11
73.3500574755
 21
49.722067288
 31
0.0
  0
LINE
  5
396
330
1F
100
AcDbEntity
  8
SLD-0
  6
Continuous
370
    15
100
AcDbLine
 10
73.386057273
 20
49.722067288
 30
0.0
 11
73.386057273
 21
50.216067305
 31
0.0
  0
LINE
  5
397
330
1F
100
AcDbEntity
  8
SLD-0
  6
Continuous
370
    15
100
AcDbLine
 10
73.3500574755
 20
49.722067288
 30
0.0
 11
73.3500574755
 21
50.216067305
 31
0.0
  0
LINE
  5
398
330
1F
100
AcDbEntity
  8
SLD-0
  6
Continuous
370
    15
100
AcDbLine
 10
35.0640581586
 20
49.722067288
 30
0.0
 11
35.1000579561
 21
49.722067288
 31
0.0
  0
LINE
  5
399
330
1F
100
AcDbEntity
  8
SLD-0
  6
Continuous
370
    15
100
AcDbLine
 10
35.1000579561
 20
49.722067288
 30
0.0
 11
35.1000579561
 21
50.216067305
 31
0.0
  0
LINE
  5
39A
330
1F
100
AcDbEntity
  8
SLD-0
  6
Continuous
370
    15
100
AcDbLine
 10
35.0640581586
 20
49.722067288
 30
0.0
 11
35.0640581586
 21
50.216067305
 31
0.0
  0
LINE
  5
39B
330
1F
100
AcDbEntity
  8
SLD-0
  6
Continuous
370
    15
100
AcDbLine
 10
75.0891567453
 20
51.196515555
 30
0.0
 11
75.0867584797
 21
51.196515555
 31
0.0
  0
LINE
  5
39C
330
1F
100
AcDbEntity
  8
SLD-0
  6
Continuous
370
    15
100
AcDbLine
 10
75.0867584797
 20
51.196515555
 30
0.0
 11
75.0867584797
 21
52.1600257378
 31
0.0
  0
LINE
  5
39D
330
1F
100
AcDbEntity
  8
SLD-0
  6
Continuous
370
    15
100
AcDbLine
 10
75.0867584797
 20
52.1600257378
 30
0.0
 11
75.0601569736
 21
52.1600257378
 31
0.0
  0
LINE
  5
39E
330
1F
100
AcDbEntity
  8
SLD-0
  6
Continuous
370
    15
100
AcDbLine
 10
75.0601569736
 20
52.310025725
 30
0.0
 11
75.0867584797
 21
52.310025725
 31
0.0
  0
LINE
  5
39F
330
1F
100
AcDbEntity
  8
SLD-0
  6
Continuous
370
    15
100
AcDbLine
 10
75.0867584797
 20
52.310025725
 30
0.0
 11
75.0867584797
 21
52.3171672825
 31
0.0
  0
LINE
  5
3A0
330
1F
100
AcDbEntity
  8
SLD-0
  6
Continuous
370
    15
100
AcDbLine
 10
75.0867584797
 20
52.4671672697
 30
0.0
 11
75.0867584797
 21
53.3100259329
 31
0.0
  0
LINE
  5
3A1
330
1F
100
AcDbEntity
  8
SLD-0
  6
Continuous
370
    15
100
AcDbLine
 10
75.0867584797
 20
53.3100259329
 30
0.0
 11
75.0601569736
 21
53.3100259329
 31
0.0
  0
LINE
  5
3A2
330
1F
100
AcDbEntity
  8
SLD-0
  6
Continuous
370
    15
100
AcDbLine
 10
75.0601569736
 20
53.4600257734
 30
0.0
 11
75.0867584797
 21
53.4600257734
 31
0.0
  0
LINE
  5
3A3
330
1F
100
AcDbEntity
  8
SLD-0
  6
Continuous
370
    15
100
AcDbLine
 10
75.0867584797
 20
53.4600257734
 30
0.0
 11
75.0867584797
 21
54.2671674093
 31
0.0
  0
LINE
  5
3A4
330
1F
100
AcDbEntity
  8
SLD-0
  6
Continuous
370
    15
100
AcDbLine
 10
75.0867584797
 20
54.4171672498
 30
0.0
 11
75.0867584797
 21
54.460025688
 31
0.0
  0
LINE
  5
3A5
330
1F
100
AcDbEntity
  8
SLD-0
  6
Continuous
370
    15
100
AcDbLine
 10
75.0867584797
 20
54.460025688
 30
0.0
 11
75.0601569736
 21
54.460025688
 31
0.0
  0
LINE
  5
3A6
330
1F
100
AcDbEntity
  8
SLD-0
  6
Continuous
370
    15
100
AcDbLine
 10
75.0601569736
 20
54.6100258219
 30
0.0
 11
75.0867584797
 21
54.6100258219
 31
0.0
  0
LINE
  5
3A7
330
1F
100
AcDbEntity
  8
SLD-0
  6
Continuous
370
    15
100
AcDbLine
 10
75.0867584797
 20
54.6100258219
 30
0.0
 11
75.0867584797
 21
55.6100260298
 31
0.0
  0
LINE
  5
3A8
330
1F
100
AcDbEntity
  8
SLD-0
  6
Continuous
370
    15
100
AcDbLine
 10
75.0867584797
 20
55.6100260298
 30
0.0
 11
75.0601569736
 21
55.6100260298
 31
0.0
  0
LINE
  5
3A9
330
1F
100
AcDbEntity
  8
SLD-0
  6
Continuous
370
    15
100
AcDbLine
 10
75.0601569736
 20
55.760025577
 30
0.0
 11
75.0867584797
 21
55.760025577
 31
0.0
  0
LINE
  5
3AA
330
1F
100
AcDbEntity
  8
SLD-0
  6
Continuous
370
    15
100
AcDbLine
 10
75.0867584797
 20
55.760025577
 30
0.0
 11
75.0867584797
 21
56.2171673894
 31
0.0
  0
LINE
  5
3AB
330
1F
100
AcDbEntity
  8
SLD-0
  6
Continuous
370
    15
100
AcDbLine
 10
75.0867584797
 20
56.3671675232
 30
0.0
 11
75.0867584797
 21
56.7600260782
 31
0.0
  0
LINE
  5
3AC
330
1F
100
AcDbEntity
  8
SLD-0
  6
Continuous
370
    15
100
AcDbLine
 10
75.0867584797
 20
56.7600260782
 30
0.0
 11
75.0601569736
 21
56.7600260782
 31
0.0
  0
LINE
  5
3AD
330
1F
100
AcDbEntity
  8
SLD-0
  6
Continuous
370
    15
100
AcDbLine
 10
75.0601569736
 20
56.9100256254
 30
0.0
 11
75.0867584797
 21
56.9100256254
 31
0.0
  0
LINE
  5
3AE
330
1F
100
AcDbEntity
  8
SLD-0
  6
Continuous
370
    15
100
AcDbLine
 10
75.0867584797
 20
56.9100256254
 30
0.0
 11
75.0867584797
 21
57.91002554
 31
0.0
  0
LINE
  5
3AF
330
1F
100
AcDbEntity
  8
SLD-0
  6
Continuous
370
    15
100
AcDbLine
 10
75.0867584797
 20
57.91002554
 30
0.0
 11
75.0601569736
 21
57.91002554
 31
0.0
  0
LINE
  5
3B0
330
1F
100
AcDbEntity
  8
SLD-0
  6
Continuous
370
    15
100
AcDbLine
 10
75.0601569736
 20
58.0600256738
 30
0.0
 11
75.0867584797
 21
58.0600256738
 31
0.0
  0
LINE
  5
3B1
330
1F
100
AcDbEntity
  8
SLD-0
  6
Continuous
370
    15
100
AcDbLine
 10
75.0867584797
 20
58.0600256738
 30
0.0
 11
75.0867584797
 21
58.1671673695
 31
0.0
  0
LINE
  5
3B2
330
1F
100
AcDbEntity
  8
SLD-0
  6
Continuous
370
    15
100
AcDbLine
 10
75.0867584797
 20
58.3171675033
 30
0.0
 11
75.0867584797
 21
59.0600255884
 31
0.0
  0
LINE
  5
3B3
330
1F
100
AcDbEntity
  8
SLD-0
  6
Continuous
370
    15
100
AcDbLine
 10
75.0867584797
 20
59.0600255884
 30
0.0
 11
75.0601569736
 21
59.0600255884
 31
0.0
  0
LINE
  5
3B4
330
1F
100
AcDbEntity
  8
SLD-0
  6
Continuous
370
    15
100
AcDbLine
 10
75.0601569736
 20
59.2100257223
 30
0.0
 11
75.0867584797
 21
59.2100257223
 31
0.0
  0
LINE
  5
3B5
330
1F
100
AcDbEntity
  8
SLD-0
  6
Continuous
370
    15
100
AcDbLine
 10
75.0867584797
 20
59.2100257223
 30
0.0
 11
75.0867584797
 21
60.1171673496
 31
0.0
  0
LINE
  5
3B6
330
1F
100
AcDbEntity
  8
SLD-0
  6
Continuous
370
    15
100
AcDbLine
 10
75.7600586483
 20
50.880067324
 30
0.0
 11
75.7600586483
 21
50.8921673309
 31
0.0
  0
LINE
  5
3B7
330
1F
100
AcDbEntity
  8
SLD-0
  6
Continuous
370
    15
100
AcDbLine
 10
75.7600586483
 20
59.7341259612
 30
0.0
 11
75.7600586483
 21
59.7400259997
 31
0.0
  0
LINE
  5
3B8
330
1F
100
AcDbEntity
  8
SLD-0
  6
Continuous
370
    15
100
AcDbLine
 10
75.7600586483
 20
50.880067324
 30
0.0
 11
75.4337584177
 21
50.880067324
 31
0.0
  0
LINE
  5
3B9
330
1F
100
AcDbEntity
  8
SLD-0
  6
Continuous
370
    15
100
AcDbLine
 10
75.4337584177
 20
50.880067324
 30
0.0
 11
75.4337584177
 21
50.8921673309
 31
0.0
  0
LINE
  5
3BA
330
1F
100
AcDbEntity
  8
SLD-0
  6
Continuous
370
    15
100
AcDbLine
 10
75.0710219148
 20
60.4290627332
 30
0.0
 11
75.7600586483
 21
59.7400259997
 31
0.0
  0
LINE
  5
3BB
330
1F
100
AcDbEntity
  8
SLD-0
  6
Continuous
370
    15
100
AcDbLine
 10
32.6900567833
 20
59.7400259997
 30
0.0
 11
32.6900567833
 21
59.7341259612
 31
0.0
  0
LINE
  5
3BC
330
1F
100
AcDbEntity
  8
SLD-0
  6
Continuous
370
    15
100
AcDbLine
 10
32.6900567833
 20
59.7400259997
 30
0.0
 11
33.3790935168
 21
60.4290627332
 31
0.0
  0
LINE
  5
3BD
330
1F
100
AcDbEntity
  8
SLD-0
  6
Continuous
370
    15
100
AcDbLine
 10
33.3633569519
 20
60.1171673496
 30
0.0
 11
33.3633569519
 21
59.2100257223
 31
0.0
  0
LINE
  5
3BE
330
1F
100
AcDbEntity
  8
SLD-0
  6
Continuous
370
    15
100
AcDbLine
 10
33.3633569519
 20
59.2100257223
 30
0.0
 11
33.389958458
 21
59.2100257223
 31
0.0
  0
LINE
  5
3BF
330
1F
100
AcDbEntity
  8
SLD-0
  6
Continuous
370
    15
100
AcDbLine
 10
33.389958458
 20
59.0600255884
 30
0.0
 11
33.3633569519
 21
59.0600255884
 31
0.0
  0
LINE
  5
3C0
330
1F
100
AcDbEntity
  8
SLD-0
  6
Continuous
370
    15
100
AcDbLine
 10
33.3633569519
 20
59.0600255884
 30
0.0
 11
33.3633569519
 21
58.3171675033
 31
0.0
  0
LINE
  5
3C1
330
1F
100
AcDbEntity
  8
SLD-0
  6
Continuous
370
    15
100
AcDbLine
 10
33.3633569519
 20
58.1671673695
 30
0.0
 11
33.3633569519
 21
58.0600256738
 31
0.0
  0
LINE
  5
3C2
330
1F
100
AcDbEntity
  8
SLD-0
  6
Continuous
370
    15
100
AcDbLine
 10
33.3633569519
 20
58.0600256738
 30
0.0
 11
33.389958458
 21
58.0600256738
 31
0.0
  0
LINE
  5
3C3
330
1F
100
AcDbEntity
  8
SLD-0
  6
Continuous
370
    15
100
AcDbLine
 10
33.389958458
 20
57.91002554
 30
0.0
 11
33.3633569519
 21
57.91002554
 31
0.0
  0
LINE
  5
3C4
330
1F
100
AcDbEntity
  8
SLD-0
  6
Continuous
370
    15
100
AcDbLine
 10
33.3633569519
 20
57.91002554
 30
0.0
 11
33.3633569519
 21
56.9100256254
 31
0.0
  0
LINE
  5
3C5
330
1F
100
AcDbEntity
  8
SLD-0
  6
Continuous
370
    15
100
AcDbLine
 10
33.3633569519
 20
56.9100256254
 30
0.0
 11
33.389958458
 21
56.9100256254
 31
0.0
  0
LINE
  5
3C6
330
1F
100
AcDbEntity
  8
SLD-0
  6
Continuous
370
    15
100
AcDbLine
 10
33.389958458
 20
56.7600260782
 30
0.0
 11
33.3633569519
 21
56.7600260782
 31
0.0
  0
LINE
  5
3C7
330
1F
100
AcDbEntity
  8
SLD-0
  6
Continuous
370
    15
100
AcDbLine
 10
33.3633569519
 20
56.7600260782
 30
0.0
 11
33.3633569519
 21
56.3671675232
 31
0.0
  0
LINE
  5
3C8
330
1F
100
AcDbEntity
  8
SLD-0
  6
Continuous
370
    15
100
AcDbLine
 10
33.3633569519
 20
56.2171673894
 30
0.0
 11
33.3633569519
 21
55.760025577
 31
0.0
  0
LINE
  5
3C9
330
1F
100
AcDbEntity
  8
SLD-0
  6
Continuous
370
    15
100
AcDbLine
 10
33.3633569519
 20
55.760025577
 30
0.0
 11
33.389958458
 21
55.760025577
 31
0.0
  0
LINE
  5
3CA
330
1F
100
AcDbEntity
  8
SLD-0
  6
Continuous
370
    15
100
AcDbLine
 10
33.389958458
 20
55.6100260298
 30
0.0
 11
33.3633569519
 21
55.6100260298
 31
0.0
  0
LINE
  5
3CB
330
1F
100
AcDbEntity
  8
SLD-0
  6
Continuous
370
    15
100
AcDbLine
 10
33.3633569519
 20
55.6100260298
 30
0.0
 11
33.3633569519
 21
54.6100258219
 31
0.0
  0
LINE
  5
3CC
330
1F
100
AcDbEntity
  8
SLD-0
  6
Continuous
370
    15
100
AcDbLine
 10
33.3633569519
 20
54.6100258219
 30
0.0
 11
33.389958458
 21
54.6100258219
 31
0.0
  0
LINE
  5
3CD
330
1F
100
AcDbEntity
  8
SLD-0
  6
Continuous
370
    15
100
AcDbLine
 10
33.389958458
 20
54.460025688
 30
0.0
 11
33.3633569519
 21
54.460025688
 31
0.0
  0
LINE
  5
3CE
330
1F
100
AcDbEntity
  8
SLD-0
  6
Continuous
370
    15
100
AcDbLine
 10
33.3633569519
 20
54.460025688
 30
0.0
 11
33.3633569519
 21
54.4171672498
 31
0.0
  0
LINE
  5
3CF
330
1F
100
AcDbEntity
  8
SLD-0
  6
Continuous
370
    15
100
AcDbLine
 10
33.3633569519
 20
54.2671674093
 30
0.0
 11
33.3633569519
 21
53.4600257734
 31
0.0
  0
LINE
  5
3D0
330
1F
100
AcDbEntity
  8
SLD-0
  6
Continuous
370
    15
100
AcDbLine
 10
33.3633569519
 20
53.4600257734
 30
0.0
 11
33.389958458
 21
53.4600257734
 31
0.0
  0
LINE
  5
3D1
330
1F
100
AcDbEntity
  8
SLD-0
  6
Continuous
370
    15
100
AcDbLine
 10
33.389958458
 20
53.3100259329
 30
0.0
 11
33.3633569519
 21
53.3100259329
 31
0.0
  0
LINE
  5
3D2
330
1F
100
AcDbEntity
  8
SLD-0
  6
Continuous
370
    15
100
AcDbLine
 10
33.3633569519
 20
53.3100259329
 30
0.0
 11
33.3633569519
 21
52.4671672697
 31
0.0
  0
LINE
  5
3D3
330
1F
100
AcDbEntity
  8
SLD-0
  6
Continuous
370
    15
100
AcDbLine
 10
33.3633569519
 20
52.3171672825
 30
0.0
 11
33.3633569519
 21
52.310025725
 31
0.0
  0
LINE
  5
3D4
330
1F
100
AcDbEntity
  8
SLD-0
  6
Continuous
370
    15
100
AcDbLine
 10
33.3633569519
 20
52.310025725
 30
0.0
 11
33.389958458
 21
52.310025725
 31
0.0
  0
LINE
  5
3D5
330
1F
100
AcDbEntity
  8
SLD-0
  6
Continuous
370
    15
100
AcDbLine
 10
33.389958458
 20
52.1600257378
 30
0.0
 11
33.3633569519
 21
52.1600257378
 31
0.0
  0
LINE
  5
3D6
330
1F
100
AcDbEntity
  8
SLD-0
  6
Continuous
370
    15
100
AcDbLine
 10
33.3633569519
 20
52.1600257378
 30
0.0
 11
33.3633569519
 21
51.7289146114
 31
0.0
  0
LINE
  5
3D7
330
1F
100
AcDbEntity
  8
SLD-0
  6
Continuous
370
    15
100
AcDbLine
 10
33.3633569519
 20
51.7289146114
 30
0.0
 11
33.3609586863
 21
51.7295641905
 31
0.0
  0
DIMENSION
  5
3D8
330
1F
100
AcDbEntity
  8
DIM
100
AcDbDimension
  2
_D_5
 10
75.0090577158
 20
65.203867304
 30
0.0
 11
54.2250577158
 21
65.203867304
 31
0.0
 70
   160
  1
<>
 71
     2
 42
-1.0
  3
SLDDIMSTYLE0
100
AcDbAlignedDimension
 13
33.4410577158
 23
61.203867304
 33
0.0
 14
75.0090577158
 24
61.203867304
 34
0.0
100
AcDbRotatedDimension
  0
DIMENSION
  5
3E7
330
1F
100
AcDbEntity
  8
DIM
100
AcDbDimension
  2
_D_6
 10
75.0090577158
 20
65.203867304
 30
0.0
 11
82.196315454
 21
65.203867304
 31
0.0
 70
   160
  1
<>
 71
     2
 42
-1.0
  3
SLDDIMSTYLE1
100
AcDbAlignedDimension
 13
75.7601577158
 23
59.7340257887
 33
0.0
 14
75.0090577158
 24
61.203867304
 34
0.0
100
AcDbRotatedDimension
  0
DIMENSION
  5
3F6
330
1F
100
AcDbEntity
  8
DIM
100
AcDbDimension
  2
_D_7
 10
32.6899577158
 20
65.203867304
 30
0.0
 11
28.1282191778
 21
65.203867304
 31
0.0
 70
   160
  1
<>
 71
     2
 42
-1.0
  3
SLDDIMSTYLE1
100
AcDbAlignedDimension
 13
33.4410577158
 23
61.203867304
 33
0.0
 14
32.6899577158
 24
59.7340257887
 34
0.0
100
AcDbRotatedDimension
  0
LINE
  5
404
330
1F
100
AcDbEntity
  8
SLD-0
  6
Continuous
370
    15
100
AcDbLine
 10
91.8650220398
 20
42.7030251471
 30
0.0
 11
91.7712720295
 21
42.7030251471
 31
0.0
  0
LINE
  5
405
330
1F
100
AcDbEntity
  8
SLD-0
  6
Continuous
370
    15
100
AcDbLine
 10
92.4431470546
 20
42.7030251471
 30
0.0
 11
92.3650219971
 21
42.7030251471
 31
0.0
  0
LINE
  5
406
330
1F
100
AcDbEntity
  8
SLD-0
  6
Continuous
370
    15
100
AcDbLine
 10
93.0212720694
 20
42.7030251471
 30
0.0
 11
92.9431470119
 21
42.7030251471
 31
0.0
  0
LINE
  5
407
330
1F
100
AcDbEntity
  8
SLD-0
  6
Continuous
370
    15
100
AcDbLine
 10
93.5993969375
 20
42.7030251471
 30
0.0
 11
93.5212720267
 21
42.7030251471
 31
0.0
  0
LINE
  5
408
330
1F
100
AcDbEntity
  8
SLD-0
  6
Continuous
370
    15
100
AcDbLine
 10
94.177522099
 20
42.7030251471
 30
0.0
 11
94.0993968948
 21
42.7030251471
 31
0.0
  0
LINE
  5
409
330
1F
100
AcDbEntity
  8
SLD-0
  6
Continuous
370
    15
100
AcDbLine
 10
94.7712720666
 20
42.7030251471
 30
0.0
 11
94.6775220563
 21
42.7030251471
 31
0.0
  0
LINE
  5
40A
330
1F
100
AcDbEntity
  8
SLD-0
  6
Continuous
370
    15
100
AcDbLine
 10
100.5442303635
 20
29.0477277476
 30
0.0
 11
100.5442303635
 21
29.0747281824
 31
0.0
  0
LINE
  5
40B
330
1F
100
AcDbEntity
  8
SLD-0
  6
Continuous
370
    15
100
AcDbLine
 10
101.2201306088
 20
29.0477277476
 30
0.0
 11
101.2201306088
 21
29.0747281824
 31
0.0
  0
LINE
  5
40C
330
1F
100
AcDbEntity
  8
SLD-0
  6
Continuous
370
    15
100
AcDbLine
 10
100.5442303635
 20
29.0477277476
 30
0.0
 11
101.2201306088
 21
29.0477277476
 31
0.0
  0
LINE
  5
40D
330
1F
100
AcDbEntity
  8
SLD-0
  6
Continuous
370
    15
100
AcDbLine
 10
100.5442303635
 20
29.0747281824
 30
0.0
 11
101.2201306088
 21
29.0747281824
 31
0.0
  0
LINE
  5
40E
330
1F
100
AcDbEntity
  8
SLD-0
  6
Continuous
370
    15
100
AcDbLine
 10
91.7023720521
 20
29.0477277476
 30
0.0
 11
91.7023720521
 21
29.0747281824
 31
0.0
  0
LINE
  5
40F
330
1F
100
AcDbEntity
  8
SLD-0
  6
Continuous
370
    15
100
AcDbLine
 10
91.7023720521
 20
29.0477277476
 30
0.0
 11
100.5442303635
 21
29.0477277476
 31
0.0
  0
LINE
  5
410
330
1F
100
AcDbEntity
  8
SLD-0
  6
Continuous
370
    15
100
AcDbLine
 10
91.7023720521
 20
29.0747281824
 30
0.0
 11
100.5442303635
 21
29.0747281824
 31
0.0
  0
LINE
  5
411
330
1F
100
AcDbEntity
  8
SLD-0
  6
Continuous
370
    15
100
AcDbLine
 10
100.9273720708
 20
29.0988281706
 30
0.0
 11
100.9273720708
 21
29.0747281824
 31
0.0
  0
LINE
  5
412
330
1F
100
AcDbEntity
  8
SLD-0
  6
Continuous
370
    15
100
AcDbLine
 10
101.2707100779
 20
29.0988281706
 30
0.0
 11
100.9273720708
 21
29.0988281706
 31
0.0
  0
SPLINE
  5
413
330
1F
100
AcDbEntity
  8
SLD-0
  6
Continuous
370
    15
100
AcDbSpline
210
0.0
220
0.0
230
1.0
 70
     8
 71
     3
 72
    11
 73
     7
 74
     0
 42
0.00000001
 43
0.00000001
 12
1.0
 22
0.0
 32
0.0
 13
1.0
 23
0.0
 33
0.0
 40
0.0
 40
0.0
 40
0.0
 40
0.0
 40
0.249998785837052
 40
0.5000000000000001
 40
0.7500012141629481
 40
1.0
 40
1.0
 40
1.0
 40
1.0
 10
101.2201306088194
 20
29.07472818236084
 30
0.0
 10
101.2243455748075
 20
29.07509077068102
 30
0.0
 10
101.2327755477251
 20
29.07581595084334
 30
0.0
 10
101.2454203433369
 20
29.08138761670312
 30
0.0
 10
101.2580651389486
 20
29.08935481949736
 30
0.0
 10
101.2664951118663
 20
29.09567039713822
 30
0.0
 10
101.2707100778544
 20
29.09882817062238
 30
0.0
  0
SPLINE
  5
414
330
1F
100
AcDbEntity
  8
SLD-0
  6
Continuous
370
    15
100
AcDbSpline
210
0.0
220
0.0
230
1.0
 70
     8
 71
     3
 72
    11
 73
     7
 74
     0
 42
0.00000001
 43
0.00000001
 12
1.0
 22
0.0
 32
0.0
 13
1.0
 23
0.0
 33
0.0
 40
0.0
 40
0.0
 40
0.0
 40
0.0
 40
0.2499980770291381
 40
0.5000020468272566
 40
0.750006016625375
 40
1.0
 40
1.0
 40
1.0
 40
1.0
 10
101.2201306088194
 20
29.0477277476055
 30
0.0
 10
101.2243455881768
 20
29.04849643325899
 30
0.0
 10
101.2327756462441
 20
29.05003382268486
 30
0.0
 10
101.2454203581277
 20
29.06184820591474
 30
0.0
 10
101.2580649122505
 20
29.07874090979348
 30
0.0
 10
101.2664950787781
 20
29.09213250616921
 30
0.0
 10
101.2707100778544
 20
29.09882817062238
 30
0.0
  0
LINE
  5
415
330
1F
100
AcDbEntity
  8
SLD-0
  6
Continuous
370
    15
100
AcDbLine
 10
99.1273722245
 20
29.0988281706
 30
0.0
 11
98.9773720907
 21
29.0988281706
 31
0.0
  0
LINE
  5
416
330
1F
100
AcDbEntity
  8
SLD-0
  6
Continuous
370
    15
100
AcDbLine
 10
99.1273722245
 20
29.0747281824
 30
0.0
 11
99.1273722245
 21
29.0988281706
 31
0.0
  0
LINE
  5
417
330
1F
100
AcDbEntity
  8
SLD-0
  6
Continuous
370
    15
100
AcDbLine
 10
98.9773720907
 20
29.0988281706
 30
0.0
 11
98.9773720907
 21
29.0747281824
 31
0.0
  0
LINE
  5
418
330
1F
100
AcDbEntity
  8
SLD-0
  6
Continuous
370
    15
100
AcDbLine
 10
97.1773722444
 20
29.0988281706
 30
0.0
 11
97.0273721106
 21
29.0988281706
 31
0.0
  0
LINE
  5
419
330
1F
100
AcDbEntity
  8
SLD-0
  6
Continuous
370
    15
100
AcDbLine
 10
97.0273721106
 20
29.0988281706
 30
0.0
 11
97.0273721106
 21
29.0747281824
 31
0.0
  0
LINE
  5
41A
330
1F
100
AcDbEntity
  8
SLD-0
  6
Continuous
370
    15
100
AcDbLine
 10
97.1773722444
 20
29.0747281824
 30
0.0
 11
97.1773722444
 21
29.0988281706
 31
0.0
  0
LINE
  5
41B
330
1F
100
AcDbEntity
  8
SLD-0
  6
Continuous
370
    15
100
AcDbLine
 10
95.227371971
 20
29.0988281706
 30
0.0
 11
95.0773721305
 21
29.0988281706
 31
0.0
  0
LINE
  5
41C
330
1F
100
AcDbEntity
  8
SLD-0
  6
Continuous
370
    15
100
AcDbLine
 10
95.0773721305
 20
29.0988281706
 30
0.0
 11
95.0773721305
 21
29.0747281824
 31
0.0
  0
LINE
  5
41D
330
1F
100
AcDbEntity
  8
SLD-0
  6
Continuous
370
    15
100
AcDbLine
 10
95.227371971
 20
29.0747281824
 30
0.0
 11
95.227371971
 21
29.0988281706
 31
0.0
  0
LINE
  5
41E
330
1F
100
AcDbEntity
  8
SLD-0
  6
Continuous
370
    15
100
AcDbLine
 10
93.2773719909
 20
29.0988281706
 30
0.0
 11
93.1273720037
 21
29.0988281706
 31
0.0
  0
LINE
  5
41F
330
1F
100
AcDbEntity
  8
SLD-0
  6
Continuous
370
    15
100
AcDbLine
 10
93.2773719909
 20
29.0747281824
 30
0.0
 11
93.2773719909
 21
29.0988281706
 31
0.0
  0
LINE
  5
420
330
1F
100
AcDbEntity
  8
SLD-0
  6
Continuous
370
    15
100
AcDbLine
 10
93.1273720037
 20
29.0988281706
 30
0.0
 11
93.1273720037
 21
29.0747281824
 31
0.0
  0
LINE
  5
421
330
1F
100
AcDbEntity
  8
SLD-0
  6
Continuous
370
    15
100
AcDbLine
 10
91.8893720185
 20
29.0988281706
 30
0.0
 11
91.7023720521
 21
29.0988281706
 31
0.0
  0
LINE
  5
422
330
1F
100
AcDbEntity
  8
SLD-0
  6
Continuous
370
    15
100
AcDbLine
 10
91.7023720521
 20
29.0988281706
 30
0.0
 11
91.7023720521
 21
29.0747281824
 31
0.0
  0
LINE
  5
423
330
1F
100
AcDbEntity
  8
SLD-0
  6
Continuous
370
    15
100
AcDbLine
 10
91.8893720185
 20
29.0747281824
 30
0.0
 11
91.8893720185
 21
29.0988281706
 31
0.0
  0
LINE
  5
424
330
1F
100
AcDbEntity
  8
SLD-0
  6
Continuous
370
    15
100
AcDbLine
 10
98.9773720907
 20
29.0988281706
 30
0.0
 11
98.9773720907
 21
29.137348259
 31
0.0
  0
LINE
  5
425
330
1F
100
AcDbEntity
  8
SLD-0
  6
Continuous
370
    15
100
AcDbLine
 10
98.9773720907
 20
29.137348259
 30
0.0
 11
97.1773722444
 21
29.137348259
 31
0.0
  0
LINE
  5
426
330
1F
100
AcDbEntity
  8
SLD-0
  6
Continuous
370
    15
100
AcDbLine
 10
97.1773722444
 20
29.137348259
 30
0.0
 11
97.1773722444
 21
29.0988281706
 31
0.0
  0
LINE
  5
427
330
1F
100
AcDbEntity
  8
SLD-0
  6
Continuous
370
    15
100
AcDbLine
 10
97.0273721106
 20
29.0988281706
 30
0.0
 11
97.0273721106
 21
29.137348259
 31
0.0
  0
LINE
  5
428
330
1F
100
AcDbEntity
  8
SLD-0
  6
Continuous
370
    15
100
AcDbLine
 10
97.0273721106
 20
29.137348259
 30
0.0
 11
95.227371971
 21
29.137348259
 31
0.0
  0
LINE
  5
429
330
1F
100
AcDbEntity
  8
SLD-0
  6
Continuous
370
    15
100
AcDbLine
 10
95.227371971
 20
29.137348259
 30
0.0
 11
95.227371971
 21
29.0988281706
 31
0.0
  0
LINE
  5
42A
330
1F
100
AcDbEntity
  8
SLD-0
  6
Continuous
370
    15
100
AcDbLine
 10
95.0773721305
 20
29.0988281706
 30
0.0
 11
95.0773721305
 21
29.137348259
 31
0.0
  0
LINE
  5
42B
330
1F
100
AcDbEntity
  8
SLD-0
  6
Continuous
370
    15
100
AcDbLine
 10
95.0773721305
 20
29.137348259
 30
0.0
 11
93.2773719909
 21
29.137348259
 31
0.0
  0
LINE
  5
42C
330
1F
100
AcDbEntity
  8
SLD-0
  6
Continuous
370
    15
100
AcDbLine
 10
93.2773719909
 20
29.137348259
 30
0.0
 11
93.2773719909
 21
29.0988281706
 31
0.0
  0
LINE
  5
42D
330
1F
100
AcDbEntity
  8
SLD-0
  6
Continuous
370
    15
100
AcDbLine
 10
93.1273720037
 20
29.0988281706
 30
0.0
 11
93.1273720037
 21
29.137348259
 31
0.0
  0
LINE
  5
42E
330
1F
100
AcDbEntity
  8
SLD-0
  6
Continuous
370
    15
100
AcDbLine
 10
93.1273720037
 20
29.137348259
 30
0.0
 11
91.8893720185
 21
29.137348259
 31
0.0
  0
LINE
  5
42F
330
1F
100
AcDbEntity
  8
SLD-0
  6
Continuous
370
    15
100
AcDbLine
 10
91.8893720185
 20
29.137348259
 30
0.0
 11
91.8893720185
 21
29.0988281706
 31
0.0
  0
LINE
  5
430
330
1F
100
AcDbEntity
  8
SLD-0
  6
Continuous
370
    15
100
AcDbLine
 10
91.7023720521
 20
29.0988281706
 30
0.0
 11
91.7023720521
 21
29.10234813
 31
0.0
  0
LINE
  5
431
330
1F
100
AcDbEntity
  8
SLD-0
  6
Continuous
370
    15
100
AcDbLine
 10
91.7023720521
 20
29.10234813
 30
0.0
 11
91.0773720253
 21
29.10234813
 31
0.0
  0
LINE
  5
432
330
1F
100
AcDbEntity
  8
SLD-0
  6
Continuous
370
    15
100
AcDbLine
 10
91.0773720253
 20
29.10234813
 30
0.0
 11
91.0773720253
 21
29.7147295357
 31
0.0
  0
LINE
  5
433
330
1F
100
AcDbEntity
  8
SLD-0
  6
Continuous
370
    15
100
AcDbLine
 10
101.8866102696
 20
29.7147295357
 30
0.0
 11
91.0773720253
 21
29.7147295357
 31
0.0
  0
LINE
  5
434
330
1F
100
AcDbEntity
  8
SLD-0
  6
Continuous
370
    15
100
AcDbLine
 10
100.9273720708
 20
29.0988281706
 30
0.0
 11
100.9273720708
 21
29.137348259
 31
0.0
  0
LINE
  5
435
330
1F
100
AcDbEntity
  8
SLD-0
  6
Continuous
370
    15
100
AcDbLine
 10
100.9273720708
 20
29.137348259
 30
0.0
 11
99.1273722245
 21
29.137348259
 31
0.0
  0
LINE
  5
436
330
1F
100
AcDbEntity
  8
SLD-0
  6
Continuous
370
    15
100
AcDbLine
 10
99.1273722245
 20
29.137348259
 30
0.0
 11
99.1273722245
 21
29.0988281706
 31
0.0
  0
LINE
  5
437
330
1F
100
AcDbEntity
  8
SLD-0
  6
Continuous
370
    15
100
AcDbLine
 10
101.8866102696
 20
29.7147295357
 30
0.0
 11
101.2707100779
 21
29.0988281706
 31
0.0
  0
LINE
  5
438
330
1F
100
AcDbEntity
  8
SLD-0
  6
Continuous
370
    15
100
AcDbLine
 10
101.9316704424
 20
29.7597897085
 30
0.0
 11
101.9316704424
 21
29.7359807035
 31
0.0
  0
LWPOLYLINE
  5
439
330
1F
100
AcDbEntity
  8
SLD-0
  6
Continuous
370
    15
100
AcDbPolyline
 90
        7
 70
   128
 43
0.0
 10
101.9316704424
 20
29.7359807035
 10
101.9266286873
 20
29.7336035576
 10
101.9202962804
 20
29.7306162855
 10
101.9128750328
 20
29.7271150993
 10
101.904605475
 20
29.7232149843
 10
101.8957562973
 20
29.7190426592
 10
101.8866102696
 20
29.7147295357
  0
LWPOLYLINE
  5
43A
330
1F
100
AcDbEntity
  8
SLD-0
  6
Continuous
370
    15
100
AcDbPolyline
 90
        7
 70
   128
 43
0.0
 10
101.9316704424
 20
29.7597897085
 10
101.9266286873
 20
29.7547467801
 10
101.9202962804
 20
29.7484155465
 10
101.9128750328
 20
29.7409931256
 10
101.904605475
 20
29.7327235678
 10
101.8957562973
 20
29.72387439
 10
101.8866102696
 20
29.7147295357
  0
LINE
  5
43B
330
1F
100
AcDbEntity
  8
SLD-0
  6
Continuous
370
    15
100
AcDbLine
 10
91.0773720253
 20
29.7147295357
 30
0.0
 11
91.0773720253
 21
29.7658276121
 31
0.0
  0
LINE
  5
43C
330
1F
100
AcDbEntity
  8
SLD-0
  6
Continuous
370
    15
100
AcDbLine
 10
91.0773720253
 20
29.7658276121
 30
0.0
 11
101.9629722674
 21
29.7658276121
 31
0.0
  0
LINE
  5
43D
330
1F
100
AcDbEntity
  8
SLD-0
  6
Continuous
370
    15
100
AcDbLine
 10
101.9629722674
 20
29.7658276121
 30
0.0
 11
101.9629722674
 21
29.7597897085
 31
0.0
  0
LINE
  5
43E
330
1F
100
AcDbEntity
  8
SLD-0
  6
Continuous
370
    15
100
AcDbLine
 10
101.9316704424
 20
29.7597897085
 30
0.0
 11
101.9629722674
 21
29.7597897085
 31
0.0
  0
LINE
  5
43F
330
1F
100
AcDbEntity
  8
SLD-0
  6
Continuous
370
    15
100
AcDbLine
 10
101.9316704424
 20
29.7359807035
 30
0.0
 11
101.9629722674
 21
29.7359807035
 31
0.0
  0
LINE
  5
440
330
1F
100
AcDbEntity
  8
SLD-0
  6
Continuous
370
    15
100
AcDbLine
 10
101.9629722674
 20
29.7597897085
 30
0.0
 11
101.9629722674
 21
29.7359807035
 31
0.0
  0
LINE
  5
441
330
1F
100
AcDbEntity
  8
SLD-0
  6
Continuous
370
    15
100
AcDbLine
 10
102.0140715171
 20
29.2058278946
 30
0.0
 11
101.9870722557
 21
29.2058278946
 31
0.0
  0
LINE
  5
442
330
1F
100
AcDbEntity
  8
SLD-0
  6
Continuous
370
    15
100
AcDbLine
 10
102.0140715171
 20
29.7147295357
 30
0.0
 11
101.9870722557
 21
29.7147295357
 31
0.0
  0
LINE
  5
443
330
1F
100
AcDbEntity
  8
SLD-0
  6
Continuous
370
    15
100
AcDbLine
 10
102.0140715171
 20
29.7147295357
 30
0.0
 11
102.0140715171
 21
29.2058278946
 31
0.0
  0
LINE
  5
444
330
1F
100
AcDbEntity
  8
SLD-0
  6
Continuous
370
    15
100
AcDbLine
 10
101.9870722557
 20
29.7147295357
 30
0.0
 11
101.9870722557
 21
29.2058278946
 31
0.0
  0
ARC
  5
445
330
1F
100
AcDbEntity
  8
SLD-0
  6
Continuous
370
    15
100
AcDbCircle
 10
101.9629720253
 20
29.7147287268
 30
0.0
 40
0.0241000000000042
100
AcDbArc
 50
0.0
 51
90.0
  0
ARC
  5
446
330
1F
100
AcDbEntity
  8
SLD-0
  6
Continuous
370
    15
100
AcDbCircle
 10
101.9629720253
 20
29.7147287268
 30
0.0
 40
0.0510999999999981
100
AcDbArc
 50
0.0
 51
90.0
  0
ARC
  5
447
330
1F
100
AcDbEntity
  8
SLD-0
  6
Continuous
370
    15
100
AcDbCircle
 10
91.0773720253
 20
29.7147287268
 30
0.0
 40
0.0240999999999936
100
AcDbArc
 50
90.0
 51
107.1874632915
  0
ARC
  5
448
330
1F
100
AcDbEntity
  8
SLD-0
  6
Continuous
370
    15
100
AcDbCircle
 10
91.0773720253
 20
29.7147287268
 30
0.0
 40
0.0510999999999981
100
AcDbArc
 50
90.0
 51
107.1874632915
  0
LINE
  5
449
330
1F
100
AcDbEntity
  8
SLD-0
  6
Continuous
370
    15
100
AcDbLine
 10
91.0622720254
 20
29.7635466784
 30
0.0
 11
91.070250499
 21
29.7377524164
 31
0.0
  0
LINE
  5
44A
330
1F
100
AcDbEntity
  8
SLD-0
  6
Continuous
370
    15
100
AcDbLine
 10
91.0262720262
 20
29.7147295357
 30
0.0
 11
91.0262720262
 21
27.2188284485
 31
0.0
  0
LINE
  5
44B
330
1F
100
AcDbEntity
  8
SLD-0
  6
Continuous
370
    15
100
AcDbLine
 10
91.0532720256
 20
29.7147295357
 30
0.0
 11
91.0262720262
 21
29.7147295357
 31
0.0
  0
LINE
  5
44C
330
1F
100
AcDbEntity
  8
SLD-0
  6
Continuous
370
    15
100
AcDbLine
 10
91.0322720261
 20
27.2188284485
 30
0.0
 11
91.0262720262
 21
27.2188284485
 31
0.0
  0
LINE
  5
44D
330
1F
100
AcDbEntity
  8
SLD-0
  6
Continuous
370
    15
100
AcDbLine
 10
91.0532720256
 20
29.7147295357
 30
0.0
 11
91.0532720256
 21
29.7062041942
 31
0.0
  0
ARC
  5
44E
330
1F
100
AcDbEntity
  8
SLD-0
  6
Continuous
370
    15
100
AcDbCircle
 10
91.0773720253
 20
29.7147287268
 30
0.0
 40
0.024099999999992
100
AcDbArc
 50
107.1874632915
 51
180.0
  0
ARC
  5
44F
330
1F
100
AcDbEntity
  8
SLD-0
  6
Continuous
370
    15
100
AcDbCircle
 10
91.0773720253
 20
29.7147287268
 30
0.0
 40
0.0510999999999963
100
AcDbArc
 50
107.1874632915
 51
180.0
  0
LWPOLYLINE
  5
450
330
1F
100
AcDbEntity
  8
SLD-0
  6
Continuous
370
    15
100
AcDbPolyline
 90
        3
 70
   128
 43
0.0
 10
91.0262720262
 20
27.209928818
 10
91.0258089499
 20
27.2052273257
 10
91.0252024398
 20
27.20282906
  0
LINE
  5
451
330
1F
100
AcDbEntity
  8
SLD-0
  6
Continuous
370
    15
100
AcDbLine
 10
91.0262720262
 20
27.2188284485
 30
0.0
 11
91.0262720262
 21
27.209928818
 31
0.0
  0
LINE
  5
452
330
1F
100
AcDbEntity
  8
SLD-0
  6
Continuous
370
    15
100
AcDbLine
 10
100.5045709817
 20
7.6777037159
 30
0.0
 11
100.5045709817
 21
8.5537037267
 31
0.0
  0
LINE
  5
453
330
1F
100
AcDbEntity
  8
SLD-0
  6
Continuous
370
    15
100
AcDbLine
 10
92.5045706384
 20
7.6777037159
 30
0.0
 11
100.5045709817
 21
7.6777037159
 31
0.0
  0
LINE
  5
454
330
1F
100
AcDbEntity
  8
SLD-0
  6
Continuous
370
    15
100
AcDbLine
 10
92.5045706384
 20
8.5537037267
 30
0.0
 11
92.5045706384
 21
7.6777037159
 31
0.0
  0
LINE
  5
455
330
1F
100
AcDbEntity
  8
SLD-0
  6
Continuous
370
    15
100
AcDbLine
 10
92.5045706384
 20
8.5537037267
 30
0.0
 11
100.5045709817
 21
8.5537037267
 31
0.0
  0
LINE
  5
456
330
1F
100
AcDbEntity
  8
SLD-0
  6
Continuous
370
    15
100
AcDbLine
 10
92.5045706384
 20
8.5537037267
 30
0.0
 11
92.5045706384
 21
8.6157037268
 31
0.0
  0
LINE
  5
457
330
1F
100
AcDbEntity
  8
SLD-0
  6
Continuous
370
    15
100
AcDbLine
 10
92.5045706384
 20
8.6157037268
 30
0.0
 11
100.5045709817
 21
8.6157037268
 31
0.0
  0
LINE
  5
458
330
1F
100
AcDbEntity
  8
SLD-0
  6
Continuous
370
    15
100
AcDbLine
 10
100.5045709817
 20
8.6157037268
 30
0.0
 11
100.5045709817
 21
8.5537037267
 31
0.0
  0
LINE
  5
459
330
1F
100
AcDbEntity
  8
SLD-0
  6
Continuous
370
    15
100
AcDbLine
 10
94.6712720751
 20
29.7658276121
 30
0.0
 11
94.6712720751
 21
29.80582843
 31
0.0
  0
LINE
  5
45A
330
1F
100
AcDbEntity
  8
SLD-0
  6
Continuous
370
    15
100
AcDbLine
 10
94.7712720666
 20
29.80582843
 30
0.0
 11
94.7712720666
 21
29.7658276121
 31
0.0
  0
LINE
  5
45B
330
1F
100
AcDbEntity
  8
SLD-0
  6
Continuous
370
    15
100
AcDbLine
 10
94.6712720751
 20
29.80582843
 30
0.0
 11
94.7712720666
 21
29.80582843
 31
0.0
  0
LINE
  5
45C
330
1F
100
AcDbEntity
  8
SLD-0
  6
Continuous
370
    15
100
AcDbLine
 10
91.871272021
 20
29.80582843
 30
0.0
 11
91.871272021
 21
29.7658276121
 31
0.0
  0
LINE
  5
45D
330
1F
100
AcDbEntity
  8
SLD-0
  6
Continuous
370
    15
100
AcDbLine
 10
94.6712720751
 20
29.80582843
 30
0.0
 11
91.871272021
 21
29.80582843
 31
0.0
  0
LINE
  5
45E
330
1F
100
AcDbEntity
  8
SLD-0
  6
Continuous
370
    15
100
AcDbLine
 10
91.7712720295
 20
29.7658276121
 30
0.0
 11
91.7712720295
 21
29.80582843
 31
0.0
  0
LINE
  5
45F
330
1F
100
AcDbEntity
  8
SLD-0
  6
Continuous
370
    15
100
AcDbLine
 10
91.7712720295
 20
29.80582843
 30
0.0
 11
91.871272021
 21
29.80582843
 31
0.0
  0
LINE
  5
460
330
1F
100
AcDbEntity
  8
SLD-0
  6
Continuous
370
    15
100
AcDbLine
 10
94.7712720666
 20
29.810326938
 30
0.0
 11
94.6775220563
 21
29.810326938
 31
0.0
  0
LINE
  5
461
330
1F
100
AcDbEntity
  8
SLD-0
  6
Continuous
370
    15
100
AcDbLine
 10
94.6775220563
 20
29.810326938
 30
0.0
 11
94.6775220563
 21
29.80582843
 31
0.0
  0
LINE
  5
462
330
1F
100
AcDbEntity
  8
SLD-0
  6
Continuous
370
    15
100
AcDbLine
 10
94.7712720666
 20
29.80582843
 30
0.0
 11
94.7712720666
 21
29.810326938
 31
0.0
  0
LINE
  5
463
330
1F
100
AcDbEntity
  8
SLD-0
  6
Continuous
370
    15
100
AcDbLine
 10
94.177522099
 20
29.810326938
 30
0.0
 11
94.0993968948
 21
29.810326938
 31
0.0
  0
LINE
  5
464
330
1F
100
AcDbEntity
  8
SLD-0
  6
Continuous
370
    15
100
AcDbLine
 10
94.177522099
 20
29.80582843
 30
0.0
 11
94.177522099
 21
29.810326938
 31
0.0
  0
LINE
  5
465
330
1F
100
AcDbEntity
  8
SLD-0
  6
Continuous
370
    15
100
AcDbLine
 10
94.0993968948
 20
29.810326938
 30
0.0
 11
94.0993968948
 21
29.80582843
 31
0.0
  0
LINE
  5
466
330
1F
100
AcDbEntity
  8
SLD-0
  6
Continuous
370
    15
100
AcDbLine
 10
93.5993969375
 20
29.810326938
 30
0.0
 11
93.5212720267
 21
29.810326938
 31
0.0
  0
LINE
  5
467
330
1F
100
AcDbEntity
  8
SLD-0
  6
Continuous
370
    15
100
AcDbLine
 10
93.5993969375
 20
29.80582843
 30
0.0
 11
93.5993969375
 21
29.810326938
 31
0.0
  0
LINE
  5
468
330
1F
100
AcDbEntity
  8
SLD-0
  6
Continuous
370
    15
100
AcDbLine
 10
93.5212720267
 20
29.810326938
 30
0.0
 11
93.5212720267
 21
29.80582843
 31
0.0
  0
LINE
  5
469
330
1F
100
AcDbEntity
  8
SLD-0
  6
Continuous
370
    15
100
AcDbLine
 10
93.0212720694
 20
29.810326938
 30
0.0
 11
92.9431470119
 21
29.810326938
 31
0.0
  0
LINE
  5
46A
330
1F
100
AcDbEntity
  8
SLD-0
  6
Continuous
370
    15
100
AcDbLine
 10
93.0212720694
 20
29.80582843
 30
0.0
 11
93.0212720694
 21
29.810326938
 31
0.0
  0
LINE
  5
46B
330
1F
100
AcDbEntity
  8
SLD-0
  6
Continuous
370
    15
100
AcDbLine
 10
92.9431470119
 20
29.810326938
 30
0.0
 11
92.9431470119
 21
29.80582843
 31
0.0
  0
LINE
  5
46C
330
1F
100
AcDbEntity
  8
SLD-0
  6
Continuous
370
    15
100
AcDbLine
 10
92.4431470546
 20
29.810326938
 30
0.0
 11
92.3650219971
 21
29.810326938
 31
0.0
  0
LINE
  5
46D
330
1F
100
AcDbEntity
  8
SLD-0
  6
Continuous
370
    15
100
AcDbLine
 10
92.4431470546
 20
29.80582843
 30
0.0
 11
92.4431470546
 21
29.810326938
 31
0.0
  0
LINE
  5
46E
330
1F
100
AcDbEntity
  8
SLD-0
  6
Continuous
370
    15
100
AcDbLine
 10
92.3650219971
 20
29.810326938
 30
0.0
 11
92.3650219971
 21
29.80582843
 31
0.0
  0
LINE
  5
46F
330
1F
100
AcDbEntity
  8
SLD-0
  6
Continuous
370
    15
100
AcDbLine
 10
91.8650220398
 20
29.810326938
 30
0.0
 11
91.7712720295
 21
29.810326938
 31
0.0
  0
LINE
  5
470
330
1F
100
AcDbEntity
  8
SLD-0
  6
Continuous
370
    15
100
AcDbLine
 10
91.8650220398
 20
29.80582843
 30
0.0
 11
91.8650220398
 21
29.810326938
 31
0.0
  0
LINE
  5
471
330
1F
100
AcDbEntity
  8
SLD-0
  6
Continuous
370
    15
100
AcDbLine
 10
91.7712720295
 20
29.810326938
 30
0.0
 11
91.7712720295
 21
29.80582843
 31
0.0
  0
LINE
  5
472
330
1F
100
AcDbEntity
  8
SLD-0
  6
Continuous
370
    15
100
AcDbLine
 10
94.0993968948
 20
29.810326938
 30
0.0
 11
94.0993968948
 21
29.8210487341
 31
0.0
  0
LINE
  5
473
330
1F
100
AcDbEntity
  8
SLD-0
  6
Continuous
370
    15
100
AcDbLine
 10
94.0993968948
 20
29.8210487341
 30
0.0
 11
93.5993969375
 21
29.8210487341
 31
0.0
  0
LINE
  5
474
330
1F
100
AcDbEntity
  8
SLD-0
  6
Continuous
370
    15
100
AcDbLine
 10
93.5993969375
 20
29.8210487341
 30
0.0
 11
93.5993969375
 21
29.810326938
 31
0.0
  0
LINE
  5
475
330
1F
100
AcDbEntity
  8
SLD-0
  6
Continuous
370
    15
100
AcDbLine
 10
93.5212720267
 20
29.810326938
 30
0.0
 11
93.5212720267
 21
29.8210487341
 31
0.0
  0
LINE
  5
476
330
1F
100
AcDbEntity
  8
SLD-0
  6
Continuous
370
    15
100
AcDbLine
 10
93.5212720267
 20
29.8210487341
 30
0.0
 11
93.0212720694
 21
29.8210487341
 31
0.0
  0
LINE
  5
477
330
1F
100
AcDbEntity
  8
SLD-0
  6
Continuous
370
    15
100
AcDbLine
 10
93.0212720694
 20
29.8210487341
 30
0.0
 11
93.0212720694
 21
29.810326938
 31
0.0
  0
LINE
  5
478
330
1F
100
AcDbEntity
  8
SLD-0
  6
Continuous
370
    15
100
AcDbLine
 10
92.9431470119
 20
29.810326938
 30
0.0
 11
92.9431470119
 21
29.8210487341
 31
0.0
  0
LINE
  5
479
330
1F
100
AcDbEntity
  8
SLD-0
  6
Continuous
370
    15
100
AcDbLine
 10
92.9431470119
 20
29.8210487341
 30
0.0
 11
92.4431470546
 21
29.8210487341
 31
0.0
  0
LINE
  5
47A
330
1F
100
AcDbEntity
  8
SLD-0
  6
Continuous
370
    15
100
AcDbLine
 10
92.4431470546
 20
29.8210487341
 30
0.0
 11
92.4431470546
 21
29.810326938
 31
0.0
  0
LINE
  5
47B
330
1F
100
AcDbEntity
  8
SLD-0
  6
Continuous
370
    15
100
AcDbLine
 10
92.3650219971
 20
29.810326938
 30
0.0
 11
92.3650219971
 21
29.8210487341
 31
0.0
  0
LINE
  5
47C
330
1F
100
AcDbEntity
  8
SLD-0
  6
Continuous
370
    15
100
AcDbLine
 10
92.3650219971
 20
29.8210487341
 30
0.0
 11
91.8650220398
 21
29.8210487341
 31
0.0
  0
LINE
  5
47D
330
1F
100
AcDbEntity
  8
SLD-0
  6
Continuous
370
    15
100
AcDbLine
 10
91.8650220398
 20
29.8210487341
 30
0.0
 11
91.8650220398
 21
29.810326938
 31
0.0
  0
LINE
  5
47E
330
1F
100
AcDbEntity
  8
SLD-0
  6
Continuous
370
    15
100
AcDbLine
 10
91.7712720295
 20
29.810326938
 30
0.0
 11
91.7712720295
 21
42.6382391222
 31
0.0
  0
LINE
  5
47F
330
1F
100
AcDbEntity
  8
SLD-0
  6
Continuous
370
    15
100
AcDbLine
 10
94.7712720666
 20
42.6382391222
 30
0.0
 11
91.7712720295
 21
42.6382391222
 31
0.0
  0
LINE
  5
480
330
1F
100
AcDbEntity
  8
SLD-0
  6
Continuous
370
    15
100
AcDbLine
 10
94.7712720666
 20
29.810326938
 30
0.0
 11
94.7712720666
 21
42.6382391222
 31
0.0
  0
LINE
  5
481
330
1F
100
AcDbEntity
  8
SLD-0
  6
Continuous
370
    15
100
AcDbLine
 10
94.6775220563
 20
29.810326938
 30
0.0
 11
94.6775220563
 21
29.8210487341
 31
0.0
  0
LINE
  5
482
330
1F
100
AcDbEntity
  8
SLD-0
  6
Continuous
370
    15
100
AcDbLine
 10
94.6775220563
 20
29.8210487341
 30
0.0
 11
94.177522099
 21
29.8210487341
 31
0.0
  0
LINE
  5
483
330
1F
100
AcDbEntity
  8
SLD-0
  6
Continuous
370
    15
100
AcDbLine
 10
94.177522099
 20
29.8210487341
 30
0.0
 11
94.177522099
 21
29.810326938
 31
0.0
  0
LINE
  5
484
330
1F
100
AcDbEntity
  8
SLD-0
  6
Continuous
370
    15
100
AcDbLine
 10
94.6775220563
 20
29.8170406738
 30
0.0
 11
94.177522099
 21
29.8170406738
 31
0.0
  0
LINE
  5
485
330
1F
100
AcDbEntity
  8
SLD-0
  6
Continuous
370
    15
100
AcDbLine
 10
94.0993968948
 20
29.8170406738
 30
0.0
 11
93.5993969375
 21
29.8170406738
 31
0.0
  0
LINE
  5
486
330
1F
100
AcDbEntity
  8
SLD-0
  6
Continuous
370
    15
100
AcDbLine
 10
93.5212720267
 20
29.8170406738
 30
0.0
 11
93.0212720694
 21
29.8170406738
 31
0.0
  0
LINE
  5
487
330
1F
100
AcDbEntity
  8
SLD-0
  6
Continuous
370
    15
100
AcDbLine
 10
92.9431470119
 20
29.8170406738
 30
0.0
 11
92.4431470546
 21
29.8170406738
 31
0.0
  0
LINE
  5
488
330
1F
100
AcDbEntity
  8
SLD-0
  6
Continuous
370
    15
100
AcDbLine
 10
92.3650219971
 20
29.8170406738
 30
0.0
 11
91.8650220398
 21
29.8170406738
 31
0.0
  0
LINE
  5
489
330
1F
100
AcDbEntity
  8
SLD-0
  6
Continuous
370
    15
100
AcDbLine
 10
94.177522099
 20
42.6856647077
 30
0.0
 11
94.177522099
 21
42.7030251471
 31
0.0
  0
LINE
  5
48A
330
1F
100
AcDbEntity
  8
SLD-0
  6
Continuous
370
    15
100
AcDbLine
 10
94.6775220563
 20
42.6856647077
 30
0.0
 11
94.177522099
 21
42.6856647077
 31
0.0
  0
LINE
  5
48B
330
1F
100
AcDbEntity
  8
SLD-0
  6
Continuous
370
    15
100
AcDbLine
 10
94.6775220563
 20
42.7030251471
 30
0.0
 11
94.6775220563
 21
42.6856647077
 31
0.0
  0
LINE
  5
48C
330
1F
100
AcDbEntity
  8
SLD-0
  6
Continuous
370
    15
100
AcDbLine
 10
93.0212720694
 20
42.6856647077
 30
0.0
 11
93.0212720694
 21
42.7030251471
 31
0.0
  0
LINE
  5
48D
330
1F
100
AcDbEntity
  8
SLD-0
  6
Continuous
370
    15
100
AcDbLine
 10
93.5212720267
 20
42.6856647077
 30
0.0
 11
93.0212720694
 21
42.6856647077
 31
0.0
  0
LINE
  5
48E
330
1F
100
AcDbEntity
  8
SLD-0
  6
Continuous
370
    15
100
AcDbLine
 10
93.5212720267
 20
42.7030251471
 30
0.0
 11
93.5212720267
 21
42.6856647077
 31
0.0
  0
LINE
  5
48F
330
1F
100
AcDbEntity
  8
SLD-0
  6
Continuous
370
    15
100
AcDbLine
 10
91.8650220398
 20
42.6856647077
 30
0.0
 11
91.8650220398
 21
42.7030251471
 31
0.0
  0
LINE
  5
490
330
1F
100
AcDbEntity
  8
SLD-0
  6
Continuous
370
    15
100
AcDbLine
 10
92.3650219971
 20
42.6856647077
 30
0.0
 11
91.8650220398
 21
42.6856647077
 31
0.0
  0
LINE
  5
491
330
1F
100
AcDbEntity
  8
SLD-0
  6
Continuous
370
    15
100
AcDbLine
 10
92.3650219971
 20
42.7030251471
 30
0.0
 11
92.3650219971
 21
42.6856647077
 31
0.0
  0
LINE
  5
492
330
1F
100
AcDbEntity
  8
SLD-0
  6
Continuous
370
    15
100
AcDbLine
 10
94.7712720666
 20
42.6382391222
 30
0.0
 11
94.7712720666
 21
42.7030251471
 31
0.0
  0
LINE
  5
493
330
1F
100
AcDbEntity
  8
SLD-0
  6
Continuous
370
    15
100
AcDbLine
 10
91.7712720295
 20
42.7030251471
 30
0.0
 11
91.7712720295
 21
42.6382391222
 31
0.0
  0
LINE
  5
494
330
1F
100
AcDbEntity
  8
SLD-0
  6
Continuous
370
    15
100
AcDbLine
 10
92.4431470546
 20
42.6856647077
 30
0.0
 11
92.4431470546
 21
42.7030251471
 31
0.0
  0
LINE
  5
495
330
1F
100
AcDbEntity
  8
SLD-0
  6
Continuous
370
    15
100
AcDbLine
 10
92.9431470119
 20
42.6856647077
 30
0.0
 11
92.4431470546
 21
42.6856647077
 31
0.0
  0
LINE
  5
496
330
1F
100
AcDbEntity
  8
SLD-0
  6
Continuous
370
    15
100
AcDbLine
 10
92.9431470119
 20
42.7030251471
 30
0.0
 11
92.9431470119
 21
42.6856647077
 31
0.0
  0
LINE
  5
497
330
1F
100
AcDbEntity
  8
SLD-0
  6
Continuous
370
    15
100
AcDbLine
 10
93.5993969375
 20
42.6856647077
 30
0.0
 11
93.5993969375
 21
42.7030251471
 31
0.0
  0
LINE
  5
498
330
1F
100
AcDbEntity
  8
SLD-0
  6
Continuous
370
    15
100
AcDbLine
 10
94.0993968948
 20
42.6856647077
 30
0.0
 11
93.5993969375
 21
42.6856647077
 31
0.0
  0
LINE
  5
499
330
1F
100
AcDbEntity
  8
SLD-0
  6
Continuous
370
    15
100
AcDbLine
 10
94.0993968948
 20
42.7030251471
 30
0.0
 11
94.0993968948
 21
42.6856647077
 31
0.0
  0
LINE
  5
49A
330
1F
100
AcDbEntity
  8
SLD-0
  6
Continuous
370
    15
100
AcDbLine
 10
91.1433970278
 20
16.4874539116
 30
0.0
 11
92.6433969546
 21
16.4874539116
 31
0.0
  0
LINE
  5
49B
330
1F
100
AcDbEntity
  8
SLD-0
  6
Continuous
370
    15
100
AcDbLine
 10
91.1433970278
 20
17.1880302452
 30
0.0
 11
91.1433970278
 21
16.4874539116
 31
0.0
  0
LINE
  5
49C
330
1F
100
AcDbEntity
  8
SLD-0
  6
Continuous
370
    15
100
AcDbLine
 10
91.1433970278
 20
17.1880302452
 30
0.0
 11
92.6433969546
 21
17.1880302452
 31
0.0
  0
LINE
  5
49D
330
1F
100
AcDbEntity
  8
SLD-0
  6
Continuous
370
    15
100
AcDbLine
 10
92.6433969546
 20
17.1880302452
 30
0.0
 11
92.6433969546
 21
16.4874539116
 31
0.0
  0
LINE
  5
49E
330
1F
100
AcDbEntity
  8
SLD-0
  6
Continuous
370
    15
100
AcDbLine
 10
91.1433970278
 20
17.2409012077
 30
0.0
 11
91.1433970278
 21
17.1880302452
 31
0.0
  0
LINE
  5
49F
330
1F
100
AcDbEntity
  8
SLD-0
  6
Continuous
370
    15
100
AcDbLine
 10
91.1433970278
 20
17.2409012077
 30
0.0
 11
92.6433969546
 21
17.2409012077
 31
0.0
  0
LINE
  5
4A0
330
1F
100
AcDbEntity
  8
SLD-0
  6
Continuous
370
    15
100
AcDbLine
 10
92.6433969546
 20
17.2409012077
 30
0.0
 11
92.6433969546
 21
17.1880302452
 31
0.0
  0
LINE
  5
4A1
330
1F
100
AcDbEntity
  8
SLD-0
  6
Continuous
370
    15
100
AcDbLine
 10
91.1433970278
 20
17.2491725255
 30
0.0
 11
91.1433970278
 21
17.2409012077
 31
0.0
  0
LINE
  5
4A2
330
1F
100
AcDbEntity
  8
SLD-0
  6
Continuous
370
    15
100
AcDbLine
 10
92.6433969546
 20
17.2491725255
 30
0.0
 11
92.6433969546
 21
17.2409012077
 31
0.0
  0
CIRCLE
  5
4A3
330
1F
100
AcDbEntity
  8
SLD-0
  6
Continuous
370
    15
100
AcDbCircle
 10
100.2782720253
 20
10.6437037268
 30
0.0
 40
0.4375000000000142
  0
LINE
  5
4A4
330
1F
100
AcDbEntity
  8
SLD-0
  6
Continuous
370
    15
100
AcDbLine
 10
91.0652720253
 20
29.7062041942
 30
0.0
 11
91.0652720253
 21
8.6437037268
 31
0.0
  0
LINE
  5
4A5
330
1F
100
AcDbEntity
  8
SLD-0
  6
Continuous
370
    15
100
AcDbLine
 10
101.9302718452
 20
29.7062041942
 30
0.0
 11
101.9302718452
 21
8.6437037268
 31
0.0
  0
CIRCLE
  5
4A6
330
1F
100
AcDbEntity
  8
SLD-0
  6
Continuous
370
    15
100
AcDbCircle
 10
96.2782720253
 20
11.2062037268
 30
0.0
 40
0.8750000000000142
  0
LINE
  5
4A7
330
1F
100
AcDbEntity
  8
SLD-0
  6
Continuous
370
    15
100
AcDbLine
 10
92.6590220541
 20
17.2491725255
 30
0.0
 11
91.1277720245
 21
17.2491725255
 31
0.0
  0
LINE
  5
4A8
330
1F
100
AcDbEntity
  8
SLD-0
  6
Continuous
370
    15
100
AcDbLine
 10
91.1277720245
 20
17.2491725255
 30
0.0
 11
91.1277720245
 21
17.1866727142
 31
0.0
  0
LINE
  5
4A9
330
1F
100
AcDbEntity
  8
SLD-0
  6
Continuous
370
    15
100
AcDbLine
 10
91.1277720245
 20
17.1866727142
 30
0.0
 11
91.1433970278
 21
17.1866727142
 31
0.0
  0
LINE
  5
4AA
330
1F
100
AcDbEntity
  8
SLD-0
  6
Continuous
370
    15
100
AcDbLine
 10
92.6433969546
 20
17.1866727142
 30
0.0
 11
92.6590220541
 21
17.1866727142
 31
0.0
  0
LINE
  5
4AB
330
1F
100
AcDbEntity
  8
SLD-0
  6
Continuous
370
    15
100
AcDbLine
 10
92.6590220541
 20
17.1866727142
 30
0.0
 11
92.6590220541
 21
17.2491725255
 31
0.0
  0
LINE
  5
4AC
330
1F
100
AcDbEntity
  8
SLD-0
  6
Continuous
370
    15
100
AcDbLine
 10
91.0652720253
 20
8.6437037268
 30
0.0
 11
91.1612720229
 21
8.6437037268
 31
0.0
  0
LINE
  5
4AD
330
1F
100
AcDbEntity
  8
SLD-0
  6
Continuous
370
    15
100
AcDbLine
 10
91.0652720253
 20
29.7062041942
 30
0.0
 11
91.0773720253
 21
29.7062041942
 31
0.0
  0
LINE
  5
4AE
330
1F
100
AcDbEntity
  8
SLD-0
  6
Continuous
370
    15
100
AcDbLine
 10
101.8780849281
 20
29.7062041942
 30
0.0
 11
101.9302718452
 21
29.7062041942
 31
0.0
  0
LINE
  5
4AF
330
1F
100
AcDbEntity
  8
SLD-0
  6
Continuous
370
    15
100
AcDbLine
 10
101.963271464
 20
29.7062041942
 30
0.0
 11
101.963271464
 21
8.6437037268
 31
0.0
  0
LINE
  5
4B0
330
1F
100
AcDbEntity
  8
SLD-0
  6
Continuous
370
    15
100
AcDbLine
 10
101.9632550375
 20
8.6437037268
 30
0.0
 11
101.9313454328
 21
8.6437037268
 31
0.0
  0
LINE
  5
4B1
330
1F
100
AcDbEntity
  8
SLD-0
  6
Continuous
370
    15
100
AcDbLine
 10
101.9302718452
 20
29.7062041942
 30
0.0
 11
101.963271464
 21
29.7062041942
 31
0.0
  0
LINE
  5
4B2
330
1F
100
AcDbEntity
  8
SLD-0
  6
Continuous
370
    15
100
AcDbLine
 10
91.0322720261
 20
29.7062041942
 30
0.0
 11
91.0322720261
 21
8.6437037268
 31
0.0
  0
LINE
  5
4B3
330
1F
100
AcDbEntity
  8
SLD-0
  6
Continuous
370
    15
100
AcDbLine
 10
91.0322720261
 20
29.7062041942
 30
0.0
 11
91.0652720253
 21
29.7062041942
 31
0.0
  0
LINE
  5
4B4
330
1F
100
AcDbEntity
  8
SLD-0
  6
Continuous
370
    15
100
AcDbLine
 10
91.0652720253
 20
8.6437037268
 30
0.0
 11
91.0322720261
 21
8.6437037268
 31
0.0
  0
LINE
  5
4B5
330
1F
100
AcDbEntity
  8
SLD-0
  6
Continuous
370
    15
100
AcDbLine
 10
91.0322720261
 20
15.0942035532
 30
0.0
 11
90.5322720092
 21
15.0942035532
 31
0.0
  0
LINE
  5
4B6
330
1F
100
AcDbEntity
  8
SLD-0
  6
Continuous
370
    15
100
AcDbLine
 10
90.5322720092
 20
27.20282906
 30
0.0
 11
90.5322720092
 21
15.0942035532
 31
0.0
  0
LINE
  5
4B7
330
1F
100
AcDbEntity
  8
SLD-0
  6
Continuous
370
    15
100
AcDbLine
 10
90.5322720092
 20
27.20282906
 30
0.0
 11
91.0322720261
 21
27.20282906
 31
0.0
  0
LINE
  5
4B8
330
1F
100
AcDbEntity
  8
SLD-0
  6
Continuous
370
    15
100
AcDbLine
 10
101.2652306745
 20
9.2737037322
 30
0.0
 11
100.5502307209
 21
9.2737037322
 31
0.0
  0
LINE
  5
4B9
330
1F
100
AcDbEntity
  8
SLD-0
  6
Continuous
370
    15
100
AcDbLine
 10
100.5502307209
 20
9.2737037322
 30
0.0
 11
100.5502307209
 21
9.301703762
 31
0.0
  0
LINE
  5
4BA
330
1F
100
AcDbEntity
  8
SLD-0
  6
Continuous
370
    15
100
AcDbLine
 10
101.2652306745
 20
9.301703762
 30
0.0
 11
101.2652306745
 21
9.2737037322
 31
0.0
  0
LINE
  5
4BB
330
1F
100
AcDbEntity
  8
SLD-0
  6
Continuous
370
    15
100
AcDbLine
 10
101.2652306745
 20
9.301703762
 30
0.0
 11
100.5502307209
 21
9.301703762
 31
0.0
  0
LINE
  5
4BC
330
1F
100
AcDbEntity
  8
SLD-0
  6
Continuous
370
    15
100
AcDbLine
 10
91.6902720452
 20
9.2737037322
 30
0.0
 11
91.6902720452
 21
9.301703762
 31
0.0
  0
LINE
  5
4BD
330
1F
100
AcDbEntity
  8
SLD-0
  6
Continuous
370
    15
100
AcDbLine
 10
91.6902720452
 20
9.2737037322
 30
0.0
 11
100.5502307209
 21
9.2737037322
 31
0.0
  0
LINE
  5
4BE
330
1F
100
AcDbEntity
  8
SLD-0
  6
Continuous
370
    15
100
AcDbLine
 10
91.6902720452
 20
9.301703762
 30
0.0
 11
100.5502307209
 21
9.301703762
 31
0.0
  0
LINE
  5
4BF
330
1F
100
AcDbEntity
  8
SLD-0
  6
Continuous
370
    15
100
AcDbLine
 10
101.0202309447
 20
9.2687037032
 30
0.0
 11
101.286278858
 21
9.2687037032
 31
0.0
  0
LINE
  5
4C0
330
1F
100
AcDbEntity
  8
SLD-0
  6
Continuous
370
    15
100
AcDbLine
 10
101.0202309447
 20
9.2687037032
 30
0.0
 11
101.0202309447
 21
9.2737037322
 31
0.0
  0
SPLINE
  5
4C1
330
1F
100
AcDbEntity
  8
SLD-0
  6
Continuous
370
    15
100
AcDbSpline
210
0.0
220
0.0
230
1.0
 70
     8
 71
     3
 72
    14
 73
    10
 74
     0
 42
0.00000001
 43
0.00000001
 12
1.0
 22
0.0
 32
0.0
 13
1.0
 23
0.0
 33
0.0
 40
0.0
 40
0.0
 40
0.0
 40
0.0
 40
0.25
 40
0.25
 40
0.5
 40
0.5
 40
0.75
 40
0.75
 40
1.0
 40
1.0
 40
1.0
 40
1.0
 10
101.2652305098967
 20
9.273703726757192
 30
0.0
 10
101.2669846044451
 20
9.273703726757194
 30
0.0
 10
101.2687386216932
 20
9.273573590140536
 30
0.0
 10
101.2722467334897
 20
9.273072658698968
 30
0.0
 10
101.2740007893879
 20
9.272702060969188
 30
0.0
 10
101.2775089011844
 20
9.271776460357072
 30
0.0
 10
101.2792629570827
 20
9.27122182165905
 30
0.0
 10
101.2827710688792
 20
9.270012466178994
 30
0.0
 10
101.2845250861273
 20
9.269358239648412
 30
0.0
 10
101.2862791806757
 20
9.268703726757193
 30
0.0
  0
SPLINE
  5
4C2
330
1F
100
AcDbEntity
  8
SLD-0
  6
Continuous
370
    15
100
AcDbSpline
210
0.0
220
0.0
230
1.0
 70
     8
 71
     3
 72
    10
 73
     6
 74
     0
 42
0.00000001
 43
0.00000001
 12
1.0
 22
0.0
 32
0.0
 13
1.0
 23
0.0
 33
0.0
 40
0.0
 40
0.0
 40
0.0
 40
0.0
 40
0.5
 40
0.5
 40
1.0
 40
1.0
 40
1.0
 40
1.0
 10
101.2652305098967
 20
9.301703726757193
 30
0.0
 10
101.2687386216932
 20
9.301703726757218
 30
0.0
 10
101.2722467334897
 20
9.298147214576353
 30
0.0
 10
101.2792629570827
 20
9.285929286496412
 30
0.0
 10
101.2827710688792
 20
9.27734310655458
 30
0.0
 10
101.2862791806757
 20
9.268703726757193
 30
0.0
  0
LINE
  5
4C3
330
1F
100
AcDbEntity
  8
SLD-0
  6
Continuous
370
    15
100
AcDbLine
 10
100.0202304435
 20
9.2737037322
 30
0.0
 11
100.0202304435
 21
9.2687037032
 31
0.0
  0
LINE
  5
4C4
330
1F
100
AcDbEntity
  8
SLD-0
  6
Continuous
370
    15
100
AcDbLine
 10
99.8702303096
 20
9.2687037032
 30
0.0
 11
100.0202304435
 21
9.2687037032
 31
0.0
  0
LINE
  5
4C5
330
1F
100
AcDbEntity
  8
SLD-0
  6
Continuous
370
    15
100
AcDbLine
 10
99.8702303096
 20
9.2687037032
 30
0.0
 11
99.8702303096
 21
9.2737037322
 31
0.0
  0
LINE
  5
4C6
330
1F
100
AcDbEntity
  8
SLD-0
  6
Continuous
370
    15
100
AcDbLine
 10
98.7202302612
 20
9.2687037032
 30
0.0
 11
98.8702303951
 21
9.2687037032
 31
0.0
  0
LINE
  5
4C7
330
1F
100
AcDbEntity
  8
SLD-0
  6
Continuous
370
    15
100
AcDbLine
 10
98.8702303951
 20
9.2737037322
 30
0.0
 11
98.8702303951
 21
9.2687037032
 31
0.0
  0
LINE
  5
4C8
330
1F
100
AcDbEntity
  8
SLD-0
  6
Continuous
370
    15
100
AcDbLine
 10
98.7202302612
 20
9.2687037032
 30
0.0
 11
98.7202302612
 21
9.2737037322
 31
0.0
  0
LINE
  5
4C9
330
1F
100
AcDbEntity
  8
SLD-0
  6
Continuous
370
    15
100
AcDbLine
 10
97.5702307994
 20
9.2687037032
 30
0.0
 11
97.7202303466
 21
9.2687037032
 31
0.0
  0
LINE
  5
4CA
330
1F
100
AcDbEntity
  8
SLD-0
  6
Continuous
370
    15
100
AcDbLine
 10
97.7202303466
 20
9.2737037322
 30
0.0
 11
97.7202303466
 21
9.2687037032
 31
0.0
  0
LINE
  5
4CB
330
1F
100
AcDbEntity
  8
SLD-0
  6
Continuous
370
    15
100
AcDbLine
 10
97.5702307994
 20
9.2687037032
 30
0.0
 11
97.5702307994
 21
9.2737037322
 31
0.0
  0
LINE
  5
4CC
330
1F
100
AcDbEntity
  8
SLD-0
  6
Continuous
370
    15
100
AcDbLine
 10
96.5702302982
 20
9.2737037322
 30
0.0
 11
96.5702302982
 21
9.2687037032
 31
0.0
  0
LINE
  5
4CD
330
1F
100
AcDbEntity
  8
SLD-0
  6
Continuous
370
    15
100
AcDbLine
 10
96.420230751
 20
9.2687037032
 30
0.0
 11
96.5702302982
 21
9.2687037032
 31
0.0
  0
LINE
  5
4CE
330
1F
100
AcDbEntity
  8
SLD-0
  6
Continuous
370
    15
100
AcDbLine
 10
96.420230751
 20
9.2687037032
 30
0.0
 11
96.420230751
 21
9.2737037322
 31
0.0
  0
LINE
  5
4CF
330
1F
100
AcDbEntity
  8
SLD-0
  6
Continuous
370
    15
100
AcDbLine
 10
93.1202304462
 20
9.2737037322
 30
0.0
 11
93.1202304462
 21
9.2687037032
 31
0.0
  0
LINE
  5
4D0
330
1F
100
AcDbEntity
  8
SLD-0
  6
Continuous
370
    15
100
AcDbLine
 10
92.970230459
 20
9.2687037032
 30
0.0
 11
93.1202304462
 21
9.2687037032
 31
0.0
  0
LINE
  5
4D1
330
1F
100
AcDbEntity
  8
SLD-0
  6
Continuous
370
    15
100
AcDbLine
 10
92.970230459
 20
9.2687037032
 30
0.0
 11
92.970230459
 21
9.2737037322
 31
0.0
  0
LINE
  5
4D2
330
1F
100
AcDbEntity
  8
SLD-0
  6
Continuous
370
    15
100
AcDbLine
 10
94.1202306541
 20
9.2687037032
 30
0.0
 11
94.2702304947
 21
9.2687037032
 31
0.0
  0
LINE
  5
4D3
330
1F
100
AcDbEntity
  8
SLD-0
  6
Continuous
370
    15
100
AcDbLine
 10
94.1202306541
 20
9.2687037032
 30
0.0
 11
94.1202306541
 21
9.2737037322
 31
0.0
  0
LINE
  5
4D4
330
1F
100
AcDbEntity
  8
SLD-0
  6
Continuous
370
    15
100
AcDbLine
 10
94.2702304947
 20
9.2737037322
 30
0.0
 11
94.2702304947
 21
9.2687037032
 31
0.0
  0
LINE
  5
4D5
330
1F
100
AcDbEntity
  8
SLD-0
  6
Continuous
370
    15
100
AcDbLine
 10
95.2702304092
 20
9.2687037032
 30
0.0
 11
95.4202305431
 21
9.2687037032
 31
0.0
  0
LINE
  5
4D6
330
1F
100
AcDbEntity
  8
SLD-0
  6
Continuous
370
    15
100
AcDbLine
 10
95.2702304092
 20
9.2687037032
 30
0.0
 11
95.2702304092
 21
9.2737037322
 31
0.0
  0
LINE
  5
4D7
330
1F
100
AcDbEntity
  8
SLD-0
  6
Continuous
370
    15
100
AcDbLine
 10
95.4202305431
 20
9.2737037322
 30
0.0
 11
95.4202305431
 21
9.2687037032
 31
0.0
  0
LINE
  5
4D8
330
1F
100
AcDbEntity
  8
SLD-0
  6
Continuous
370
    15
100
AcDbLine
 10
92.970230459
 20
9.2374537242
 30
0.0
 11
91.9789138441
 21
9.2374537242
 31
0.0
  0
LINE
  5
4D9
330
1F
100
AcDbEntity
  8
SLD-0
  6
Continuous
370
    15
100
AcDbLine
 10
92.970230459
 20
9.2687037032
 30
0.0
 11
92.970230459
 21
9.2374537242
 31
0.0
  0
LINE
  5
4DA
330
1F
100
AcDbEntity
  8
SLD-0
  6
Continuous
370
    15
100
AcDbLine
 10
93.1202304462
 20
9.2374537242
 30
0.0
 11
93.1202304462
 21
9.2687037032
 31
0.0
  0
LINE
  5
4DB
330
1F
100
AcDbEntity
  8
SLD-0
  6
Continuous
370
    15
100
AcDbLine
 10
94.1202306541
 20
9.2374537242
 30
0.0
 11
93.1202304462
 21
9.2374537242
 31
0.0
  0
LINE
  5
4DC
330
1F
100
AcDbEntity
  8
SLD-0
  6
Continuous
370
    15
100
AcDbLine
 10
94.1202306541
 20
9.2687037032
 30
0.0
 11
94.1202306541
 21
9.2374537242
 31
0.0
  0
LINE
  5
4DD
330
1F
100
AcDbEntity
  8
SLD-0
  6
Continuous
370
    15
100
AcDbLine
 10
94.2702304947
 20
9.2374537242
 30
0.0
 11
94.2702304947
 21
9.2687037032
 31
0.0
  0
LINE
  5
4DE
330
1F
100
AcDbEntity
  8
SLD-0
  6
Continuous
370
    15
100
AcDbLine
 10
95.2702304092
 20
9.2374537242
 30
0.0
 11
94.2702304947
 21
9.2374537242
 31
0.0
  0
LINE
  5
4DF
330
1F
100
AcDbEntity
  8
SLD-0
  6
Continuous
370
    15
100
AcDbLine
 10
95.2702304092
 20
9.2687037032
 30
0.0
 11
95.2702304092
 21
9.2374537242
 31
0.0
  0
LINE
  5
4E0
330
1F
100
AcDbEntity
  8
SLD-0
  6
Continuous
370
    15
100
AcDbLine
 10
95.4202305431
 20
9.2374537242
 30
0.0
 11
95.4202305431
 21
9.2687037032
 31
0.0
  0
LINE
  5
4E1
330
1F
100
AcDbEntity
  8
SLD-0
  6
Continuous
370
    15
100
AcDbLine
 10
96.420230751
 20
9.2374537242
 30
0.0
 11
95.4202305431
 21
9.2374537242
 31
0.0
  0
LINE
  5
4E2
330
1F
100
AcDbEntity
  8
SLD-0
  6
Continuous
370
    15
100
AcDbLine
 10
96.420230751
 20
9.2687037032
 30
0.0
 11
96.420230751
 21
9.2374537242
 31
0.0
  0
LINE
  5
4E3
330
1F
100
AcDbEntity
  8
SLD-0
  6
Continuous
370
    15
100
AcDbLine
 10
96.5702302982
 20
9.2374537242
 30
0.0
 11
96.5702302982
 21
9.2687037032
 31
0.0
  0
LINE
  5
4E4
330
1F
100
AcDbEntity
  8
SLD-0
  6
Continuous
370
    15
100
AcDbLine
 10
97.5702307994
 20
9.2374537242
 30
0.0
 11
96.5702302982
 21
9.2374537242
 31
0.0
  0
LINE
  5
4E5
330
1F
100
AcDbEntity
  8
SLD-0
  6
Continuous
370
    15
100
AcDbLine
 10
97.5702307994
 20
9.2687037032
 30
0.0
 11
97.5702307994
 21
9.2374537242
 31
0.0
  0
LINE
  5
4E6
330
1F
100
AcDbEntity
  8
SLD-0
  6
Continuous
370
    15
100
AcDbLine
 10
97.7202303466
 20
9.2374537242
 30
0.0
 11
97.7202303466
 21
9.2687037032
 31
0.0
  0
LINE
  5
4E7
330
1F
100
AcDbEntity
  8
SLD-0
  6
Continuous
370
    15
100
AcDbLine
 10
98.7202302612
 20
9.2374537242
 30
0.0
 11
97.7202303466
 21
9.2374537242
 31
0.0
  0
LINE
  5
4E8
330
1F
100
AcDbEntity
  8
SLD-0
  6
Continuous
370
    15
100
AcDbLine
 10
98.7202302612
 20
9.2687037032
 30
0.0
 11
98.7202302612
 21
9.2374537242
 31
0.0
  0
LINE
  5
4E9
330
1F
100
AcDbEntity
  8
SLD-0
  6
Continuous
370
    15
100
AcDbLine
 10
98.8702303951
 20
9.2374537242
 30
0.0
 11
98.8702303951
 21
9.2687037032
 31
0.0
  0
LINE
  5
4EA
330
1F
100
AcDbEntity
  8
SLD-0
  6
Continuous
370
    15
100
AcDbLine
 10
99.8702303096
 20
9.2374537242
 30
0.0
 11
98.8702303951
 21
9.2374537242
 31
0.0
  0
LINE
  5
4EB
330
1F
100
AcDbEntity
  8
SLD-0
  6
Continuous
370
    15
100
AcDbLine
 10
99.8702303096
 20
9.2687037032
 30
0.0
 11
99.8702303096
 21
9.2374537242
 31
0.0
  0
LINE
  5
4EC
330
1F
100
AcDbEntity
  8
SLD-0
  6
Continuous
370
    15
100
AcDbLine
 10
100.0202304435
 20
9.2374537242
 30
0.0
 11
100.0202304435
 21
9.2687037032
 31
0.0
  0
LINE
  5
4ED
330
1F
100
AcDbEntity
  8
SLD-0
  6
Continuous
370
    15
100
AcDbLine
 10
101.0202309447
 20
9.2374537242
 30
0.0
 11
100.0202304435
 21
9.2374537242
 31
0.0
  0
LINE
  5
4EE
330
1F
100
AcDbEntity
  8
SLD-0
  6
Continuous
370
    15
100
AcDbLine
 10
101.0202309447
 20
9.2687037032
 30
0.0
 11
101.0202309447
 21
9.2374537242
 31
0.0
  0
LINE
  5
4EF
330
1F
100
AcDbEntity
  8
SLD-0
  6
Continuous
370
    15
100
AcDbLine
 10
101.906278629
 20
8.648703726
 30
0.0
 11
91.7241122743
 21
8.648703726
 31
0.0
  0
LINE
  5
4F0
330
1F
100
AcDbEntity
  8
SLD-0
  6
Continuous
370
    15
100
AcDbLine
 10
91.7241122743
 20
8.648703726
 30
0.0
 11
91.9789138441
 21
9.2374537242
 31
0.0
  0
LINE
  5
4F1
330
1F
100
AcDbEntity
  8
SLD-0
  6
Continuous
370
    15
100
AcDbLine
 10
101.906278629
 20
8.648703726
 30
0.0
 11
101.286278858
 21
9.2687037032
 31
0.0
  0
SPLINE
  5
4F2
330
1F
100
AcDbEntity
  8
SLD-0
  6
Continuous
370
    15
100
AcDbSpline
210
0.0
220
0.0
230
1.0
 70
     8
 71
     3
 72
    10
 73
     6
 74
     0
 42
0.00000001
 43
0.00000001
 12
1.0
 22
0.0
 32
0.0
 13
1.0
 23
0.0
 33
0.0
 40
0.0
 40
0.0
 40
0.0
 40
0.0
 40
0.5
 40
0.5
 40
1.0
 40
1.0
 40
1.0
 40
1.0
 10
101.9062791806757
 20
8.64870372675718
 30
0.0
 10
101.9097872924722
 20
8.647394729818187
 30
0.0
 10
101.9132954042688
 20
8.646093793463367
 30
0.0
 10
101.9203116278618
 20
8.644242592239134
 30
0.0
 10
101.9238197396583
 20
8.643703726757185
 30
0.0
 10
101.9273278514548
 20
8.643703726757185
 30
0.0
  0
LINE
  5
4F3
330
1F
100
AcDbEntity
  8
SLD-0
  6
Continuous
370
    15
100
AcDbLine
 10
101.9273279859
 20
8.6157037268
 30
0.0
 11
101.9273279859
 21
8.6437037268
 31
0.0
  0
SPLINE
  5
4F4
330
1F
100
AcDbEntity
  8
SLD-0
  6
Continuous
370
    15
100
AcDbSpline
210
0.0
220
0.0
230
1.0
 70
     8
 71
     3
 72
    14
 73
    10
 74
     0
 42
0.00000001
 43
0.00000001
 12
1.0
 22
0.0
 32
0.0
 13
1.0
 23
0.0
 33
0.0
 40
0.0
 40
0.0
 40
0.0
 40
0.0
 40
0.25
 40
0.25
 40
0.5
 40
0.5
 40
0.75
 40
0.75
 40
1.0
 40
1.0
 40
1.0
 40
1.0
 10
101.9062791806757
 20
8.648703726757166
 30
0.0
 10
101.9080335080613
 20
8.64438336827044
 30
0.0
 10
101.9097872924722
 20
8.640066046573308
 30
0.0
 10
101.9132954042688
 20
8.632084300404928
 30
0.0
 10
101.915049460167
 20
8.628423684998008
 30
0.0
 10
101.9185575719635
 20
8.622314720958046
 30
0.0
 10
101.9203116278618
 20
8.619868775941496
 30
0.0
 10
101.9238197396583
 20
8.616562628427133
 30
0.0
 10
101.9255735240693
 20
8.615703726757184
 30
0.0
 10
101.9273278514548
 20
8.615703726757184
 30
0.0
  0
LINE
  5
4F5
330
1F
100
AcDbEntity
  8
SLD-0
  6
Continuous
370
    15
100
AcDbLine
 10
91.7219483793
 20
8.6157037268
 30
0.0
 11
92.5045706384
 21
8.6157037268
 31
0.0
  0
LINE
  5
4F6
330
1F
100
AcDbEntity
  8
SLD-0
  6
Continuous
370
    15
100
AcDbLine
 10
100.5045709817
 20
8.6157037268
 30
0.0
 11
101.9273279859
 21
8.6157037268
 31
0.0
  0
LWPOLYLINE
  5
4F7
330
1F
100
AcDbEntity
  8
SLD-0
  6
Continuous
370
    15
100
AcDbPolyline
 90
       10
 70
   128
 43
0.0
 10
91.7219483793
 20
8.6157037268
 10
91.7219812323
 20
8.6162050709
 10
91.7220788378
 20
8.6176938703
 10
91.7222382626
 20
8.6201248885
 10
91.7224545934
 20
8.6234242603
 10
91.7227213037
 20
8.627491736
 10
91.7230303268
 20
8.6322037264
 10
91.7233721295
 20
8.6374170611
 10
91.7237365186
 20
8.6429733376
 10
91.7241122743
 20
8.648703726
  0
LINE
  5
4F8
330
1F
100
AcDbEntity
  8
SLD-0
  6
Continuous
370
    15
100
AcDbLine
 10
91.7219483793
 20
8.6437037268
 30
0.0
 11
91.7219483793
 21
8.6157037268
 31
0.0
  0
LWPOLYLINE
  5
4F9
330
1F
100
AcDbEntity
  8
SLD-0
  6
Continuous
370
    15
100
AcDbPolyline
 90
       10
 70
   128
 43
0.0
 10
91.7219483793
 20
8.6437037268
 10
91.7219812323
 20
8.6437796878
 10
91.7220788378
 20
8.6440052631
 10
91.7222382626
 20
8.6443736008
 10
91.7224545934
 20
8.6448735037
 10
91.7227213037
 20
8.6454897877
 10
91.7230303268
 20
8.6462037275
 10
91.7233721295
 20
8.6469936261
 10
91.7237365186
 20
8.6478354854
 10
91.7241122743
 20
8.648703726
  0
LINE
  5
4FA
330
1F
100
AcDbEntity
  8
SLD-0
  6
Continuous
370
    15
100
AcDbLine
 10
101.9273279859
 20
8.6437037268
 30
0.0
 11
101.9313454328
 21
8.6437037268
 31
0.0
  0
LINE
  5
4FB
330
1F
100
AcDbEntity
  8
SLD-0
  6
Continuous
370
    15
100
AcDbLine
 10
101.9632550375
 20
8.6437037268
 30
0.0
 11
101.9715222487
 21
8.6437037268
 31
0.0
  0
LINE
  5
4FC
330
1F
100
AcDbEntity
  8
SLD-0
  6
Continuous
370
    15
100
AcDbLine
 10
101.9715222487
 20
8.6157037268
 30
0.0
 11
101.9715222487
 21
8.6437037268
 31
0.0
  0
LINE
  5
4FD
330
1F
100
AcDbEntity
  8
SLD-0
  6
Continuous
370
    15
100
AcDbLine
 10
101.9273279859
 20
8.6157037268
 30
0.0
 11
101.9715222487
 21
8.6157037268
 31
0.0
  0
LINE
  5
4FE
330
1F
100
AcDbEntity
  8
SLD-0
  6
Continuous
370
    15
100
AcDbLine
 10
91.1652720259
 20
8.6437037268
 30
0.0
 11
91.1652720259
 21
8.6157037268
 31
0.0
  0
LINE
  5
4FF
330
1F
100
AcDbEntity
  8
SLD-0
  6
Continuous
370
    15
100
AcDbLine
 10
91.1652720259
 20
8.6437037268
 30
0.0
 11
91.7219483793
 21
8.6437037268
 31
0.0
  0
LINE
  5
500
330
1F
100
AcDbEntity
  8
SLD-0
  6
Continuous
370
    15
100
AcDbLine
 10
91.1652720259
 20
8.6157037268
 30
0.0
 11
91.7219483793
 21
8.6157037268
 31
0.0
  0
LINE
  5
501
330
1F
100
AcDbEntity
  8
SLD-0
  6
Continuous
370
    15
100
AcDbLine
 10
91.0652720253
 20
8.6157037268
 30
0.0
 11
91.0652720253
 21
8.6437037268
 31
0.0
  0
LINE
  5
502
330
1F
100
AcDbEntity
  8
SLD-0
  6
Continuous
370
    15
100
AcDbLine
 10
91.1612720229
 20
8.6437037268
 30
0.0
 11
91.1652720259
 21
8.6437037268
 31
0.0
  0
LINE
  5
503
330
1F
100
AcDbEntity
  8
SLD-0
  6
Continuous
370
    15
100
AcDbLine
 10
91.1652720259
 20
8.6157037268
 30
0.0
 11
91.0652720253
 21
8.6157037268
 31
0.0
  0
SPLINE
  5
504
330
1F
100
AcDbEntity
  8
SLD-0
  6
Continuous
370
    15
100
AcDbSpline
210
0.0
220
0.0
230
1.0
 70
     8
 71
     3
 72
    10
 73
     6
 74
     0
 42
0.00000001
 43
0.00000001
 12
1.0
 22
0.0
 32
0.0
 13
1.0
 23
0.0
 33
0.0
 40
0.0
 40
0.0
 40
0.0
 40
0.0
 40
0.5
 40
0.5
 40
1.0
 40
1.0
 40
1.0
 40
1.0
 10
101.9715220252789
 20
8.643703726757185
 30
0.0
 10
101.9728310222179
 20
8.643703726757185
 30
0.0
 10
101.9741319585728
 20
8.644242592239134
 30
0.0
 10
101.975983159797
 20
8.646093793463367
 30
0.0
 10
101.976522025279
 20
8.647394729818188
 30
0.0
 10
101.976522025279
 20
8.648703726757185
 30
0.0
  0
LINE
  5
505
330
1F
100
AcDbEntity
  8
SLD-0
  6
Continuous
370
    15
100
AcDbLine
 10
102.0045218675
 20
8.648703726
 30
0.0
 11
101.9765217643
 21
8.648703726
 31
0.0
  0
SPLINE
  5
506
330
1F
100
AcDbEntity
  8
SLD-0
  6
Continuous
370
    15
100
AcDbSpline
210
0.0
220
0.0
230
1.0
 70
     8
 71
     3
 72
    14
 73
    10
 74
     0
 42
0.00000001
 43
0.00000001
 12
1.0
 22
0.0
 32
0.0
 13
1.0
 23
0.0
 33
0.0
 40
0.0
 40
0.0
 40
0.0
 40
0.0
 40
0.25
 40
0.25
 40
0.5
 40
0.5
 40
0.75
 40
0.75
 40
1.0
 40
1.0
 40
1.0
 40
1.0
 10
101.9715220252789
 20
8.615703726757184
 30
0.0
 10
101.9758423837657
 20
8.615703726757184
 30
0.0
 10
101.9801597054628
 20
8.616562628427129
 30
0.0
 10
101.9881414516312
 20
8.619868775941493
 30
0.0
 10
101.9918020670381
 20
8.622314720958048
 30
0.0
 10
101.9979110310781
 20
8.628423684998015
 30
0.0
 10
102.0003569760946
 20
8.632084300404943
 30
0.0
 10
102.003663123609
 20
8.640066046573327
 30
0.0
 10
102.0045220252789
 20
8.644383368270457
 30
0.0
 10
102.0045220252789
 20
8.648703726757187
 30
0.0
  0
LINE
  5
507
330
1F
100
AcDbEntity
  8
SLD-0
  6
Continuous
370
    15
100
AcDbLine
 10
101.9765217643
 20
9.1437037139
 30
0.0
 11
102.0045218675
 21
9.1437037139
 31
0.0
  0
LINE
  5
508
330
1F
100
AcDbEntity
  8
SLD-0
  6
Continuous
370
    15
100
AcDbLine
 10
101.9765217643
 20
9.1437037139
 30
0.0
 11
101.9765217643
 21
8.648703726
 31
0.0
  0
LINE
  5
509
330
1F
100
AcDbEntity
  8
SLD-0
  6
Continuous
370
    15
100
AcDbLine
 10
102.0045218675
 20
9.1437037139
 30
0.0
 11
102.0045218675
 21
8.648703726
 31
0.0
  0
SPLINE
  5
50A
330
1F
100
AcDbEntity
  8
SLD-0
  6
Continuous
370
    15
100
AcDbSpline
210
0.0
220
0.0
230
1.0
 70
     8
 71
     3
 72
    14
 73
    10
 74
     0
 42
0.00000001
 43
0.00000001
 12
1.0
 22
0.0
 32
0.0
 13
1.0
 23
0.0
 33
0.0
 40
0.0
 40
0.0
 40
0.0
 40
0.0
 40
0.1123762749246489
 40
0.300912271526706
 40
0.4677892443710362
 40
0.6133271846149265
 40
0.8421982682090703
 40
0.9288227189796275
 40
1.0
 40
1.0
 40
1.0
 40
1.0
 10
91.03310767038599
 20
8.64370372684046
 30
0.0
 10
91.03333214546093
 20
8.641764243678779
 30
0.0
 10
91.03393322700367
 20
8.636570849573477
 30
0.0
 10
91.03803727426762
 20
8.6294744365844
 30
0.0
 10
91.04373998630022
 20
8.623277399880722
 30
0.0
 10
91.0511923468579
 20
8.618390086299982
 30
0.0
 10
91.05811878758853
 20
8.616243941891458
 30
0.0
 10
91.06324981625586
 20
8.615728452144209
 30
0.0
 10
91.06464342906764
 20
8.615711412552486
 30
0.0
 10
91.06527202527893
 20
8.615703726757184
 30
0.0
  0
ARC
  5
50B
330
1F
100
AcDbEntity
  8
SLD-0
  6
Continuous
370
    15
100
AcDbCircle
 10
91.0272720253
 20
15.0767037268
 30
0.0
 40
0.0050000000000328
100
AcDbArc
 50
0.0000000003
 51
89.9999999997
  0
LINE
  5
50C
330
1F
100
AcDbEntity
  8
SLD-0
  6
Continuous
370
    15
100
AcDbLine
 10
90.5478970354
 20
15.081703591
 30
0.0
 11
90.5478970354
 21
15.0942035532
 31
0.0
  0
LINE
  5
50D
330
1F
100
AcDbEntity
  8
SLD-0
  6
Continuous
370
    15
100
AcDbLine
 10
91.0272720247
 20
15.081703591
 30
0.0
 11
90.5478970354
 21
15.081703591
 31
0.0
  0
LINE
  5
50E
330
1F
100
AcDbEntity
  8
SLD-0
  6
Continuous
370
    15
100
AcDbLine
 10
91.0272720247
 20
15.081703591
 30
0.0
 11
91.0272720247
 21
15.0942035532
 31
0.0
  0
DIMENSION
  5
50F
330
1F
100
AcDbEntity
  8
DIM
100
AcDbDimension
  2
_D_8
 10
106.0140720253
 20
29.7658287268
 30
0.0
 11
106.0140720253
 21
36.2344266139
 31
0.0
 70
   160
  1
<>
 71
     2
 42
-1.0
  3
SLDDIMSTYLE0
100
AcDbAlignedDimension
 13
94.7712720253
 23
42.703024501
 33
0.0
 14
101.9629720253
 24
29.7658287268
 34
0.0
 50
90.0
100
AcDbRotatedDimension
  0
DIMENSION
  5
51E
330
1F
100
AcDbEntity
  8
DIM
100
AcDbDimension
  2
_D_9
 10
106.0140720253
 20
8.6157037268
 30
0.0
 11
106.0140720253
 21
19.1907662268
 31
0.0
 70
   160
  1
<>
 71
     2
 42
-1.0
  3
SLDDIMSTYLE0
100
AcDbAlignedDimension
 13
101.9629720253
 23
29.7658287268
 33
0.0
 14
101.9715220253
 24
8.6157037268
 34
0.0
 50
90.0
100
AcDbRotatedDimension
  0
DIMENSION
  5
52D
330
1F
100
AcDbEntity
  8
DIM
100
AcDbDimension
  2
_D_10
 10
106.0140720253
 20
8.6157037268
 30
0.0
 11
106.0140720253
 21
3.6777037268
 31
0.0
 70
   160
  1
<>
 71
     2
 42
-1.0
  3
SLDDIMSTYLE1
100
AcDbAlignedDimension
 13
100.5045706961
 23
7.6777037268
 33
0.0
 14
101.9715220253
 24
8.6157037268
 34
0.0
 50
90.0
100
AcDbRotatedDimension
  0
DIMENSION
  5
53C
330
1F
100
AcDbEntity
  8
DIM
100
AcDbDimension
  2
_D_11
 10
102.0045220253
 20
3.6777037268
 30
0.0
 11
96.7970732846
 21
3.6777037268
 31
0.0
 70
   160
  1
<>
 71
     2
 42
-1.0
  3
SLDDIMSTYLE0
100
AcDbAlignedDimension
 13
91.0322720253
 23
8.6437037268
 33
0.0
 14
102.0045220253
 24
8.6487037268
 34
0.0
100
AcDbRotatedDimension
  0
DIMENSION
  5
547
330
1F
100
AcDbEntity
  8
DIM
100
AcDbDimension
  2
_D_12
 10
91.0322720253
 20
3.6777037268
 30
0.0
 11
86.9696752729
 21
3.6777037268
 31
0.0
 70
   160
  1
<>
 71
     2
 42
-1.0
  3
SLDDIMSTYLE1
100
AcDbAlignedDimension
 13
90.5322720253
 23
15.0942037268
 33
0.0
 14
91.0322720253
 24
8.6437037268
 34
0.0
100
AcDbRotatedDimension
  0
LINE
  5
555
330
1F
100
AcDbEntity
  8
SLD-0
  6
Continuous
370
    15
100
AcDbLine
 10
12.081291338
 20
42.7030251471
 30
0.0
 11
11.9875413277
 21
42.7030251471
 31
0.0
  0
LINE
  5
556
330
1F
100
AcDbEntity
  8
SLD-0
  6
Continuous
370
    15
100
AcDbLine
 10
12.6594164995
 20
42.7030251471
 30
0.0
 11
12.5812912953
 21
42.7030251471
 31
0.0
  0
LINE
  5
557
330
1F
100
AcDbEntity
  8
SLD-0
  6
Continuous
370
    15
100
AcDbLine
 10
13.2375413676
 20
42.7030251471
 30
0.0
 11
13.1594164568
 21
42.7030251471
 31
0.0
  0
LINE
  5
558
330
1F
100
AcDbEntity
  8
SLD-0
  6
Continuous
370
    15
100
AcDbLine
 10
13.8156663824
 20
42.7030251471
 30
0.0
 11
13.7375413249
 21
42.7030251471
 31
0.0
  0
LINE
  5
559
330
1F
100
AcDbEntity
  8
SLD-0
  6
Continuous
370
    15
100
AcDbLine
 10
14.3937913972
 20
42.7030251471
 30
0.0
 11
14.3156663397
 21
42.7030251471
 31
0.0
  0
LINE
  5
55A
330
1F
100
AcDbEntity
  8
SLD-0
  6
Continuous
370
    15
100
AcDbLine
 10
14.9875413648
 20
42.7030251471
 30
0.0
 11
14.8937913545
 21
42.7030251471
 31
0.0
  0
LINE
  5
55B
330
1F
100
AcDbEntity
  8
SLD-0
  6
Continuous
370
    15
100
AcDbLine
 10
5.5386827855
 20
29.0477277476
 30
0.0
 11
5.5386827855
 21
29.0747281824
 31
0.0
  0
LINE
  5
55C
330
1F
100
AcDbEntity
  8
SLD-0
  6
Continuous
370
    15
100
AcDbLine
 10
6.2145830308
 20
29.0477277476
 30
0.0
 11
6.2145830308
 21
29.0747281824
 31
0.0
  0
LINE
  5
55D
330
1F
100
AcDbEntity
  8
SLD-0
  6
Continuous
370
    15
100
AcDbLine
 10
6.2145830308
 20
29.0477277476
 30
0.0
 11
5.5386827855
 21
29.0477277476
 31
0.0
  0
LINE
  5
55E
330
1F
100
AcDbEntity
  8
SLD-0
  6
Continuous
370
    15
100
AcDbLine
 10
6.2145830308
 20
29.0747281824
 30
0.0
 11
5.5386827855
 21
29.0747281824
 31
0.0
  0
LINE
  5
55F
330
1F
100
AcDbEntity
  8
SLD-0
  6
Continuous
370
    15
100
AcDbLine
 10
15.0564413422
 20
29.0477277476
 30
0.0
 11
15.0564413422
 21
29.0747281824
 31
0.0
  0
LINE
  5
560
330
1F
100
AcDbEntity
  8
SLD-0
  6
Continuous
370
    15
100
AcDbLine
 10
15.0564413422
 20
29.0477277476
 30
0.0
 11
6.2145830308
 21
29.0477277476
 31
0.0
  0
LINE
  5
561
330
1F
100
AcDbEntity
  8
SLD-0
  6
Continuous
370
    15
100
AcDbLine
 10
15.0564413422
 20
29.0747281824
 30
0.0
 11
6.2145830308
 21
29.0747281824
 31
0.0
  0
SPLINE
  5
562
330
1F
100
AcDbEntity
  8
SLD-0
  6
Continuous
370
    15
100
AcDbSpline
210
0.0
220
0.0
230
1.0
 70
     8
 71
     3
 72
    11
 73
     7
 74
     0
 42
0.00000001
 43
0.00000001
 12
1.0
 22
0.0
 32
0.0
 13
1.0
 23
0.0
 33
0.0
 40
0.0
 40
0.0
 40
0.0
 40
0.0
 40
0.2499980770291381
 40
0.5000020468272566
 40
0.750006016625375
 40
1.0
 40
1.0
 40
1.0
 40
1.0
 10
5.538682785480227
 20
29.0477277476055
 30
0.0
 10
5.534467806122763
 20
29.04849643325899
 30
0.0
 10
5.526037748055474
 20
29.05003382268486
 30
0.0
 10
5.51339303617189
 20
29.06184820591474
 30
0.0
 10
5.50074848204906
 20
29.07874090979348
 30
0.0
 10
5.492318315521475
 20
29.09213250616921
 30
0.0
 10
5.488103316445236
 20
29.09882817062238
 30
0.0
  0
SPLINE
  5
563
330
1F
100
AcDbEntity
  8
SLD-0
  6
Continuous
370
    15
100
AcDbSpline
210
0.0
220
0.0
230
1.0
 70
     8
 71
     3
 72
    11
 73
     7
 74
     0
 42
0.00000001
 43
0.00000001
 12
1.0
 22
0.0
 32
0.0
 13
1.0
 23
0.0
 33
0.0
 40
0.0
 40
0.0
 40
0.0
 40
0.0
 40
0.249998785837052
 40
0.5000000000000001
 40
0.7500012141629481
 40
1.0
 40
1.0
 40
1.0
 40
1.0
 10
5.538682785480227
 20
29.07472818236084
 30
0.0
 10
5.534467819492123
 20
29.07509077068102
 30
0.0
 10
5.526037846574473
 20
29.07581595084334
 30
0.0
 10
5.513393050962734
 20
29.08138761670312
 30
0.0
 10
5.500748255350987
 20
29.08935481949736
 30
0.0
 10
5.492318282433341
 20
29.09567039713822
 30
0.0
 10
5.488103316445236
 20
29.09882817062238
 30
0.0
  0
LINE
  5
564
330
1F
100
AcDbEntity
  8
SLD-0
  6
Continuous
370
    15
100
AcDbLine
 10
5.4881033164
 20
29.0988281706
 30
0.0
 11
5.8314413235
 21
29.0988281706
 31
0.0
  0
LINE
  5
565
330
1F
100
AcDbEntity
  8
SLD-0
  6
Continuous
370
    15
100
AcDbLine
 10
5.8314413235
 20
29.0988281706
 30
0.0
 11
5.8314413235
 21
29.0747281824
 31
0.0
  0
LINE
  5
566
330
1F
100
AcDbEntity
  8
SLD-0
  6
Continuous
370
    15
100
AcDbLine
 10
7.6314411698
 20
29.0747281824
 30
0.0
 11
7.6314411698
 21
29.0988281706
 31
0.0
  0
LINE
  5
567
330
1F
100
AcDbEntity
  8
SLD-0
  6
Continuous
370
    15
100
AcDbLine
 10
7.6314411698
 20
29.0988281706
 30
0.0
 11
7.7814413036
 21
29.0988281706
 31
0.0
  0
LINE
  5
568
330
1F
100
AcDbEntity
  8
SLD-0
  6
Continuous
370
    15
100
AcDbLine
 10
7.7814413036
 20
29.0988281706
 30
0.0
 11
7.7814413036
 21
29.0747281824
 31
0.0
  0
LINE
  5
569
330
1F
100
AcDbEntity
  8
SLD-0
  6
Continuous
370
    15
100
AcDbLine
 10
9.5814411499
 20
29.0988281706
 30
0.0
 11
9.7314412837
 21
29.0988281706
 31
0.0
  0
LINE
  5
56A
330
1F
100
AcDbEntity
  8
SLD-0
  6
Continuous
370
    15
100
AcDbLine
 10
9.5814411499
 20
29.0747281824
 30
0.0
 11
9.5814411499
 21
29.0988281706
 31
0.0
  0
LINE
  5
56B
330
1F
100
AcDbEntity
  8
SLD-0
  6
Continuous
370
    15
100
AcDbLine
 10
9.7314412837
 20
29.0988281706
 30
0.0
 11
9.7314412837
 21
29.0747281824
 31
0.0
  0
LINE
  5
56C
330
1F
100
AcDbEntity
  8
SLD-0
  6
Continuous
370
    15
100
AcDbLine
 10
11.5314414233
 20
29.0747281824
 30
0.0
 11
11.5314414233
 21
29.0988281706
 31
0.0
  0
LINE
  5
56D
330
1F
100
AcDbEntity
  8
SLD-0
  6
Continuous
370
    15
100
AcDbLine
 10
11.5314414233
 20
29.0988281706
 30
0.0
 11
11.6814412638
 21
29.0988281706
 31
0.0
  0
LINE
  5
56E
330
1F
100
AcDbEntity
  8
SLD-0
  6
Continuous
370
    15
100
AcDbLine
 10
11.6814412638
 20
29.0988281706
 30
0.0
 11
11.6814412638
 21
29.0747281824
 31
0.0
  0
LINE
  5
56F
330
1F
100
AcDbEntity
  8
SLD-0
  6
Continuous
370
    15
100
AcDbLine
 10
13.4814414034
 20
29.0988281706
 30
0.0
 11
13.6314413906
 21
29.0988281706
 31
0.0
  0
LINE
  5
570
330
1F
100
AcDbEntity
  8
SLD-0
  6
Continuous
370
    15
100
AcDbLine
 10
13.4814414034
 20
29.0747281824
 30
0.0
 11
13.4814414034
 21
29.0988281706
 31
0.0
  0
LINE
  5
571
330
1F
100
AcDbEntity
  8
SLD-0
  6
Continuous
370
    15
100
AcDbLine
 10
13.6314413906
 20
29.0988281706
 30
0.0
 11
13.6314413906
 21
29.0747281824
 31
0.0
  0
LINE
  5
572
330
1F
100
AcDbEntity
  8
SLD-0
  6
Continuous
370
    15
100
AcDbLine
 10
14.8694413758
 20
29.0988281706
 30
0.0
 11
15.0564413422
 21
29.0988281706
 31
0.0
  0
LINE
  5
573
330
1F
100
AcDbEntity
  8
SLD-0
  6
Continuous
370
    15
100
AcDbLine
 10
15.0564413422
 20
29.0988281706
 30
0.0
 11
15.0564413422
 21
29.0747281824
 31
0.0
  0
LINE
  5
574
330
1F
100
AcDbEntity
  8
SLD-0
  6
Continuous
370
    15
100
AcDbLine
 10
14.8694413758
 20
29.0747281824
 30
0.0
 11
14.8694413758
 21
29.0988281706
 31
0.0
  0
LINE
  5
575
330
1F
100
AcDbEntity
  8
SLD-0
  6
Continuous
370
    15
100
AcDbLine
 10
5.8314413235
 20
29.137348259
 30
0.0
 11
7.6314411698
 21
29.137348259
 31
0.0
  0
LINE
  5
576
330
1F
100
AcDbEntity
  8
SLD-0
  6
Continuous
370
    15
100
AcDbLine
 10
5.8314413235
 20
29.0988281706
 30
0.0
 11
5.8314413235
 21
29.137348259
 31
0.0
  0
LINE
  5
577
330
1F
100
AcDbEntity
  8
SLD-0
  6
Continuous
370
    15
100
AcDbLine
 10
4.8722031247
 20
29.7147295357
 30
0.0
 11
15.681441369
 21
29.7147295357
 31
0.0
  0
LINE
  5
578
330
1F
100
AcDbEntity
  8
SLD-0
  6
Continuous
370
    15
100
AcDbLine
 10
15.681441369
 20
29.10234813
 30
0.0
 11
15.681441369
 21
29.7147295357
 31
0.0
  0
LINE
  5
579
330
1F
100
AcDbEntity
  8
SLD-0
  6
Continuous
370
    15
100
AcDbLine
 10
15.0564413422
 20
29.10234813
 30
0.0
 11
15.681441369
 21
29.10234813
 31
0.0
  0
LINE
  5
57A
330
1F
100
AcDbEntity
  8
SLD-0
  6
Continuous
370
    15
100
AcDbLine
 10
15.0564413422
 20
29.0988281706
 30
0.0
 11
15.0564413422
 21
29.10234813
 31
0.0
  0
LINE
  5
57B
330
1F
100
AcDbEntity
  8
SLD-0
  6
Continuous
370
    15
100
AcDbLine
 10
14.8694413758
 20
29.137348259
 30
0.0
 11
14.8694413758
 21
29.0988281706
 31
0.0
  0
LINE
  5
57C
330
1F
100
AcDbEntity
  8
SLD-0
  6
Continuous
370
    15
100
AcDbLine
 10
13.6314413906
 20
29.137348259
 30
0.0
 11
14.8694413758
 21
29.137348259
 31
0.0
  0
LINE
  5
57D
330
1F
100
AcDbEntity
  8
SLD-0
  6
Continuous
370
    15
100
AcDbLine
 10
13.6314413906
 20
29.0988281706
 30
0.0
 11
13.6314413906
 21
29.137348259
 31
0.0
  0
LINE
  5
57E
330
1F
100
AcDbEntity
  8
SLD-0
  6
Continuous
370
    15
100
AcDbLine
 10
13.4814414034
 20
29.137348259
 30
0.0
 11
13.4814414034
 21
29.0988281706
 31
0.0
  0
LINE
  5
57F
330
1F
100
AcDbEntity
  8
SLD-0
  6
Continuous
370
    15
100
AcDbLine
 10
11.6814412638
 20
29.137348259
 30
0.0
 11
13.4814414034
 21
29.137348259
 31
0.0
  0
LINE
  5
580
330
1F
100
AcDbEntity
  8
SLD-0
  6
Continuous
370
    15
100
AcDbLine
 10
11.6814412638
 20
29.0988281706
 30
0.0
 11
11.6814412638
 21
29.137348259
 31
0.0
  0
LINE
  5
581
330
1F
100
AcDbEntity
  8
SLD-0
  6
Continuous
370
    15
100
AcDbLine
 10
11.5314414233
 20
29.137348259
 30
0.0
 11
11.5314414233
 21
29.0988281706
 31
0.0
  0
LINE
  5
582
330
1F
100
AcDbEntity
  8
SLD-0
  6
Continuous
370
    15
100
AcDbLine
 10
9.7314412837
 20
29.137348259
 30
0.0
 11
11.5314414233
 21
29.137348259
 31
0.0
  0
LINE
  5
583
330
1F
100
AcDbEntity
  8
SLD-0
  6
Continuous
370
    15
100
AcDbLine
 10
9.7314412837
 20
29.0988281706
 30
0.0
 11
9.7314412837
 21
29.137348259
 31
0.0
  0
LINE
  5
584
330
1F
100
AcDbEntity
  8
SLD-0
  6
Continuous
370
    15
100
AcDbLine
 10
9.5814411499
 20
29.137348259
 30
0.0
 11
9.5814411499
 21
29.0988281706
 31
0.0
  0
LINE
  5
585
330
1F
100
AcDbEntity
  8
SLD-0
  6
Continuous
370
    15
100
AcDbLine
 10
7.7814413036
 20
29.137348259
 30
0.0
 11
9.5814411499
 21
29.137348259
 31
0.0
  0
LINE
  5
586
330
1F
100
AcDbEntity
  8
SLD-0
  6
Continuous
370
    15
100
AcDbLine
 10
7.7814413036
 20
29.0988281706
 30
0.0
 11
7.7814413036
 21
29.137348259
 31
0.0
  0
LINE
  5
587
330
1F
100
AcDbEntity
  8
SLD-0
  6
Continuous
370
    15
100
AcDbLine
 10
7.6314411698
 20
29.137348259
 30
0.0
 11
7.6314411698
 21
29.0988281706
 31
0.0
  0
LINE
  5
588
330
1F
100
AcDbEntity
  8
SLD-0
  6
Continuous
370
    15
100
AcDbLine
 10
4.8722031247
 20
29.7147295357
 30
0.0
 11
5.4881033164
 21
29.0988281706
 31
0.0
  0
LWPOLYLINE
  5
589
330
1F
100
AcDbEntity
  8
SLD-0
  6
Continuous
370
    15
100
AcDbPolyline
 90
        7
 70
   128
 43
0.0
 10
4.8271429519
 20
29.7359807035
 10
4.832184707
 20
29.7336035576
 10
4.8385171139
 20
29.7306162855
 10
4.8459383615
 20
29.7271150993
 10
4.8542079193
 20
29.7232149843
 10
4.863057097
 20
29.7190426592
 10
4.8722031247
 20
29.7147295357
  0
LINE
  5
58A
330
1F
100
AcDbEntity
  8
SLD-0
  6
Continuous
370
    15
100
AcDbLine
 10
4.8271429519
 20
29.7597897085
 30
0.0
 11
4.8271429519
 21
29.7359807035
 31
0.0
  0
LWPOLYLINE
  5
58B
330
1F
100
AcDbEntity
  8
SLD-0
  6
Continuous
370
    15
100
AcDbPolyline
 90
        7
 70
   128
 43
0.0
 10
4.8271429519
 20
29.7597897085
 10
4.832184707
 20
29.7547467801
 10
4.8385171139
 20
29.7484155465
 10
4.8459383615
 20
29.7409931256
 10
4.8542079193
 20
29.7327235678
 10
4.863057097
 20
29.72387439
 10
4.8722031247
 20
29.7147295357
  0
LINE
  5
58C
330
1F
100
AcDbEntity
  8
SLD-0
  6
Continuous
370
    15
100
AcDbLine
 10
4.8271429519
 20
29.7597897085
 30
0.0
 11
4.7958411269
 21
29.7597897085
 31
0.0
  0
LINE
  5
58D
330
1F
100
AcDbEntity
  8
SLD-0
  6
Continuous
370
    15
100
AcDbLine
 10
4.7958411269
 20
29.7658276121
 30
0.0
 11
4.7958411269
 21
29.7597897085
 31
0.0
  0
LINE
  5
58E
330
1F
100
AcDbEntity
  8
SLD-0
  6
Continuous
370
    15
100
AcDbLine
 10
15.681441369
 20
29.7658276121
 30
0.0
 11
4.7958411269
 21
29.7658276121
 31
0.0
  0
LINE
  5
58F
330
1F
100
AcDbEntity
  8
SLD-0
  6
Continuous
370
    15
100
AcDbLine
 10
15.681441369
 20
29.7147295357
 30
0.0
 11
15.681441369
 21
29.7658276121
 31
0.0
  0
LINE
  5
590
330
1F
100
AcDbEntity
  8
SLD-0
  6
Continuous
370
    15
100
AcDbLine
 10
4.8271429519
 20
29.7359807035
 30
0.0
 11
4.7958411269
 21
29.7359807035
 31
0.0
  0
LINE
  5
591
330
1F
100
AcDbEntity
  8
SLD-0
  6
Continuous
370
    15
100
AcDbLine
 10
4.7958411269
 20
29.7597897085
 30
0.0
 11
4.7958411269
 21
29.7359807035
 31
0.0
  0
LINE
  5
592
330
1F
100
AcDbEntity
  8
SLD-0
  6
Continuous
370
    15
100
AcDbLine
 10
4.7447418772
 20
29.7147295357
 30
0.0
 11
4.7717411386
 21
29.7147295357
 31
0.0
  0
LINE
  5
593
330
1F
100
AcDbEntity
  8
SLD-0
  6
Continuous
370
    15
100
AcDbLine
 10
4.7717411386
 20
29.7147295357
 30
0.0
 11
4.7717411386
 21
29.2058278946
 31
0.0
  0
LINE
  5
594
330
1F
100
AcDbEntity
  8
SLD-0
  6
Continuous
370
    15
100
AcDbLine
 10
4.7447418772
 20
29.2058278946
 30
0.0
 11
4.7717411386
 21
29.2058278946
 31
0.0
  0
LINE
  5
595
330
1F
100
AcDbEntity
  8
SLD-0
  6
Continuous
370
    15
100
AcDbLine
 10
4.7447418772
 20
29.7147295357
 30
0.0
 11
4.7447418772
 21
29.2058278946
 31
0.0
  0
ARC
  5
596
330
1F
100
AcDbEntity
  8
SLD-0
  6
Continuous
370
    15
100
AcDbCircle
 10
4.795841369
 20
29.7147287268
 30
0.0
 40
0.0510999999999999
100
AcDbArc
 50
90.0
 51
180.0
  0
ARC
  5
597
330
1F
100
AcDbEntity
  8
SLD-0
  6
Continuous
370
    15
100
AcDbCircle
 10
4.795841369
 20
29.7147287268
 30
0.0
 40
0.0240999999999998
100
AcDbArc
 50
90.0
 51
180.0
  0
LINE
  5
598
330
1F
100
AcDbEntity
  8
SLD-0
  6
Continuous
370
    15
100
AcDbLine
 10
15.6965413689
 20
29.7635466784
 30
0.0
 11
15.6885628953
 21
29.7377524164
 31
0.0
  0
ARC
  5
599
330
1F
100
AcDbEntity
  8
SLD-0
  6
Continuous
370
    15
100
AcDbCircle
 10
15.681441369
 20
29.7147287268
 30
0.0
 40
0.0240999999999972
100
AcDbArc
 50
72.8125367085
 51
90.0
  0
ARC
  5
59A
330
1F
100
AcDbEntity
  8
SLD-0
  6
Continuous
370
    15
100
AcDbCircle
 10
15.681441369
 20
29.7147287268
 30
0.0
 40
0.0511
100
AcDbArc
 50
72.8125367085
 51
90.0
  0
LINE
  5
59B
330
1F
100
AcDbEntity
  8
SLD-0
  6
Continuous
370
    15
100
AcDbLine
 10
15.7055413687
 20
29.7147295357
 30
0.0
 11
15.7055413687
 21
29.7062041942
 31
0.0
  0
LINE
  5
59C
330
1F
100
AcDbEntity
  8
SLD-0
  6
Continuous
370
    15
100
AcDbLine
 10
15.7055413687
 20
29.7147295357
 30
0.0
 11
15.7325413681
 21
29.7147295357
 31
0.0
  0
LINE
  5
59D
330
1F
100
AcDbEntity
  8
SLD-0
  6
Continuous
370
    15
100
AcDbLine
 10
15.7325413681
 20
29.7147295357
 30
0.0
 11
15.7325413681
 21
27.2188284485
 31
0.0
  0
LINE
  5
59E
330
1F
100
AcDbEntity
  8
SLD-0
  6
Continuous
370
    15
100
AcDbLine
 10
15.7265413682
 20
27.2188284485
 30
0.0
 11
15.7325413681
 21
27.2188284485
 31
0.0
  0
ARC
  5
59F
330
1F
100
AcDbEntity
  8
SLD-0
  6
Continuous
370
    15
100
AcDbCircle
 10
15.681441369
 20
29.7147287268
 30
0.0
 40
0.0241000000000007
100
AcDbArc
 50
0.0
 51
72.8125367085
  0
ARC
  5
5A0
330
1F
100
AcDbEntity
  8
SLD-0
  6
Continuous
370
    15
100
AcDbCircle
 10
15.681441369
 20
29.7147287268
 30
0.0
 40
0.0511
100
AcDbArc
 50
0.0
 51
72.8125367085
  0
LWPOLYLINE
  5
5A1
330
1F
100
AcDbEntity
  8
SLD-0
  6
Continuous
370
    15
100
AcDbPolyline
 90
        3
 70
   128
 43
0.0
 10
15.7325413681
 20
27.209928818
 10
15.7330044444
 20
27.2052273257
 10
15.7336109545
 20
27.20282906
  0
LINE
  5
5A2
330
1F
100
AcDbEntity
  8
SLD-0
  6
Continuous
370
    15
100
AcDbLine
 10
15.7325413681
 20
27.2188284485
 30
0.0
 11
15.7325413681
 21
27.209928818
 31
0.0
  0
LINE
  5
5A3
330
1F
100
AcDbEntity
  8
SLD-0
  6
Continuous
370
    15
100
AcDbLine
 10
14.2542427559
 20
7.6777037159
 30
0.0
 11
14.2542427559
 21
8.5537037267
 31
0.0
  0
LINE
  5
5A4
330
1F
100
AcDbEntity
  8
SLD-0
  6
Continuous
370
    15
100
AcDbLine
 10
6.2542424126
 20
7.6777037159
 30
0.0
 11
14.2542427559
 21
7.6777037159
 31
0.0
  0
LINE
  5
5A5
330
1F
100
AcDbEntity
  8
SLD-0
  6
Continuous
370
    15
100
AcDbLine
 10
6.2542424126
 20
8.5537037267
 30
0.0
 11
6.2542424126
 21
7.6777037159
 31
0.0
  0
LINE
  5
5A6
330
1F
100
AcDbEntity
  8
SLD-0
  6
Continuous
370
    15
100
AcDbLine
 10
6.2542424126
 20
8.5537037267
 30
0.0
 11
14.2542427559
 21
8.5537037267
 31
0.0
  0
LINE
  5
5A7
330
1F
100
AcDbEntity
  8
SLD-0
  6
Continuous
370
    15
100
AcDbLine
 10
14.2542427559
 20
8.6157037268
 30
0.0
 11
14.2542427559
 21
8.5537037267
 31
0.0
  0
LINE
  5
5A8
330
1F
100
AcDbEntity
  8
SLD-0
  6
Continuous
370
    15
100
AcDbLine
 10
6.2542424126
 20
8.5537037267
 30
0.0
 11
6.2542424126
 21
8.6157037268
 31
0.0
  0
LINE
  5
5A9
330
1F
100
AcDbEntity
  8
SLD-0
  6
Continuous
370
    15
100
AcDbLine
 10
6.2542424126
 20
8.6157037268
 30
0.0
 11
14.2542427559
 21
8.6157037268
 31
0.0
  0
LINE
  5
5AA
330
1F
100
AcDbEntity
  8
SLD-0
  6
Continuous
370
    15
100
AcDbLine
 10
11.9875413277
 20
29.7658276121
 30
0.0
 11
11.9875413277
 21
29.80582843
 31
0.0
  0
LINE
  5
5AB
330
1F
100
AcDbEntity
  8
SLD-0
  6
Continuous
370
    15
100
AcDbLine
 10
11.9875413277
 20
29.80582843
 30
0.0
 11
12.0875413192
 21
29.80582843
 31
0.0
  0
LINE
  5
5AC
330
1F
100
AcDbEntity
  8
SLD-0
  6
Continuous
370
    15
100
AcDbLine
 10
12.0875413192
 20
29.80582843
 30
0.0
 11
12.0875413192
 21
29.7658276121
 31
0.0
  0
LINE
  5
5AD
330
1F
100
AcDbEntity
  8
SLD-0
  6
Continuous
370
    15
100
AcDbLine
 10
14.8875413733
 20
29.7658276121
 30
0.0
 11
14.8875413733
 21
29.80582843
 31
0.0
  0
LINE
  5
5AE
330
1F
100
AcDbEntity
  8
SLD-0
  6
Continuous
370
    15
100
AcDbLine
 10
14.8875413733
 20
29.80582843
 30
0.0
 11
12.0875413192
 21
29.80582843
 31
0.0
  0
LINE
  5
5AF
330
1F
100
AcDbEntity
  8
SLD-0
  6
Continuous
370
    15
100
AcDbLine
 10
14.9875413648
 20
29.80582843
 30
0.0
 11
14.9875413648
 21
29.7658276121
 31
0.0
  0
LINE
  5
5B0
330
1F
100
AcDbEntity
  8
SLD-0
  6
Continuous
370
    15
100
AcDbLine
 10
14.8875413733
 20
29.80582843
 30
0.0
 11
14.9875413648
 21
29.80582843
 31
0.0
  0
LINE
  5
5B1
330
1F
100
AcDbEntity
  8
SLD-0
  6
Continuous
370
    15
100
AcDbLine
 10
12.081291338
 20
29.810326938
 30
0.0
 11
11.9875413277
 21
29.810326938
 31
0.0
  0
LINE
  5
5B2
330
1F
100
AcDbEntity
  8
SLD-0
  6
Continuous
370
    15
100
AcDbLine
 10
12.081291338
 20
29.80582843
 30
0.0
 11
12.081291338
 21
29.810326938
 31
0.0
  0
LINE
  5
5B3
330
1F
100
AcDbEntity
  8
SLD-0
  6
Continuous
370
    15
100
AcDbLine
 10
11.9875413277
 20
29.810326938
 30
0.0
 11
11.9875413277
 21
29.80582843
 31
0.0
  0
LINE
  5
5B4
330
1F
100
AcDbEntity
  8
SLD-0
  6
Continuous
370
    15
100
AcDbLine
 10
12.6594164995
 20
29.810326938
 30
0.0
 11
12.5812912953
 21
29.810326938
 31
0.0
  0
LINE
  5
5B5
330
1F
100
AcDbEntity
  8
SLD-0
  6
Continuous
370
    15
100
AcDbLine
 10
12.6594164995
 20
29.80582843
 30
0.0
 11
12.6594164995
 21
29.810326938
 31
0.0
  0
LINE
  5
5B6
330
1F
100
AcDbEntity
  8
SLD-0
  6
Continuous
370
    15
100
AcDbLine
 10
12.5812912953
 20
29.810326938
 30
0.0
 11
12.5812912953
 21
29.80582843
 31
0.0
  0
LINE
  5
5B7
330
1F
100
AcDbEntity
  8
SLD-0
  6
Continuous
370
    15
100
AcDbLine
 10
13.2375413676
 20
29.810326938
 30
0.0
 11
13.1594164568
 21
29.810326938
 31
0.0
  0
LINE
  5
5B8
330
1F
100
AcDbEntity
  8
SLD-0
  6
Continuous
370
    15
100
AcDbLine
 10
13.2375413676
 20
29.80582843
 30
0.0
 11
13.2375413676
 21
29.810326938
 31
0.0
  0
LINE
  5
5B9
330
1F
100
AcDbEntity
  8
SLD-0
  6
Continuous
370
    15
100
AcDbLine
 10
13.1594164568
 20
29.810326938
 30
0.0
 11
13.1594164568
 21
29.80582843
 31
0.0
  0
LINE
  5
5BA
330
1F
100
AcDbEntity
  8
SLD-0
  6
Continuous
370
    15
100
AcDbLine
 10
13.8156663824
 20
29.810326938
 30
0.0
 11
13.7375413249
 21
29.810326938
 31
0.0
  0
LINE
  5
5BB
330
1F
100
AcDbEntity
  8
SLD-0
  6
Continuous
370
    15
100
AcDbLine
 10
13.8156663824
 20
29.80582843
 30
0.0
 11
13.8156663824
 21
29.810326938
 31
0.0
  0
LINE
  5
5BC
330
1F
100
AcDbEntity
  8
SLD-0
  6
Continuous
370
    15
100
AcDbLine
 10
13.7375413249
 20
29.810326938
 30
0.0
 11
13.7375413249
 21
29.80582843
 31
0.0
  0
LINE
  5
5BD
330
1F
100
AcDbEntity
  8
SLD-0
  6
Continuous
370
    15
100
AcDbLine
 10
14.3937913972
 20
29.810326938
 30
0.0
 11
14.3156663397
 21
29.810326938
 31
0.0
  0
LINE
  5
5BE
330
1F
100
AcDbEntity
  8
SLD-0
  6
Continuous
370
    15
100
AcDbLine
 10
14.3937913972
 20
29.80582843
 30
0.0
 11
14.3937913972
 21
29.810326938
 31
0.0
  0
LINE
  5
5BF
330
1F
100
AcDbEntity
  8
SLD-0
  6
Continuous
370
    15
100
AcDbLine
 10
14.3156663397
 20
29.810326938
 30
0.0
 11
14.3156663397
 21
29.80582843
 31
0.0
  0
LINE
  5
5C0
330
1F
100
AcDbEntity
  8
SLD-0
  6
Continuous
370
    15
100
AcDbLine
 10
14.9875413648
 20
29.810326938
 30
0.0
 11
14.8937913545
 21
29.810326938
 31
0.0
  0
LINE
  5
5C1
330
1F
100
AcDbEntity
  8
SLD-0
  6
Continuous
370
    15
100
AcDbLine
 10
14.9875413648
 20
29.80582843
 30
0.0
 11
14.9875413648
 21
29.810326938
 31
0.0
  0
LINE
  5
5C2
330
1F
100
AcDbEntity
  8
SLD-0
  6
Continuous
370
    15
100
AcDbLine
 10
14.8937913545
 20
29.810326938
 30
0.0
 11
14.8937913545
 21
29.80582843
 31
0.0
  0
LINE
  5
5C3
330
1F
100
AcDbEntity
  8
SLD-0
  6
Continuous
370
    15
100
AcDbLine
 10
14.3156663397
 20
29.810326938
 30
0.0
 11
14.3156663397
 21
29.8210487341
 31
0.0
  0
LINE
  5
5C4
330
1F
100
AcDbEntity
  8
SLD-0
  6
Continuous
370
    15
100
AcDbLine
 10
14.3156663397
 20
29.8210487341
 30
0.0
 11
13.8156663824
 21
29.8210487341
 31
0.0
  0
LINE
  5
5C5
330
1F
100
AcDbEntity
  8
SLD-0
  6
Continuous
370
    15
100
AcDbLine
 10
13.8156663824
 20
29.8210487341
 30
0.0
 11
13.8156663824
 21
29.810326938
 31
0.0
  0
LINE
  5
5C6
330
1F
100
AcDbEntity
  8
SLD-0
  6
Continuous
370
    15
100
AcDbLine
 10
13.7375413249
 20
29.810326938
 30
0.0
 11
13.7375413249
 21
29.8210487341
 31
0.0
  0
LINE
  5
5C7
330
1F
100
AcDbEntity
  8
SLD-0
  6
Continuous
370
    15
100
AcDbLine
 10
13.7375413249
 20
29.8210487341
 30
0.0
 11
13.2375413676
 21
29.8210487341
 31
0.0
  0
LINE
  5
5C8
330
1F
100
AcDbEntity
  8
SLD-0
  6
Continuous
370
    15
100
AcDbLine
 10
13.2375413676
 20
29.8210487341
 30
0.0
 11
13.2375413676
 21
29.810326938
 31
0.0
  0
LINE
  5
5C9
330
1F
100
AcDbEntity
  8
SLD-0
  6
Continuous
370
    15
100
AcDbLine
 10
13.1594164568
 20
29.810326938
 30
0.0
 11
13.1594164568
 21
29.8210487341
 31
0.0
  0
LINE
  5
5CA
330
1F
100
AcDbEntity
  8
SLD-0
  6
Continuous
370
    15
100
AcDbLine
 10
13.1594164568
 20
29.8210487341
 30
0.0
 11
12.6594164995
 21
29.8210487341
 31
0.0
  0
LINE
  5
5CB
330
1F
100
AcDbEntity
  8
SLD-0
  6
Continuous
370
    15
100
AcDbLine
 10
12.6594164995
 20
29.8210487341
 30
0.0
 11
12.6594164995
 21
29.810326938
 31
0.0
  0
LINE
  5
5CC
330
1F
100
AcDbEntity
  8
SLD-0
  6
Continuous
370
    15
100
AcDbLine
 10
12.5812912953
 20
29.810326938
 30
0.0
 11
12.5812912953
 21
29.8210487341
 31
0.0
  0
LINE
  5
5CD
330
1F
100
AcDbEntity
  8
SLD-0
  6
Continuous
370
    15
100
AcDbLine
 10
12.5812912953
 20
29.8210487341
 30
0.0
 11
12.081291338
 21
29.8210487341
 31
0.0
  0
LINE
  5
5CE
330
1F
100
AcDbEntity
  8
SLD-0
  6
Continuous
370
    15
100
AcDbLine
 10
11.9875413277
 20
29.810326938
 30
0.0
 11
11.9875413277
 21
42.6382391222
 31
0.0
  0
LINE
  5
5CF
330
1F
100
AcDbEntity
  8
SLD-0
  6
Continuous
370
    15
100
AcDbLine
 10
14.9875413648
 20
42.6382391222
 30
0.0
 11
11.9875413277
 21
42.6382391222
 31
0.0
  0
LINE
  5
5D0
330
1F
100
AcDbEntity
  8
SLD-0
  6
Continuous
370
    15
100
AcDbLine
 10
14.9875413648
 20
29.810326938
 30
0.0
 11
14.9875413648
 21
42.6382391222
 31
0.0
  0
LINE
  5
5D1
330
1F
100
AcDbEntity
  8
SLD-0
  6
Continuous
370
    15
100
AcDbLine
 10
14.8937913545
 20
29.810326938
 30
0.0
 11
14.8937913545
 21
29.8210487341
 31
0.0
  0
LINE
  5
5D2
330
1F
100
AcDbEntity
  8
SLD-0
  6
Continuous
370
    15
100
AcDbLine
 10
14.8937913545
 20
29.8210487341
 30
0.0
 11
14.3937913972
 21
29.8210487341
 31
0.0
  0
LINE
  5
5D3
330
1F
100
AcDbEntity
  8
SLD-0
  6
Continuous
370
    15
100
AcDbLine
 10
14.3937913972
 20
29.8210487341
 30
0.0
 11
14.3937913972
 21
29.810326938
 31
0.0
  0
LINE
  5
5D4
330
1F
100
AcDbEntity
  8
SLD-0
  6
Continuous
370
    15
100
AcDbLine
 10
12.081291338
 20
29.8210487341
 30
0.0
 11
12.081291338
 21
29.810326938
 31
0.0
  0
LINE
  5
5D5
330
1F
100
AcDbEntity
  8
SLD-0
  6
Continuous
370
    15
100
AcDbLine
 10
12.5812912953
 20
29.8170406738
 30
0.0
 11
12.081291338
 21
29.8170406738
 31
0.0
  0
LINE
  5
5D6
330
1F
100
AcDbEntity
  8
SLD-0
  6
Continuous
370
    15
100
AcDbLine
 10
13.1594164568
 20
29.8170406738
 30
0.0
 11
12.6594164995
 21
29.8170406738
 31
0.0
  0
LINE
  5
5D7
330
1F
100
AcDbEntity
  8
SLD-0
  6
Continuous
370
    15
100
AcDbLine
 10
13.7375413249
 20
29.8170406738
 30
0.0
 11
13.2375413676
 21
29.8170406738
 31
0.0
  0
LINE
  5
5D8
330
1F
100
AcDbEntity
  8
SLD-0
  6
Continuous
370
    15
100
AcDbLine
 10
14.3156663397
 20
29.8170406738
 30
0.0
 11
13.8156663824
 21
29.8170406738
 31
0.0
  0
LINE
  5
5D9
330
1F
100
AcDbEntity
  8
SLD-0
  6
Continuous
370
    15
100
AcDbLine
 10
14.8937913545
 20
29.8170406738
 30
0.0
 11
14.3937913972
 21
29.8170406738
 31
0.0
  0
LINE
  5
5DA
330
1F
100
AcDbEntity
  8
SLD-0
  6
Continuous
370
    15
100
AcDbLine
 10
14.3937913972
 20
42.6856647077
 30
0.0
 11
14.3937913972
 21
42.7030251471
 31
0.0
  0
LINE
  5
5DB
330
1F
100
AcDbEntity
  8
SLD-0
  6
Continuous
370
    15
100
AcDbLine
 10
14.8937913545
 20
42.6856647077
 30
0.0
 11
14.3937913972
 21
42.6856647077
 31
0.0
  0
LINE
  5
5DC
330
1F
100
AcDbEntity
  8
SLD-0
  6
Continuous
370
    15
100
AcDbLine
 10
14.8937913545
 20
42.7030251471
 30
0.0
 11
14.8937913545
 21
42.6856647077
 31
0.0
  0
LINE
  5
5DD
330
1F
100
AcDbEntity
  8
SLD-0
  6
Continuous
370
    15
100
AcDbLine
 10
13.2375413676
 20
42.6856647077
 30
0.0
 11
13.2375413676
 21
42.7030251471
 31
0.0
  0
LINE
  5
5DE
330
1F
100
AcDbEntity
  8
SLD-0
  6
Continuous
370
    15
100
AcDbLine
 10
13.7375413249
 20
42.6856647077
 30
0.0
 11
13.2375413676
 21
42.6856647077
 31
0.0
  0
LINE
  5
5DF
330
1F
100
AcDbEntity
  8
SLD-0
  6
Continuous
370
    15
100
AcDbLine
 10
13.7375413249
 20
42.7030251471
 30
0.0
 11
13.7375413249
 21
42.6856647077
 31
0.0
  0
LINE
  5
5E0
330
1F
100
AcDbEntity
  8
SLD-0
  6
Continuous
370
    15
100
AcDbLine
 10
12.081291338
 20
42.6856647077
 30
0.0
 11
12.081291338
 21
42.7030251471
 31
0.0
  0
LINE
  5
5E1
330
1F
100
AcDbEntity
  8
SLD-0
  6
Continuous
370
    15
100
AcDbLine
 10
12.5812912953
 20
42.6856647077
 30
0.0
 11
12.081291338
 21
42.6856647077
 31
0.0
  0
LINE
  5
5E2
330
1F
100
AcDbEntity
  8
SLD-0
  6
Continuous
370
    15
100
AcDbLine
 10
12.5812912953
 20
42.7030251471
 30
0.0
 11
12.5812912953
 21
42.6856647077
 31
0.0
  0
LINE
  5
5E3
330
1F
100
AcDbEntity
  8
SLD-0
  6
Continuous
370
    15
100
AcDbLine
 10
14.9875413648
 20
42.6382391222
 30
0.0
 11
14.9875413648
 21
42.7030251471
 31
0.0
  0
LINE
  5
5E4
330
1F
100
AcDbEntity
  8
SLD-0
  6
Continuous
370
    15
100
AcDbLine
 10
11.9875413277
 20
42.7030251471
 30
0.0
 11
11.9875413277
 21
42.6382391222
 31
0.0
  0
LINE
  5
5E5
330
1F
100
AcDbEntity
  8
SLD-0
  6
Continuous
370
    15
100
AcDbLine
 10
12.6594164995
 20
42.6856647077
 30
0.0
 11
12.6594164995
 21
42.7030251471
 31
0.0
  0
LINE
  5
5E6
330
1F
100
AcDbEntity
  8
SLD-0
  6
Continuous
370
    15
100
AcDbLine
 10
13.1594164568
 20
42.6856647077
 30
0.0
 11
12.6594164995
 21
42.6856647077
 31
0.0
  0
LINE
  5
5E7
330
1F
100
AcDbEntity
  8
SLD-0
  6
Continuous
370
    15
100
AcDbLine
 10
13.1594164568
 20
42.7030251471
 30
0.0
 11
13.1594164568
 21
42.6856647077
 31
0.0
  0
LINE
  5
5E8
330
1F
100
AcDbEntity
  8
SLD-0
  6
Continuous
370
    15
100
AcDbLine
 10
13.8156663824
 20
42.6856647077
 30
0.0
 11
13.8156663824
 21
42.7030251471
 31
0.0
  0
LINE
  5
5E9
330
1F
100
AcDbEntity
  8
SLD-0
  6
Continuous
370
    15
100
AcDbLine
 10
14.3156663397
 20
42.6856647077
 30
0.0
 11
13.8156663824
 21
42.6856647077
 31
0.0
  0
LINE
  5
5EA
330
1F
100
AcDbEntity
  8
SLD-0
  6
Continuous
370
    15
100
AcDbLine
 10
14.3156663397
 20
42.7030251471
 30
0.0
 11
14.3156663397
 21
42.6856647077
 31
0.0
  0
LINE
  5
5EB
330
1F
100
AcDbEntity
  8
SLD-0
  6
Continuous
370
    15
100
AcDbLine
 10
14.1154164397
 20
16.4874539116
 30
0.0
 11
15.6154163665
 21
16.4874539116
 31
0.0
  0
LINE
  5
5EC
330
1F
100
AcDbEntity
  8
SLD-0
  6
Continuous
370
    15
100
AcDbLine
 10
14.1154164397
 20
17.1880302452
 30
0.0
 11
14.1154164397
 21
16.4874539116
 31
0.0
  0
LINE
  5
5ED
330
1F
100
AcDbEntity
  8
SLD-0
  6
Continuous
370
    15
100
AcDbLine
 10
14.1154164397
 20
17.1880302452
 30
0.0
 11
15.6154163665
 21
17.1880302452
 31
0.0
  0
LINE
  5
5EE
330
1F
100
AcDbEntity
  8
SLD-0
  6
Continuous
370
    15
100
AcDbLine
 10
15.6154163665
 20
17.1880302452
 30
0.0
 11
15.6154163665
 21
16.4874539116
 31
0.0
  0
LINE
  5
5EF
330
1F
100
AcDbEntity
  8
SLD-0
  6
Continuous
370
    15
100
AcDbLine
 10
14.1154164397
 20
17.2409012077
 30
0.0
 11
15.6154163665
 21
17.2409012077
 31
0.0
  0
LINE
  5
5F0
330
1F
100
AcDbEntity
  8
SLD-0
  6
Continuous
370
    15
100
AcDbLine
 10
15.6154163665
 20
17.2409012077
 30
0.0
 11
15.6154163665
 21
17.1880302452
 31
0.0
  0
LINE
  5
5F1
330
1F
100
AcDbEntity
  8
SLD-0
  6
Continuous
370
    15
100
AcDbLine
 10
14.1154164397
 20
17.2409012077
 30
0.0
 11
14.1154164397
 21
17.1880302452
 31
0.0
  0
LINE
  5
5F2
330
1F
100
AcDbEntity
  8
SLD-0
  6
Continuous
370
    15
100
AcDbLine
 10
15.6154163665
 20
17.2491725255
 30
0.0
 11
15.6154163665
 21
17.2409012077
 31
0.0
  0
LINE
  5
5F3
330
1F
100
AcDbEntity
  8
SLD-0
  6
Continuous
370
    15
100
AcDbLine
 10
14.1154164397
 20
17.2491725255
 30
0.0
 11
14.1154164397
 21
17.2409012077
 31
0.0
  0
CIRCLE
  5
5F4
330
1F
100
AcDbEntity
  8
SLD-0
  6
Continuous
370
    15
100
AcDbCircle
 10
6.480541369
 20
10.6437037268
 30
0.0
 40
0.4374999999999982
  0
LINE
  5
5F5
330
1F
100
AcDbEntity
  8
SLD-0
  6
Continuous
370
    15
100
AcDbLine
 10
4.8285415491
 20
29.7062041942
 30
0.0
 11
4.8285415491
 21
8.6437037268
 31
0.0
  0
LINE
  5
5F6
330
1F
100
AcDbEntity
  8
SLD-0
  6
Continuous
370
    15
100
AcDbLine
 10
15.693541369
 20
29.7062041942
 30
0.0
 11
15.681441369
 21
29.7062041942
 31
0.0
  0
LINE
  5
5F7
330
1F
100
AcDbEntity
  8
SLD-0
  6
Continuous
370
    15
100
AcDbLine
 10
4.8807284662
 20
29.7062041942
 30
0.0
 11
4.8285415491
 21
29.7062041942
 31
0.0
  0
LINE
  5
5F8
330
1F
100
AcDbEntity
  8
SLD-0
  6
Continuous
370
    15
100
AcDbLine
 10
15.693541369
 20
29.7062041942
 30
0.0
 11
15.693541369
 21
8.6437037268
 31
0.0
  0
LINE
  5
5F9
330
1F
100
AcDbEntity
  8
SLD-0
  6
Continuous
370
    15
100
AcDbLine
 10
15.693541369
 20
8.6437037268
 30
0.0
 11
15.5975413714
 21
8.6437037268
 31
0.0
  0
CIRCLE
  5
5FA
330
1F
100
AcDbEntity
  8
SLD-0
  6
Continuous
370
    15
100
AcDbCircle
 10
10.480541369
 20
11.2062037268
 30
0.0
 40
0.875
  0
LINE
  5
5FB
330
1F
100
AcDbEntity
  8
SLD-0
  6
Continuous
370
    15
100
AcDbLine
 10
15.6310413698
 20
17.1866727142
 30
0.0
 11
15.6154163665
 21
17.1866727142
 31
0.0
  0
LINE
  5
5FC
330
1F
100
AcDbEntity
  8
SLD-0
  6
Continuous
370
    15
100
AcDbLine
 10
14.1154164397
 20
17.1866727142
 30
0.0
 11
14.0997913402
 21
17.1866727142
 31
0.0
  0
LINE
  5
5FD
330
1F
100
AcDbEntity
  8
SLD-0
  6
Continuous
370
    15
100
AcDbLine
 10
15.6310413698
 20
17.2491725255
 30
0.0
 11
15.6310413698
 21
17.1866727142
 31
0.0
  0
LINE
  5
5FE
330
1F
100
AcDbEntity
  8
SLD-0
  6
Continuous
370
    15
100
AcDbLine
 10
14.0997913402
 20
17.2491725255
 30
0.0
 11
15.6310413698
 21
17.2491725255
 31
0.0
  0
LINE
  5
5FF
330
1F
100
AcDbEntity
  8
SLD-0
  6
Continuous
370
    15
100
AcDbLine
 10
14.0997913402
 20
17.1866727142
 30
0.0
 11
14.0997913402
 21
17.2491725255
 31
0.0
  0
LINE
  5
600
330
1F
100
AcDbEntity
  8
SLD-0
  6
Continuous
370
    15
100
AcDbLine
 10
4.7955419303
 20
29.7062041942
 30
0.0
 11
4.7955419303
 21
8.6437037268
 31
0.0
  0
LINE
  5
601
330
1F
100
AcDbEntity
  8
SLD-0
  6
Continuous
370
    15
100
AcDbLine
 10
4.8285415491
 20
29.7062041942
 30
0.0
 11
4.7955419303
 21
29.7062041942
 31
0.0
  0
LINE
  5
602
330
1F
100
AcDbEntity
  8
SLD-0
  6
Continuous
370
    15
100
AcDbLine
 10
4.7955583568
 20
8.6437037268
 30
0.0
 11
4.8274679615
 21
8.6437037268
 31
0.0
  0
LINE
  5
603
330
1F
100
AcDbEntity
  8
SLD-0
  6
Continuous
370
    15
100
AcDbLine
 10
15.7265413682
 20
29.7062041942
 30
0.0
 11
15.7265413682
 21
8.6437037268
 31
0.0
  0
LINE
  5
604
330
1F
100
AcDbEntity
  8
SLD-0
  6
Continuous
370
    15
100
AcDbLine
 10
15.7265413682
 20
29.7062041942
 30
0.0
 11
15.693541369
 21
29.7062041942
 31
0.0
  0
LINE
  5
605
330
1F
100
AcDbEntity
  8
SLD-0
  6
Continuous
370
    15
100
AcDbLine
 10
15.693541369
 20
8.6437037268
 30
0.0
 11
15.7265413682
 21
8.6437037268
 31
0.0
  0
LINE
  5
606
330
1F
100
AcDbEntity
  8
SLD-0
  6
Continuous
370
    15
100
AcDbLine
 10
16.2265413851
 20
27.20282906
 30
0.0
 11
15.7265413682
 21
27.20282906
 31
0.0
  0
LINE
  5
607
330
1F
100
AcDbEntity
  8
SLD-0
  6
Continuous
370
    15
100
AcDbLine
 10
16.2265413851
 20
27.20282906
 30
0.0
 11
16.2265413851
 21
15.0942035532
 31
0.0
  0
LINE
  5
608
330
1F
100
AcDbEntity
  8
SLD-0
  6
Continuous
370
    15
100
AcDbLine
 10
15.7265413682
 20
15.0942035532
 30
0.0
 11
16.2265413851
 21
15.0942035532
 31
0.0
  0
LINE
  5
609
330
1F
100
AcDbEntity
  8
SLD-0
  6
Continuous
370
    15
100
AcDbLine
 10
6.2085826734
 20
9.2737037322
 30
0.0
 11
6.2085826734
 21
9.301703762
 31
0.0
  0
LINE
  5
60A
330
1F
100
AcDbEntity
  8
SLD-0
  6
Continuous
370
    15
100
AcDbLine
 10
5.4935827198
 20
9.2737037322
 30
0.0
 11
5.4935827198
 21
9.301703762
 31
0.0
  0
LINE
  5
60B
330
1F
100
AcDbEntity
  8
SLD-0
  6
Continuous
370
    15
100
AcDbLine
 10
6.2085826734
 20
9.2737037322
 30
0.0
 11
5.4935827198
 21
9.2737037322
 31
0.0
  0
LINE
  5
60C
330
1F
100
AcDbEntity
  8
SLD-0
  6
Continuous
370
    15
100
AcDbLine
 10
6.2085826734
 20
9.301703762
 30
0.0
 11
5.4935827198
 21
9.301703762
 31
0.0
  0
LINE
  5
60D
330
1F
100
AcDbEntity
  8
SLD-0
  6
Continuous
370
    15
100
AcDbLine
 10
14.037360608
 20
9.301703762
 30
0.0
 11
14.037360608
 21
9.2737037322
 31
0.0
  0
LINE
  5
60E
330
1F
100
AcDbEntity
  8
SLD-0
  6
Continuous
370
    15
100
AcDbLine
 10
6.2085826734
 20
9.2737037322
 30
0.0
 11
14.037360608
 21
9.2737037322
 31
0.0
  0
LINE
  5
60F
330
1F
100
AcDbEntity
  8
SLD-0
  6
Continuous
370
    15
100
AcDbLine
 10
6.2085826734
 20
9.301703762
 30
0.0
 11
14.037360608
 21
9.301703762
 31
0.0
  0
LINE
  5
610
330
1F
100
AcDbEntity
  8
SLD-0
  6
Continuous
370
    15
100
AcDbLine
 10
14.2196940617
 20
9.301703762
 30
0.0
 11
14.2196940617
 21
9.2737037322
 31
0.0
  0
LINE
  5
611
330
1F
100
AcDbEntity
  8
SLD-0
  6
Continuous
370
    15
100
AcDbLine
 10
14.2196940617
 20
9.2737037322
 30
0.0
 11
14.037360608
 21
9.2737037322
 31
0.0
  0
LINE
  5
612
330
1F
100
AcDbEntity
  8
SLD-0
  6
Continuous
370
    15
100
AcDbLine
 10
14.2196940617
 20
9.301703762
 30
0.0
 11
14.037360608
 21
9.301703762
 31
0.0
  0
LINE
  5
613
330
1F
100
AcDbEntity
  8
SLD-0
  6
Continuous
370
    15
100
AcDbLine
 10
5.7385824496
 20
9.2737037322
 30
0.0
 11
5.7385824496
 21
9.2687037032
 31
0.0
  0
LINE
  5
614
330
1F
100
AcDbEntity
  8
SLD-0
  6
Continuous
370
    15
100
AcDbLine
 10
5.7385824496
 20
9.2687037032
 30
0.0
 11
5.4725345363
 21
9.2687037032
 31
0.0
  0
SPLINE
  5
615
330
1F
100
AcDbEntity
  8
SLD-0
  6
Continuous
370
    15
100
AcDbSpline
210
0.0
220
0.0
230
1.0
 70
     8
 71
     3
 72
    14
 73
    10
 74
     0
 42
0.00000001
 43
0.00000001
 12
1.0
 22
0.0
 32
0.0
 13
1.0
 23
0.0
 33
0.0
 40
0.0
 40
0.0
 40
0.0
 40
0.0
 40
0.25
 40
0.25
 40
0.5
 40
0.5
 40
0.75
 40
0.75
 40
1.0
 40
1.0
 40
1.0
 40
1.0
 10
5.472534213623873
 20
9.268703726757185
 30
0.0
 10
5.474288308172339
 20
9.269358239648403
 30
0.0
 10
5.476042325420381
 20
9.27001246617898
 30
0.0
 10
5.479550437216889
 20
9.271221821659038
 30
0.0
 10
5.481304493115146
 20
9.271776460357058
 30
0.0
 10
5.484812604911653
 20
9.272702060969175
 30
0.0
 10
5.48656666080991
 20
9.273072658698956
 30
0.0
 10
5.490074772606418
 20
9.273573590140526
 30
0.0
 10
5.49182878985446
 20
9.273703726757184
 30
0.0
 10
5.493582884402926
 20
9.273703726757184
 30
0.0
  0
SPLINE
  5
616
330
1F
100
AcDbEntity
  8
SLD-0
  6
Continuous
370
    15
100
AcDbSpline
210
0.0
220
0.0
230
1.0
 70
     8
 71
     3
 72
    10
 73
     6
 74
     0
 42
0.00000001
 43
0.00000001
 12
1.0
 22
0.0
 32
0.0
 13
1.0
 23
0.0
 33
0.0
 40
0.0
 40
0.0
 40
0.0
 40
0.0
 40
0.5
 40
0.5
 40
1.0
 40
1.0
 40
1.0
 40
1.0
 10
5.472534213623873
 20
9.268703726757185
 30
0.0
 10
5.476042325420384
 20
9.277343106554557
 30
0.0
 10
5.479550437216889
 20
9.285929286496375
 30
0.0
 10
5.48656666080991
 20
9.298147214576309
 30
0.0
 10
5.490074772606418
 20
9.301703726757184
 30
0.0
 10
5.493582884402926
 20
9.301703726757184
 30
0.0
  0
LINE
  5
617
330
1F
100
AcDbEntity
  8
SLD-0
  6
Continuous
370
    15
100
AcDbLine
 10
6.8885830847
 20
9.2737037322
 30
0.0
 11
6.8885830847
 21
9.2687037032
 31
0.0
  0
LINE
  5
618
330
1F
100
AcDbEntity
  8
SLD-0
  6
Continuous
370
    15
100
AcDbLine
 10
6.8885830847
 20
9.2687037032
 30
0.0
 11
6.7385829508
 21
9.2687037032
 31
0.0
  0
LINE
  5
619
330
1F
100
AcDbEntity
  8
SLD-0
  6
Continuous
370
    15
100
AcDbLine
 10
6.7385829508
 20
9.2687037032
 30
0.0
 11
6.7385829508
 21
9.2737037322
 31
0.0
  0
LINE
  5
61A
330
1F
100
AcDbEntity
  8
SLD-0
  6
Continuous
370
    15
100
AcDbLine
 10
8.0385831331
 20
9.2737037322
 30
0.0
 11
8.0385831331
 21
9.2687037032
 31
0.0
  0
LINE
  5
61B
330
1F
100
AcDbEntity
  8
SLD-0
  6
Continuous
370
    15
100
AcDbLine
 10
8.0385831331
 20
9.2687037032
 30
0.0
 11
7.8885829992
 21
9.2687037032
 31
0.0
  0
LINE
  5
61C
330
1F
100
AcDbEntity
  8
SLD-0
  6
Continuous
370
    15
100
AcDbLine
 10
7.8885829992
 20
9.2687037032
 30
0.0
 11
7.8885829992
 21
9.2737037322
 31
0.0
  0
LINE
  5
61D
330
1F
100
AcDbEntity
  8
SLD-0
  6
Continuous
370
    15
100
AcDbLine
 10
9.1885825949
 20
9.2737037322
 30
0.0
 11
9.1885825949
 21
9.2687037032
 31
0.0
  0
LINE
  5
61E
330
1F
100
AcDbEntity
  8
SLD-0
  6
Continuous
370
    15
100
AcDbLine
 10
9.1885825949
 20
9.2687037032
 30
0.0
 11
9.0385830477
 21
9.2687037032
 31
0.0
  0
LINE
  5
61F
330
1F
100
AcDbEntity
  8
SLD-0
  6
Continuous
370
    15
100
AcDbLine
 10
9.0385830477
 20
9.2687037032
 30
0.0
 11
9.0385830477
 21
9.2737037322
 31
0.0
  0
LINE
  5
620
330
1F
100
AcDbEntity
  8
SLD-0
  6
Continuous
370
    15
100
AcDbLine
 10
10.3385826433
 20
9.2737037322
 30
0.0
 11
10.3385826433
 21
9.2687037032
 31
0.0
  0
LINE
  5
621
330
1F
100
AcDbEntity
  8
SLD-0
  6
Continuous
370
    15
100
AcDbLine
 10
10.3385826433
 20
9.2687037032
 30
0.0
 11
10.1885830961
 21
9.2687037032
 31
0.0
  0
LINE
  5
622
330
1F
100
AcDbEntity
  8
SLD-0
  6
Continuous
370
    15
100
AcDbLine
 10
10.1885830961
 20
9.2687037032
 30
0.0
 11
10.1885830961
 21
9.2737037322
 31
0.0
  0
LINE
  5
623
330
1F
100
AcDbEntity
  8
SLD-0
  6
Continuous
370
    15
100
AcDbLine
 10
11.4885829851
 20
9.2737037322
 30
0.0
 11
11.4885829851
 21
9.2687037032
 31
0.0
  0
LINE
  5
624
330
1F
100
AcDbEntity
  8
SLD-0
  6
Continuous
370
    15
100
AcDbLine
 10
11.4885829851
 20
9.2687037032
 30
0.0
 11
11.3385828512
 21
9.2687037032
 31
0.0
  0
LINE
  5
625
330
1F
100
AcDbEntity
  8
SLD-0
  6
Continuous
370
    15
100
AcDbLine
 10
11.3385828512
 20
9.2687037032
 30
0.0
 11
11.3385828512
 21
9.2737037322
 31
0.0
  0
LINE
  5
626
330
1F
100
AcDbEntity
  8
SLD-0
  6
Continuous
370
    15
100
AcDbLine
 10
12.6385827402
 20
9.2737037322
 30
0.0
 11
12.6385827402
 21
9.2687037032
 31
0.0
  0
LINE
  5
627
330
1F
100
AcDbEntity
  8
SLD-0
  6
Continuous
370
    15
100
AcDbLine
 10
12.6385827402
 20
9.2687037032
 30
0.0
 11
12.4885828996
 21
9.2687037032
 31
0.0
  0
LINE
  5
628
330
1F
100
AcDbEntity
  8
SLD-0
  6
Continuous
370
    15
100
AcDbLine
 10
12.4885828996
 20
9.2687037032
 30
0.0
 11
12.4885828996
 21
9.2737037322
 31
0.0
  0
LINE
  5
629
330
1F
100
AcDbEntity
  8
SLD-0
  6
Continuous
370
    15
100
AcDbLine
 10
13.7885829353
 20
9.2687037032
 30
0.0
 11
13.6385829481
 21
9.2687037032
 31
0.0
  0
LINE
  5
62A
330
1F
100
AcDbEntity
  8
SLD-0
  6
Continuous
370
    15
100
AcDbLine
 10
13.6385829481
 20
9.2687037032
 30
0.0
 11
13.6385829481
 21
9.2737037322
 31
0.0
  0
LINE
  5
62B
330
1F
100
AcDbEntity
  8
SLD-0
  6
Continuous
370
    15
100
AcDbLine
 10
13.7885829353
 20
9.2737037322
 30
0.0
 11
13.7885829353
 21
9.2687037032
 31
0.0
  0
LINE
  5
62C
330
1F
100
AcDbEntity
  8
SLD-0
  6
Continuous
370
    15
100
AcDbLine
 10
15.0411780652
 20
8.648703726
 30
0.0
 11
4.8525347653
 21
8.648703726
 31
0.0
  0
LINE
  5
62D
330
1F
100
AcDbEntity
  8
SLD-0
  6
Continuous
370
    15
100
AcDbLine
 10
5.4725345363
 20
9.2687037032
 30
0.0
 11
4.8525347653
 21
8.648703726
 31
0.0
  0
LINE
  5
62E
330
1F
100
AcDbEntity
  8
SLD-0
  6
Continuous
370
    15
100
AcDbLine
 10
5.7385824496
 20
9.2374537242
 30
0.0
 11
5.7385824496
 21
9.2687037032
 31
0.0
  0
LINE
  5
62F
330
1F
100
AcDbEntity
  8
SLD-0
  6
Continuous
370
    15
100
AcDbLine
 10
6.7385829508
 20
9.2374537242
 30
0.0
 11
5.7385824496
 21
9.2374537242
 31
0.0
  0
LINE
  5
630
330
1F
100
AcDbEntity
  8
SLD-0
  6
Continuous
370
    15
100
AcDbLine
 10
6.7385829508
 20
9.2687037032
 30
0.0
 11
6.7385829508
 21
9.2374537242
 31
0.0
  0
LINE
  5
631
330
1F
100
AcDbEntity
  8
SLD-0
  6
Continuous
370
    15
100
AcDbLine
 10
6.8885830847
 20
9.2374537242
 30
0.0
 11
6.8885830847
 21
9.2687037032
 31
0.0
  0
LINE
  5
632
330
1F
100
AcDbEntity
  8
SLD-0
  6
Continuous
370
    15
100
AcDbLine
 10
7.8885829992
 20
9.2374537242
 30
0.0
 11
6.8885830847
 21
9.2374537242
 31
0.0
  0
LINE
  5
633
330
1F
100
AcDbEntity
  8
SLD-0
  6
Continuous
370
    15
100
AcDbLine
 10
7.8885829992
 20
9.2687037032
 30
0.0
 11
7.8885829992
 21
9.2374537242
 31
0.0
  0
LINE
  5
634
330
1F
100
AcDbEntity
  8
SLD-0
  6
Continuous
370
    15
100
AcDbLine
 10
8.0385831331
 20
9.2374537242
 30
0.0
 11
8.0385831331
 21
9.2687037032
 31
0.0
  0
LINE
  5
635
330
1F
100
AcDbEntity
  8
SLD-0
  6
Continuous
370
    15
100
AcDbLine
 10
9.0385830477
 20
9.2374537242
 30
0.0
 11
8.0385831331
 21
9.2374537242
 31
0.0
  0
LINE
  5
636
330
1F
100
AcDbEntity
  8
SLD-0
  6
Continuous
370
    15
100
AcDbLine
 10
9.0385830477
 20
9.2687037032
 30
0.0
 11
9.0385830477
 21
9.2374537242
 31
0.0
  0
LINE
  5
637
330
1F
100
AcDbEntity
  8
SLD-0
  6
Continuous
370
    15
100
AcDbLine
 10
9.1885825949
 20
9.2374537242
 30
0.0
 11
9.1885825949
 21
9.2687037032
 31
0.0
  0
LINE
  5
638
330
1F
100
AcDbEntity
  8
SLD-0
  6
Continuous
370
    15
100
AcDbLine
 10
10.1885830961
 20
9.2374537242
 30
0.0
 11
9.1885825949
 21
9.2374537242
 31
0.0
  0
LINE
  5
639
330
1F
100
AcDbEntity
  8
SLD-0
  6
Continuous
370
    15
100
AcDbLine
 10
10.1885830961
 20
9.2687037032
 30
0.0
 11
10.1885830961
 21
9.2374537242
 31
0.0
  0
LINE
  5
63A
330
1F
100
AcDbEntity
  8
SLD-0
  6
Continuous
370
    15
100
AcDbLine
 10
10.3385826433
 20
9.2374537242
 30
0.0
 11
10.3385826433
 21
9.2687037032
 31
0.0
  0
LINE
  5
63B
330
1F
100
AcDbEntity
  8
SLD-0
  6
Continuous
370
    15
100
AcDbLine
 10
11.3385828512
 20
9.2374537242
 30
0.0
 11
10.3385826433
 21
9.2374537242
 31
0.0
  0
LINE
  5
63C
330
1F
100
AcDbEntity
  8
SLD-0
  6
Continuous
370
    15
100
AcDbLine
 10
11.3385828512
 20
9.2687037032
 30
0.0
 11
11.3385828512
 21
9.2374537242
 31
0.0
  0
LINE
  5
63D
330
1F
100
AcDbEntity
  8
SLD-0
  6
Continuous
370
    15
100
AcDbLine
 10
11.4885829851
 20
9.2374537242
 30
0.0
 11
11.4885829851
 21
9.2687037032
 31
0.0
  0
LINE
  5
63E
330
1F
100
AcDbEntity
  8
SLD-0
  6
Continuous
370
    15
100
AcDbLine
 10
12.4885828996
 20
9.2374537242
 30
0.0
 11
11.4885829851
 21
9.2374537242
 31
0.0
  0
LINE
  5
63F
330
1F
100
AcDbEntity
  8
SLD-0
  6
Continuous
370
    15
100
AcDbLine
 10
12.4885828996
 20
9.2687037032
 30
0.0
 11
12.4885828996
 21
9.2374537242
 31
0.0
  0
LINE
  5
640
330
1F
100
AcDbEntity
  8
SLD-0
  6
Continuous
370
    15
100
AcDbLine
 10
12.6385827402
 20
9.2374537242
 30
0.0
 11
12.6385827402
 21
9.2687037032
 31
0.0
  0
LINE
  5
641
330
1F
100
AcDbEntity
  8
SLD-0
  6
Continuous
370
    15
100
AcDbLine
 10
13.6385829481
 20
9.2374537242
 30
0.0
 11
12.6385827402
 21
9.2374537242
 31
0.0
  0
LINE
  5
642
330
1F
100
AcDbEntity
  8
SLD-0
  6
Continuous
370
    15
100
AcDbLine
 10
13.6385829481
 20
9.2687037032
 30
0.0
 11
13.6385829481
 21
9.2374537242
 31
0.0
  0
LINE
  5
643
330
1F
100
AcDbEntity
  8
SLD-0
  6
Continuous
370
    15
100
AcDbLine
 10
13.7885829353
 20
9.2374537242
 30
0.0
 11
13.7885829353
 21
9.2687037032
 31
0.0
  0
LINE
  5
644
330
1F
100
AcDbEntity
  8
SLD-0
  6
Continuous
370
    15
100
AcDbLine
 10
14.7798995502
 20
9.2374537242
 30
0.0
 11
13.7885829353
 21
9.2374537242
 31
0.0
  0
LINE
  5
645
330
1F
100
AcDbEntity
  8
SLD-0
  6
Continuous
370
    15
100
AcDbLine
 10
14.7798995502
 20
9.2374537242
 30
0.0
 11
15.0411780652
 21
8.648703726
 31
0.0
  0
SPLINE
  5
646
330
1F
100
AcDbEntity
  8
SLD-0
  6
Continuous
370
    15
100
AcDbSpline
210
0.0
220
0.0
230
1.0
 70
     8
 71
     3
 72
    10
 73
     6
 74
     0
 42
0.00000001
 43
0.00000001
 12
1.0
 22
0.0
 32
0.0
 13
1.0
 23
0.0
 33
0.0
 40
0.0
 40
0.0
 40
0.0
 40
0.0
 40
0.5
 40
0.5
 40
1.0
 40
1.0
 40
1.0
 40
1.0
 10
4.831485542844821
 20
8.643703726757185
 30
0.0
 10
4.834993654641327
 20
8.643703726757185
 30
0.0
 10
4.838501766437835
 20
8.644242592239134
 30
0.0
 10
4.845517990030853
 20
8.646093793463367
 30
0.0
 10
4.849026101827361
 20
8.647394729818188
 30
0.0
 10
4.852534213623872
 20
8.648703726757185
 30
0.0
  0
SPLINE
  5
647
330
1F
100
AcDbEntity
  8
SLD-0
  6
Continuous
370
    15
100
AcDbSpline
210
0.0
220
0.0
230
1.0
 70
     8
 71
     3
 72
    14
 73
    10
 74
     0
 42
0.00000001
 43
0.00000001
 12
1.0
 22
0.0
 32
0.0
 13
1.0
 23
0.0
 33
0.0
 40
0.0
 40
0.0
 40
0.0
 40
0.0
 40
0.25
 40
0.25
 40
0.5
 40
0.5
 40
0.75
 40
0.75
 40
1.0
 40
1.0
 40
1.0
 40
1.0
 10
4.831485542844821
 20
8.615703726757184
 30
0.0
 10
4.833239870230342
 20
8.615703726757184
 30
0.0
 10
4.834993654641329
 20
8.616562628427133
 30
0.0
 10
4.838501766437838
 20
8.619868775941496
 30
0.0
 10
4.840255822336092
 20
8.622314720958048
 30
0.0
 10
4.8437639341326
 20
8.628423684998015
 30
0.0
 10
4.845517990030856
 20
8.63208430040495
 30
0.0
 10
4.849026101827364
 20
8.640066046573333
 30
0.0
 10
4.850779886238351
 20
8.644383368270455
 30
0.0
 10
4.852534213623872
 20
8.648703726757187
 30
0.0
  0
LINE
  5
648
330
1F
100
AcDbEntity
  8
SLD-0
  6
Continuous
370
    15
100
AcDbLine
 10
4.8314854084
 20
8.6157037268
 30
0.0
 11
4.8314854084
 21
8.6437037268
 31
0.0
  0
LINE
  5
649
330
1F
100
AcDbEntity
  8
SLD-0
  6
Continuous
370
    15
100
AcDbLine
 10
4.8314854084
 20
8.6157037268
 30
0.0
 11
6.2542424126
 21
8.6157037268
 31
0.0
  0
LINE
  5
64A
330
1F
100
AcDbEntity
  8
SLD-0
  6
Continuous
370
    15
100
AcDbLine
 10
14.2542427559
 20
8.6157037268
 30
0.0
 11
15.0433969595
 21
8.6157037268
 31
0.0
  0
LWPOLYLINE
  5
64B
330
1F
100
AcDbEntity
  8
SLD-0
  6
Continuous
370
    15
100
AcDbPolyline
 90
       10
 70
   128
 43
0.0
 10
15.0433969595
 20
8.6157037268
 10
15.0433632999
 20
8.6162050709
 10
15.0432631278
 20
8.6176938703
 10
15.0430996696
 20
8.6201248885
 10
15.0428778389
 20
8.6234242603
 10
15.042604382
 20
8.627491736
 10
15.0422875124
 20
8.6322037264
 10
15.0419369831
 20
8.6374170611
 10
15.0415633541
 20
8.6429733376
 10
15.0411780652
 20
8.648703726
  0
LINE
  5
64C
330
1F
100
AcDbEntity
  8
SLD-0
  6
Continuous
370
    15
100
AcDbLine
 10
15.0433969595
 20
8.6437037268
 30
0.0
 11
15.0433969595
 21
8.6157037268
 31
0.0
  0
LWPOLYLINE
  5
64D
330
1F
100
AcDbEntity
  8
SLD-0
  6
Continuous
370
    15
100
AcDbPolyline
 90
       10
 70
   128
 43
0.0
 10
15.0433969595
 20
8.6437037268
 10
15.0433632999
 20
8.6437796878
 10
15.0432631278
 20
8.6440052631
 10
15.0430996696
 20
8.6443736008
 10
15.0428778389
 20
8.6448735037
 10
15.042604382
 20
8.6454897877
 10
15.0422875124
 20
8.6462037275
 10
15.0419369831
 20
8.6469936261
 10
15.0415633541
 20
8.6478354854
 10
15.0411780652
 20
8.648703726
  0
LINE
  5
64E
330
1F
100
AcDbEntity
  8
SLD-0
  6
Continuous
370
    15
100
AcDbLine
 10
4.7872911456
 20
8.6157037268
 30
0.0
 11
4.7872911456
 21
8.6437037268
 31
0.0
  0
LINE
  5
64F
330
1F
100
AcDbEntity
  8
SLD-0
  6
Continuous
370
    15
100
AcDbLine
 10
4.7872911456
 20
8.6437037268
 30
0.0
 11
4.7955583568
 21
8.6437037268
 31
0.0
  0
LINE
  5
650
330
1F
100
AcDbEntity
  8
SLD-0
  6
Continuous
370
    15
100
AcDbLine
 10
4.8274679615
 20
8.6437037268
 30
0.0
 11
4.8314854084
 21
8.6437037268
 31
0.0
  0
LINE
  5
651
330
1F
100
AcDbEntity
  8
SLD-0
  6
Continuous
370
    15
100
AcDbLine
 10
4.7872911456
 20
8.6157037268
 30
0.0
 11
4.8314854084
 21
8.6157037268
 31
0.0
  0
LINE
  5
652
330
1F
100
AcDbEntity
  8
SLD-0
  6
Continuous
370
    15
100
AcDbLine
 10
15.5935413684
 20
8.6157037268
 30
0.0
 11
15.5935413684
 21
8.6437037268
 31
0.0
  0
LINE
  5
653
330
1F
100
AcDbEntity
  8
SLD-0
  6
Continuous
370
    15
100
AcDbLine
 10
15.0433969595
 20
8.6157037268
 30
0.0
 11
15.5935413684
 21
8.6157037268
 31
0.0
  0
LINE
  5
654
330
1F
100
AcDbEntity
  8
SLD-0
  6
Continuous
370
    15
100
AcDbLine
 10
15.0433969595
 20
8.6437037268
 30
0.0
 11
15.5935413684
 21
8.6437037268
 31
0.0
  0
LINE
  5
655
330
1F
100
AcDbEntity
  8
SLD-0
  6
Continuous
370
    15
100
AcDbLine
 10
15.693541369
 20
8.6437037268
 30
0.0
 11
15.693541369
 21
8.6157037268
 31
0.0
  0
LINE
  5
656
330
1F
100
AcDbEntity
  8
SLD-0
  6
Continuous
370
    15
100
AcDbLine
 10
15.693541369
 20
8.6157037268
 30
0.0
 11
15.5935413684
 21
8.6157037268
 31
0.0
  0
LINE
  5
657
330
1F
100
AcDbEntity
  8
SLD-0
  6
Continuous
370
    15
100
AcDbLine
 10
15.5935413684
 20
8.6437037268
 30
0.0
 11
15.5975413714
 21
8.6437037268
 31
0.0
  0
SPLINE
  5
658
330
1F
100
AcDbEntity
  8
SLD-0
  6
Continuous
370
    15
100
AcDbSpline
210
0.0
220
0.0
230
1.0
 70
     8
 71
     3
 72
    10
 73
     6
 74
     0
 42
0.00000001
 43
0.00000001
 12
1.0
 22
0.0
 32
0.0
 13
1.0
 23
0.0
 33
0.0
 40
0.0
 40
0.0
 40
0.0
 40
0.0
 40
0.5
 40
0.5
 40
1.0
 40
1.0
 40
1.0
 40
1.0
 10
4.782291369020664
 20
8.648703726757185
 30
0.0
 10
4.782291369020664
 20
8.647394729818188
 30
0.0
 10
4.782830234502611
 20
8.646093793463367
 30
0.0
 10
4.784681435726847
 20
8.644242592239134
 30
0.0
 10
4.785982372081667
 20
8.643703726757185
 30
0.0
 10
4.787291369020663
 20
8.643703726757185
 30
0.0
  0
SPLINE
  5
659
330
1F
100
AcDbEntity
  8
SLD-0
  6
Continuous
370
    15
100
AcDbSpline
210
0.0
220
0.0
230
1.0
 70
     8
 71
     3
 72
    14
 73
    10
 74
     0
 42
0.00000001
 43
0.00000001
 12
1.0
 22
0.0
 32
0.0
 13
1.0
 23
0.0
 33
0.0
 40
0.0
 40
0.0
 40
0.0
 40
0.0
 40
0.25
 40
0.25
 40
0.5
 40
0.5
 40
0.75
 40
0.75
 40
1.0
 40
1.0
 40
1.0
 40
1.0
 10
4.754291369020662
 20
8.648703726757187
 30
0.0
 10
4.754291369020662
 20
8.644383368270457
 30
0.0
 10
4.755150270690609
 20
8.640066046573327
 30
0.0
 10
4.758456418204973
 20
8.632084300404943
 30
0.0
 10
4.760902363221519
 20
8.628423684998015
 30
0.0
 10
4.767011327261486
 20
8.622314720958048
 30
0.0
 10
4.770671942668425
 20
8.619868775941493
 30
0.0
 10
4.77865368883681
 20
8.616562628427129
 30
0.0
 10
4.782971010533937
 20
8.615703726757184
 30
0.0
 10
4.787291369020663
 20
8.615703726757184
 30
0.0
  0
LINE
  5
65A
330
1F
100
AcDbEntity
  8
SLD-0
  6
Continuous
370
    15
100
AcDbLine
 10
4.7542915268
 20
8.648703726
 30
0.0
 11
4.78229163
 21
8.648703726
 31
0.0
  0
LINE
  5
65B
330
1F
100
AcDbEntity
  8
SLD-0
  6
Continuous
370
    15
100
AcDbLine
 10
4.7542915268
 20
9.1437037139
 30
0.0
 11
4.78229163
 21
9.1437037139
 31
0.0
  0
LINE
  5
65C
330
1F
100
AcDbEntity
  8
SLD-0
  6
Continuous
370
    15
100
AcDbLine
 10
4.78229163
 20
8.648703726
 30
0.0
 11
4.78229163
 21
9.1437037139
 31
0.0
  0
LINE
  5
65D
330
1F
100
AcDbEntity
  8
SLD-0
  6
Continuous
370
    15
100
AcDbLine
 10
4.7542915268
 20
8.648703726
 30
0.0
 11
4.7542915268
 21
9.1437037139
 31
0.0
  0
SPLINE
  5
65E
330
1F
100
AcDbEntity
  8
SLD-0
  6
Continuous
370
    15
100
AcDbSpline
210
0.0
220
0.0
230
1.0
 70
     8
 71
     3
 72
    13
 73
     9
 74
     0
 42
0.00000001
 43
0.00000001
 12
1.0
 22
0.0
 32
0.0
 13
1.0
 23
0.0
 33
0.0
 40
0.0
 40
0.0
 40
0.0
 40
0.0
 40
0.2087903799796499
 40
0.4543617810369892
 40
0.5949008468891976
 40
0.7481988337598933
 40
0.9148681364462514
 40
1.0
 40
1.0
 40
1.0
 40
1.0
 10
15.69354136902068
 20
8.615703726757184
 30
0.0
 10
15.69594869200831
 20
8.615824330813211
 30
0.0
 10
15.70118741785525
 20
8.616086784829058
 30
0.0
 10
15.71008092242098
 20
8.619614281580535
 30
0.0
 10
15.71706183268936
 20
8.62514882390292
 30
0.0
 10
15.72191998413659
 20
8.631327161231178
 30
0.0
 10
15.7251828606376
 20
8.63774982544274
 30
0.0
 10
15.72565100169259
 20
8.642199372335018
 30
0.0
 10
15.72580927625904
 20
8.64370372684046
 30
0.0
  0
LINE
  5
65F
330
1F
100
AcDbEntity
  8
SLD-0
  6
Continuous
370
    15
100
AcDbLine
 10
16.2109163589
 20
15.081703591
 30
0.0
 11
15.7315413696
 21
15.081703591
 31
0.0
  0
LINE
  5
660
330
1F
100
AcDbEntity
  8
SLD-0
  6
Continuous
370
    15
100
AcDbLine
 10
16.2109163589
 20
15.0942035532
 30
0.0
 11
16.2109163589
 21
15.081703591
 31
0.0
  0
ARC
  5
661
330
1F
100
AcDbEntity
  8
SLD-0
  6
Continuous
370
    15
100
AcDbCircle
 10
15.731541369
 20
15.0767037268
 30
0.0
 40
0.0050000000000203
100
AcDbArc
 50
90.0000000004
 51
180.0
  0
LINE
  5
662
330
1F
100
AcDbEntity
  8
SLD-0
  6
Continuous
370
    15
100
AcDbLine
 10
15.7315413696
 20
15.0942035532
 30
0.0
 11
15.7315413696
 21
15.081703591
 31
0.0
  0
ENDSEC
  0
SECTION
  2
OBJECTS
  0
DICTIONARY
  5
C
330
0
100
AcDbDictionary
281
     1
  3
ACAD_GROUP
350
D
  3
ACAD_LAYOUT
350
1A
  3
ACAD_MATERIAL
350
3B
  3
ACAD_MLEADERSTYLE
350
664
  3
ACAD_MLINESTYLE
350
17
  3
ACAD_PLOTSETTINGS
350
19
  3
ACAD_PLOTSTYLENAME
350
E
  3
ACAD_TABLESTYLE
350
663
  0
DICTIONARY
  5
D
102
{ACAD_REACTORS
330
C
102
}
330
C
100
AcDbDictionary
281
     1
  0
DICTIONARY
  5
1A
102
{ACAD_REACTORS
330
C
102
}
330
C
100
AcDbDictionary
281
     1
  3
Layout1
350
1E
  3
Layout2
350
26
  3
Model
350
22
  0
DICTIONARY
  5
3B
102
{ACAD_REACTORS
330
C
102
}
330
C
100
AcDbDictionary
281
     1
  3
ByBlock
350
3D
  3
ByLayer
350
3C
  3
Global
350
3E
  0
DICTIONARY
  5
664
102
{ACAD_REACTORS
330
C
102
}
330
C
100
AcDbDictionary
281
     1
  0
DICTIONARY
  5
17
102
{ACAD_REACTORS
330
C
102
}
330
C
100
AcDbDictionary
281
     1
  3
Standard
350
18
  0
DICTIONARY
  5
19
102
{ACAD_REACTORS
330
C
102
}
330
C
100
AcDbDictionary
281
     1
  0
ACDBDICTIONARYWDFLT
  5
E
102
{ACAD_REACTORS
330
C
102
}
330
C
100
AcDbDictionary
281
     1
  3
Normal
350
F
100
AcDbDictionaryWithDefault
340
F
  0
DICTIONARY
  5
663
102
{ACAD_REACTORS
330
C
102
}
330
C
100
AcDbDictionary
281
     1
  0
LAYOUT
  5
1E
102
{ACAD_REACTORS
330
1A
102
}
330
1A
100
AcDbPlotSettings
  1

  2
none_device
  4

  6

 40
0.0
 41
0.0
 42
0.0
 43
0.0
 44
0.0
 45
0.0
 46
0.0
 47
0.0
 48
0.0
 49
0.0
140
0.0
141
0.0
142
1.0
143
1.0
 70
   688
 72
     0
 73
     0
 74
     5
  7

 75
    16
 76
     0
 77
     2
 78
   300
147
1.0
148
0.0
149
0.0
100
AcDbLayout
  1
Layout1
 70
     1
 71
     1
 10
0.0
 20
0.0
 11
12.0
 21
9.0
 12
0.0
 22
0.0
 32
0.0
 14
1.0000000000E+20
 24
1.0000000000E+20
 34
1.0000000000E+20
 15
-1.0000000000E+20
 25
-1.0000000000E+20
 35
-1.0000000000E+20
146
0.0
 13
0.0
 23
0.0
 33
0.0
 16
1.0
 26
0.0
 36
0.0
 17
0.0
 27
1.0
 37
0.0
 76
     0
330
1B
  0
LAYOUT
  5
26
102
{ACAD_REACTORS
330
1A
102
}
330
1A
100
AcDbPlotSettings
  1

  2
none_device
  4

  6

 40
0.0
 41
0.0
 42
0.0
 43
0.0
 44
0.0
 45
0.0
 46
0.0
 47
0.0
 48
0.0
 49
0.0
140
0.0
141
0.0
142
1.0
143
1.0
 70
   688
 72
     0
 73
     0
 74
     5
  7

 75
    16
 76
     0
 77
     2
 78
   300
147
1.0
148
0.0
149
0.0
100
AcDbLayout
  1
Layout2
 70
     1
 71
     2
 10
0.0
 20
0.0
 11
0.0
 21
0.0
 12
0.0
 22
0.0
 32
0.0
 14
0.0
 24
0.0
 34
0.0
 15
0.0
 25
0.0
 35
0.0
146
0.0
 13
0.0
 23
0.0
 33
0.0
 16
1.0
 26
0.0
 36
0.0
 17
0.0
 27
1.0
 37
0.0
 76
     0
330
23
  0
LAYOUT
  5
22
102
{ACAD_REACTORS
330
1A
102
}
330
1A
100
AcDbPlotSettings
  1

  2
none_device
  4

  6

 40
0.0
 41
0.0
 42
0.0
 43
0.0
 44
0.0
 45
0.0
 46
0.0
 47
0.0
 48
0.0
 49
0.0
140
0.0
141
0.0
142
1.0
143
1.0
 70
  1712
 72
     0
 73
     0
 74
     0
  7

 75
     0
 76
     0
 77
     2
 78
   300
147
1.0
148
0.0
149
0.0
100
AcDbLayout
  1
Model
 70
     1
 71
     0
 10
0.0
 20
0.0
 11
115.0
 21
70.0
 12
0.0
 22
0.0
 32
0.0
 14
0.0
 24
0.0
 34
0.0
 15
115.0
 25
70.0
 35
0.0
146
0.0
 13
0.0
 23
0.0
 33
0.0
 16
1.0
 26
0.0
 36
0.0
 17
0.0
 27
1.0
 37
0.0
 76
     0
330
1F
331
29
  0
MATERIAL
  5
3D
102
{ACAD_REACTORS
330
3B
102
}
330
3B
100
AcDbMaterial
  1
ByBlock
  0
MATERIAL
  5
3C
102
{ACAD_REACTORS
330
3B
102
}
330
3B
100
AcDbMaterial
  1
ByLayer
  0
MATERIAL
  5
3E
102
{ACAD_REACTORS
330
3B
102
}
330
3B
100
AcDbMaterial
  1
Global
  0
MLINESTYLE
  5
18
102
{ACAD_REACTORS
330
17
102
}
330
17
100
AcDbMlineStyle
  2
Standard
 70
     0
  3

 62
   256
 51
90.0
 52
90.0
 71
     2
 49
0.5
 62
   256
  6
BYLAYER
 49
-0.5
 62
   256
  6
BYLAYER
  0
ACDBPLACEHOLDER
  5
F
102
{ACAD_REACTORS
330
E
102
}
330
E
  0
ENDSEC
  0
EOF
