  0
SECTION
  2
HEADER
  9
$ACADVER
  1
AC1018
  9
$ACADMAINTVER
 70
     0
  9
$DWGCODEPAGE
  3
ANSI_1252
  9
$INSBASE
 10
0.0
 20
0.0
 30
0.0
  9
$EXTMIN
 10
0.0
 20
0.0
 30
0.0
  9
$EXTMAX
 10
120.0
 20
60.0
 30
0.0
  9
$LIMMIN
 10
0.0
 20
0.0
  9
$LIMMAX
 10
120.0
 20
60.0
  9
$ORTHOMODE
 70
     0
  9
$REGENMODE
 70
     1
  9
$FILLMODE
 70
     1
  9
$QTEXTMODE
 70
     0
  9
$MIRRTEXT
 70
     1
  9
$LTSCALE
 40
1.0
  9
$ATTMODE
 70
     1
  9
$TEXTSIZE
 40
0.1388888889
  9
$TRACEWID
 40
0.05
  9
$TEXTSTYLE
  7
Standard
  9
$CLAYER
  8
0
  9
$CELTYPE
  6
ByLayer
  9
$CECOLOR
 62
   256
  9
$CELTSCALE
 40
1.0
  9
$DISPSILH
 70
     0
  9
$DIMSCALE
 40
1.0
  9
$DIMASZ
 40
1.0
  9
$DIMEXO
 40
0.0393700787
  9
$DIMDLI
 40
0.38
  9
$DIMRND
 40
0.0
  9
$DIMDLE
 40
0.0
  9
$DIMEXE
 40
0.0393700787
  9
$DIMTP
 40
0.0
  9
$DIMTM
 40
0.0
  9
$DIMTXT
 40
1.5
  9
$DIMCEN
 40
0.09
  9
$DIMTSZ
 40
0.0
  9
$DIMTOL
 70
     0
  9
$DIMLIM
 70
     0
  9
$DIMTIH
 70
     1
  9
$DIMTOH
 70
     1
  9
$DIMSE1
 70
     0
  9
$DIMSE2
 70
     0
  9
$DIMTAD
 70
     0
  9
$DIMZIN
 70
     0
  9
$DIMBLK
  1

  9
$DIMASO
 70
     1
  9
$DIMSHO
 70
     1
  9
$DIMPOST
  1

  9
$DIMAPOST
  1

  9
$DIMALT
 70
     0
  9
$DIMALTD
 70
     2
  9
$DIMALTF
 40
25.4
  9
$DIMLFAC
 40
1.0
  9
$DIMTOFL
 70
     0
  9
$DIMTVP
 40
0.0
  9
$DIMTIX
 70
     0
  9
$DIMSOXD
 70
     0
  9
$DIMSAH
 70
     0
  9
$DIMBLK1
  1

  9
$DIMBLK2
  1

  9
$DIMSTYLE
  2
Standard
  9
$DIMCLRD
 70
     0
  9
$DIMCLRE
 70
     0
  9
$DIMCLRT
 70
     0
  9
$DIMTFAC
 40
1.0
  9
$DIMGAP
 40
0.06
  9
$DIMJUST
 70
     0
  9
$DIMSD1
 70
     0
  9
$DIMSD2
 70
     0
  9
$DIMTOLJ
 70
     1
  9
$DIMTZIN
 70
     0
  9
$DIMALTZ
 70
     0
  9
$DIMALTTZ
 70
     0
  9
$DIMUPT
 70
     0
  9
$DIMDEC
 70
     3
  9
$DIMTDEC
 70
     2
  9
$DIMALTU
 70
     2
  9
$DIMALTTD
 70
     2
  9
$DIMTXSTY
  7
Standard
  9
$DIMAUNIT
 70
     0
  9
$DIMADEC
 70
     2
  9
$DIMALTRND
 40
0.0
  9
$DIMAZIN
 70
     0
  9
$DIMDSEP
 70
    46
  9
$DIMATFIT
 70
     3
  9
$DIMFRAC
 70
     0
  9
$DIMLDRBLK
  1

  9
$DIMLUNIT
 70
     2
  9
$DIMLWD
 70
    -2
  9
$DIMLWE
 70
    -2
  9
$DIMTMOVE
 70
     0
  9
$LUNITS
 70
     2
  9
$LUPREC
 70
     3
  9
$SKETCHINC
 40
0.1
  9
$FILLETRAD
 40
0.5
  9
$AUNITS
 70
     0
  9
$AUPREC
 70
     2
  9
$MENU
  1
.
  9
$ELEVATION
 40
0.0
  9
$PELEVATION
 40
0.0
  9
$THICKNESS
 40
0.0
  9
$LIMCHECK
 70
     0
  9
$CHAMFERA
 40
0.5
  9
$CHAMFERB
 40
0.5
  9
$CHAMFERC
 40
1.0
  9
$CHAMFERD
 40
0.0
  9
$SKPOLY
 70
     0
  9
$TDCREATE
 40
2456590.344009965
  9
$TDUCREATE
 40
2456590.552343299
  9
$TDUPDATE
 40
2456590.344010868
  9
$TDUUPDATE
 40
2456590.552344202
  9
$TDINDWG
 40
0.0000000116
  9
$TDUSRTIMER
 40
0.0000000116
  9
$USRTIMER
 70
     1
  9
$ANGBASE
 50
0.0
  9
$ANGDIR
 70
     0
  9
$PDMODE
 70
     0
  9
$PDSIZE
 40
-1.0
  9
$PLINEWID
 40
0.0
  9
$SPLFRAME
 70
     0
  9
$SPLINETYPE
 70
     6
  9
$SPLINESEGS
 70
     8
  9
$HANDSEED
  5
4A8
  9
$SURFTAB1
 70
     6
  9
$SURFTAB2
 70
     6
  9
$SURFTYPE
 70
     6
  9
$SURFU
 70
     6
  9
$SURFV
 70
     6
  9
$UCSBASE
  2

  9
$UCSNAME
  2

  9
$UCSORG
 10
0.0
 20
0.0
 30
0.0
  9
$UCSXDIR
 10
1.0
 20
0.0
 30
0.0
  9
$UCSYDIR
 10
0.0
 20
1.0
 30
0.0
  9
$UCSORTHOREF
  2

  9
$UCSORTHOVIEW
 70
     0
  9
$UCSORGTOP
 10
0.0
 20
0.0
 30
0.0
  9
$UCSORGBOTTOM
 10
0.0
 20
0.0
 30
0.0
  9
$UCSORGLEFT
 10
0.0
 20
0.0
 30
0.0
  9
$UCSORGRIGHT
 10
0.0
 20
0.0
 30
0.0
  9
$UCSORGFRONT
 10
0.0
 20
0.0
 30
0.0
  9
$UCSORGBACK
 10
0.0
 20
0.0
 30
0.0
  9
$PUCSBASE
  2

  9
$PUCSNAME
  2

  9
$PUCSORG
 10
0.0
 20
0.0
 30
0.0
  9
$PUCSXDIR
 10
1.0
 20
0.0
 30
0.0
  9
$PUCSYDIR
 10
0.0
 20
1.0
 30
0.0
  9
$PUCSORTHOREF
  2

  9
$PUCSORTHOVIEW
 70
     0
  9
$PUCSORGTOP
 10
0.0
 20
0.0
 30
0.0
  9
$PUCSORGBOTTOM
 10
0.0
 20
0.0
 30
0.0
  9
$PUCSORGLEFT
 10
0.0
 20
0.0
 30
0.0
  9
$PUCSORGRIGHT
 10
0.0
 20
0.0
 30
0.0
  9
$PUCSORGFRONT
 10
0.0
 20
0.0
 30
0.0
  9
$PUCSORGBACK
 10
0.0
 20
0.0
 30
0.0
  9
$USERI1
 70
     0
  9
$USERI2
 70
     0
  9
$USERI3
 70
     0
  9
$USERI4
 70
     0
  9
$USERI5
 70
     0
  9
$USERR1
 40
0.0
  9
$USERR2
 40
0.0
  9
$USERR3
 40
0.0
  9
$USERR4
 40
0.0
  9
$USERR5
 40
0.0
  9
$WORLDVIEW
 70
     1
  9
$SHADEDGE
 70
     3
  9
$SHADEDIF
 70
    70
  9
$TILEMODE
 70
     1
  9
$MAXACTVP
 70
    64
  9
$PINSBASE
 10
0.0
 20
0.0
 30
0.0
  9
$PLIMCHECK
 70
     0
  9
$PEXTMIN
 10
1.0000000000E+20
 20
1.0000000000E+20
 30
1.0000000000E+20
  9
$PEXTMAX
 10
-1.0000000000E+20
 20
-1.0000000000E+20
 30
-1.0000000000E+20
  9
$PLIMMIN
 10
0.0
 20
0.0
  9
$PLIMMAX
 10
12.0
 20
9.0
  9
$UNITMODE
 70
     0
  9
$VISRETAIN
 70
     1
  9
$PLINEGEN
 70
     0
  9
$PSLTSCALE
 70
     1
  9
$TREEDEPTH
 70
  3020
  9
$CMLSTYLE
  2
Standard
  9
$CMLJUST
 70
     0
  9
$CMLSCALE
 40
1.0
  9
$PROXYGRAPHICS
 70
     1
  9
$MEASUREMENT
 70
     0
  9
$CELWEIGHT
370
    -1
  9
$ENDCAPS
280
     0
  9
$JOINSTYLE
280
     0
  9
$LWDISPLAY
290
     1
  9
$INSUNITS
 70
     1
  9
$HYPERLINKBASE
  1

  9
$STYLESHEET
  1

  9
$XEDIT
290
     1
  9
$CEPSNTYPE
380
     0
  9
$PSTYLEMODE
290
     1
  9
$FINGERPRINTGUID
  2
{67A3F835-2A66-46F1-8061-AA0438BC7B94}
  9
$VERSIONGUID
  2
{FAEB1C32-E019-11D5-929B-00C0DF256EC4}
  9
$EXTNAMES
290
     1
  9
$PSVPSCALE
 40
0.0
  9
$OLESTARTUP
290
     0
  9
$SORTENTS
280
   127
  9
$INDEXCTL
280
     0
  9
$HIDETEXT
280
     1
  9
$XCLIPFRAME
290
     0
  9
$HALOGAP
280
     0
  9
$OBSCOLOR
 70
   257
  9
$OBSLTYPE
280
     0
  9
$INTERSECTIONDISPLAY
280
     0
  9
$INTERSECTIONCOLOR
 70
   257
  9
$DIMASSOC
280
     2
  9
$PROJECTNAME
  1

  0
ENDSEC
  0
SECTION
  2
CLASSES
  0
CLASS
  1
ACDBDICTIONARYWDFLT
  2
AcDbDictionaryWithDefault
  3
ObjectDBX Classes
 90
        0
 91
        4
280
     0
281
     0
  0
CLASS
  1
VISUALSTYLE
  2
AcDbVisualStyle
  3
ObjectDBX Classes
 90
     4095
 91
        4
280
     0
281
     0
  0
CLASS
  1
MATERIAL
  2
AcDbMaterial
  3
ObjectDBX Classes
 90
     1153
 91
        4
280
     0
281
     0
  0
ENDSEC
  0
SECTION
  2
TABLES
  0
TABLE
  2
VPORT
  5
8
330
0
100
AcDbSymbolTable
 70
     1
  0
VPORT
  5
29
330
8
100
AcDbSymbolTableRecord
100
AcDbViewportTableRecord
  2
*Active
 70
     0
 10
0.0
 20
0.0
 11
1.0
 21
1.0
 12
60.0
 22
30.0
 13
0.0
 23
0.0
 14
0.5
 24
0.5
 15
0.5
 25
0.5
 16
0.0
 26
0.0
 36
1.0
 17
0.0
 27
0.0
 37
0.0
 40
60.0
 41
2.0
 42
50.0
 43
0.0
 44
0.0
 50
0.0
 51
0.0
 71
     0
 72
  2000
 73
     1
 74
     3
 75
     0
 76
     0
 77
     0
 78
     0
281
     0
 65
     1
110
0.0
120
0.0
130
0.0
111
1.0
121
0.0
131
0.0
112
0.0
122
1.0
132
0.0
 79
     0
146
0.0
  0
ENDTAB
  0
TABLE
  2
LTYPE
  5
5
330
0
100
AcDbSymbolTable
 70
     6
  0
LTYPE
  5
14
330
5
100
AcDbSymbolTableRecord
100
AcDbLinetypeTableRecord
  2
ByBlock
 70
     0
  3

 72
    65
 73
     0
 40
0.0
  0
LTYPE
  5
15
330
5
100
AcDbSymbolTableRecord
100
AcDbLinetypeTableRecord
  2
ByLayer
 70
     0
  3

 72
    65
 73
     0
 40
0.0
  0
LTYPE
  5
16
330
5
100
AcDbSymbolTableRecord
100
AcDbLinetypeTableRecord
  2
Continuous
 70
     0
  3
Solid line
 72
    65
 73
     0
 40
0.0
  0
LTYPE
  5
3F
330
5
100
AcDbSymbolTableRecord
100
AcDbLinetypeTableRecord
  2
HIDDEN
 70
     0
  3
Hidden __ __ __ __ __ __ __ __ __ __ __ __ __ __
 72
    65
 73
     2
 40
0.075
 49
0.05
 74
     0
 49
-0.025
 74
     0
  0
LTYPE
  5
40
330
5
100
AcDbSymbolTableRecord
100
AcDbLinetypeTableRecord
  2
PHANTOM
 70
     0
  3
Phantom ______  __  __  ______  __  __  ______
 72
    65
 73
     6
 40
0.5
 49
0.25
 74
     0
 49
-0.05
 74
     0
 49
0.05
 74
     0
 49
-0.05
 74
     0
 49
0.05
 74
     0
 49
-0.05
 74
     0
  0
LTYPE
  5
41
330
5
100
AcDbSymbolTableRecord
100
AcDbLinetypeTableRecord
  2
CENTER
 70
     0
  3
Center ____ _ ____ _ ____ _ ____ _ ____ _ ____
 72
    65
 73
     4
 40
0.4
 49
0.25
 74
     0
 49
-0.05
 74
     0
 49
0.05
 74
     0
 49
-0.05
 74
     0
  0
LTYPE
  5
42
330
5
100
AcDbSymbolTableRecord
100
AcDbLinetypeTableRecord
  2
CENTERX2
 70
     0
  3
Center (2x) ________  __  ________  __  _____
 72
    65
 73
     4
 40
0.8
 49
0.5
 74
     0
 49
-0.1
 74
     0
 49
0.1
 74
     0
 49
-0.1
 74
     0
  0
LTYPE
  5
43
330
5
100
AcDbSymbolTableRecord
100
AcDbLinetypeTableRecord
  2
DOT2
 70
     0
  3
Dot (.5x) ........................................
 72
    65
 73
     2
 40
0.025
 49
0.0
 74
     0
 49
-0.025
 74
     0
  0
ENDTAB
  0
TABLE
  2
LAYER
  5
2
330
0
100
AcDbSymbolTable
 70
     4
  0
LAYER
  5
10
330
2
100
AcDbSymbolTableRecord
100
AcDbLayerTableRecord
  2
0
 70
     0
 62
     7
  6
Continuous
370
    -3
390
F
  0
LAYER
  5
44
330
2
100
AcDbSymbolTableRecord
100
AcDbLayerTableRecord
  2
SLD-0
 70
     0
 62
     7
  6
Continuous
370
    -3
390
F
  0
LAYER
  5
45
330
2
100
AcDbSymbolTableRecord
100
AcDbLayerTableRecord
  2
NOTES
 70
     0
 62
     1
  6
Continuous
370
    -3
390
F
  0
LAYER
  5
46
330
2
100
AcDbSymbolTableRecord
100
AcDbLayerTableRecord
  2
DIM
 70
     0
 62
   100
  6
Continuous
370
    -3
390
F
  0
ENDTAB
  0
TABLE
  2
STYLE
  5
3
330
0
100
AcDbSymbolTable
 70
     2
  0
STYLE
  5
11
330
3
100
AcDbSymbolTableRecord
100
AcDbTextStyleTableRecord
  2
Standard
 70
     0
 40
0.0
 41
1.0
 50
0.0
 71
     0
 42
0.1388888889
  3
txt
  4

  0
STYLE
  5
4A
330
3
100
AcDbSymbolTableRecord
100
AcDbTextStyleTableRecord
  2
SLDTEXTSTYLE0
 70
     0
 40
0.0
 41
0.75
 50
0.0
 71
     0
 42
0.2
  3
TXT
  4

  0
ENDTAB
  0
TABLE
  2
VIEW
  5
6
330
0
100
AcDbSymbolTable
 70
     0
  0
ENDTAB
  0
TABLE
  2
UCS
  5
7
330
0
100
AcDbSymbolTable
 70
     0
  0
ENDTAB
  0
TABLE
  2
APPID
  5
9
330
0
100
AcDbSymbolTable
 70
     1
  0
APPID
  5
12
330
9
100
AcDbSymbolTableRecord
100
AcDbRegAppTableRecord
  2
ACAD
 70
     0
  0
ENDTAB
  0
TABLE
  2
DIMSTYLE
  5
A
330
0
100
AcDbSymbolTable
 70
     3
100
AcDbDimStyleTable
  0
DIMSTYLE
105
27
330
A
100
AcDbSymbolTableRecord
100
AcDbDimStyleTableRecord
  2
Standard
 70
     0
178
     0
340
11
  0
DIMSTYLE
105
156
102
{ACAD_REACTORS
330
155
330
165
330
174
330
17D
330
18C
330
29A
330
2B7
330
3B0
330
3BF
102
}
330
A
100
AcDbSymbolTableRecord
100
AcDbDimStyleTableRecord
  2
SLDDIMSTYLE0
 70
     0
 41
1.0
 44
0.0
 45
0.000000001
 78
    12
 79
     3
140
1.5
147
0.375
173
     1
178
     0
271
     3
272
     2
276
     2
277
     5
284
    12
340
4A
  0
DIMSTYLE
105
28C
102
{ACAD_REACTORS
330
28B
330
2A9
330
3A1
102
}
330
A
100
AcDbSymbolTableRecord
100
AcDbDimStyleTableRecord
  2
SLDDIMSTYLE1
 70
     0
 41
1.0
 44
0.0
 45
0.000000001
 78
    12
 79
     3
140
1.5
147
0.375
172
     1
173
     1
178
     0
271
     3
272
     2
276
     2
277
     5
284
    12
289
     0
340
4A
  0
ENDTAB
  0
TABLE
  2
BLOCK_RECORD
  5
1
330
0
100
AcDbSymbolTable
 70
    14
  0
BLOCK_RECORD
  5
1F
330
1
100
AcDbSymbolTableRecord
100
AcDbBlockTableRecord
  2
*Model_Space
340
22
  0
BLOCK_RECORD
  5
1B
330
1
100
AcDbSymbolTableRecord
100
AcDbBlockTableRecord
  2
*Paper_Space
340
1E
  0
BLOCK_RECORD
  5
23
330
1
100
AcDbSymbolTableRecord
100
AcDbBlockTableRecord
  2
*Paper_Space0
340
26
  0
BLOCK_RECORD
  5
47
330
1
100
AcDbSymbolTableRecord
100
AcDbBlockTableRecord
  2
SW_NOTE_0
340
0
102
{BLKREFS
331
4F
102
}
  0
BLOCK_RECORD
  5
157
330
1
100
AcDbSymbolTableRecord
100
AcDbBlockTableRecord
  2
_D
340
0
  0
BLOCK_RECORD
  5
166
330
1
100
AcDbSymbolTableRecord
100
AcDbBlockTableRecord
  2
_D_1
340
0
  0
BLOCK_RECORD
  5
175
330
1
100
AcDbSymbolTableRecord
100
AcDbBlockTableRecord
  2
_D_2
340
0
  0
BLOCK_RECORD
  5
17E
330
1
100
AcDbSymbolTableRecord
100
AcDbBlockTableRecord
  2
_D_3
340
0
  0
BLOCK_RECORD
  5
18D
330
1
100
AcDbSymbolTableRecord
100
AcDbBlockTableRecord
  2
_D_4
340
0
  0
BLOCK_RECORD
  5
28D
330
1
100
AcDbSymbolTableRecord
100
AcDbBlockTableRecord
  2
_D_5
340
0
  0
BLOCK_RECORD
  5
29B
330
1
100
AcDbSymbolTableRecord
100
AcDbBlockTableRecord
  2
_D_6
340
0
  0
BLOCK_RECORD
  5
2AA
330
1
100
AcDbSymbolTableRecord
100
AcDbBlockTableRecord
  2
_D_7
340
0
  0
BLOCK_RECORD
  5
2B8
330
1
100
AcDbSymbolTableRecord
100
AcDbBlockTableRecord
  2
_D_8
340
0
  0
BLOCK_RECORD
  5
3A2
330
1
100
AcDbSymbolTableRecord
100
AcDbBlockTableRecord
  2
_D_9
340
0
  0
BLOCK_RECORD
  5
3B1
330
1
100
AcDbSymbolTableRecord
100
AcDbBlockTableRecord
  2
_D_10
340
0
  0
BLOCK_RECORD
  5
3C0
330
1
100
AcDbSymbolTableRecord
100
AcDbBlockTableRecord
  2
_D_11
340
0
  0
ENDTAB
  0
ENDSEC
  0
SECTION
  2
BLOCKS
  0
BLOCK
  5
20
330
1F
100
AcDbEntity
  8
0
100
AcDbBlockBegin
  2
*Model_Space
 70
     0
 10
0.0
 20
0.0
 30
0.0
  3
*Model_Space
  1

  0
ENDBLK
  5
21
330
1F
100
AcDbEntity
  8
0
100
AcDbBlockEnd
  0
BLOCK
  5
1C
330
1B
100
AcDbEntity
 67
     1
  8
0
100
AcDbBlockBegin
  2
*Paper_Space
 70
     0
 10
0.0
 20
0.0
 30
0.0
  3
*Paper_Space
  1

  0
ENDBLK
  5
1D
330
1B
100
AcDbEntity
 67
     1
  8
0
100
AcDbBlockEnd
  0
BLOCK
  5
24
330
23
100
AcDbEntity
  8
0
100
AcDbBlockBegin
  2
*Paper_Space0
 70
     0
 10
0.0
 20
0.0
 30
0.0
  3
*Paper_Space0
  1

  0
ENDBLK
  5
25
330
23
100
AcDbEntity
  8
0
100
AcDbBlockEnd
  0
BLOCK
  5
48
330
47
100
AcDbEntity
  8
0
100
AcDbBlockBegin
  2
SW_NOTE_0
 70
     0
 10
0.0
 20
0.0
 30
0.0
  3
SW_NOTE_0
  1

  0
MTEXT
  5
4B
330
47
100
AcDbEntity
  8
NOTES
 62
     0
100
AcDbMText
 10
0.0
 20
2.2558685446
 30
0.0
 40
1.75
 41
0.0
 71
     1
 72
     1
  1
VFLL48SP30LN-1
  7
SLDTEXTSTYLE0
 73
     1
 44
1.0
  0
MTEXT
  5
4C
330
47
100
AcDbEntity
  8
NOTES
 62
     0
100
AcDbMText
 10
0.0
 20
-0.0069786748
 30
0.0
 40
1.75
 41
0.0
 71
     1
 72
     1
  1
VFLL48SP30LP-1
  7
SLDTEXTSTYLE0
 73
     1
 44
1.0
  0
MTEXT
  5
4D
330
47
100
AcDbEntity
  8
NOTES
 62
     0
100
AcDbMText
 10
0.0
 20
-2.2698258942
 30
0.0
 40
1.75
 41
0.0
 71
     1
 72
     1
  1
VFLL48SP90LN-1
  7
SLDTEXTSTYLE0
 73
     1
 44
1.0
  0
MTEXT
  5
4E
330
47
100
AcDbEntity
  8
NOTES
 62
     0
100
AcDbMText
 10
0.0
 20
-4.5326731136
 30
0.0
 40
1.75
 41
0.0
 71
     1
 72
     1
  1
VFLL48SP90LP-1
  7
SLDTEXTSTYLE0
 73
     1
 44
1.0
  0
ENDBLK
  5
49
330
47
100
AcDbEntity
  8
0
100
AcDbBlockEnd
  0
BLOCK
  5
158
330
157
100
AcDbEntity
  8
0
100
AcDbBlockBegin
  2
_D
 70
     0
 10
0.0
 20
0.0
 30
0.0
  3
_D
  1

  0
SOLID
  5
15A
330
157
100
AcDbEntity
  8
DIM
100
AcDbTrace
 10
28.2384973396
 20
2.2484062695
 30
0.0
 11
29.2384973396
 21
1.9984062695
 31
0.0
 12
29.2384973396
 22
2.4984062695
 32
0.0
 13
29.2384973396
 23
2.4984062695
 33
0.0
  0
SOLID
  5
15B
330
157
100
AcDbEntity
  8
DIM
100
AcDbTrace
 10
80.9864973396
 20
2.2484062695
 30
0.0
 11
79.9864973396
 21
2.4984062695
 31
0.0
 12
79.9864973396
 22
1.9984062695
 32
0.0
 13
79.9864973396
 23
1.9984062695
 33
0.0
  0
LINE
  5
15C
330
157
100
AcDbEntity
  8
DIM
100
AcDbLine
 10
55.702080674
 20
3.748406288
 30
0.0
 11
53.9020806517
 21
0.7484062509
 31
0.0
  0
LINE
  5
15D
330
157
100
AcDbEntity
  8
DIM
100
AcDbLine
 10
28.2384973396
 20
7.8050361907
 30
0.0
 11
28.2384973396
 21
2.2090361907
 31
0.0
  0
LINE
  5
15E
330
157
100
AcDbEntity
  8
DIM
100
AcDbLine
 10
80.9864973396
 20
7.8050361907
 30
0.0
 11
80.9864973396
 21
2.2090361907
 31
0.0
  0
LINE
  5
15F
330
157
100
AcDbEntity
  8
DIM
100
AcDbLine
 10
28.2384973396
 20
2.2484062695
 30
0.0
 11
51.4770806536
 21
2.2484062695
 31
0.0
  0
LINE
  5
160
330
157
100
AcDbEntity
  8
DIM
100
AcDbLine
 10
80.9864973396
 20
2.2484062695
 30
0.0
 11
57.7479140257
 21
2.2484062695
 31
0.0
  0
MTEXT
  5
161
330
157
100
AcDbEntity
  8
DIM
100
AcDbMText
 10
51.4770806536
 20
3.1080496589
 30
0.0039370079
 40
1.5
 41
0.0
 71
     1
 72
     1
  1
52
  7
SLDTEXTSTYLE0
 73
     1
 44
1.0
  0
MTEXT
  5
162
330
157
100
AcDbEntity
  8
DIM
100
AcDbMText
 10
53.6937473264
 20
4.1820079158
 30
0.0039370079
 40
1.5
 41
0.0
 71
     1
 72
     1
  1
3
  7
SLDTEXTSTYLE0
 73
     1
 44
1.0
  0
MTEXT
  5
163
330
157
100
AcDbEntity
  8
DIM
100
AcDbMText
 10
54.8020806629
 20
2.242424522
 30
0.0039370079
 40
1.5
 41
0.0
 71
     1
 72
     1
  1
4
  7
SLDTEXTSTYLE0
 73
     1
 44
1.0
  0
MTEXT
  5
164
330
157
100
AcDbEntity
  8
DIM
100
AcDbMText
 10
55.9104139993
 20
3.1080496589
 30
0.0039370079
 40
1.5
 41
0.0
 71
     1
 72
     1
  1
"
  7
SLDTEXTSTYLE0
 73
     1
 44
1.0
  0
ENDBLK
  5
159
330
157
100
AcDbEntity
  8
0
100
AcDbBlockEnd
  0
BLOCK
  5
167
330
166
100
AcDbEntity
  8
0
100
AcDbBlockBegin
  2
_D_1
 70
     0
 10
0.0
 20
0.0
 30
0.0
  3
_D_1
  1

  0
SOLID
  5
169
330
166
100
AcDbEntity
  8
DIM
100
AcDbTrace
 10
84.9865973396
 20
28.3351562695
 30
0.0
 11
84.7365973396
 21
27.3351562695
 31
0.0
 12
85.2365973396
 22
27.3351562695
 32
0.0
 13
85.2365973396
 23
27.3351562695
 33
0.0
  0
SOLID
  5
16A
330
166
100
AcDbEntity
  8
DIM
100
AcDbTrace
 10
84.9865973396
 20
6.2484062695
 30
0.0
 11
85.2365973396
 21
7.2484062695
 31
0.0
 12
84.7365973396
 22
7.2484062695
 32
0.0
 13
84.7365973396
 23
7.2484062695
 33
0.0
  0
LINE
  5
16B
330
166
100
AcDbEntity
  8
DIM
100
AcDbLine
 10
85.5220138224
 20
18.791781288
 30
0.0
 11
83.7220138002
 21
15.7917812509
 31
0.0
  0
LINE
  5
16C
330
166
100
AcDbEntity
  8
DIM
100
AcDbLine
 10
80.2748674184
 20
28.3351562695
 30
0.0
 11
85.0259674184
 21
28.3351562695
 31
0.0
  0
LINE
  5
16D
330
166
100
AcDbEntity
  8
DIM
100
AcDbLine
 10
79.9311274184
 20
6.2484062695
 30
0.0
 11
85.0259674184
 21
6.2484062695
 31
0.0
  0
LINE
  5
16E
330
166
100
AcDbEntity
  8
DIM
100
AcDbLine
 10
84.9865973396
 20
28.3351562695
 30
0.0
 11
84.9865973396
 21
19.2313646632
 31
0.0
  0
LINE
  5
16F
330
166
100
AcDbEntity
  8
DIM
100
AcDbLine
 10
84.9865973396
 20
6.2484062695
 30
0.0
 11
84.9865973396
 21
15.3521978757
 31
0.0
  0
MTEXT
  5
170
330
166
100
AcDbEntity
  8
DIM
100
AcDbMText
 10
81.297013802
 20
18.1514246589
 30
0.0039370079
 40
1.5
 41
0.0
 71
     1
 72
     1
  1
22
  7
SLDTEXTSTYLE0
 73
     1
 44
1.0
  0
MTEXT
  5
171
330
166
100
AcDbEntity
  8
DIM
100
AcDbMText
 10
83.5136804749
 20
19.2253829158
 30
0.0039370079
 40
1.5
 41
0.0
 71
     1
 72
     1
  1
1
  7
SLDTEXTSTYLE0
 73
     1
 44
1.0
  0
MTEXT
  5
172
330
166
100
AcDbEntity
  8
DIM
100
AcDbMText
 10
84.6220138113
 20
17.285799522
 30
0.0039370079
 40
1.5
 41
0.0
 71
     1
 72
     1
  1
16
  7
SLDTEXTSTYLE0
 73
     1
 44
1.0
  0
MTEXT
  5
173
330
166
100
AcDbEntity
  8
DIM
100
AcDbMText
 10
86.8386805575
 20
18.1514246589
 30
0.0039370079
 40
1.5
 41
0.0
 71
     1
 72
     1
  1
"
  7
SLDTEXTSTYLE0
 73
     1
 44
1.0
  0
ENDBLK
  5
168
330
166
100
AcDbEntity
  8
0
100
AcDbBlockEnd
  0
BLOCK
  5
176
330
175
100
AcDbEntity
  8
0
100
AcDbBlockBegin
  2
_D_2
 70
     0
 10
0.0
 20
0.0
 30
0.0
  3
_D_2
  1

  0
SOLID
  5
178
330
175
100
AcDbEntity
  8
DIM
100
AcDbTrace
 10
78.6144973396
 20
19.7042812695
 30
0.0
 11
77.6144973396
 21
19.9542812695
 31
0.0
 12
77.6144973396
 22
19.4542812695
 32
0.0
 13
77.6144973396
 23
19.4542812695
 33
0.0
  0
SOLID
  5
179
330
175
100
AcDbEntity
  8
DIM
100
AcDbTrace
 10
30.6104973396
 20
19.7042812695
 30
0.0
 11
31.6104973396
 21
19.4542812695
 31
0.0
 12
31.6104973396
 22
19.9542812695
 32
0.0
 13
31.6104973396
 23
19.9542812695
 33
0.0
  0
LINE
  5
17A
330
175
100
AcDbEntity
  8
DIM
100
AcDbLine
 10
78.6144973396
 20
19.7042812695
 30
0.0
 11
56.6395807626
 21
19.7042812695
 31
0.0
  0
LINE
  5
17B
330
175
100
AcDbEntity
  8
DIM
100
AcDbLine
 10
30.6104973396
 20
19.7042812695
 30
0.0
 11
52.5854139167
 21
19.7042812695
 31
0.0
  0
MTEXT
  5
17C
330
175
100
AcDbEntity
  8
DIM
100
AcDbMText
 10
52.5854139167
 20
20.44725788
 30
0.0039370079
 40
1.5
 41
0.0
 71
     1
 72
     1
  1
48"
  7
SLDTEXTSTYLE0
 73
     1
 44
1.0
  0
ENDBLK
  5
177
330
175
100
AcDbEntity
  8
0
100
AcDbBlockEnd
  0
BLOCK
  5
17F
330
17E
100
AcDbEntity
  8
0
100
AcDbBlockBegin
  2
_D_3
 70
     0
 10
0.0
 20
0.0
 30
0.0
  3
_D_3
  1

  0
SOLID
  5
181
330
17E
100
AcDbEntity
  8
DIM
100
AcDbTrace
 10
24.2383973396
 20
25.7281562695
 30
0.0
 11
23.9883973396
 21
24.7281562695
 31
0.0
 12
24.4883973396
 22
24.7281562695
 32
0.0
 13
24.4883973396
 23
24.7281562695
 33
0.0
  0
SOLID
  5
182
330
17E
100
AcDbEntity
  8
DIM
100
AcDbTrace
 10
24.2383973396
 20
13.6804062695
 30
0.0
 11
24.4883973396
 21
14.6804062695
 31
0.0
 12
23.9883973396
 22
14.6804062695
 32
0.0
 13
23.9883973396
 23
14.6804062695
 33
0.0
  0
LINE
  5
183
330
17E
100
AcDbEntity
  8
DIM
100
AcDbLine
 10
24.7738138224
 20
21.204281288
 30
0.0
 11
22.9738138002
 21
18.2042812509
 31
0.0
  0
LINE
  5
184
330
17E
100
AcDbEntity
  8
DIM
100
AcDbLine
 10
30.6291272609
 20
25.7281562695
 30
0.0
 11
24.1990272609
 21
25.7281562695
 31
0.0
  0
LINE
  5
185
330
17E
100
AcDbEntity
  8
DIM
100
AcDbLine
 10
30.6471272609
 20
13.6804062695
 30
0.0
 11
24.1990272609
 21
13.6804062695
 31
0.0
  0
LINE
  5
186
330
17E
100
AcDbEntity
  8
DIM
100
AcDbLine
 10
24.2383973396
 20
25.7281562695
 30
0.0
 11
24.2383973396
 21
21.6438646632
 31
0.0
  0
LINE
  5
187
330
17E
100
AcDbEntity
  8
DIM
100
AcDbLine
 10
24.2383973396
 20
13.6804062695
 30
0.0
 11
24.2383973396
 21
17.7646978757
 31
0.0
  0
MTEXT
  5
188
330
17E
100
AcDbEntity
  8
DIM
100
AcDbMText
 10
20.548813802
 20
20.5639246589
 30
0.0039370079
 40
1.5
 41
0.0
 71
     1
 72
     1
  1
12
  7
SLDTEXTSTYLE0
 73
     1
 44
1.0
  0
MTEXT
  5
189
330
17E
100
AcDbEntity
  8
DIM
100
AcDbMText
 10
22.7654804749
 20
21.6378829158
 30
0.0039370079
 40
1.5
 41
0.0
 71
     1
 72
     1
  1
1
  7
SLDTEXTSTYLE0
 73
     1
 44
1.0
  0
MTEXT
  5
18A
330
17E
100
AcDbEntity
  8
DIM
100
AcDbMText
 10
23.8738138113
 20
19.698299522
 30
0.0039370079
 40
1.5
 41
0.0
 71
     1
 72
     1
  1
16
  7
SLDTEXTSTYLE0
 73
     1
 44
1.0
  0
MTEXT
  5
18B
330
17E
100
AcDbEntity
  8
DIM
100
AcDbMText
 10
26.0904805575
 20
20.5639246589
 30
0.0039370079
 40
1.5
 41
0.0
 71
     1
 72
     1
  1
"
  7
SLDTEXTSTYLE0
 73
     1
 44
1.0
  0
ENDBLK
  5
180
330
17E
100
AcDbEntity
  8
0
100
AcDbBlockEnd
  0
BLOCK
  5
18E
330
18D
100
AcDbEntity
  8
0
100
AcDbBlockBegin
  2
_D_4
 70
     0
 10
0.0
 20
0.0
 30
0.0
  3
_D_4
  1

  0
SOLID
  5
190
330
18D
100
AcDbEntity
  8
DIM
100
AcDbTrace
 10
24.2383973396
 20
13.6804062695
 30
0.0
 11
23.9883973396
 21
12.6804062695
 31
0.0
 12
24.4883973396
 22
12.6804062695
 32
0.0
 13
24.4883973396
 23
12.6804062695
 33
0.0
  0
SOLID
  5
191
330
18D
100
AcDbEntity
  8
DIM
100
AcDbTrace
 10
24.2383973396
 20
6.2484062695
 30
0.0
 11
24.4883973396
 21
7.2484062695
 31
0.0
 12
23.9883973396
 22
7.2484062695
 32
0.0
 13
23.9883973396
 23
7.2484062695
 33
0.0
  0
LINE
  5
192
330
18D
100
AcDbEntity
  8
DIM
100
AcDbLine
 10
24.2196473376
 20
11.464406288
 30
0.0
 11
22.4196473153
 21
8.4644062509
 31
0.0
  0
LINE
  5
193
330
18D
100
AcDbEntity
  8
DIM
100
AcDbLine
 10
30.6471272609
 20
13.6804062695
 30
0.0
 11
24.1990272609
 21
13.6804062695
 31
0.0
  0
LINE
  5
194
330
18D
100
AcDbEntity
  8
DIM
100
AcDbLine
 10
29.2938672609
 20
6.2484062695
 30
0.0
 11
24.1990272609
 21
6.2484062695
 31
0.0
  0
LINE
  5
195
330
18D
100
AcDbEntity
  8
DIM
100
AcDbLine
 10
24.2383973396
 20
13.6804062695
 30
0.0
 11
24.2383973396
 21
11.9039896632
 31
0.0
  0
LINE
  5
196
330
18D
100
AcDbEntity
  8
DIM
100
AcDbLine
 10
24.2383973396
 20
6.2484062695
 30
0.0
 11
24.2383973396
 21
8.0248228757
 31
0.0
  0
MTEXT
  5
197
330
18D
100
AcDbEntity
  8
DIM
100
AcDbMText
 10
21.1029806536
 20
10.8240496589
 30
0.0039370079
 40
1.5
 41
0.0
 71
     1
 72
     1
  1
7
  7
SLDTEXTSTYLE0
 73
     1
 44
1.0
  0
MTEXT
  5
198
330
18D
100
AcDbEntity
  8
DIM
100
AcDbMText
 10
22.21131399
 20
11.8980079158
 30
0.0039370079
 40
1.5
 41
0.0
 71
     1
 72
     1
  1
7
  7
SLDTEXTSTYLE0
 73
     1
 44
1.0
  0
MTEXT
  5
199
330
18D
100
AcDbEntity
  8
DIM
100
AcDbMText
 10
23.3196473264
 20
9.958424522
 30
0.0039370079
 40
1.5
 41
0.0
 71
     1
 72
     1
  1
16
  7
SLDTEXTSTYLE0
 73
     1
 44
1.0
  0
MTEXT
  5
19A
330
18D
100
AcDbEntity
  8
DIM
100
AcDbMText
 10
25.5363139993
 20
10.8240496589
 30
0.0039370079
 40
1.5
 41
0.0
 71
     1
 72
     1
  1
"
  7
SLDTEXTSTYLE0
 73
     1
 44
1.0
  0
ENDBLK
  5
18F
330
18D
100
AcDbEntity
  8
0
100
AcDbBlockEnd
  0
BLOCK
  5
28E
330
28D
100
AcDbEntity
  8
0
100
AcDbBlockBegin
  2
_D_5
 70
     0
 10
0.0
 20
0.0
 30
0.0
  3
_D_5
  1

  0
SOLID
  5
290
330
28D
100
AcDbEntity
  8
DIM
100
AcDbTrace
 10
28.9894973396
 20
56.0061500381
 30
0.0
 11
29.9894973396
 21
55.7561500381
 31
0.0
 12
29.9894973396
 22
56.2561500381
 32
0.0
 13
29.9894973396
 23
56.2561500381
 33
0.0
  0
SOLID
  5
291
330
28D
100
AcDbEntity
  8
DIM
100
AcDbTrace
 10
28.2383973396
 20
56.0061500381
 30
0.0
 11
27.2383973396
 21
56.2561500381
 31
0.0
 12
27.2383973396
 22
55.7561500381
 32
0.0
 13
27.2383973396
 23
55.7561500381
 33
0.0
  0
LINE
  5
292
330
28D
100
AcDbEntity
  8
DIM
100
AcDbLine
 10
24.2196472642
 20
57.5061500567
 30
0.0
 11
22.419647242
 21
54.5061500196
 31
0.0
  0
LINE
  5
293
330
28D
100
AcDbEntity
  8
DIM
100
AcDbLine
 10
28.9894973396
 20
51.5095701169
 30
0.0
 11
28.9894973396
 21
56.0455201169
 31
0.0
  0
LINE
  5
294
330
28D
100
AcDbEntity
  8
DIM
100
AcDbLine
 10
28.2383973396
 20
50.8694701169
 30
0.0
 11
28.2383973396
 21
56.0455201169
 31
0.0
  0
LINE
  5
295
330
28D
100
AcDbEntity
  8
DIM
100
AcDbLine
 10
28.9894973396
 20
56.0061500381
 30
0.0
 11
30.4894973396
 21
56.0061500381
 31
0.0
  0
LINE
  5
296
330
28D
100
AcDbEntity
  8
DIM
100
AcDbLine
 10
28.2383973396
 20
56.0061500381
 30
0.0
 11
26.2654807626
 21
56.0061500381
 31
0.0
  0
MTEXT
  5
297
330
28D
100
AcDbEntity
  8
DIM
100
AcDbMText
 10
22.2113139167
 20
57.9397516845
 30
-10.1014379921
 40
1.5
 41
0.0
 71
     1
 72
     1
  1
3
  7
SLDTEXTSTYLE0
 73
     1
 44
1.0
  0
MTEXT
  5
298
330
28D
100
AcDbEntity
  8
DIM
100
AcDbMText
 10
23.3196472531
 20
56.0001682907
 30
-10.1014379921
 40
1.5
 41
0.0
 71
     1
 72
     1
  1
4
  7
SLDTEXTSTYLE0
 73
     1
 44
1.0
  0
MTEXT
  5
299
330
28D
100
AcDbEntity
  8
DIM
100
AcDbMText
 10
24.4279805895
 20
56.8657934276
 30
-10.1014379921
 40
1.5
 41
0.0
 71
     1
 72
     1
  1
"
  7
SLDTEXTSTYLE0
 73
     1
 44
1.0
  0
ENDBLK
  5
28F
330
28D
100
AcDbEntity
  8
0
100
AcDbBlockEnd
  0
BLOCK
  5
29C
330
29B
100
AcDbEntity
  8
0
100
AcDbBlockBegin
  2
_D_6
 70
     0
 10
0.0
 20
0.0
 30
0.0
  3
_D_6
  1

  0
SOLID
  5
29E
330
29B
100
AcDbEntity
  8
DIM
100
AcDbTrace
 10
28.9383973396
 20
56.0061500381
 30
0.0
 11
29.9383973396
 21
55.7561500381
 31
0.0
 12
29.9383973396
 22
56.2561500381
 32
0.0
 13
29.9383973396
 23
56.2561500381
 33
0.0
  0
SOLID
  5
29F
330
29B
100
AcDbEntity
  8
DIM
100
AcDbTrace
 10
80.2865973396
 20
56.0061500381
 30
0.0
 11
79.2865973396
 21
56.2561500381
 31
0.0
 12
79.2865973396
 22
55.7561500381
 32
0.0
 13
79.2865973396
 23
55.7561500381
 33
0.0
  0
LINE
  5
2A0
330
29B
100
AcDbEntity
  8
DIM
100
AcDbLine
 10
55.702080674
 20
57.5061500567
 30
0.0
 11
53.9020806517
 21
54.5061500196
 31
0.0
  0
LINE
  5
2A1
330
29B
100
AcDbEntity
  8
DIM
100
AcDbLine
 10
28.9383973396
 20
51.4944701169
 30
0.0
 11
28.9383973396
 21
56.0455201169
 31
0.0
  0
LINE
  5
2A2
330
29B
100
AcDbEntity
  8
DIM
100
AcDbLine
 10
80.2865973396
 20
51.4944701169
 30
0.0
 11
80.2865973396
 21
56.0455201169
 31
0.0
  0
LINE
  5
2A3
330
29B
100
AcDbEntity
  8
DIM
100
AcDbLine
 10
28.9383973396
 20
56.0061500381
 30
0.0
 11
51.4770806536
 21
56.0061500381
 31
0.0
  0
LINE
  5
2A4
330
29B
100
AcDbEntity
  8
DIM
100
AcDbLine
 10
80.2865973396
 20
56.0061500381
 30
0.0
 11
57.7479140257
 21
56.0061500381
 31
0.0
  0
MTEXT
  5
2A5
330
29B
100
AcDbEntity
  8
DIM
100
AcDbMText
 10
51.4770806536
 20
56.8657934276
 30
-10.1014379921
 40
1.5
 41
0.0
 71
     1
 72
     1
  1
51
  7
SLDTEXTSTYLE0
 73
     1
 44
1.0
  0
MTEXT
  5
2A6
330
29B
100
AcDbEntity
  8
DIM
100
AcDbMText
 10
53.6937473264
 20
57.9397516845
 30
-10.1014379921
 40
1.5
 41
0.0
 71
     1
 72
     1
  1
3
  7
SLDTEXTSTYLE0
 73
     1
 44
1.0
  0
MTEXT
  5
2A7
330
29B
100
AcDbEntity
  8
DIM
100
AcDbMText
 10
54.8020806629
 20
56.0001682907
 30
-10.1014379921
 40
1.5
 41
0.0
 71
     1
 72
     1
  1
8
  7
SLDTEXTSTYLE0
 73
     1
 44
1.0
  0
MTEXT
  5
2A8
330
29B
100
AcDbEntity
  8
DIM
100
AcDbMText
 10
55.9104139993
 20
56.8657934276
 30
-10.1014379921
 40
1.5
 41
0.0
 71
     1
 72
     1
  1
"
  7
SLDTEXTSTYLE0
 73
     1
 44
1.0
  0
ENDBLK
  5
29D
330
29B
100
AcDbEntity
  8
0
100
AcDbBlockEnd
  0
BLOCK
  5
2AB
330
2AA
100
AcDbEntity
  8
0
100
AcDbBlockBegin
  2
_D_7
 70
     0
 10
0.0
 20
0.0
 30
0.0
  3
_D_7
  1

  0
SOLID
  5
2AD
330
2AA
100
AcDbEntity
  8
DIM
100
AcDbTrace
 10
80.2354973396
 20
56.0061500381
 30
0.0
 11
79.2354973396
 21
56.2561500381
 31
0.0
 12
79.2354973396
 22
55.7561500381
 32
0.0
 13
79.2354973396
 23
55.7561500381
 33
0.0
  0
SOLID
  5
2AE
330
2AA
100
AcDbEntity
  8
DIM
100
AcDbTrace
 10
80.9865973396
 20
56.0061500381
 30
0.0
 11
81.9865973396
 21
55.7561500381
 31
0.0
 12
81.9865973396
 22
56.2561500381
 32
0.0
 13
81.9865973396
 23
56.2561500381
 33
0.0
  0
LINE
  5
2AF
330
2AA
100
AcDbEntity
  8
DIM
100
AcDbLine
 10
85.8079613343
 20
57.5061500567
 30
0.0
 11
84.007961312
 21
54.5061500196
 31
0.0
  0
LINE
  5
2B0
330
2AA
100
AcDbEntity
  8
DIM
100
AcDbLine
 10
80.2354973396
 20
51.5095701169
 30
0.0
 11
80.2354973396
 21
56.0455201169
 31
0.0
  0
LINE
  5
2B1
330
2AA
100
AcDbEntity
  8
DIM
100
AcDbLine
 10
80.9865973396
 20
50.8694701169
 30
0.0
 11
80.9865973396
 21
56.0455201169
 31
0.0
  0
LINE
  5
2B2
330
2AA
100
AcDbEntity
  8
DIM
100
AcDbLine
 10
80.2354973396
 20
56.0061500381
 30
0.0
 11
78.7354973396
 21
56.0061500381
 31
0.0
  0
LINE
  5
2B3
330
2AA
100
AcDbEntity
  8
DIM
100
AcDbLine
 10
80.9865973396
 20
56.0061500381
 30
0.0
 11
83.7996279867
 21
56.0061500381
 31
0.0
  0
MTEXT
  5
2B4
330
2AA
100
AcDbEntity
  8
DIM
100
AcDbMText
 10
83.7996279867
 20
57.9397516845
 30
-10.1014379921
 40
1.5
 41
0.0
 71
     1
 72
     1
  1
3
  7
SLDTEXTSTYLE0
 73
     1
 44
1.0
  0
MTEXT
  5
2B5
330
2AA
100
AcDbEntity
  8
DIM
100
AcDbMText
 10
84.9079613231
 20
56.0001682907
 30
-10.1014379921
 40
1.5
 41
0.0
 71
     1
 72
     1
  1
4
  7
SLDTEXTSTYLE0
 73
     1
 44
1.0
  0
MTEXT
  5
2B6
330
2AA
100
AcDbEntity
  8
DIM
100
AcDbMText
 10
86.0162946596
 20
56.8657934276
 30
-10.1014379921
 40
1.5
 41
0.0
 71
     1
 72
     1
  1
"
  7
SLDTEXTSTYLE0
 73
     1
 44
1.0
  0
ENDBLK
  5
2AC
330
2AA
100
AcDbEntity
  8
0
100
AcDbBlockEnd
  0
BLOCK
  5
2B9
330
2B8
100
AcDbEntity
  8
0
100
AcDbBlockBegin
  2
_D_8
 70
     0
 10
0.0
 20
0.0
 30
0.0
  3
_D_8
  1

  0
SOLID
  5
2BB
330
2B8
100
AcDbEntity
  8
DIM
100
AcDbTrace
 10
84.9865973396
 20
39.7774000381
 30
0.0
 11
85.2365973396
 21
40.7774000381
 31
0.0
 12
84.7365973396
 22
40.7774000381
 32
0.0
 13
84.7365973396
 23
40.7774000381
 33
0.0
  0
SOLID
  5
2BC
330
2B8
100
AcDbEntity
  8
DIM
100
AcDbTrace
 10
84.9865973396
 20
51.5062000381
 30
0.0
 11
84.7365973396
 21
50.5062000381
 31
0.0
 12
85.2365973396
 22
50.5062000381
 32
0.0
 13
85.2365973396
 23
50.5062000381
 33
0.0
  0
LINE
  5
2BD
330
2B8
100
AcDbEntity
  8
DIM
100
AcDbLine
 10
86.076180674
 20
47.1418000567
 30
0.0
 11
84.2761806517
 21
44.1418000196
 31
0.0
  0
LINE
  5
2BE
330
2B8
100
AcDbEntity
  8
DIM
100
AcDbLine
 10
80.2169924184
 20
39.7774000381
 30
0.0
 11
85.0259674184
 21
39.7774000381
 31
0.0
  0
LINE
  5
2BF
330
2B8
100
AcDbEntity
  8
DIM
100
AcDbLine
 10
80.2169924184
 20
51.5062000381
 30
0.0
 11
85.0259674184
 21
51.5062000381
 31
0.0
  0
LINE
  5
2C0
330
2B8
100
AcDbEntity
  8
DIM
100
AcDbLine
 10
84.9865973396
 20
39.7774000381
 30
0.0
 11
84.9865973396
 21
43.7022166444
 31
0.0
  0
LINE
  5
2C1
330
2B8
100
AcDbEntity
  8
DIM
100
AcDbLine
 10
84.9865973396
 20
51.5062000381
 30
0.0
 11
84.9865973396
 21
47.5813834319
 31
0.0
  0
MTEXT
  5
2C2
330
2B8
100
AcDbEntity
  8
DIM
100
AcDbMText
 10
81.8511806536
 20
46.5014434276
 30
-10.1014379921
 40
1.5
 41
0.0
 71
     1
 72
     1
  1
11
  7
SLDTEXTSTYLE0
 73
     1
 44
1.0
  0
MTEXT
  5
2C3
330
2B8
100
AcDbEntity
  8
DIM
100
AcDbMText
 10
84.0678473264
 20
47.5754016845
 30
-10.1014379921
 40
1.5
 41
0.0
 71
     1
 72
     1
  1
3
  7
SLDTEXTSTYLE0
 73
     1
 44
1.0
  0
MTEXT
  5
2C4
330
2B8
100
AcDbEntity
  8
DIM
100
AcDbMText
 10
85.1761806629
 20
45.6358182907
 30
-10.1014379921
 40
1.5
 41
0.0
 71
     1
 72
     1
  1
4
  7
SLDTEXTSTYLE0
 73
     1
 44
1.0
  0
MTEXT
  5
2C5
330
2B8
100
AcDbEntity
  8
DIM
100
AcDbMText
 10
86.2845139993
 20
46.5014434276
 30
-10.1014379921
 40
1.5
 41
0.0
 71
     1
 72
     1
  1
"
  7
SLDTEXTSTYLE0
 73
     1
 44
1.0
  0
ENDBLK
  5
2BA
330
2B8
100
AcDbEntity
  8
0
100
AcDbBlockEnd
  0
BLOCK
  5
3A3
330
3A2
100
AcDbEntity
  8
0
100
AcDbBlockBegin
  2
_D_9
 70
     0
 10
0.0
 20
0.0
 30
0.0
  3
_D_9
  1

  0
SOLID
  5
3A5
330
3A2
100
AcDbEntity
  8
DIM
100
AcDbTrace
 10
111.2936782256
 20
6.2484062695
 30
0.0
 11
111.0436782256
 21
5.2484062695
 31
0.0
 12
111.5436782256
 22
5.2484062695
 32
0.0
 13
111.5436782256
 23
5.2484062695
 33
0.0
  0
SOLID
  5
3A6
330
3A2
100
AcDbEntity
  8
DIM
100
AcDbTrace
 10
111.2936782256
 20
7.1864062695
 30
0.0
 11
111.5436782256
 21
8.1864062695
 31
0.0
 12
111.0436782256
 22
8.1864062695
 32
0.0
 13
111.0436782256
 23
8.1864062695
 33
0.0
  0
LINE
  5
3A7
330
3A2
100
AcDbEntity
  8
DIM
100
AcDbLine
 10
116.15652409
 20
3.748406288
 30
0.0
 11
114.3565240677
 21
0.7484062509
 31
0.0
  0
LINE
  5
3A8
330
3A2
100
AcDbEntity
  8
DIM
100
AcDbLine
 10
104.9686983043
 20
6.2484062695
 30
0.0
 11
111.3330483043
 21
6.2484062695
 31
0.0
  0
LINE
  5
3A9
330
3A2
100
AcDbEntity
  8
DIM
100
AcDbLine
 10
106.8000733043
 20
7.1864062695
 30
0.0
 11
111.3330483043
 21
7.1864062695
 31
0.0
  0
LINE
  5
3AA
330
3A2
100
AcDbEntity
  8
DIM
100
AcDbLine
 10
113.039857406
 20
2.2484062695
 30
0.0
 11
111.2936782256
 21
2.2484062695
 31
0.0
  0
LINE
  5
3AB
330
3A2
100
AcDbEntity
  8
DIM
100
AcDbLine
 10
111.2936782256
 20
2.2484062695
 30
0.0
 11
111.2936782256
 21
6.2484062695
 31
0.0
  0
LINE
  5
3AC
330
3A2
100
AcDbEntity
  8
DIM
100
AcDbLine
 10
111.2936782256
 20
7.1864062695
 30
0.0
 11
111.2936782256
 21
8.6864062695
 31
0.0
  0
MTEXT
  5
3AD
330
3A2
100
AcDbEntity
  8
DIM
100
AcDbMText
 10
113.039857406
 20
4.1820079158
 30
0.0039370079
 40
1.5
 41
0.0
 71
     1
 72
     1
  1
15
  7
SLDTEXTSTYLE0
 73
     1
 44
1.0
  0
MTEXT
  5
3AE
330
3A2
100
AcDbEntity
  8
DIM
100
AcDbMText
 10
115.2565240789
 20
2.242424522
 30
0.0039370079
 40
1.5
 41
0.0
 71
     1
 72
     1
  1
16
  7
SLDTEXTSTYLE0
 73
     1
 44
1.0
  0
MTEXT
  5
3AF
330
3A2
100
AcDbEntity
  8
DIM
100
AcDbMText
 10
117.4731907517
 20
3.1080496589
 30
0.0039370079
 40
1.5
 41
0.0
 71
     1
 72
     1
  1
"
  7
SLDTEXTSTYLE0
 73
     1
 44
1.0
  0
ENDBLK
  5
3A4
330
3A2
100
AcDbEntity
  8
0
100
AcDbBlockEnd
  0
BLOCK
  5
3B2
330
3B1
100
AcDbEntity
  8
0
100
AcDbBlockBegin
  2
_D_10
 70
     0
 10
0.0
 20
0.0
 30
0.0
  3
_D_10
  1

  0
SOLID
  5
3B4
330
3B1
100
AcDbEntity
  8
DIM
100
AcDbTrace
 10
106.7937282256
 20
2.2484062695
 30
0.0
 11
105.7937282256
 21
2.4984062695
 31
0.0
 12
105.7937282256
 22
1.9984062695
 32
0.0
 13
105.7937282256
 23
1.9984062695
 33
0.0
  0
SOLID
  5
3B5
330
3B1
100
AcDbEntity
  8
DIM
100
AcDbTrace
 10
95.0649282256
 20
2.2484062695
 30
0.0
 11
96.0649282256
 21
1.9984062695
 31
0.0
 12
96.0649282256
 22
2.4984062695
 32
0.0
 13
96.0649282256
 23
2.4984062695
 33
0.0
  0
LINE
  5
3B6
330
3B1
100
AcDbEntity
  8
DIM
100
AcDbLine
 10
102.01891156
 20
3.748406288
 30
0.0
 11
100.2189115377
 21
0.7484062509
 31
0.0
  0
LINE
  5
3B7
330
3B1
100
AcDbEntity
  8
DIM
100
AcDbLine
 10
106.7937282256
 20
7.1750361907
 30
0.0
 11
106.7937282256
 21
2.2090361907
 31
0.0
  0
LINE
  5
3B8
330
3B1
100
AcDbEntity
  8
DIM
100
AcDbLine
 10
95.0649282256
 20
7.1750361907
 30
0.0
 11
95.0649282256
 21
2.2090361907
 31
0.0
  0
LINE
  5
3B9
330
3B1
100
AcDbEntity
  8
DIM
100
AcDbLine
 10
106.7937282256
 20
2.2484062695
 30
0.0
 11
104.0647449117
 21
2.2484062695
 31
0.0
  0
LINE
  5
3BA
330
3B1
100
AcDbEntity
  8
DIM
100
AcDbLine
 10
95.0649282256
 20
2.2484062695
 30
0.0
 11
97.7939115395
 21
2.2484062695
 31
0.0
  0
MTEXT
  5
3BB
330
3B1
100
AcDbEntity
  8
DIM
100
AcDbMText
 10
97.7939115395
 20
3.1080496589
 30
0.0039370079
 40
1.5
 41
0.0
 71
     1
 72
     1
  1
11
  7
SLDTEXTSTYLE0
 73
     1
 44
1.0
  0
MTEXT
  5
3BC
330
3B1
100
AcDbEntity
  8
DIM
100
AcDbMText
 10
100.0105782124
 20
4.1820079158
 30
0.0039370079
 40
1.5
 41
0.0
 71
     1
 72
     1
  1
3
  7
SLDTEXTSTYLE0
 73
     1
 44
1.0
  0
MTEXT
  5
3BD
330
3B1
100
AcDbEntity
  8
DIM
100
AcDbMText
 10
101.1189115488
 20
2.242424522
 30
0.0039370079
 40
1.5
 41
0.0
 71
     1
 72
     1
  1
4
  7
SLDTEXTSTYLE0
 73
     1
 44
1.0
  0
MTEXT
  5
3BE
330
3B1
100
AcDbEntity
  8
DIM
100
AcDbMText
 10
102.2272448853
 20
3.1080496589
 30
0.0039370079
 40
1.5
 41
0.0
 71
     1
 72
     1
  1
"
  7
SLDTEXTSTYLE0
 73
     1
 44
1.0
  0
ENDBLK
  5
3B3
330
3B1
100
AcDbEntity
  8
0
100
AcDbBlockEnd
  0
BLOCK
  5
3C1
330
3C0
100
AcDbEntity
  8
0
100
AcDbBlockBegin
  2
_D_11
 70
     0
 10
0.0
 20
0.0
 30
0.0
  3
_D_11
  1

  0
SOLID
  5
3C3
330
3C0
100
AcDbEntity
  8
DIM
100
AcDbTrace
 10
111.2936782256
 20
7.1864062695
 30
0.0
 11
111.5436782256
 21
8.1864062695
 31
0.0
 12
111.0436782256
 22
8.1864062695
 32
0.0
 13
111.0436782256
 23
8.1864062695
 33
0.0
  0
SOLID
  5
3C4
330
3C0
100
AcDbEntity
  8
DIM
100
AcDbTrace
 10
111.2936782256
 20
28.3351562695
 30
0.0
 11
111.0436782256
 21
27.3351562695
 31
0.0
 12
111.5436782256
 22
27.3351562695
 32
0.0
 13
111.5436782256
 23
27.3351562695
 33
0.0
  0
LINE
  5
3C5
330
3C0
100
AcDbEntity
  8
DIM
100
AcDbLine
 10
112.38326156
 20
19.260781288
 30
0.0
 11
110.5832615377
 21
16.2607812509
 31
0.0
  0
LINE
  5
3C6
330
3C0
100
AcDbEntity
  8
DIM
100
AcDbLine
 10
106.8000733043
 20
7.1864062695
 30
0.0
 11
111.3330483043
 21
7.1864062695
 31
0.0
  0
LINE
  5
3C7
330
3C0
100
AcDbEntity
  8
DIM
100
AcDbLine
 10
106.7819983043
 20
28.3351562695
 30
0.0
 11
111.3330483043
 21
28.3351562695
 31
0.0
  0
LINE
  5
3C8
330
3C0
100
AcDbEntity
  8
DIM
100
AcDbLine
 10
111.2936782256
 20
7.1864062695
 30
0.0
 11
111.2936782256
 21
15.8211978757
 31
0.0
  0
LINE
  5
3C9
330
3C0
100
AcDbEntity
  8
DIM
100
AcDbLine
 10
111.2936782256
 20
28.3351562695
 30
0.0
 11
111.2936782256
 21
19.7003646632
 31
0.0
  0
MTEXT
  5
3CA
330
3C0
100
AcDbEntity
  8
DIM
100
AcDbMText
 10
108.1582615395
 20
18.6204246589
 30
0.0039370079
 40
1.5
 41
0.0
 71
     1
 72
     1
  1
21
  7
SLDTEXTSTYLE0
 73
     1
 44
1.0
  0
MTEXT
  5
3CB
330
3C0
100
AcDbEntity
  8
DIM
100
AcDbMText
 10
110.3749282124
 20
19.6943829158
 30
0.0039370079
 40
1.5
 41
0.0
 71
     1
 72
     1
  1
1
  7
SLDTEXTSTYLE0
 73
     1
 44
1.0
  0
MTEXT
  5
3CC
330
3C0
100
AcDbEntity
  8
DIM
100
AcDbMText
 10
111.4832615488
 20
17.754799522
 30
0.0039370079
 40
1.5
 41
0.0
 71
     1
 72
     1
  1
8
  7
SLDTEXTSTYLE0
 73
     1
 44
1.0
  0
MTEXT
  5
3CD
330
3C0
100
AcDbEntity
  8
DIM
100
AcDbMText
 10
112.5915948853
 20
18.6204246589
 30
0.0039370079
 40
1.5
 41
0.0
 71
     1
 72
     1
  1
"
  7
SLDTEXTSTYLE0
 73
     1
 44
1.0
  0
ENDBLK
  5
3C2
330
3C0
100
AcDbEntity
  8
0
100
AcDbBlockEnd
  0
ENDSEC
  0
SECTION
  2
ENTITIES
  0
INSERT
  5
4F
330
1F
100
AcDbEntity
  8
NOTES
100
AcDbBlockReference
  2
SW_NOTE_0
 10
2.0909124788
 20
55.1982811127
 30
0.0
  0
ARC
  5
50
330
1F
100
AcDbEntity
  8
SLD-0
  6
Continuous
370
    15
100
AcDbCircle
 10
80.2056223396
 20
15.7527124441
 30
0.0
 40
0.0529999999999985
100
AcDbArc
 50
0.0
 51
84.586687726
  0
LINE
  5
51
330
1F
100
AcDbEntity
  8
SLD-0
  6
Continuous
370
    15
100
AcDbLine
 10
80.2586230467
 20
15.7527124841
 30
0.0
 11
80.2106225346
 21
15.7527124841
 31
0.0
  0
LINE
  5
52
330
1F
100
AcDbEntity
  8
SLD-0
  6
Continuous
370
    15
100
AcDbLine
 10
80.2586230467
 20
15.0521355639
 30
0.0
 11
80.2106225346
 21
15.0521355639
 31
0.0
  0
LINE
  5
53
330
1F
100
AcDbEntity
  8
SLD-0
  6
Continuous
370
    15
100
AcDbLine
 10
80.2586230467
 20
15.7527124841
 30
0.0
 11
80.2586230467
 21
15.0521355639
 31
0.0
  0
LINE
  5
54
330
1F
100
AcDbEntity
  8
SLD-0
  6
Continuous
370
    15
100
AcDbLine
 10
28.9663716325
 20
15.0521355639
 30
0.0
 11
29.0143721447
 21
15.0521355639
 31
0.0
  0
LINE
  5
55
330
1F
100
AcDbEntity
  8
SLD-0
  6
Continuous
370
    15
100
AcDbLine
 10
29.0143721447
 20
15.7527124841
 30
0.0
 11
28.9663716325
 21
15.7527124841
 31
0.0
  0
LINE
  5
56
330
1F
100
AcDbEntity
  8
SLD-0
  6
Continuous
370
    15
100
AcDbLine
 10
28.9663716325
 20
15.7527124841
 30
0.0
 11
28.9663716325
 21
15.0521355639
 31
0.0
  0
ARC
  5
57
330
1F
100
AcDbEntity
  8
SLD-0
  6
Continuous
370
    15
100
AcDbCircle
 10
29.0193723396
 20
15.7527124441
 30
0.0
 40
0.0530000000000024
100
AcDbArc
 50
95.413312274
 51
180.0
  0
LINE
  5
58
330
1F
100
AcDbEntity
  8
SLD-0
  6
Continuous
370
    15
100
AcDbLine
 10
30.7424961812
 20
25.7279058898
 30
0.0
 11
78.482498498
 21
25.7279058898
 31
0.0
  0
LINE
  5
59
330
1F
100
AcDbEntity
  8
SLD-0
  6
Continuous
370
    15
100
AcDbLine
 10
78.482498498
 20
25.7279058898
 30
0.0
 11
78.482498498
 21
25.6479687866
 31
0.0
  0
LINE
  5
5A
330
1F
100
AcDbEntity
  8
SLD-0
  6
Continuous
370
    15
100
AcDbLine
 10
30.7424961812
 20
25.6479687866
 30
0.0
 11
78.482498498
 21
25.6479687866
 31
0.0
  0
LINE
  5
5B
330
1F
100
AcDbEntity
  8
SLD-0
  6
Continuous
370
    15
100
AcDbLine
 10
30.7424961812
 20
25.7279058898
 30
0.0
 11
30.7424961812
 21
25.6479687866
 31
0.0
  0
LINE
  5
5C
330
1F
100
AcDbEntity
  8
SLD-0
  6
Continuous
370
    15
100
AcDbLine
 10
30.737497839
 20
25.7279058898
 30
0.0
 11
30.737497839
 21
25.6899067555
 31
0.0
  0
LINE
  5
5D
330
1F
100
AcDbEntity
  8
SLD-0
  6
Continuous
370
    15
100
AcDbLine
 10
30.737497839
 20
25.6899067555
 30
0.0
 11
30.7424961812
 21
25.6899067555
 31
0.0
  0
ARC
  5
5E
330
1F
100
AcDbEntity
  8
SLD-0
  6
Continuous
370
    15
100
AcDbCircle
 10
30.7374973396
 20
25.7669062695
 30
0.0
 40
0.0769999999999982
100
AcDbArc
 50
180.0
 51
206.3494243191
  0
ARC
  5
5F
330
1F
100
AcDbEntity
  8
SLD-0
  6
Continuous
370
    15
100
AcDbCircle
 10
30.7374973396
 20
25.7669062695
 30
0.0
 40
0.0770000000000017
100
AcDbArc
 50
210.2150369472
 51
270.0
  0
LINE
  5
60
330
1F
100
AcDbEntity
  8
SLD-0
  6
Continuous
370
    15
100
AcDbLine
 10
78.4874968403
 20
25.7279058898
 30
0.0
 11
78.4874968403
 21
25.6899067555
 31
0.0
  0
LINE
  5
61
330
1F
100
AcDbEntity
  8
SLD-0
  6
Continuous
370
    15
100
AcDbLine
 10
78.4874968403
 20
25.6899067555
 30
0.0
 11
78.482498498
 21
25.6899067555
 31
0.0
  0
ARC
  5
62
330
1F
100
AcDbEntity
  8
SLD-0
  6
Continuous
370
    15
100
AcDbCircle
 10
78.4874973396
 20
25.7669062695
 30
0.0
 40
0.0769999999999982
100
AcDbArc
 50
333.6505756809
 51
360.0
  0
ARC
  5
63
330
1F
100
AcDbEntity
  8
SLD-0
  6
Continuous
370
    15
100
AcDbCircle
 10
78.4874973396
 20
25.7669062695
 30
0.0
 40
0.0770000000000017
100
AcDbArc
 50
270.0
 51
329.7849630528
  0
LINE
  5
64
330
1F
100
AcDbEntity
  8
SLD-0
  6
Continuous
370
    15
100
AcDbLine
 10
30.6604975552
 20
25.7881558605
 30
0.0
 11
30.6604975552
 21
25.766905866
 31
0.0
  0
LINE
  5
65
330
1F
100
AcDbEntity
  8
SLD-0
  6
Continuous
370
    15
100
AcDbLine
 10
78.5644971241
 20
25.7881558605
 30
0.0
 11
78.5644971241
 21
25.766905866
 31
0.0
  0
LINE
  5
66
330
1F
100
AcDbEntity
  8
SLD-0
  6
Continuous
370
    15
100
AcDbLine
 10
78.5464983987
 20
25.7279058898
 30
0.0
 11
78.5464983987
 21
25.7281558069
 31
0.0
  0
LINE
  5
67
330
1F
100
AcDbEntity
  8
SLD-0
  6
Continuous
370
    15
100
AcDbLine
 10
78.5464983987
 20
25.7279058898
 30
0.0
 11
78.482498498
 21
25.7279058898
 31
0.0
  0
LINE
  5
68
330
1F
100
AcDbEntity
  8
SLD-0
  6
Continuous
370
    15
100
AcDbLine
 10
30.7424961812
 20
25.7279058898
 30
0.0
 11
30.6784962806
 21
25.7279058898
 31
0.0
  0
LINE
  5
69
330
1F
100
AcDbEntity
  8
SLD-0
  6
Continuous
370
    15
100
AcDbLine
 10
30.6784962806
 20
25.7279058898
 30
0.0
 11
30.6784962806
 21
25.7281558069
 31
0.0
  0
LINE
  5
6A
330
1F
100
AcDbEntity
  8
SLD-0
  6
Continuous
370
    15
100
AcDbLine
 10
78.5564974298
 20
25.7281558069
 30
0.0
 11
30.6684972494
 21
25.7281558069
 31
0.0
  0
LINE
  5
6B
330
1F
100
AcDbEntity
  8
SLD-0
  6
Continuous
370
    15
100
AcDbLine
 10
78.5564974298
 20
25.7551562417
 30
0.0
 11
30.6684972494
 21
25.7551562417
 31
0.0
  0
LINE
  5
6C
330
1F
100
AcDbEntity
  8
SLD-0
  6
Continuous
370
    15
100
AcDbLine
 10
30.6684972494
 20
25.7551562417
 30
0.0
 11
30.6684972494
 21
25.7281558069
 31
0.0
  0
LINE
  5
6D
330
1F
100
AcDbEntity
  8
SLD-0
  6
Continuous
370
    15
100
AcDbLine
 10
78.5564974298
 20
25.7551562417
 30
0.0
 11
78.5564974298
 21
25.7281558069
 31
0.0
  0
LINE
  5
6E
330
1F
100
AcDbEntity
  8
SLD-0
  6
Continuous
370
    15
100
AcDbLine
 10
78.5564974298
 20
25.77925623
 30
0.0
 11
30.6684972494
 21
25.77925623
 31
0.0
  0
LINE
  5
6F
330
1F
100
AcDbEntity
  8
SLD-0
  6
Continuous
370
    15
100
AcDbLine
 10
30.6684972494
 20
25.77925623
 30
0.0
 11
30.6684972494
 21
25.7551562417
 31
0.0
  0
LINE
  5
70
330
1F
100
AcDbEntity
  8
SLD-0
  6
Continuous
370
    15
100
AcDbLine
 10
78.5564974298
 20
25.77925623
 30
0.0
 11
78.5564974298
 21
25.7551562417
 31
0.0
  0
LINE
  5
71
330
1F
100
AcDbEntity
  8
SLD-0
  6
Continuous
370
    15
100
AcDbLine
 10
78.6314983767
 20
28.2840569476
 30
0.0
 11
30.5934963025
 21
28.2840569476
 31
0.0
  0
LINE
  5
72
330
1F
100
AcDbEntity
  8
SLD-0
  6
Continuous
370
    15
100
AcDbLine
 10
30.5934963025
 20
28.3328740903
 30
0.0
 11
30.5934963025
 21
28.2840569476
 31
0.0
  0
LINE
  5
73
330
1F
100
AcDbEntity
  8
SLD-0
  6
Continuous
370
    15
100
AcDbLine
 10
30.5934963025
 20
28.3328740903
 30
0.0
 11
28.9894977654
 21
28.3328740903
 31
0.0
  0
LINE
  5
74
330
1F
100
AcDbEntity
  8
SLD-0
  6
Continuous
370
    15
100
AcDbLine
 10
28.9894977654
 20
28.3328740903
 30
0.0
 11
28.9894977654
 21
28.3351573706
 31
0.0
  0
LINE
  5
75
330
1F
100
AcDbEntity
  8
SLD-0
  6
Continuous
370
    15
100
AcDbLine
 10
80.2354969139
 20
28.3351573706
 30
0.0
 11
28.9894977654
 21
28.3351573706
 31
0.0
  0
LINE
  5
76
330
1F
100
AcDbEntity
  8
SLD-0
  6
Continuous
370
    15
100
AcDbLine
 10
80.2354969139
 20
28.3328740903
 30
0.0
 11
80.2354969139
 21
28.3351573706
 31
0.0
  0
LINE
  5
77
330
1F
100
AcDbEntity
  8
SLD-0
  6
Continuous
370
    15
100
AcDbLine
 10
78.6314983767
 20
28.3328740903
 30
0.0
 11
80.2354969139
 21
28.3328740903
 31
0.0
  0
LINE
  5
78
330
1F
100
AcDbEntity
  8
SLD-0
  6
Continuous
370
    15
100
AcDbLine
 10
78.6314983767
 20
28.3328740903
 30
0.0
 11
78.6314983767
 21
28.2840569476
 31
0.0
  0
LINE
  5
79
330
1F
100
AcDbEntity
  8
SLD-0
  6
Continuous
370
    15
100
AcDbLine
 10
30.5934963025
 20
25.7881558605
 30
0.0
 11
30.6684972494
 21
25.7881558605
 31
0.0
  0
LINE
  5
7A
330
1F
100
AcDbEntity
  8
SLD-0
  6
Continuous
370
    15
100
AcDbLine
 10
30.5934963025
 20
28.2840569476
 30
0.0
 11
30.5934963025
 21
25.7881558605
 31
0.0
  0
LINE
  5
7B
330
1F
100
AcDbEntity
  8
SLD-0
  6
Continuous
370
    15
100
AcDbLine
 10
78.6314983767
 20
28.2840569476
 30
0.0
 11
78.6314983767
 21
25.7881558605
 31
0.0
  0
LINE
  5
7C
330
1F
100
AcDbEntity
  8
SLD-0
  6
Continuous
370
    15
100
AcDbLine
 10
78.6314983767
 20
25.7881558605
 30
0.0
 11
78.5564974298
 21
25.7881558605
 31
0.0
  0
LINE
  5
7D
330
1F
100
AcDbEntity
  8
SLD-0
  6
Continuous
370
    15
100
AcDbLine
 10
30.6684972494
 20
25.7881558605
 30
0.0
 11
30.6684972494
 21
25.77925623
 31
0.0
  0
LINE
  5
7E
330
1F
100
AcDbEntity
  8
SLD-0
  6
Continuous
370
    15
100
AcDbLine
 10
78.5564974298
 20
25.7881558605
 30
0.0
 11
78.5564974298
 21
25.77925623
 31
0.0
  0
LINE
  5
7F
330
1F
100
AcDbEntity
  8
SLD-0
  6
Continuous
370
    15
100
AcDbLine
 10
30.5934963025
 20
28.3070798283
 30
0.0
 11
28.9894977654
 21
28.3070798283
 31
0.0
  0
LINE
  5
80
330
1F
100
AcDbEntity
  8
SLD-0
  6
Continuous
370
    15
100
AcDbLine
 10
78.6314983767
 20
28.3070798283
 30
0.0
 11
80.2354969139
 21
28.3070798283
 31
0.0
  0
LINE
  5
81
330
1F
100
AcDbEntity
  8
SLD-0
  6
Continuous
370
    15
100
AcDbLine
 10
80.2354969139
 20
28.3328740903
 30
0.0
 11
80.2354969139
 21
28.3070798283
 31
0.0
  0
LINE
  5
82
330
1F
100
AcDbEntity
  8
SLD-0
  6
Continuous
370
    15
100
AcDbLine
 10
28.9894977654
 20
28.3328740903
 30
0.0
 11
28.9894977654
 21
28.3070798283
 31
0.0
  0
LINE
  5
83
330
1F
100
AcDbEntity
  8
SLD-0
  6
Continuous
370
    15
100
AcDbLine
 10
80.2595969021
 20
27.6716755419
 30
0.0
 11
80.2595969021
 21
28.2840569476
 31
0.0
  0
LINE
  5
84
330
1F
100
AcDbEntity
  8
SLD-0
  6
Continuous
370
    15
100
AcDbLine
 10
80.2595969021
 20
28.2840569476
 30
0.0
 11
80.2865973369
 21
28.2840569476
 31
0.0
  0
LINE
  5
85
330
1F
100
AcDbEntity
  8
SLD-0
  6
Continuous
370
    15
100
AcDbLine
 10
80.2865973369
 20
27.6716755419
 30
0.0
 11
80.2865973369
 21
28.2840569476
 31
0.0
  0
LINE
  5
86
330
1F
100
AcDbEntity
  8
SLD-0
  6
Continuous
370
    15
100
AcDbLine
 10
80.2865973369
 20
27.6716755419
 30
0.0
 11
80.2595969021
 21
27.6716755419
 31
0.0
  0
LINE
  5
87
330
1F
100
AcDbEntity
  8
SLD-0
  6
Continuous
370
    15
100
AcDbLine
 10
28.9383973423
 20
27.6716755419
 30
0.0
 11
28.9383973423
 21
28.2840569476
 31
0.0
  0
LINE
  5
88
330
1F
100
AcDbEntity
  8
SLD-0
  6
Continuous
370
    15
100
AcDbLine
 10
28.9653977771
 20
28.2840569476
 30
0.0
 11
28.9383973423
 21
28.2840569476
 31
0.0
  0
LINE
  5
89
330
1F
100
AcDbEntity
  8
SLD-0
  6
Continuous
370
    15
100
AcDbLine
 10
28.9653977771
 20
27.6716755419
 30
0.0
 11
28.9653977771
 21
28.2840569476
 31
0.0
  0
LINE
  5
8A
330
1F
100
AcDbEntity
  8
SLD-0
  6
Continuous
370
    15
100
AcDbLine
 10
28.9383973423
 20
27.6716755419
 30
0.0
 11
28.9653977771
 21
27.6716755419
 31
0.0
  0
ARC
  5
8B
330
1F
100
AcDbEntity
  8
SLD-0
  6
Continuous
370
    15
100
AcDbCircle
 10
80.2354973396
 20
28.2840562695
 30
0.0
 40
0.0241000000000042
100
AcDbArc
 50
0.0
 51
90.0
  0
ARC
  5
8C
330
1F
100
AcDbEntity
  8
SLD-0
  6
Continuous
370
    15
100
AcDbCircle
 10
80.2354973396
 20
28.2840562695
 30
0.0
 40
0.0511000000000053
100
AcDbArc
 50
0.0
 51
90.0
  0
ARC
  5
8D
330
1F
100
AcDbEntity
  8
SLD-0
  6
Continuous
370
    15
100
AcDbCircle
 10
28.9894973396
 20
28.2840562695
 30
0.0
 40
0.0510999999999981
100
AcDbArc
 50
90.0
 51
180.0
  0
ARC
  5
8E
330
1F
100
AcDbEntity
  8
SLD-0
  6
Continuous
370
    15
100
AcDbCircle
 10
28.9894973396
 20
28.2840562695
 30
0.0
 40
0.0241000000000007
100
AcDbArc
 50
90.0
 51
180.0
  0
LINE
  5
8F
330
1F
100
AcDbEntity
  8
SLD-0
  6
Continuous
370
    15
100
AcDbLine
 10
28.9142973541
 20
27.6170551595
 30
0.0
 11
28.2383971088
 21
27.6170551595
 31
0.0
  0
LINE
  5
90
330
1F
100
AcDbEntity
  8
SLD-0
  6
Continuous
370
    15
100
AcDbLine
 10
28.2383971088
 20
27.6170551595
 30
0.0
 11
28.2383971088
 21
27.6440555943
 31
0.0
  0
LINE
  5
91
330
1F
100
AcDbEntity
  8
SLD-0
  6
Continuous
370
    15
100
AcDbLine
 10
28.2383971088
 20
27.6440555943
 30
0.0
 11
28.9142973541
 21
27.6440555943
 31
0.0
  0
LINE
  5
92
330
1F
100
AcDbEntity
  8
SLD-0
  6
Continuous
370
    15
100
AcDbLine
 10
28.9142973541
 20
27.6170551595
 30
0.0
 11
28.9142973541
 21
27.6440555943
 31
0.0
  0
LINE
  5
93
330
1F
100
AcDbEntity
  8
SLD-0
  6
Continuous
370
    15
100
AcDbLine
 10
80.9865975704
 20
27.6440555943
 30
0.0
 11
80.3106973252
 21
27.6440555943
 31
0.0
  0
LINE
  5
94
330
1F
100
AcDbEntity
  8
SLD-0
  6
Continuous
370
    15
100
AcDbLine
 10
80.9865975704
 20
27.6170551595
 30
0.0
 11
80.9865975704
 21
27.6440555943
 31
0.0
  0
LINE
  5
95
330
1F
100
AcDbEntity
  8
SLD-0
  6
Continuous
370
    15
100
AcDbLine
 10
80.3106973252
 20
27.6170551595
 30
0.0
 11
80.9865975704
 21
27.6170551595
 31
0.0
  0
LINE
  5
96
330
1F
100
AcDbEntity
  8
SLD-0
  6
Continuous
370
    15
100
AcDbLine
 10
80.3106973252
 20
27.6170551595
 30
0.0
 11
80.3106973252
 21
27.6440555943
 31
0.0
  0
LINE
  5
97
330
1F
100
AcDbEntity
  8
SLD-0
  6
Continuous
370
    15
100
AcDbLine
 10
80.2865973369
 20
27.6681555826
 30
0.0
 11
80.2595969021
 21
27.6681555826
 31
0.0
  0
LINE
  5
98
330
1F
100
AcDbEntity
  8
SLD-0
  6
Continuous
370
    15
100
AcDbLine
 10
80.2595969021
 20
27.6681555826
 30
0.0
 11
80.2595969021
 21
27.6716755419
 31
0.0
  0
LINE
  5
99
330
1F
100
AcDbEntity
  8
SLD-0
  6
Continuous
370
    15
100
AcDbLine
 10
80.2865973369
 20
27.6681555826
 30
0.0
 11
80.2865973369
 21
27.6716755419
 31
0.0
  0
ARC
  5
9A
330
1F
100
AcDbEntity
  8
SLD-0
  6
Continuous
370
    15
100
AcDbCircle
 10
80.3106973396
 20
27.6681562695
 30
0.0
 40
0.0241000000000042
100
AcDbArc
 50
180.0
 51
270.0
  0
ARC
  5
9B
330
1F
100
AcDbEntity
  8
SLD-0
  6
Continuous
370
    15
100
AcDbCircle
 10
80.3106973396
 20
27.6681562695
 30
0.0
 40
0.0511000000000053
100
AcDbArc
 50
180.0
 51
270.0
  0
LINE
  5
9C
330
1F
100
AcDbEntity
  8
SLD-0
  6
Continuous
370
    15
100
AcDbLine
 10
28.9383973423
 20
27.6681555826
 30
0.0
 11
28.9653977771
 21
27.6681555826
 31
0.0
  0
ARC
  5
9D
330
1F
100
AcDbEntity
  8
SLD-0
  6
Continuous
370
    15
100
AcDbCircle
 10
28.9142973396
 20
27.6681562695
 30
0.0
 40
0.0510999999999981
100
AcDbArc
 50
270.0
 51
0.0
  0
ARC
  5
9E
330
1F
100
AcDbEntity
  8
SLD-0
  6
Continuous
370
    15
100
AcDbCircle
 10
28.9142973396
 20
27.6681562695
 30
0.0
 40
0.0241000000000007
100
AcDbArc
 50
270.0
 51
0.0
  0
LINE
  5
9F
330
1F
100
AcDbEntity
  8
SLD-0
  6
Continuous
370
    15
100
AcDbLine
 10
28.9383973423
 20
27.6681555826
 30
0.0
 11
28.9383973423
 21
27.6716755419
 31
0.0
  0
LINE
  5
A0
330
1F
100
AcDbEntity
  8
SLD-0
  6
Continuous
370
    15
100
AcDbLine
 10
28.9653977771
 20
27.6681555826
 30
0.0
 11
28.9653977771
 21
27.6716755419
 31
0.0
  0
LINE
  5
A1
330
1F
100
AcDbEntity
  8
SLD-0
  6
Continuous
370
    15
100
AcDbLine
 10
30.6104977061
 20
25.774405726
 30
0.0
 11
30.6484968405
 21
25.774405726
 31
0.0
  0
LINE
  5
A2
330
1F
100
AcDbEntity
  8
SLD-0
  6
Continuous
370
    15
100
AcDbLine
 10
30.6104977061
 20
25.774405726
 30
0.0
 11
30.6104977061
 21
13.6654065169
 31
0.0
  0
LINE
  5
A3
330
1F
100
AcDbEntity
  8
SLD-0
  6
Continuous
370
    15
100
AcDbLine
 10
30.6104977061
 20
13.6654065169
 30
0.0
 11
30.6484968405
 21
13.6654065169
 31
0.0
  0
LINE
  5
A4
330
1F
100
AcDbEntity
  8
SLD-0
  6
Continuous
370
    15
100
AcDbLine
 10
30.6484968405
 20
25.774405726
 30
0.0
 11
30.6484968405
 21
13.6654065169
 31
0.0
  0
LINE
  5
A5
330
1F
100
AcDbEntity
  8
SLD-0
  6
Continuous
370
    15
100
AcDbLine
 10
30.6104977061
 20
7.2144062696
 30
0.0
 11
30.6484968405
 21
7.2144062696
 31
0.0
  0
LINE
  5
A6
330
1F
100
AcDbEntity
  8
SLD-0
  6
Continuous
370
    15
100
AcDbLine
 10
30.6104977061
 20
7.2144062696
 30
0.0
 11
30.6104977061
 21
13.6654065169
 31
0.0
  0
LINE
  5
A7
330
1F
100
AcDbEntity
  8
SLD-0
  6
Continuous
370
    15
100
AcDbLine
 10
30.6484968405
 20
7.2144062696
 30
0.0
 11
30.6484968405
 21
13.6654065169
 31
0.0
  0
LINE
  5
A8
330
1F
100
AcDbEntity
  8
SLD-0
  6
Continuous
370
    15
100
AcDbLine
 10
30.6104977061
 20
25.774405726
 30
0.0
 11
30.6104977061
 21
25.7881558605
 31
0.0
  0
LINE
  5
A9
330
1F
100
AcDbEntity
  8
SLD-0
  6
Continuous
370
    15
100
AcDbLine
 10
30.6484968405
 20
25.774405726
 30
0.0
 11
30.6484968405
 21
25.7881558605
 31
0.0
  0
LINE
  5
AA
330
1F
100
AcDbEntity
  8
SLD-0
  6
Continuous
370
    15
100
AcDbLine
 10
30.6016227153
 20
12.7456563952
 30
0.0
 11
30.6104977061
 21
12.7456563952
 31
0.0
  0
LINE
  5
AB
330
1F
100
AcDbEntity
  8
SLD-0
  6
Continuous
370
    15
100
AcDbLine
 10
30.6104977061
 20
12.8394064055
 30
0.0
 11
30.6016227153
 21
12.8394064055
 31
0.0
  0
LINE
  5
AC
330
1F
100
AcDbEntity
  8
SLD-0
  6
Continuous
370
    15
100
AcDbLine
 10
30.6016227153
 20
12.0425313178
 30
0.0
 11
30.6104977061
 21
12.0425313178
 31
0.0
  0
LINE
  5
AD
330
1F
100
AcDbEntity
  8
SLD-0
  6
Continuous
370
    15
100
AcDbLine
 10
30.6104977061
 20
12.1362810348
 30
0.0
 11
30.6016227153
 21
12.1362810348
 31
0.0
  0
LINE
  5
AE
330
1F
100
AcDbEntity
  8
SLD-0
  6
Continuous
370
    15
100
AcDbLine
 10
30.6104977061
 20
11.4331562507
 30
0.0
 11
30.6016227153
 21
11.4331562507
 31
0.0
  0
LINE
  5
AF
330
1F
100
AcDbEntity
  8
SLD-0
  6
Continuous
370
    15
100
AcDbLine
 10
30.6016227153
 20
11.3394062403
 30
0.0
 11
30.6104977061
 21
11.3394062403
 31
0.0
  0
LINE
  5
B0
330
1F
100
AcDbEntity
  8
SLD-0
  6
Continuous
370
    15
100
AcDbLine
 10
78.6144969731
 20
13.6654065169
 30
0.0
 11
78.5764978388
 21
13.6654065169
 31
0.0
  0
LINE
  5
B1
330
1F
100
AcDbEntity
  8
SLD-0
  6
Continuous
370
    15
100
AcDbLine
 10
78.6144969731
 20
25.774405726
 30
0.0
 11
78.5764978388
 21
25.774405726
 31
0.0
  0
LINE
  5
B2
330
1F
100
AcDbEntity
  8
SLD-0
  6
Continuous
370
    15
100
AcDbLine
 10
78.5764978388
 20
25.774405726
 30
0.0
 11
78.5764978388
 21
13.6654065169
 31
0.0
  0
LINE
  5
B3
330
1F
100
AcDbEntity
  8
SLD-0
  6
Continuous
370
    15
100
AcDbLine
 10
78.6144969731
 20
25.774405726
 30
0.0
 11
78.6144969731
 21
13.6654065169
 31
0.0
  0
LINE
  5
B4
330
1F
100
AcDbEntity
  8
SLD-0
  6
Continuous
370
    15
100
AcDbLine
 10
78.6144969731
 20
7.2144062696
 30
0.0
 11
78.5764978388
 21
7.2144062696
 31
0.0
  0
LINE
  5
B5
330
1F
100
AcDbEntity
  8
SLD-0
  6
Continuous
370
    15
100
AcDbLine
 10
78.5764978388
 20
7.2144062696
 30
0.0
 11
78.5764978388
 21
13.6654065169
 31
0.0
  0
LINE
  5
B6
330
1F
100
AcDbEntity
  8
SLD-0
  6
Continuous
370
    15
100
AcDbLine
 10
78.6144969731
 20
7.2144062696
 30
0.0
 11
78.6144969731
 21
13.6654065169
 31
0.0
  0
LINE
  5
B7
330
1F
100
AcDbEntity
  8
SLD-0
  6
Continuous
370
    15
100
AcDbLine
 10
78.5764978388
 20
25.774405726
 30
0.0
 11
78.5764978388
 21
25.7881558605
 31
0.0
  0
LINE
  5
B8
330
1F
100
AcDbEntity
  8
SLD-0
  6
Continuous
370
    15
100
AcDbLine
 10
78.6144969731
 20
25.774405726
 30
0.0
 11
78.6144969731
 21
25.7881558605
 31
0.0
  0
LINE
  5
B9
330
1F
100
AcDbEntity
  8
SLD-0
  6
Continuous
370
    15
100
AcDbLine
 10
78.6144969731
 20
12.8394064055
 30
0.0
 11
78.6233719639
 21
12.8394064055
 31
0.0
  0
LINE
  5
BA
330
1F
100
AcDbEntity
  8
SLD-0
  6
Continuous
370
    15
100
AcDbLine
 10
78.6233719639
 20
12.7456563952
 30
0.0
 11
78.6144969731
 21
12.7456563952
 31
0.0
  0
LINE
  5
BB
330
1F
100
AcDbEntity
  8
SLD-0
  6
Continuous
370
    15
100
AcDbLine
 10
78.6144969731
 20
11.4331562507
 30
0.0
 11
78.6233719639
 21
11.4331562507
 31
0.0
  0
LINE
  5
BC
330
1F
100
AcDbEntity
  8
SLD-0
  6
Continuous
370
    15
100
AcDbLine
 10
78.6233719639
 20
11.3394062403
 30
0.0
 11
78.6144969731
 21
11.3394062403
 31
0.0
  0
LINE
  5
BD
330
1F
100
AcDbEntity
  8
SLD-0
  6
Continuous
370
    15
100
AcDbLine
 10
78.6144969731
 20
12.1362810348
 30
0.0
 11
78.6233719639
 21
12.1362810348
 31
0.0
  0
LINE
  5
BE
330
1F
100
AcDbEntity
  8
SLD-0
  6
Continuous
370
    15
100
AcDbLine
 10
78.6233719639
 20
12.0425313178
 30
0.0
 11
78.6144969731
 21
12.0425313178
 31
0.0
  0
LINE
  5
BF
330
1F
100
AcDbEntity
  8
SLD-0
  6
Continuous
370
    15
100
AcDbLine
 10
30.3962377813
 20
7.1544062687
 30
0.0
 11
30.3962377813
 21
7.1864062695
 31
0.0
  0
LINE
  5
C0
330
1F
100
AcDbEntity
  8
SLD-0
  6
Continuous
370
    15
100
AcDbLine
 10
29.3952364382
 20
7.1544062687
 30
0.0
 11
29.3952364382
 21
7.1864062695
 31
0.0
  0
LINE
  5
C1
330
1F
100
AcDbEntity
  8
SLD-0
  6
Continuous
370
    15
100
AcDbLine
 10
30.3962377813
 20
7.1544062687
 30
0.0
 11
29.3952364382
 21
7.1544062687
 31
0.0
  0
LINE
  5
C2
330
1F
100
AcDbEntity
  8
SLD-0
  6
Continuous
370
    15
100
AcDbLine
 10
30.458238345
 20
7.1244062695
 30
0.0
 11
30.458238345
 21
6.2484062587
 31
0.0
  0
LINE
  5
C3
330
1F
100
AcDbEntity
  8
SLD-0
  6
Continuous
370
    15
100
AcDbLine
 10
30.458238345
 20
6.2484062587
 30
0.0
 11
30.4262372214
 21
6.2484062587
 31
0.0
  0
LINE
  5
C4
330
1F
100
AcDbEntity
  8
SLD-0
  6
Continuous
370
    15
100
AcDbLine
 10
30.4262372214
 20
7.1244062695
 30
0.0
 11
30.458238345
 21
7.1244062695
 31
0.0
  0
LINE
  5
C5
330
1F
100
AcDbEntity
  8
SLD-0
  6
Continuous
370
    15
100
AcDbLine
 10
30.4262372214
 20
7.1244062695
 30
0.0
 11
30.4262372214
 21
6.2484062587
 31
0.0
  0
ARC
  5
C6
330
1F
100
AcDbEntity
  8
SLD-0
  6
Continuous
370
    15
100
AcDbCircle
 10
30.3962373396
 20
7.1244062695
 30
0.0
 40
0.0299999999999994
100
AcDbArc
 50
0.0
 51
90.0
  0
ARC
  5
C7
330
1F
100
AcDbEntity
  8
SLD-0
  6
Continuous
370
    15
100
AcDbCircle
 10
30.3962373396
 20
7.1244062695
 30
0.0
 40
0.0620000000000012
100
AcDbArc
 50
0.0
 51
90.0
  0
LINE
  5
C8
330
1F
100
AcDbEntity
  8
SLD-0
  6
Continuous
370
    15
100
AcDbLine
 10
29.3652369981
 20
6.2484062587
 30
0.0
 11
29.3652369981
 21
7.1244062695
 31
0.0
  0
LINE
  5
C9
330
1F
100
AcDbEntity
  8
SLD-0
  6
Continuous
370
    15
100
AcDbLine
 10
29.3332382211
 20
6.2484062587
 30
0.0
 11
29.3652369981
 21
6.2484062587
 31
0.0
  0
LINE
  5
CA
330
1F
100
AcDbEntity
  8
SLD-0
  6
Continuous
370
    15
100
AcDbLine
 10
29.3332382211
 20
6.2484062587
 30
0.0
 11
29.3332382211
 21
7.1244062695
 31
0.0
  0
LINE
  5
CB
330
1F
100
AcDbEntity
  8
SLD-0
  6
Continuous
370
    15
100
AcDbLine
 10
29.3652369981
 20
7.1244062695
 30
0.0
 11
29.3332382211
 21
7.1244062695
 31
0.0
  0
ARC
  5
CC
330
1F
100
AcDbEntity
  8
SLD-0
  6
Continuous
370
    15
100
AcDbCircle
 10
29.3952373396
 20
7.1244062695
 30
0.0
 40
0.0619999999999994
100
AcDbArc
 50
90.0
 51
180.0
  0
ARC
  5
CD
330
1F
100
AcDbEntity
  8
SLD-0
  6
Continuous
370
    15
100
AcDbCircle
 10
29.3952373396
 20
7.1244062695
 30
0.0
 40
0.0300000000000011
100
AcDbArc
 50
90.0
 51
180.0
  0
LINE
  5
CE
330
1F
100
AcDbEntity
  8
SLD-0
  6
Continuous
370
    15
100
AcDbLine
 10
79.8917564581
 20
7.1244062695
 30
0.0
 11
79.8917564581
 21
6.2484062587
 31
0.0
  0
LINE
  5
CF
330
1F
100
AcDbEntity
  8
SLD-0
  6
Continuous
370
    15
100
AcDbLine
 10
79.8917564581
 20
6.2484062587
 30
0.0
 11
79.8597576811
 21
6.2484062587
 31
0.0
  0
LINE
  5
D0
330
1F
100
AcDbEntity
  8
SLD-0
  6
Continuous
370
    15
100
AcDbLine
 10
79.8597576811
 20
7.1244062695
 30
0.0
 11
79.8597576811
 21
6.2484062587
 31
0.0
  0
LINE
  5
D1
330
1F
100
AcDbEntity
  8
SLD-0
  6
Continuous
370
    15
100
AcDbLine
 10
79.8597576811
 20
7.1244062695
 30
0.0
 11
79.8917564581
 21
7.1244062695
 31
0.0
  0
LINE
  5
D2
330
1F
100
AcDbEntity
  8
SLD-0
  6
Continuous
370
    15
100
AcDbLine
 10
79.829758241
 20
7.1544062687
 30
0.0
 11
79.829758241
 21
7.1864062695
 31
0.0
  0
ARC
  5
D3
330
1F
100
AcDbEntity
  8
SLD-0
  6
Continuous
370
    15
100
AcDbCircle
 10
79.8297573396
 20
7.1244062695
 30
0.0
 40
0.0620000000000118
100
AcDbArc
 50
0.0
 51
90.0
  0
ARC
  5
D4
330
1F
100
AcDbEntity
  8
SLD-0
  6
Continuous
370
    15
100
AcDbCircle
 10
79.8297573396
 20
7.1244062695
 30
0.0
 40
0.0300000000000011
100
AcDbArc
 50
0.0
 51
90.0
  0
LINE
  5
D5
330
1F
100
AcDbEntity
  8
SLD-0
  6
Continuous
370
    15
100
AcDbLine
 10
78.828756898
 20
7.1544062687
 30
0.0
 11
78.828756898
 21
7.1864062695
 31
0.0
  0
LINE
  5
D6
330
1F
100
AcDbEntity
  8
SLD-0
  6
Continuous
370
    15
100
AcDbLine
 10
79.829758241
 20
7.1544062687
 30
0.0
 11
78.828756898
 21
7.1544062687
 31
0.0
  0
LINE
  5
D7
330
1F
100
AcDbEntity
  8
SLD-0
  6
Continuous
370
    15
100
AcDbLine
 10
78.7667563342
 20
6.2484062587
 30
0.0
 11
78.7987574579
 21
6.2484062587
 31
0.0
  0
LINE
  5
D8
330
1F
100
AcDbEntity
  8
SLD-0
  6
Continuous
370
    15
100
AcDbLine
 10
78.7987574579
 20
7.1244062695
 30
0.0
 11
78.7667563342
 21
7.1244062695
 31
0.0
  0
LINE
  5
D9
330
1F
100
AcDbEntity
  8
SLD-0
  6
Continuous
370
    15
100
AcDbLine
 10
78.7987574579
 20
6.2484062587
 30
0.0
 11
78.7987574579
 21
7.1244062695
 31
0.0
  0
LINE
  5
DA
330
1F
100
AcDbEntity
  8
SLD-0
  6
Continuous
370
    15
100
AcDbLine
 10
78.7667563342
 20
6.2484062587
 30
0.0
 11
78.7667563342
 21
7.1244062695
 31
0.0
  0
ARC
  5
DB
330
1F
100
AcDbEntity
  8
SLD-0
  6
Continuous
370
    15
100
AcDbCircle
 10
78.8287573396
 20
7.1244062695
 30
0.0
 40
0.0619999999999994
100
AcDbArc
 50
90.0
 51
180.0
  0
ARC
  5
DC
330
1F
100
AcDbEntity
  8
SLD-0
  6
Continuous
370
    15
100
AcDbCircle
 10
78.8287573396
 20
7.1244062695
 30
0.0
 40
0.0300000000000153
100
AcDbArc
 50
90.0
 51
180.0
  0
LINE
  5
DD
330
1F
100
AcDbEntity
  8
SLD-0
  6
Continuous
370
    15
100
AcDbLine
 10
29.0143721447
 20
28.2769067369
 30
0.0
 11
29.0143721447
 21
7.2144062696
 31
0.0
  0
LINE
  5
DE
330
1F
100
AcDbEntity
  8
SLD-0
  6
Continuous
370
    15
100
AcDbLine
 10
29.0473729368
 20
28.2769067369
 30
0.0
 11
29.0143721447
 21
28.2769067369
 31
0.0
  0
LINE
  5
DF
330
1F
100
AcDbEntity
  8
SLD-0
  6
Continuous
370
    15
100
AcDbLine
 10
29.0473729368
 20
28.2769067369
 30
0.0
 11
29.0473729368
 21
7.2144062696
 31
0.0
  0
LINE
  5
E0
330
1F
100
AcDbEntity
  8
SLD-0
  6
Continuous
370
    15
100
AcDbLine
 10
29.0143721447
 20
7.2144062696
 30
0.0
 11
29.0473729368
 21
7.2144062696
 31
0.0
  0
LINE
  5
E1
330
1F
100
AcDbEntity
  8
SLD-0
  6
Continuous
370
    15
100
AcDbLine
 10
30.5686219232
 20
28.2769067369
 30
0.0
 11
30.5686219232
 21
7.2144062696
 31
0.0
  0
LINE
  5
E2
330
1F
100
AcDbEntity
  8
SLD-0
  6
Continuous
370
    15
100
AcDbLine
 10
29.7946227578
 20
14.5419063115
 30
0.0
 11
30.0446220031
 21
14.5419063115
 31
0.0
  0
LINE
  5
E3
330
1F
100
AcDbEntity
  8
SLD-0
  6
Continuous
370
    15
100
AcDbLine
 10
30.0446220031
 20
14.5419063115
 30
0.0
 11
30.0446220031
 21
16.0419064767
 31
0.0
  0
LINE
  5
E4
330
1F
100
AcDbEntity
  8
SLD-0
  6
Continuous
370
    15
100
AcDbLine
 10
30.0446220031
 20
16.0419064767
 30
0.0
 11
29.7946227578
 21
16.0419064767
 31
0.0
  0
LINE
  5
E5
330
1F
100
AcDbEntity
  8
SLD-0
  6
Continuous
370
    15
100
AcDbLine
 10
29.7946227578
 20
16.0419064767
 30
0.0
 11
29.7946227578
 21
14.5419063115
 31
0.0
  0
LINE
  5
E6
330
1F
100
AcDbEntity
  8
SLD-0
  6
Continuous
370
    15
100
AcDbLine
 10
30.5686219232
 20
28.2769067369
 30
0.0
 11
29.0473729368
 21
28.2769067369
 31
0.0
  0
LINE
  5
E7
330
1F
100
AcDbEntity
  8
SLD-0
  6
Continuous
370
    15
100
AcDbLine
 10
30.5686219232
 20
7.2144062696
 30
0.0
 11
29.0473729368
 21
7.2144062696
 31
0.0
  0
LINE
  5
E8
330
1F
100
AcDbEntity
  8
SLD-0
  6
Continuous
370
    15
100
AcDbLine
 10
30.5934963025
 20
28.2769067369
 30
0.0
 11
30.5686219232
 21
28.2769067369
 31
0.0
  0
LINE
  5
E9
330
1F
100
AcDbEntity
  8
SLD-0
  6
Continuous
370
    15
100
AcDbLine
 10
30.6016227153
 20
25.7881558605
 30
0.0
 11
30.6016227153
 21
7.2144062696
 31
0.0
  0
LINE
  5
EA
330
1F
100
AcDbEntity
  8
SLD-0
  6
Continuous
370
    15
100
AcDbLine
 10
30.5686219232
 20
7.2144062696
 30
0.0
 11
30.6016227153
 21
7.2144062696
 31
0.0
  0
LINE
  5
EB
330
1F
100
AcDbEntity
  8
SLD-0
  6
Continuous
370
    15
100
AcDbLine
 10
80.1776217425
 20
28.2769067369
 30
0.0
 11
80.1776217425
 21
7.2144062696
 31
0.0
  0
LINE
  5
EC
330
1F
100
AcDbEntity
  8
SLD-0
  6
Continuous
370
    15
100
AcDbLine
 10
80.1776217425
 20
28.2769067369
 30
0.0
 11
80.2106225346
 21
28.2769067369
 31
0.0
  0
LINE
  5
ED
330
1F
100
AcDbEntity
  8
SLD-0
  6
Continuous
370
    15
100
AcDbLine
 10
80.2106225346
 20
28.2769067369
 30
0.0
 11
80.2106225346
 21
7.2144062696
 31
0.0
  0
LINE
  5
EE
330
1F
100
AcDbEntity
  8
SLD-0
  6
Continuous
370
    15
100
AcDbLine
 10
80.2106225346
 20
7.2144062696
 30
0.0
 11
80.1776217425
 21
7.2144062696
 31
0.0
  0
LINE
  5
EF
330
1F
100
AcDbEntity
  8
SLD-0
  6
Continuous
370
    15
100
AcDbLine
 10
78.6563727561
 20
28.2769067369
 30
0.0
 11
78.6563727561
 21
7.2144062696
 31
0.0
  0
LINE
  5
F0
330
1F
100
AcDbEntity
  8
SLD-0
  6
Continuous
370
    15
100
AcDbLine
 10
78.6563727561
 20
28.2769067369
 30
0.0
 11
80.1776217425
 21
28.2769067369
 31
0.0
  0
LINE
  5
F1
330
1F
100
AcDbEntity
  8
SLD-0
  6
Continuous
370
    15
100
AcDbLine
 10
78.6563727561
 20
7.2144062696
 30
0.0
 11
80.1776217425
 21
7.2144062696
 31
0.0
  0
LINE
  5
F2
330
1F
100
AcDbEntity
  8
SLD-0
  6
Continuous
370
    15
100
AcDbLine
 10
79.1803726761
 20
16.0419064767
 30
0.0
 11
79.4303719214
 21
16.0419064767
 31
0.0
  0
LINE
  5
F3
330
1F
100
AcDbEntity
  8
SLD-0
  6
Continuous
370
    15
100
AcDbLine
 10
79.1803726761
 20
14.5419063115
 30
0.0
 11
79.1803726761
 21
16.0419064767
 31
0.0
  0
LINE
  5
F4
330
1F
100
AcDbEntity
  8
SLD-0
  6
Continuous
370
    15
100
AcDbLine
 10
79.4303719214
 20
14.5419063115
 30
0.0
 11
79.1803726761
 21
14.5419063115
 31
0.0
  0
LINE
  5
F5
330
1F
100
AcDbEntity
  8
SLD-0
  6
Continuous
370
    15
100
AcDbLine
 10
79.4303719214
 20
16.0419064767
 30
0.0
 11
79.4303719214
 21
14.5419063115
 31
0.0
  0
LINE
  5
F6
330
1F
100
AcDbEntity
  8
SLD-0
  6
Continuous
370
    15
100
AcDbLine
 10
78.6233719639
 20
25.7881558605
 30
0.0
 11
78.6233719639
 21
7.2144062696
 31
0.0
  0
LINE
  5
F7
330
1F
100
AcDbEntity
  8
SLD-0
  6
Continuous
370
    15
100
AcDbLine
 10
78.6314983767
 20
28.2769067369
 30
0.0
 11
78.6563727561
 21
28.2769067369
 31
0.0
  0
LINE
  5
F8
330
1F
100
AcDbEntity
  8
SLD-0
  6
Continuous
370
    15
100
AcDbLine
 10
78.6563727561
 20
7.2144062696
 30
0.0
 11
78.6233719639
 21
7.2144062696
 31
0.0
  0
LINE
  5
F9
330
1F
100
AcDbEntity
  8
SLD-0
  6
Continuous
370
    15
100
AcDbLine
 10
72.3624977301
 20
14.3394059841
 30
0.0
 11
36.8624969491
 21
14.3394059841
 31
0.0
  0
LINE
  5
FA
330
1F
100
AcDbEntity
  8
SLD-0
  6
Continuous
370
    15
100
AcDbLine
 10
72.3624977301
 20
13.6804062369
 30
0.0
 11
72.3624977301
 21
14.3394059841
 31
0.0
  0
LINE
  5
FB
330
1F
100
AcDbEntity
  8
SLD-0
  6
Continuous
370
    15
100
AcDbLine
 10
36.8624969491
 20
14.3394059841
 30
0.0
 11
36.8624969491
 21
13.6804062369
 31
0.0
  0
LINE
  5
FC
330
1F
100
AcDbEntity
  8
SLD-0
  6
Continuous
370
    15
100
AcDbLine
 10
29.9224981873
 20
16.0419064767
 30
0.0
 11
29.9224981873
 21
15.6834062447
 31
0.0
  0
LINE
  5
FD
330
1F
100
AcDbEntity
  8
SLD-0
  6
Continuous
370
    15
100
AcDbLine
 10
29.9224981873
 20
15.6834062447
 30
0.0
 11
30.0446220031
 21
15.6834062447
 31
0.0
  0
LINE
  5
FE
330
1F
100
AcDbEntity
  8
SLD-0
  6
Continuous
370
    15
100
AcDbLine
 10
30.6016227153
 20
15.6834062447
 30
0.0
 11
30.6104977061
 21
15.6834062447
 31
0.0
  0
LINE
  5
FF
330
1F
100
AcDbEntity
  8
SLD-0
  6
Continuous
370
    15
100
AcDbLine
 10
30.6484968405
 20
15.6834062447
 30
0.0
 11
78.5764978388
 21
15.6834062447
 31
0.0
  0
LINE
  5
100
330
1F
100
AcDbEntity
  8
SLD-0
  6
Continuous
370
    15
100
AcDbLine
 10
78.6144969731
 20
15.6834062447
 30
0.0
 11
78.6233719639
 21
15.6834062447
 31
0.0
  0
LINE
  5
101
330
1F
100
AcDbEntity
  8
SLD-0
  6
Continuous
370
    15
100
AcDbLine
 10
79.1803726761
 20
15.6834062447
 30
0.0
 11
79.302496492
 21
15.6834062447
 31
0.0
  0
LINE
  5
102
330
1F
100
AcDbEntity
  8
SLD-0
  6
Continuous
370
    15
100
AcDbLine
 10
78.6233719639
 20
23.6834067347
 30
0.0
 11
78.6144969731
 21
23.6834067347
 31
0.0
  0
LINE
  5
103
330
1F
100
AcDbEntity
  8
SLD-0
  6
Continuous
370
    15
100
AcDbLine
 10
78.5764978388
 20
23.6834067347
 30
0.0
 11
30.6484968405
 21
23.6834067347
 31
0.0
  0
LINE
  5
104
330
1F
100
AcDbEntity
  8
SLD-0
  6
Continuous
370
    15
100
AcDbLine
 10
30.6104977061
 20
23.6834067347
 30
0.0
 11
30.6016227153
 21
23.6834067347
 31
0.0
  0
LINE
  5
105
330
1F
100
AcDbEntity
  8
SLD-0
  6
Continuous
370
    15
100
AcDbLine
 10
79.302496492
 20
15.6834062447
 30
0.0
 11
79.302496492
 21
16.0419064767
 31
0.0
  0
LINE
  5
106
330
1F
100
AcDbEntity
  8
SLD-0
  6
Continuous
370
    15
100
AcDbLine
 10
78.5384963578
 20
13.6524061337
 30
0.0
 11
78.5384963578
 21
13.6804062369
 31
0.0
  0
LINE
  5
107
330
1F
100
AcDbEntity
  8
SLD-0
  6
Continuous
370
    15
100
AcDbLine
 10
30.6864983215
 20
13.6524061337
 30
0.0
 11
78.5384963578
 21
13.6524061337
 31
0.0
  0
LINE
  5
108
330
1F
100
AcDbEntity
  8
SLD-0
  6
Continuous
370
    15
100
AcDbLine
 10
30.6864983215
 20
13.6804062369
 30
0.0
 11
78.5384963578
 21
13.6804062369
 31
0.0
  0
LINE
  5
109
330
1F
100
AcDbEntity
  8
SLD-0
  6
Continuous
370
    15
100
AcDbLine
 10
30.6864983215
 20
13.6804062369
 30
0.0
 11
30.6864983215
 21
13.6524061337
 31
0.0
  0
LINE
  5
10A
330
1F
100
AcDbEntity
  8
SLD-0
  6
Continuous
370
    15
100
AcDbLine
 10
30.6864983215
 20
13.6474060315
 30
0.0
 11
78.5384963578
 21
13.6474060315
 31
0.0
  0
LINE
  5
10B
330
1F
100
AcDbEntity
  8
SLD-0
  6
Continuous
370
    15
100
AcDbLine
 10
30.6864983215
 20
13.6474060315
 30
0.0
 11
30.6864983215
 21
13.6524061337
 31
0.0
  0
LINE
  5
10C
330
1F
100
AcDbEntity
  8
SLD-0
  6
Continuous
370
    15
100
AcDbLine
 10
78.5384963578
 20
13.6524061337
 30
0.0
 11
78.5384963578
 21
13.6474060315
 31
0.0
  0
LINE
  5
10D
330
1F
100
AcDbEntity
  8
SLD-0
  6
Continuous
370
    15
100
AcDbLine
 10
30.6814976326
 20
7.5174028958
 30
0.0
 11
30.6864983215
 21
7.5124029035
 31
0.0
  0
LINE
  5
10E
330
1F
100
AcDbEntity
  8
SLD-0
  6
Continuous
370
    15
100
AcDbLine
 10
30.6814976326
 20
13.3299062859
 30
0.0
 11
30.6814976326
 21
7.5174028958
 31
0.0
  0
LINE
  5
10F
330
1F
100
AcDbEntity
  8
SLD-0
  6
Continuous
370
    15
100
AcDbLine
 10
30.6864983215
 20
13.3349063881
 30
0.0
 11
30.6814976326
 21
13.3299062859
 31
0.0
  0
LINE
  5
110
330
1F
100
AcDbEntity
  8
SLD-0
  6
Continuous
370
    15
100
AcDbLine
 10
30.6864983215
 20
13.6474060315
 30
0.0
 11
30.6864983215
 21
13.3349063881
 31
0.0
  0
LINE
  5
111
330
1F
100
AcDbEntity
  8
SLD-0
  6
Continuous
370
    15
100
AcDbLine
 10
78.5384963578
 20
13.3349063881
 30
0.0
 11
78.5384963578
 21
13.6474060315
 31
0.0
  0
LINE
  5
112
330
1F
100
AcDbEntity
  8
SLD-0
  6
Continuous
370
    15
100
AcDbLine
 10
78.5434970467
 20
13.3299062859
 30
0.0
 11
78.5384963578
 21
13.3349063881
 31
0.0
  0
LINE
  5
113
330
1F
100
AcDbEntity
  8
SLD-0
  6
Continuous
370
    15
100
AcDbLine
 10
78.5434970467
 20
7.5174028958
 30
0.0
 11
78.5434970467
 21
13.3299062859
 31
0.0
  0
LINE
  5
114
330
1F
100
AcDbEntity
  8
SLD-0
  6
Continuous
370
    15
100
AcDbLine
 10
78.5384963578
 20
7.5124029035
 30
0.0
 11
78.5434970467
 21
7.5174028958
 31
0.0
  0
LINE
  5
115
330
1F
100
AcDbEntity
  8
SLD-0
  6
Continuous
370
    15
100
AcDbLine
 10
78.5384963578
 20
7.2528232181
 30
0.0
 11
78.5384963578
 21
7.5124029035
 31
0.0
  0
LINE
  5
116
330
1F
100
AcDbEntity
  8
SLD-0
  6
Continuous
370
    15
100
AcDbLine
 10
78.5369522689
 20
7.2512779101
 30
0.0
 11
78.5384963578
 21
7.2528232181
 31
0.0
  0
ARC
  5
117
330
1F
100
AcDbEntity
  8
SLD-0
  6
Continuous
370
    15
100
AcDbCircle
 10
78.5588723396
 20
7.2293575987
 30
0.0
 40
0.0310000000000027
100
AcDbArc
 50
135.0
 51
198.7240539076
  0
LINE
  5
118
330
1F
100
AcDbEntity
  8
SLD-0
  6
Continuous
370
    15
100
AcDbLine
 10
78.5295134215
 20
7.2194062687
 30
0.0
 11
30.6954812577
 21
7.2194062687
 31
0.0
  0
ARC
  5
119
330
1F
100
AcDbEntity
  8
SLD-0
  6
Continuous
370
    15
100
AcDbCircle
 10
30.6661223396
 20
7.2293575987
 30
0.0
 40
0.0310000000000031
100
AcDbArc
 50
341.2759460924
 51
45.0
  0
LINE
  5
11A
330
1F
100
AcDbEntity
  8
SLD-0
  6
Continuous
370
    15
100
AcDbLine
 10
30.6864983215
 20
7.2528232181
 30
0.0
 11
30.6880424103
 21
7.2512779101
 31
0.0
  0
LINE
  5
11B
330
1F
100
AcDbEntity
  8
SLD-0
  6
Continuous
370
    15
100
AcDbLine
 10
30.6864983215
 20
7.5124029035
 30
0.0
 11
30.6864983215
 21
7.2528232181
 31
0.0
  0
SPLINE
  5
11C
330
1F
100
AcDbEntity
  8
SLD-0
  6
Continuous
370
    15
100
AcDbSpline
210
0.0
220
0.0
230
1.0
 70
     8
 71
     3
 72
    14
 73
    10
 74
     0
 42
0.00000001
 43
0.00000001
 12
1.0
 22
0.0
 32
0.0
 13
1.0
 23
0.0
 33
0.0
 40
0.0
 40
0.0
 40
0.0
 40
0.0
 40
0.25
 40
0.25
 40
0.5
 40
0.5
 40
0.75
 40
0.75
 40
1.0
 40
1.0
 40
1.0
 40
1.0
 10
30.64849733962167
 20
13.30885759870215
 30
0.0
 10
30.64849733962167
 20
13.31061192608767
 30
0.0
 10
30.64935624129161
 20
13.31236571049866
 30
0.0
 10
30.65266238880597
 20
13.31587382229517
 30
0.0
 10
30.65510833382252
 20
13.31762787819342
 30
0.0
 10
30.66121729786249
 20
13.32113598998993
 30
0.0
 10
30.66487791326942
 20
13.32289004588818
 30
0.0
 10
30.6728596594378
 20
13.32639815768469
 30
0.0
 10
30.67717698113495
 20
13.32815194209568
 30
0.0
 10
30.68149733962166
 20
13.3299062694812
 30
0.0
  0
SPLINE
  5
11D
330
1F
100
AcDbEntity
  8
SLD-0
  6
Continuous
370
    15
100
AcDbSpline
210
0.0
220
0.0
230
1.0
 70
     8
 71
     3
 72
    14
 73
    10
 74
     0
 42
0.00000001
 43
0.00000001
 12
1.0
 22
0.0
 32
0.0
 13
1.0
 23
0.0
 33
0.0
 40
0.0
 40
0.0
 40
0.0
 40
0.0
 40
0.25
 40
0.25
 40
0.5
 40
0.5
 40
0.75
 40
0.75
 40
1.0
 40
1.0
 40
1.0
 40
1.0
 10
30.68149733962166
 20
7.517402908918949
 30
0.0
 10
30.67717698113493
 20
7.519157236304469
 30
0.0
 10
30.6728596594378
 20
7.520911020715457
 30
0.0
 10
30.66487791326942
 20
7.524419132511965
 30
0.0
 10
30.66121729786249
 20
7.526173188410219
 30
0.0
 10
30.65510833382252
 20
7.529681300206728
 30
0.0
 10
30.65266238880597
 20
7.531435356104982
 30
0.0
 10
30.64935624129161
 20
7.53494346790149
 30
0.0
 10
30.64849733962167
 20
7.536697252312478
 30
0.0
 10
30.64849733962167
 20
7.538451579697998
 30
0.0
  0
SPLINE
  5
11E
330
1F
100
AcDbEntity
  8
SLD-0
  6
Continuous
370
    15
100
AcDbSpline
210
0.0
220
0.0
230
1.0
 70
     8
 71
     3
 72
    14
 73
    10
 74
     0
 42
0.00000001
 43
0.00000001
 12
1.0
 22
0.0
 32
0.0
 13
1.0
 23
0.0
 33
0.0
 40
0.0
 40
0.0
 40
0.0
 40
0.0
 40
0.25
 40
0.25
 40
0.5
 40
0.5
 40
0.75
 40
0.75
 40
1.0
 40
1.0
 40
1.0
 40
1.0
 10
78.57649733962167
 20
7.538451579698003
 30
0.0
 10
78.57649733962167
 20
7.536697252312481
 30
0.0
 10
78.57563843795172
 20
7.534943467901492
 30
0.0
 10
78.57233229043736
 20
7.531435356104982
 30
0.0
 10
78.56988634542081
 20
7.529681300206727
 30
0.0
 10
78.56377738138085
 20
7.526173188410216
 30
0.0
 10
78.56011676597392
 20
7.524419132511961
 30
0.0
 10
78.55213501980552
 20
7.520911020715451
 30
0.0
 10
78.54781769810843
 20
7.519157236304475
 30
0.0
 10
78.54349733962167
 20
7.517402908918942
 30
0.0
  0
SPLINE
  5
11F
330
1F
100
AcDbEntity
  8
SLD-0
  6
Continuous
370
    15
100
AcDbSpline
210
0.0
220
0.0
230
1.0
 70
     8
 71
     3
 72
    14
 73
    10
 74
     0
 42
0.00000001
 43
0.00000001
 12
1.0
 22
0.0
 32
0.0
 13
1.0
 23
0.0
 33
0.0
 40
0.0
 40
0.0
 40
0.0
 40
0.0
 40
0.25
 40
0.25
 40
0.5
 40
0.5
 40
0.75
 40
0.75
 40
1.0
 40
1.0
 40
1.0
 40
1.0
 10
78.54349733962167
 20
13.32990626948119
 30
0.0
 10
78.54781769810842
 20
13.32815194209567
 30
0.0
 10
78.55213501980552
 20
13.32639815768468
 30
0.0
 10
78.56011676597392
 20
13.32289004588817
 30
0.0
 10
78.56377738138085
 20
13.32113598998992
 30
0.0
 10
78.56988634542081
 20
13.31762787819341
 30
0.0
 10
78.57233229043736
 20
13.31587382229515
 30
0.0
 10
78.57563843795172
 20
13.31236571049864
 30
0.0
 10
78.57649733962167
 20
13.31061192608765
 30
0.0
 10
78.57649733962167
 20
13.30885759870213
 30
0.0
  0
SPLINE
  5
120
330
1F
100
AcDbEntity
  8
SLD-0
  6
Continuous
370
    15
100
AcDbSpline
210
0.0
220
0.0
230
1.0
 70
     8
 71
     3
 72
    14
 73
    10
 74
     0
 42
0.00000001
 43
0.00000001
 12
1.0
 22
0.0
 32
0.0
 13
1.0
 23
0.0
 33
0.0
 40
0.0
 40
0.0
 40
0.0
 40
0.0
 40
0.25
 40
0.25
 40
0.5
 40
0.5
 40
0.75
 40
0.75
 40
1.0
 40
1.0
 40
1.0
 40
1.0
 10
30.66612233962166
 20
7.18640626948121
 30
0.0
 10
30.66916805362056
 20
7.186406269481212
 30
0.0
 10
30.67206909530786
 20
7.186564841457637
 30
0.0
 10
30.67756433737366
 20
7.187998294678455
 30
0.0
 10
30.68016145386643
 20
7.189286527565395
 30
0.0
 10
30.6850546777717
 20
7.193945549553255
 30
0.0
 10
30.6873507851842
 20
7.197347971443454
 30
0.0
 10
30.69164199092894
 20
7.206710790681769
 30
0.0
 10
30.69362795168352
 20
7.212679407607212
 30
0.0
 10
30.69548168305328
 20
7.219406269481213
 30
0.0
  0
SPLINE
  5
121
330
1F
100
AcDbEntity
  8
SLD-0
  6
Continuous
370
    15
100
AcDbSpline
210
0.0
220
0.0
230
1.0
 70
     8
 71
     3
 72
    14
 73
    10
 74
     0
 42
0.00000001
 43
0.00000001
 12
1.0
 22
0.0
 32
0.0
 13
1.0
 23
0.0
 33
0.0
 40
0.0
 40
0.0
 40
0.0
 40
0.0
 40
0.25
 40
0.25
 40
0.5
 40
0.5
 40
0.75
 40
0.75
 40
1.0
 40
1.0
 40
1.0
 40
1.0
 10
78.52951299619002
 20
7.219406269481223
 30
0.0
 10
78.53222030550884
 20
7.211639935892421
 30
0.0
 10
78.53482816512062
 20
7.205010263769025
 30
0.0
 10
78.53996250046895
 20
7.195246538030871
 30
0.0
 10
78.54246939028233
 20
7.19207640899452
 30
0.0
 10
78.54736261418762
 20
7.18810858997423
 30
0.0
 10
78.54974894827947
 20
7.187257950777129
 30
0.0
 10
78.5544010607417
 20
7.18641376718733
 30
0.0
 10
78.55666860580102
 20
7.186406269481212
 30
0.0
 10
78.55887233962164
 20
7.18640626948121
 30
0.0
  0
LINE
  5
122
330
1F
100
AcDbEntity
  8
SLD-0
  6
Continuous
370
    15
100
AcDbLine
 10
78.5588722291
 20
7.1864062695
 30
0.0
 11
30.6661224502
 21
7.1864062695
 31
0.0
  0
LINE
  5
123
330
1F
100
AcDbEntity
  8
SLD-0
  6
Continuous
370
    15
100
AcDbLine
 10
30.6661224502
 20
7.1864062695
 30
0.0
 11
30.6661224502
 21
7.2144062696
 31
0.0
  0
SPLINE
  5
124
330
1F
100
AcDbEntity
  8
SLD-0
  6
Continuous
370
    15
100
AcDbSpline
210
0.0
220
0.0
230
1.0
 70
     8
 71
     3
 72
    13
 73
     9
 74
     0
 42
0.00000001
 43
0.00000001
 12
1.0
 22
0.0
 32
0.0
 13
1.0
 23
0.0
 33
0.0
 40
0.0
 40
0.0
 40
0.0
 40
0.0
 40
0.1942217282207364
 40
0.3765837063611789
 40
0.5476246241321474
 40
0.707993391987957
 40
0.8584719726412083
 40
1.0
 40
1.0
 40
1.0
 40
1.0
 10
30.66612233962166
 20
7.214406269481211
 30
0.0
 10
30.66809071035804
 20
7.214411932599488
 30
0.0
 10
30.67190725732314
 20
7.214422913029383
 30
0.0
 10
30.67741064091642
 20
7.214620740693912
 30
0.0
 10
30.68251789141153
 20
7.215101629789753
 30
0.0
 10
30.68722132304441
 20
7.216011282478979
 30
0.0
 10
30.69154244159321
 20
7.217393275785528
 30
0.0
 10
30.69419571181212
 20
7.218749124691402
 30
0.0
 10
30.69548168305328
 20
7.219406269481211
 30
0.0
  0
SPLINE
  5
125
330
1F
100
AcDbEntity
  8
SLD-0
  6
Continuous
370
    15
100
AcDbSpline
210
0.0
220
0.0
230
1.0
 70
     8
 71
     3
 72
    17
 73
    13
 74
     0
 42
0.00000001
 43
0.00000001
 12
1.0
 22
0.0
 32
0.0
 13
1.0
 23
0.0
 33
0.0
 40
0.0
 40
0.0
 40
0.0
 40
0.0
 40
0.1134536005160437
 40
0.2236541004917001
 40
0.3306840238421986
 40
0.4346343314555223
 40
0.5356051233524971
 40
0.6337063612359515
 40
0.7290585944592737
 40
0.8217936658972439
 40
0.9120553666228997
 40
1.0
 40
1.0
 40
1.0
 40
1.0
 10
78.52951299619002
 20
7.219406269481213
 30
0.0
 10
78.53057595818947
 20
7.218953721309488
 30
0.0
 10
78.53267140345312
 20
7.218061601061067
 30
0.0
 10
78.53581242547907
 20
7.216934664376797
 30
0.0
 10
78.538893384893
 20
7.216043032241648
 30
0.0
 10
78.54191725538892
 20
7.215388981419011
 30
0.0
 10
78.54488329470176
 20
7.214942141314575
 30
0.0
 10
78.54779173369562
 20
7.214662509356347
 30
0.0
 10
78.55064248264446
 20
7.214506333932455
 30
0.0
 10
78.55343578450811
 20
7.214433049031199
 30
0.0
 10
78.55617088956747
 20
7.214407806565833
 30
0.0
 10
78.55797969573291
 20
7.214406777382216
 30
0.0
 10
78.55887233962164
 20
7.214406269481211
 30
0.0
  0
LINE
  5
126
330
1F
100
AcDbEntity
  8
SLD-0
  6
Continuous
370
    15
100
AcDbLine
 10
78.5588722291
 20
7.1864062695
 30
0.0
 11
78.5588722291
 21
7.2144062696
 31
0.0
  0
LINE
  5
127
330
1F
100
AcDbEntity
  8
SLD-0
  6
Continuous
370
    15
100
AcDbLine
 10
30.6016227153
 20
7.2144062696
 30
0.0
 11
30.6104977061
 21
7.2144062696
 31
0.0
  0
LINE
  5
128
330
1F
100
AcDbEntity
  8
SLD-0
  6
Continuous
370
    15
100
AcDbLine
 10
30.6484968405
 20
7.2144062696
 30
0.0
 11
30.6661224502
 21
7.2144062696
 31
0.0
  0
LINE
  5
129
330
1F
100
AcDbEntity
  8
SLD-0
  6
Continuous
370
    15
100
AcDbLine
 10
29.1214962405
 20
7.1864062695
 30
0.0
 11
30.6661224502
 21
7.1864062695
 31
0.0
  0
LINE
  5
12A
330
1F
100
AcDbEntity
  8
SLD-0
  6
Continuous
370
    15
100
AcDbLine
 10
29.1214962405
 20
7.2144062696
 30
0.0
 11
29.1214962405
 21
7.1864062695
 31
0.0
  0
LINE
  5
12B
330
1F
100
AcDbEntity
  8
SLD-0
  6
Continuous
370
    15
100
AcDbLine
 10
78.5588722291
 20
7.1864062695
 30
0.0
 11
80.1034984387
 21
7.1864062695
 31
0.0
  0
LINE
  5
12C
330
1F
100
AcDbEntity
  8
SLD-0
  6
Continuous
370
    15
100
AcDbLine
 10
80.1034984387
 20
7.1864062695
 30
0.0
 11
80.1034984387
 21
7.2144062696
 31
0.0
  0
LINE
  5
12D
330
1F
100
AcDbEntity
  8
SLD-0
  6
Continuous
370
    15
100
AcDbLine
 10
78.5588722291
 20
7.2144062696
 30
0.0
 11
78.5764978388
 21
7.2144062696
 31
0.0
  0
LINE
  5
12E
330
1F
100
AcDbEntity
  8
SLD-0
  6
Continuous
370
    15
100
AcDbLine
 10
78.6144969731
 20
7.2144062696
 30
0.0
 11
78.6233719639
 21
7.2144062696
 31
0.0
  0
LINE
  5
12F
330
1F
100
AcDbEntity
  8
SLD-0
  6
Continuous
370
    15
100
AcDbLine
 10
28.9964977912
 20
7.2144062696
 30
0.0
 11
28.9964977912
 21
7.1864062695
 31
0.0
  0
LINE
  5
130
330
1F
100
AcDbEntity
  8
SLD-0
  6
Continuous
370
    15
100
AcDbLine
 10
29.1214962405
 20
7.1864062695
 30
0.0
 11
28.9964977912
 21
7.1864062695
 31
0.0
  0
LINE
  5
131
330
1F
100
AcDbEntity
  8
SLD-0
  6
Continuous
370
    15
100
AcDbLine
 10
29.0143721447
 20
7.2144062696
 30
0.0
 11
28.9964977912
 21
7.2144062696
 31
0.0
  0
LINE
  5
132
330
1F
100
AcDbEntity
  8
SLD-0
  6
Continuous
370
    15
100
AcDbLine
 10
80.2284968881
 20
7.1864062695
 30
0.0
 11
80.2284968881
 21
7.2144062696
 31
0.0
  0
LINE
  5
133
330
1F
100
AcDbEntity
  8
SLD-0
  6
Continuous
370
    15
100
AcDbLine
 10
80.2284968881
 20
7.1864062695
 30
0.0
 11
80.1034984387
 21
7.1864062695
 31
0.0
  0
LINE
  5
134
330
1F
100
AcDbEntity
  8
SLD-0
  6
Continuous
370
    15
100
AcDbLine
 10
80.2284968881
 20
7.2144062696
 30
0.0
 11
80.2106225346
 21
7.2144062696
 31
0.0
  0
LINE
  5
135
330
1F
100
AcDbEntity
  8
SLD-0
  6
Continuous
370
    15
100
AcDbLine
 10
28.9864964134
 20
7.2194062687
 30
0.0
 11
28.9864964134
 21
7.839406246
 31
0.0
  0
LINE
  5
136
330
1F
100
AcDbEntity
  8
SLD-0
  6
Continuous
370
    15
100
AcDbLine
 10
28.9584963102
 20
7.2194062687
 30
0.0
 11
28.9864964134
 21
7.2194062687
 31
0.0
  0
LINE
  5
137
330
1F
100
AcDbEntity
  8
SLD-0
  6
Continuous
370
    15
100
AcDbLine
 10
28.9584963102
 20
7.2194062687
 30
0.0
 11
28.9584963102
 21
7.839406246
 31
0.0
  0
LINE
  5
138
330
1F
100
AcDbEntity
  8
SLD-0
  6
Continuous
370
    15
100
AcDbLine
 10
28.9584963102
 20
7.839406246
 30
0.0
 11
28.9864964134
 21
7.839406246
 31
0.0
  0
SPLINE
  5
139
330
1F
100
AcDbEntity
  8
SLD-0
  6
Continuous
370
    15
100
AcDbSpline
210
0.0
220
0.0
230
1.0
 70
     8
 71
     3
 72
    14
 73
    10
 74
     0
 42
0.00000001
 43
0.00000001
 12
1.0
 22
0.0
 32
0.0
 13
1.0
 23
0.0
 33
0.0
 40
0.0
 40
0.0
 40
0.0
 40
0.0
 40
0.25
 40
0.25
 40
0.5
 40
0.5
 40
0.75
 40
0.75
 40
1.0
 40
1.0
 40
1.0
 40
1.0
 10
28.95349733962167
 20
7.844406269481209
 30
0.0
 10
28.95415185251289
 20
7.844406269481211
 30
0.0
 10
28.95480607904346
 20
7.844276132864551
 30
0.0
 10
28.95601543452352
 20
7.843775201422981
 30
0.0
 10
28.95657007322154
 20
7.843404603693202
 30
0.0
 10
28.95749567383366
 20
7.842479003081086
 30
0.0
 10
28.95786627156344
 20
7.841924364383065
 30
0.0
 10
28.95836720300501
 20
7.840715008903007
 30
0.0
 10
28.95849733962167
 20
7.840060782372428
 30
0.0
 10
28.95849733962167
 20
7.83940626948121
 30
0.0
  0
LINE
  5
13A
330
1F
100
AcDbEntity
  8
SLD-0
  6
Continuous
370
    15
100
AcDbLine
 10
28.9534979679
 20
7.8724063048
 30
0.0
 11
28.9534979679
 21
7.8444062749
 31
0.0
  0
SPLINE
  5
13B
330
1F
100
AcDbEntity
  8
SLD-0
  6
Continuous
370
    15
100
AcDbSpline
210
0.0
220
0.0
230
1.0
 70
     8
 71
     3
 72
    10
 73
     6
 74
     0
 42
0.00000001
 43
0.00000001
 12
1.0
 22
0.0
 32
0.0
 13
1.0
 23
0.0
 33
0.0
 40
0.0
 40
0.0
 40
0.0
 40
0.0
 40
0.5
 40
0.5
 40
1.0
 40
1.0
 40
1.0
 40
1.0
 10
28.95349733962166
 20
7.87240626948121
 30
0.0
 10
28.96213671941902
 20
7.872406269481211
 30
0.0
 10
28.97072289936085
 20
7.868849757300334
 30
0.0
 10
28.98294082744079
 20
7.856631829220399
 30
0.0
 10
28.98649733962166
 20
7.848045649278583
 30
0.0
 10
28.98649733962166
 20
7.83940626948121
 30
0.0
  0
LINE
  5
13C
330
1F
100
AcDbEntity
  8
SLD-0
  6
Continuous
370
    15
100
AcDbLine
 10
80.2664983691
 20
7.839406246
 30
0.0
 11
80.2664983691
 21
7.2194062687
 31
0.0
  0
LINE
  5
13D
330
1F
100
AcDbEntity
  8
SLD-0
  6
Continuous
370
    15
100
AcDbLine
 10
80.2384982659
 20
7.2194062687
 30
0.0
 11
80.2664983691
 21
7.2194062687
 31
0.0
  0
LINE
  5
13E
330
1F
100
AcDbEntity
  8
SLD-0
  6
Continuous
370
    15
100
AcDbLine
 10
80.2384982659
 20
7.839406246
 30
0.0
 11
80.2384982659
 21
7.2194062687
 31
0.0
  0
LINE
  5
13F
330
1F
100
AcDbEntity
  8
SLD-0
  6
Continuous
370
    15
100
AcDbLine
 10
80.2384982659
 20
7.839406246
 30
0.0
 11
80.2664983691
 21
7.839406246
 31
0.0
  0
SPLINE
  5
140
330
1F
100
AcDbEntity
  8
SLD-0
  6
Continuous
370
    15
100
AcDbSpline
210
0.0
220
0.0
230
1.0
 70
     8
 71
     3
 72
    10
 73
     6
 74
     0
 42
0.00000001
 43
0.00000001
 12
1.0
 22
0.0
 32
0.0
 13
1.0
 23
0.0
 33
0.0
 40
0.0
 40
0.0
 40
0.0
 40
0.0
 40
0.5
 40
0.5
 40
1.0
 40
1.0
 40
1.0
 40
1.0
 10
80.23849733962166
 20
7.83940626948121
 30
0.0
 10
80.23849733962166
 20
7.848045649278611
 30
0.0
 10
80.24205385180255
 20
7.856631829220455
 30
0.0
 10
80.25427177988256
 20
7.8688497573004
 30
0.0
 10
80.26285795982444
 20
7.872406269481256
 30
0.0
 10
80.27149733962185
 20
7.87240626948121
 30
0.0
  0
LINE
  5
141
330
1F
100
AcDbEntity
  8
SLD-0
  6
Continuous
370
    15
100
AcDbLine
 10
80.2714967113
 20
7.8724063048
 30
0.0
 11
80.2714967113
 21
7.8444062749
 31
0.0
  0
SPLINE
  5
142
330
1F
100
AcDbEntity
  8
SLD-0
  6
Continuous
370
    15
100
AcDbSpline
210
0.0
220
0.0
230
1.0
 70
     8
 71
     3
 72
    14
 73
    10
 74
     0
 42
0.00000001
 43
0.00000001
 12
1.0
 22
0.0
 32
0.0
 13
1.0
 23
0.0
 33
0.0
 40
0.0
 40
0.0
 40
0.0
 40
0.0
 40
0.25
 40
0.25
 40
0.5
 40
0.5
 40
0.75
 40
0.75
 40
1.0
 40
1.0
 40
1.0
 40
1.0
 10
80.26649733962167
 20
7.83940626948121
 30
0.0
 10
80.26649733962167
 20
7.840060782372429
 30
0.0
 10
80.26662747623833
 20
7.840715008903011
 30
0.0
 10
80.26712840767989
 20
7.841924364383072
 30
0.0
 10
80.26749900540968
 20
7.842479003081093
 30
0.0
 10
80.26842460602181
 20
7.843404603693211
 30
0.0
 10
80.26897924471982
 20
7.843775201422991
 30
0.0
 10
80.27018860019989
 20
7.844276132864558
 30
0.0
 10
80.27084282673047
 20
7.844406269481214
 30
0.0
 10
80.27149733962169
 20
7.844406269481209
 30
0.0
  0
LINE
  5
143
330
1F
100
AcDbEntity
  8
SLD-0
  6
Continuous
370
    15
100
AcDbLine
 10
28.9914971023
 20
7.2144062696
 30
0.0
 11
28.9914971023
 21
7.1864062695
 31
0.0
  0
LINE
  5
144
330
1F
100
AcDbEntity
  8
SLD-0
  6
Continuous
370
    15
100
AcDbLine
 10
28.9964977912
 20
7.1864062695
 30
0.0
 11
28.9914971023
 21
7.1864062695
 31
0.0
  0
LINE
  5
145
330
1F
100
AcDbEntity
  8
SLD-0
  6
Continuous
370
    15
100
AcDbLine
 10
28.9964977912
 20
7.2144062696
 30
0.0
 11
28.9914971023
 21
7.2144062696
 31
0.0
  0
ARC
  5
146
330
1F
100
AcDbEntity
  8
SLD-0
  6
Continuous
370
    15
100
AcDbCircle
 10
28.9914973396
 20
7.2194062695
 30
0.0
 40
0.0050000000000026
100
AcDbArc
 50
180.0
 51
270.0
  0
ARC
  5
147
330
1F
100
AcDbEntity
  8
SLD-0
  6
Continuous
370
    15
100
AcDbCircle
 10
28.9914973396
 20
7.2194062695
 30
0.0
 40
0.0330000000000013
100
AcDbArc
 50
180.0
 51
270.0
  0
LINE
  5
148
330
1F
100
AcDbEntity
  8
SLD-0
  6
Continuous
370
    15
100
AcDbLine
 10
80.233497577
 20
7.1864062695
 30
0.0
 11
80.233497577
 21
7.2144062696
 31
0.0
  0
ARC
  5
149
330
1F
100
AcDbEntity
  8
SLD-0
  6
Continuous
370
    15
100
AcDbCircle
 10
80.2334973396
 20
7.2194062695
 30
0.0
 40
0.0049999999999999
100
AcDbArc
 50
270.0
 51
0.0
  0
ARC
  5
14A
330
1F
100
AcDbEntity
  8
SLD-0
  6
Continuous
370
    15
100
AcDbCircle
 10
80.2334973396
 20
7.2194062695
 30
0.0
 40
0.0330000000000013
100
AcDbArc
 50
270.0
 51
0.0
  0
LINE
  5
14B
330
1F
100
AcDbEntity
  8
SLD-0
  6
Continuous
370
    15
100
AcDbLine
 10
80.233497577
 20
7.1864062695
 30
0.0
 11
80.2284968881
 21
7.1864062695
 31
0.0
  0
LINE
  5
14C
330
1F
100
AcDbEntity
  8
SLD-0
  6
Continuous
370
    15
100
AcDbLine
 10
80.233497577
 20
7.2144062696
 30
0.0
 11
80.2284968881
 21
7.2144062696
 31
0.0
  0
LINE
  5
14D
330
1F
100
AcDbEntity
  8
SLD-0
  6
Continuous
370
    15
100
AcDbLine
 10
28.2384980143
 20
7.8444062749
 30
0.0
 11
28.2384980143
 21
7.8724063048
 31
0.0
  0
LINE
  5
14E
330
1F
100
AcDbEntity
  8
SLD-0
  6
Continuous
370
    15
100
AcDbLine
 10
28.9534979679
 20
7.8724063048
 30
0.0
 11
28.2384980143
 21
7.8724063048
 31
0.0
  0
LINE
  5
14F
330
1F
100
AcDbEntity
  8
SLD-0
  6
Continuous
370
    15
100
AcDbLine
 10
28.9534979679
 20
7.8444062749
 30
0.0
 11
28.2384980143
 21
7.8444062749
 31
0.0
  0
LINE
  5
150
330
1F
100
AcDbEntity
  8
SLD-0
  6
Continuous
370
    15
100
AcDbLine
 10
80.9864966649
 20
7.8444062749
 30
0.0
 11
80.2714967113
 21
7.8444062749
 31
0.0
  0
LINE
  5
151
330
1F
100
AcDbEntity
  8
SLD-0
  6
Continuous
370
    15
100
AcDbLine
 10
80.9864966649
 20
7.8724063048
 30
0.0
 11
80.2714967113
 21
7.8724063048
 31
0.0
  0
LINE
  5
152
330
1F
100
AcDbEntity
  8
SLD-0
  6
Continuous
370
    15
100
AcDbLine
 10
80.9864966649
 20
7.8724063048
 30
0.0
 11
80.9864966649
 21
7.8444062749
 31
0.0
  0
LINE
  5
153
330
1F
100
AcDbEntity
  8
SLD-0
  6
Continuous
370
    15
100
AcDbLine
 10
30.6684972494
 20
25.766905866
 30
0.0
 11
30.6604975552
 21
25.766905866
 31
0.0
  0
LINE
  5
154
330
1F
100
AcDbEntity
  8
SLD-0
  6
Continuous
370
    15
100
AcDbLine
 10
78.5564974298
 20
25.766905866
 30
0.0
 11
78.5644971241
 21
25.766905866
 31
0.0
  0
DIMENSION
  5
155
330
1F
100
AcDbEntity
  8
DIM
100
AcDbDimension
  2
_D
 10
80.9864973396
 20
2.2484062695
 30
0.0
 11
54.6124973396
 21
2.2484062695
 31
0.0
 70
   160
  1
<>
 71
     2
 42
-1.0
  3
SLDDIMSTYLE0
100
AcDbAlignedDimension
 13
28.2384973396
 23
7.8444062695
 33
0.0
 14
80.9864973396
 24
7.8444062695
 34
0.0
 50
0.0
100
AcDbRotatedDimension
  0
DIMENSION
  5
165
330
1F
100
AcDbEntity
  8
DIM
100
AcDbDimension
  2
_D_1
 10
84.9865973396
 20
6.2484062695
 30
0.0
 11
84.9865973396
 21
17.2917812695
 31
0.0
 70
   160
  1
<>
 71
     2
 42
-1.0
  3
SLDDIMSTYLE0
100
AcDbAlignedDimension
 13
80.2354973396
 23
28.3351562695
 33
0.0
 14
79.8917573396
 24
6.2484062695
 34
0.0
 50
90.0
100
AcDbRotatedDimension
  0
DIMENSION
  5
174
330
1F
100
AcDbEntity
  8
DIM
100
AcDbDimension
  2
_D_2
 10
30.6104973396
 20
19.7042812695
 30
0.0
 11
54.6124973396
 21
19.7042812695
 31
0.0
 70
   160
  1
<>
 71
     2
 42
-1.0
  3
SLDDIMSTYLE0
100
AcDbAlignedDimension
 13
78.6144973396
 23
27.7399062695
 33
0.0
 14
30.6104973396
 24
27.7399062695
 34
0.0
100
AcDbRotatedDimension
  0
DIMENSION
  5
17D
330
1F
100
AcDbEntity
  8
DIM
100
AcDbDimension
  2
_D_3
 10
24.2383973396
 20
13.6804062695
 30
0.0
 11
24.2383973396
 21
19.7042812695
 31
0.0
 70
   160
  1
<>
 71
     2
 42
-1.0
  3
SLDDIMSTYLE0
100
AcDbAlignedDimension
 13
30.6684973396
 23
25.7281562695
 33
0.0
 14
30.6864973396
 24
13.6804062695
 34
0.0
 50
90.0
100
AcDbRotatedDimension
  0
DIMENSION
  5
18C
330
1F
100
AcDbEntity
  8
DIM
100
AcDbDimension
  2
_D_4
 10
24.2383973396
 20
6.2484062695
 30
0.0
 11
24.2383973396
 21
9.9644062695
 31
0.0
 70
   160
  1
<>
 71
     2
 42
-1.0
  3
SLDDIMSTYLE0
100
AcDbAlignedDimension
 13
30.6864973396
 23
13.6804062695
 33
0.0
 14
29.3332373396
 24
6.2484062695
 34
0.0
 50
90.0
100
AcDbRotatedDimension
  0
LINE
  5
19B
330
1F
100
AcDbEntity
  8
SLD-0
  6
Continuous
370
    15
100
AcDbLine
 10
28.9383973423
 20
39.8284997805
 30
0.0
 11
28.9894977654
 21
39.8284997805
 31
0.0
  0
LINE
  5
19C
330
1F
100
AcDbEntity
  8
SLD-0
  6
Continuous
370
    15
100
AcDbLine
 10
28.9383973423
 20
51.4551002957
 30
0.0
 11
28.9383973423
 21
39.8284997805
 31
0.0
  0
LINE
  5
19D
330
1F
100
AcDbEntity
  8
SLD-0
  6
Continuous
370
    15
100
AcDbLine
 10
28.9383973423
 20
51.4551002957
 30
0.0
 11
28.9894977654
 21
51.4551002957
 31
0.0
  0
LINE
  5
19E
330
1F
100
AcDbEntity
  8
SLD-0
  6
Continuous
370
    15
100
AcDbLine
 10
28.9894977654
 20
39.8284997805
 30
0.0
 11
28.9894977654
 21
51.4551002957
 31
0.0
  0
LINE
  5
19F
330
1F
100
AcDbEntity
  8
SLD-0
  6
Continuous
370
    15
100
AcDbLine
 10
80.2865973369
 20
51.4551002957
 30
0.0
 11
80.2865973369
 21
39.8284997805
 31
0.0
  0
LINE
  5
1A0
330
1F
100
AcDbEntity
  8
SLD-0
  6
Continuous
370
    15
100
AcDbLine
 10
80.2865973369
 20
39.8284997805
 30
0.0
 11
80.2354969139
 21
39.8284997805
 31
0.0
  0
LINE
  5
1A1
330
1F
100
AcDbEntity
  8
SLD-0
  6
Continuous
370
    15
100
AcDbLine
 10
80.2354969139
 20
39.8284997805
 30
0.0
 11
80.2354969139
 21
51.4551002957
 31
0.0
  0
LINE
  5
1A2
330
1F
100
AcDbEntity
  8
SLD-0
  6
Continuous
370
    15
100
AcDbLine
 10
80.2865973369
 20
51.4551002957
 30
0.0
 11
80.2354969139
 21
51.4551002957
 31
0.0
  0
LINE
  5
1A3
330
1F
100
AcDbEntity
  8
SLD-0
  6
Continuous
370
    15
100
AcDbLine
 10
78.6314983767
 20
51.470199748
 30
0.0
 11
80.2354969139
 21
51.470199748
 31
0.0
  0
LINE
  5
1A4
330
1F
100
AcDbEntity
  8
SLD-0
  6
Continuous
370
    15
100
AcDbLine
 10
80.2354969139
 20
51.470199748
 30
0.0
 11
80.2354969139
 21
51.4551002957
 31
0.0
  0
LINE
  5
1A5
330
1F
100
AcDbEntity
  8
SLD-0
  6
Continuous
370
    15
100
AcDbLine
 10
80.2354969139
 20
51.4551002957
 30
0.0
 11
28.9894977654
 21
51.4551002957
 31
0.0
  0
LINE
  5
1A6
330
1F
100
AcDbEntity
  8
SLD-0
  6
Continuous
370
    15
100
AcDbLine
 10
28.9894977654
 20
51.470199748
 30
0.0
 11
28.9894977654
 21
51.4551002957
 31
0.0
  0
LINE
  5
1A7
330
1F
100
AcDbEntity
  8
SLD-0
  6
Continuous
370
    15
100
AcDbLine
 10
30.5934963025
 20
51.470199748
 30
0.0
 11
28.9894977654
 21
51.470199748
 31
0.0
  0
LINE
  5
1A8
330
1F
100
AcDbEntity
  8
SLD-0
  6
Continuous
370
    15
100
AcDbLine
 10
30.5934963025
 20
51.470199748
 30
0.0
 11
30.5934963025
 21
51.5062001321
 31
0.0
  0
LINE
  5
1A9
330
1F
100
AcDbEntity
  8
SLD-0
  6
Continuous
370
    15
100
AcDbLine
 10
78.6314983767
 20
51.5062001321
 30
0.0
 11
30.5934963025
 21
51.5062001321
 31
0.0
  0
LINE
  5
1AA
330
1F
100
AcDbEntity
  8
SLD-0
  6
Continuous
370
    15
100
AcDbLine
 10
78.6314983767
 20
51.470199748
 30
0.0
 11
78.6314983767
 21
51.5062001321
 31
0.0
  0
LINE
  5
1AB
330
1F
100
AcDbEntity
  8
SLD-0
  6
Continuous
370
    15
100
AcDbLine
 10
80.2354969139
 20
39.8284997805
 30
0.0
 11
28.9894977654
 21
39.8284997805
 31
0.0
  0
LINE
  5
1AC
330
1F
100
AcDbEntity
  8
SLD-0
  6
Continuous
370
    15
100
AcDbLine
 10
78.6314983767
 20
39.7773999442
 30
0.0
 11
30.5934963025
 21
39.7773999442
 31
0.0
  0
LINE
  5
1AD
330
1F
100
AcDbEntity
  8
SLD-0
  6
Continuous
370
    15
100
AcDbLine
 10
30.5934963025
 20
39.8134003283
 30
0.0
 11
30.5934963025
 21
39.7773999442
 31
0.0
  0
LINE
  5
1AE
330
1F
100
AcDbEntity
  8
SLD-0
  6
Continuous
370
    15
100
AcDbLine
 10
30.5934963025
 20
39.8134003283
 30
0.0
 11
28.9894977654
 21
39.8134003283
 31
0.0
  0
LINE
  5
1AF
330
1F
100
AcDbEntity
  8
SLD-0
  6
Continuous
370
    15
100
AcDbLine
 10
78.6314983767
 20
39.8134003283
 30
0.0
 11
80.2354969139
 21
39.8134003283
 31
0.0
  0
LINE
  5
1B0
330
1F
100
AcDbEntity
  8
SLD-0
  6
Continuous
370
    15
100
AcDbLine
 10
78.6314983767
 20
39.8134003283
 30
0.0
 11
78.6314983767
 21
39.7773999442
 31
0.0
  0
LINE
  5
1B1
330
1F
100
AcDbEntity
  8
SLD-0
  6
Continuous
370
    15
100
AcDbLine
 10
28.9894977654
 20
39.8134003283
 30
0.0
 11
28.9894977654
 21
39.8284997805
 31
0.0
  0
LINE
  5
1B2
330
1F
100
AcDbEntity
  8
SLD-0
  6
Continuous
370
    15
100
AcDbLine
 10
80.2354969139
 20
39.8134003283
 30
0.0
 11
80.2354969139
 21
39.8284997805
 31
0.0
  0
LINE
  5
1B3
330
1F
100
AcDbEntity
  8
SLD-0
  6
Continuous
370
    15
100
AcDbLine
 10
28.9142973541
 20
50.8300998358
 30
0.0
 11
28.9142973541
 21
50.643100236
 31
0.0
  0
LINE
  5
1B4
330
1F
100
AcDbEntity
  8
SLD-0
  6
Continuous
370
    15
100
AcDbLine
 10
28.9383973423
 20
50.8300998358
 30
0.0
 11
28.9142973541
 21
50.8300998358
 31
0.0
  0
LINE
  5
1B5
330
1F
100
AcDbEntity
  8
SLD-0
  6
Continuous
370
    15
100
AcDbLine
 10
28.9142973541
 20
50.643100236
 30
0.0
 11
28.9383973423
 21
50.643100236
 31
0.0
  0
LINE
  5
1B6
330
1F
100
AcDbEntity
  8
SLD-0
  6
Continuous
370
    15
100
AcDbLine
 10
80.2865973369
 20
50.8300998358
 30
0.0
 11
80.3106973252
 21
50.8300998358
 31
0.0
  0
LINE
  5
1B7
330
1F
100
AcDbEntity
  8
SLD-0
  6
Continuous
370
    15
100
AcDbLine
 10
80.3106973252
 20
50.8300998358
 30
0.0
 11
80.3106973252
 21
50.643100236
 31
0.0
  0
LINE
  5
1B8
330
1F
100
AcDbEntity
  8
SLD-0
  6
Continuous
370
    15
100
AcDbLine
 10
80.3106973252
 20
50.643100236
 30
0.0
 11
80.2865973369
 21
50.643100236
 31
0.0
  0
LINE
  5
1B9
330
1F
100
AcDbEntity
  8
SLD-0
  6
Continuous
370
    15
100
AcDbLine
 10
28.9142973541
 20
49.255099897
 30
0.0
 11
28.9383973423
 21
49.255099897
 31
0.0
  0
LINE
  5
1BA
330
1F
100
AcDbEntity
  8
SLD-0
  6
Continuous
370
    15
100
AcDbLine
 10
28.9142973541
 20
49.4051000308
 30
0.0
 11
28.9142973541
 21
49.255099897
 31
0.0
  0
LINE
  5
1BB
330
1F
100
AcDbEntity
  8
SLD-0
  6
Continuous
370
    15
100
AcDbLine
 10
28.9383973423
 20
49.4051000308
 30
0.0
 11
28.9142973541
 21
49.4051000308
 31
0.0
  0
LINE
  5
1BC
330
1F
100
AcDbEntity
  8
SLD-0
  6
Continuous
370
    15
100
AcDbLine
 10
80.3106973252
 20
49.4051000308
 30
0.0
 11
80.3106973252
 21
49.255099897
 31
0.0
  0
LINE
  5
1BD
330
1F
100
AcDbEntity
  8
SLD-0
  6
Continuous
370
    15
100
AcDbLine
 10
80.2865973369
 20
49.4051000308
 30
0.0
 11
80.3106973252
 21
49.4051000308
 31
0.0
  0
LINE
  5
1BE
330
1F
100
AcDbEntity
  8
SLD-0
  6
Continuous
370
    15
100
AcDbLine
 10
80.3106973252
 20
49.255099897
 30
0.0
 11
80.2865973369
 21
49.255099897
 31
0.0
  0
LINE
  5
1BF
330
1F
100
AcDbEntity
  8
SLD-0
  6
Continuous
370
    15
100
AcDbLine
 10
28.9142973541
 20
47.4551000507
 30
0.0
 11
28.9142973541
 21
47.3051000635
 31
0.0
  0
LINE
  5
1C0
330
1F
100
AcDbEntity
  8
SLD-0
  6
Continuous
370
    15
100
AcDbLine
 10
28.9383973423
 20
47.4551000507
 30
0.0
 11
28.9142973541
 21
47.4551000507
 31
0.0
  0
LINE
  5
1C1
330
1F
100
AcDbEntity
  8
SLD-0
  6
Continuous
370
    15
100
AcDbLine
 10
28.9142973541
 20
47.3051000635
 30
0.0
 11
28.9383973423
 21
47.3051000635
 31
0.0
  0
LINE
  5
1C2
330
1F
100
AcDbEntity
  8
SLD-0
  6
Continuous
370
    15
100
AcDbLine
 10
80.3106973252
 20
47.4551000507
 30
0.0
 11
80.3106973252
 21
47.3051000635
 31
0.0
  0
LINE
  5
1C3
330
1F
100
AcDbEntity
  8
SLD-0
  6
Continuous
370
    15
100
AcDbLine
 10
80.2865973369
 20
47.4551000507
 30
0.0
 11
80.3106973252
 21
47.4551000507
 31
0.0
  0
LINE
  5
1C4
330
1F
100
AcDbEntity
  8
SLD-0
  6
Continuous
370
    15
100
AcDbLine
 10
80.3106973252
 20
47.3051000635
 30
0.0
 11
80.2865973369
 21
47.3051000635
 31
0.0
  0
LINE
  5
1C5
330
1F
100
AcDbEntity
  8
SLD-0
  6
Continuous
370
    15
100
AcDbLine
 10
28.9142973541
 20
43.8285000255
 30
0.0
 11
28.9142973541
 21
43.9785000127
 31
0.0
  0
LINE
  5
1C6
330
1F
100
AcDbEntity
  8
SLD-0
  6
Continuous
370
    15
100
AcDbLine
 10
28.9142973541
 20
43.9785000127
 30
0.0
 11
28.9383973423
 21
43.9785000127
 31
0.0
  0
LINE
  5
1C7
330
1F
100
AcDbEntity
  8
SLD-0
  6
Continuous
370
    15
100
AcDbLine
 10
28.9383973423
 20
43.8285000255
 30
0.0
 11
28.9142973541
 21
43.8285000255
 31
0.0
  0
LINE
  5
1C8
330
1F
100
AcDbEntity
  8
SLD-0
  6
Continuous
370
    15
100
AcDbLine
 10
80.3106973252
 20
43.8285000255
 30
0.0
 11
80.3106973252
 21
43.9785000127
 31
0.0
  0
LINE
  5
1C9
330
1F
100
AcDbEntity
  8
SLD-0
  6
Continuous
370
    15
100
AcDbLine
 10
80.3106973252
 20
43.9785000127
 30
0.0
 11
80.2865973369
 21
43.9785000127
 31
0.0
  0
LINE
  5
1CA
330
1F
100
AcDbEntity
  8
SLD-0
  6
Continuous
370
    15
100
AcDbLine
 10
80.2865973369
 20
43.8285000255
 30
0.0
 11
80.3106973252
 21
43.8285000255
 31
0.0
  0
LINE
  5
1CB
330
1F
100
AcDbEntity
  8
SLD-0
  6
Continuous
370
    15
100
AcDbLine
 10
28.9142973541
 20
41.8785000454
 30
0.0
 11
28.9142973541
 21
42.0285001793
 31
0.0
  0
LINE
  5
1CC
330
1F
100
AcDbEntity
  8
SLD-0
  6
Continuous
370
    15
100
AcDbLine
 10
28.9142973541
 20
42.0285001793
 30
0.0
 11
28.9383973423
 21
42.0285001793
 31
0.0
  0
LINE
  5
1CD
330
1F
100
AcDbEntity
  8
SLD-0
  6
Continuous
370
    15
100
AcDbLine
 10
28.9383973423
 20
41.8785000454
 30
0.0
 11
28.9142973541
 21
41.8785000454
 31
0.0
  0
LINE
  5
1CE
330
1F
100
AcDbEntity
  8
SLD-0
  6
Continuous
370
    15
100
AcDbLine
 10
80.3106973252
 20
41.8785000454
 30
0.0
 11
80.3106973252
 21
42.0285001793
 31
0.0
  0
LINE
  5
1CF
330
1F
100
AcDbEntity
  8
SLD-0
  6
Continuous
370
    15
100
AcDbLine
 10
80.2865973369
 20
41.8785000454
 30
0.0
 11
80.3106973252
 21
41.8785000454
 31
0.0
  0
LINE
  5
1D0
330
1F
100
AcDbEntity
  8
SLD-0
  6
Continuous
370
    15
100
AcDbLine
 10
80.3106973252
 20
42.0285001793
 30
0.0
 11
80.2865973369
 21
42.0285001793
 31
0.0
  0
LINE
  5
1D1
330
1F
100
AcDbEntity
  8
SLD-0
  6
Continuous
370
    15
100
AcDbLine
 10
80.3106973252
 20
40.4535002405
 30
0.0
 11
80.3106973252
 21
40.6404998402
 31
0.0
  0
LINE
  5
1D2
330
1F
100
AcDbEntity
  8
SLD-0
  6
Continuous
370
    15
100
AcDbLine
 10
80.2865973369
 20
40.4535002405
 30
0.0
 11
80.3106973252
 21
40.4535002405
 31
0.0
  0
LINE
  5
1D3
330
1F
100
AcDbEntity
  8
SLD-0
  6
Continuous
370
    15
100
AcDbLine
 10
80.3106973252
 20
40.6404998402
 30
0.0
 11
80.2865973369
 21
40.6404998402
 31
0.0
  0
LINE
  5
1D4
330
1F
100
AcDbEntity
  8
SLD-0
  6
Continuous
370
    15
100
AcDbLine
 10
28.9142973541
 20
40.4535002405
 30
0.0
 11
28.9142973541
 21
40.6404998402
 31
0.0
  0
LINE
  5
1D5
330
1F
100
AcDbEntity
  8
SLD-0
  6
Continuous
370
    15
100
AcDbLine
 10
28.9142973541
 20
40.6404998402
 30
0.0
 11
28.9383973423
 21
40.6404998402
 31
0.0
  0
LINE
  5
1D6
330
1F
100
AcDbEntity
  8
SLD-0
  6
Continuous
370
    15
100
AcDbLine
 10
28.9383973423
 20
40.4535002405
 30
0.0
 11
28.9142973541
 21
40.4535002405
 31
0.0
  0
LINE
  5
1D7
330
1F
100
AcDbEntity
  8
SLD-0
  6
Continuous
370
    15
100
AcDbLine
 10
28.9142973541
 20
43.9785000127
 30
0.0
 11
28.9093975707
 21
43.9785000127
 31
0.0
  0
LINE
  5
1D8
330
1F
100
AcDbEntity
  8
SLD-0
  6
Continuous
370
    15
100
AcDbLine
 10
28.9093975707
 20
43.8285000255
 30
0.0
 11
28.9142973541
 21
43.8285000255
 31
0.0
  0
LINE
  5
1D9
330
1F
100
AcDbEntity
  8
SLD-0
  6
Continuous
370
    15
100
AcDbLine
 10
28.9093975707
 20
42.0285001793
 30
0.0
 11
28.9093975707
 21
43.8285000255
 31
0.0
  0
LINE
  5
1DA
330
1F
100
AcDbEntity
  8
SLD-0
  6
Continuous
370
    15
100
AcDbLine
 10
28.9142973541
 20
42.0285001793
 30
0.0
 11
28.9093975707
 21
42.0285001793
 31
0.0
  0
LINE
  5
1DB
330
1F
100
AcDbEntity
  8
SLD-0
  6
Continuous
370
    15
100
AcDbLine
 10
28.9093975707
 20
41.8785000454
 30
0.0
 11
28.9142973541
 21
41.8785000454
 31
0.0
  0
LINE
  5
1DC
330
1F
100
AcDbEntity
  8
SLD-0
  6
Continuous
370
    15
100
AcDbLine
 10
28.9093975707
 20
40.6404998402
 30
0.0
 11
28.9093975707
 21
41.8785000454
 31
0.0
  0
LINE
  5
1DD
330
1F
100
AcDbEntity
  8
SLD-0
  6
Continuous
370
    15
100
AcDbLine
 10
28.9142973541
 20
40.6404998402
 30
0.0
 11
28.9093975707
 21
40.6404998402
 31
0.0
  0
LINE
  5
1DE
330
1F
100
AcDbEntity
  8
SLD-0
  6
Continuous
370
    15
100
AcDbLine
 10
28.2383971088
 20
40.4535002405
 30
0.0
 11
28.9142973541
 21
40.4535002405
 31
0.0
  0
LINE
  5
1DF
330
1F
100
AcDbEntity
  8
SLD-0
  6
Continuous
370
    15
100
AcDbLine
 10
28.2383971088
 20
40.4535002405
 30
0.0
 11
28.2383971088
 21
50.8300998358
 31
0.0
  0
LINE
  5
1E0
330
1F
100
AcDbEntity
  8
SLD-0
  6
Continuous
370
    15
100
AcDbLine
 10
28.2383971088
 20
50.8300998358
 30
0.0
 11
28.9142973541
 21
50.8300998358
 31
0.0
  0
LINE
  5
1E1
330
1F
100
AcDbEntity
  8
SLD-0
  6
Continuous
370
    15
100
AcDbLine
 10
28.9142973541
 20
50.643100236
 30
0.0
 11
28.9093975707
 21
50.643100236
 31
0.0
  0
LINE
  5
1E2
330
1F
100
AcDbEntity
  8
SLD-0
  6
Continuous
370
    15
100
AcDbLine
 10
28.9093975707
 20
50.643100236
 30
0.0
 11
28.9093975707
 21
49.4051000308
 31
0.0
  0
LINE
  5
1E3
330
1F
100
AcDbEntity
  8
SLD-0
  6
Continuous
370
    15
100
AcDbLine
 10
28.9093975707
 20
49.4051000308
 30
0.0
 11
28.9142973541
 21
49.4051000308
 31
0.0
  0
LINE
  5
1E4
330
1F
100
AcDbEntity
  8
SLD-0
  6
Continuous
370
    15
100
AcDbLine
 10
28.9142973541
 20
49.255099897
 30
0.0
 11
28.9093975707
 21
49.255099897
 31
0.0
  0
LINE
  5
1E5
330
1F
100
AcDbEntity
  8
SLD-0
  6
Continuous
370
    15
100
AcDbLine
 10
28.9093975707
 20
49.255099897
 30
0.0
 11
28.9093975707
 21
47.4551000507
 31
0.0
  0
LINE
  5
1E6
330
1F
100
AcDbEntity
  8
SLD-0
  6
Continuous
370
    15
100
AcDbLine
 10
28.9093975707
 20
47.4551000507
 30
0.0
 11
28.9142973541
 21
47.4551000507
 31
0.0
  0
LINE
  5
1E7
330
1F
100
AcDbEntity
  8
SLD-0
  6
Continuous
370
    15
100
AcDbLine
 10
28.9142973541
 20
47.3051000635
 30
0.0
 11
28.9093975707
 21
47.3051000635
 31
0.0
  0
LINE
  5
1E8
330
1F
100
AcDbEntity
  8
SLD-0
  6
Continuous
370
    15
100
AcDbLine
 10
28.9093975707
 20
43.9785000127
 30
0.0
 11
28.9093975707
 21
47.3051000635
 31
0.0
  0
LINE
  5
1E9
330
1F
100
AcDbEntity
  8
SLD-0
  6
Continuous
370
    15
100
AcDbLine
 10
80.3155971086
 20
47.4551000507
 30
0.0
 11
80.3106973252
 21
47.4551000507
 31
0.0
  0
LINE
  5
1EA
330
1F
100
AcDbEntity
  8
SLD-0
  6
Continuous
370
    15
100
AcDbLine
 10
80.3155971086
 20
49.255099897
 30
0.0
 11
80.3155971086
 21
47.4551000507
 31
0.0
  0
LINE
  5
1EB
330
1F
100
AcDbEntity
  8
SLD-0
  6
Continuous
370
    15
100
AcDbLine
 10
80.3106973252
 20
49.255099897
 30
0.0
 11
80.3155971086
 21
49.255099897
 31
0.0
  0
LINE
  5
1EC
330
1F
100
AcDbEntity
  8
SLD-0
  6
Continuous
370
    15
100
AcDbLine
 10
80.3155971086
 20
49.4051000308
 30
0.0
 11
80.3106973252
 21
49.4051000308
 31
0.0
  0
LINE
  5
1ED
330
1F
100
AcDbEntity
  8
SLD-0
  6
Continuous
370
    15
100
AcDbLine
 10
80.3155971086
 20
50.643100236
 30
0.0
 11
80.3155971086
 21
49.4051000308
 31
0.0
  0
LINE
  5
1EE
330
1F
100
AcDbEntity
  8
SLD-0
  6
Continuous
370
    15
100
AcDbLine
 10
80.3106973252
 20
50.643100236
 30
0.0
 11
80.3155971086
 21
50.643100236
 31
0.0
  0
LINE
  5
1EF
330
1F
100
AcDbEntity
  8
SLD-0
  6
Continuous
370
    15
100
AcDbLine
 10
80.9865975704
 20
50.8300998358
 30
0.0
 11
80.3106973252
 21
50.8300998358
 31
0.0
  0
LINE
  5
1F0
330
1F
100
AcDbEntity
  8
SLD-0
  6
Continuous
370
    15
100
AcDbLine
 10
80.9865975704
 20
40.4535002405
 30
0.0
 11
80.9865975704
 21
50.8300998358
 31
0.0
  0
LINE
  5
1F1
330
1F
100
AcDbEntity
  8
SLD-0
  6
Continuous
370
    15
100
AcDbLine
 10
80.9865975704
 20
40.4535002405
 30
0.0
 11
80.3106973252
 21
40.4535002405
 31
0.0
  0
LINE
  5
1F2
330
1F
100
AcDbEntity
  8
SLD-0
  6
Continuous
370
    15
100
AcDbLine
 10
80.3106973252
 20
40.6404998402
 30
0.0
 11
80.3155971086
 21
40.6404998402
 31
0.0
  0
LINE
  5
1F3
330
1F
100
AcDbEntity
  8
SLD-0
  6
Continuous
370
    15
100
AcDbLine
 10
80.3155971086
 20
40.6404998402
 30
0.0
 11
80.3155971086
 21
41.8785000454
 31
0.0
  0
LINE
  5
1F4
330
1F
100
AcDbEntity
  8
SLD-0
  6
Continuous
370
    15
100
AcDbLine
 10
80.3155971086
 20
41.8785000454
 30
0.0
 11
80.3106973252
 21
41.8785000454
 31
0.0
  0
LINE
  5
1F5
330
1F
100
AcDbEntity
  8
SLD-0
  6
Continuous
370
    15
100
AcDbLine
 10
80.3106973252
 20
42.0285001793
 30
0.0
 11
80.3155971086
 21
42.0285001793
 31
0.0
  0
LINE
  5
1F6
330
1F
100
AcDbEntity
  8
SLD-0
  6
Continuous
370
    15
100
AcDbLine
 10
80.3155971086
 20
42.0285001793
 30
0.0
 11
80.3155971086
 21
43.8285000255
 31
0.0
  0
LINE
  5
1F7
330
1F
100
AcDbEntity
  8
SLD-0
  6
Continuous
370
    15
100
AcDbLine
 10
80.3155971086
 20
43.8285000255
 30
0.0
 11
80.3106973252
 21
43.8285000255
 31
0.0
  0
LINE
  5
1F8
330
1F
100
AcDbEntity
  8
SLD-0
  6
Continuous
370
    15
100
AcDbLine
 10
80.3106973252
 20
43.9785000127
 30
0.0
 11
80.3155971086
 21
43.9785000127
 31
0.0
  0
LINE
  5
1F9
330
1F
100
AcDbEntity
  8
SLD-0
  6
Continuous
370
    15
100
AcDbLine
 10
80.3155971086
 20
43.9785000127
 30
0.0
 11
80.3155971086
 21
47.3051000635
 31
0.0
  0
LINE
  5
1FA
330
1F
100
AcDbEntity
  8
SLD-0
  6
Continuous
370
    15
100
AcDbLine
 10
80.3106973252
 20
47.3051000635
 30
0.0
 11
80.3155971086
 21
47.3051000635
 31
0.0
  0
LINE
  5
1FB
330
1F
100
AcDbEntity
  8
SLD-0
  6
Continuous
370
    15
100
AcDbLine
 10
78.5564974298
 20
51.5303001203
 30
0.0
 11
30.6684972494
 21
51.5303001203
 31
0.0
  0
LINE
  5
1FC
330
1F
100
AcDbEntity
  8
SLD-0
  6
Continuous
370
    15
100
AcDbLine
 10
78.5564974298
 20
51.5062001321
 30
0.0
 11
78.5564974298
 21
51.5303001203
 31
0.0
  0
LINE
  5
1FD
330
1F
100
AcDbEntity
  8
SLD-0
  6
Continuous
370
    15
100
AcDbLine
 10
30.6684972494
 20
51.5062001321
 30
0.0
 11
30.6684972494
 21
51.5303001203
 31
0.0
  0
LINE
  5
1FE
330
1F
100
AcDbEntity
  8
SLD-0
  6
Continuous
370
    15
100
AcDbLine
 10
78.5564974298
 20
39.7532999559
 30
0.0
 11
30.6684972494
 21
39.7532999559
 31
0.0
  0
LINE
  5
1FF
330
1F
100
AcDbEntity
  8
SLD-0
  6
Continuous
370
    15
100
AcDbLine
 10
78.5564974298
 20
39.7773999442
 30
0.0
 11
78.5564974298
 21
39.7532999559
 31
0.0
  0
LINE
  5
200
330
1F
100
AcDbEntity
  8
SLD-0
  6
Continuous
370
    15
100
AcDbLine
 10
30.6684972494
 20
39.7773999442
 30
0.0
 11
30.6684972494
 21
39.7532999559
 31
0.0
  0
LINE
  5
201
330
1F
100
AcDbEntity
  8
SLD-0
  6
Continuous
370
    15
100
AcDbLine
 10
78.5564974298
 20
51.9901998209
 30
0.0
 11
30.6684972494
 21
51.9901998209
 31
0.0
  0
LINE
  5
202
330
1F
100
AcDbEntity
  8
SLD-0
  6
Continuous
370
    15
100
AcDbLine
 10
78.5564974298
 20
51.5303001203
 30
0.0
 11
78.5564974298
 21
51.9901998209
 31
0.0
  0
LINE
  5
203
330
1F
100
AcDbEntity
  8
SLD-0
  6
Continuous
370
    15
100
AcDbLine
 10
30.6684972494
 20
51.5303001203
 30
0.0
 11
30.6684972494
 21
51.9901998209
 31
0.0
  0
LINE
  5
204
330
1F
100
AcDbEntity
  8
SLD-0
  6
Continuous
370
    15
100
AcDbLine
 10
78.5564974298
 20
39.2934002554
 30
0.0
 11
30.6684972494
 21
39.2934002554
 31
0.0
  0
LINE
  5
205
330
1F
100
AcDbEntity
  8
SLD-0
  6
Continuous
370
    15
100
AcDbLine
 10
78.5564974298
 20
39.7532999559
 30
0.0
 11
78.5564974298
 21
39.2934002554
 31
0.0
  0
LINE
  5
206
330
1F
100
AcDbEntity
  8
SLD-0
  6
Continuous
370
    15
100
AcDbLine
 10
30.6684972494
 20
39.7532999559
 30
0.0
 11
30.6684972494
 21
39.2934002554
 31
0.0
  0
LINE
  5
207
330
1F
100
AcDbEntity
  8
SLD-0
  6
Continuous
370
    15
100
AcDbLine
 10
30.6104977061
 20
52.00614993
 30
0.0
 11
30.6484968405
 21
52.00614993
 31
0.0
  0
LINE
  5
208
330
1F
100
AcDbEntity
  8
SLD-0
  6
Continuous
370
    15
100
AcDbLine
 10
30.6484968405
 20
52.00614993
 30
0.0
 11
30.6484968405
 21
51.5062001321
 31
0.0
  0
LINE
  5
209
330
1F
100
AcDbEntity
  8
SLD-0
  6
Continuous
370
    15
100
AcDbLine
 10
30.6104977061
 20
52.00614993
 30
0.0
 11
30.6104977061
 21
51.5062001321
 31
0.0
  0
LINE
  5
20A
330
1F
100
AcDbEntity
  8
SLD-0
  6
Continuous
370
    15
100
AcDbLine
 10
30.6104977061
 20
39.2774501463
 30
0.0
 11
30.6484968405
 21
39.2774501463
 31
0.0
  0
LINE
  5
20B
330
1F
100
AcDbEntity
  8
SLD-0
  6
Continuous
370
    15
100
AcDbLine
 10
30.6484968405
 20
39.2774501463
 30
0.0
 11
30.6484968405
 21
39.7773999442
 31
0.0
  0
LINE
  5
20C
330
1F
100
AcDbEntity
  8
SLD-0
  6
Continuous
370
    15
100
AcDbLine
 10
30.6104977061
 20
39.2774501463
 30
0.0
 11
30.6104977061
 21
39.7773999442
 31
0.0
  0
LINE
  5
20D
330
1F
100
AcDbEntity
  8
SLD-0
  6
Continuous
370
    15
100
AcDbLine
 10
78.6144969731
 20
52.00614993
 30
0.0
 11
78.5764978388
 21
52.00614993
 31
0.0
  0
LINE
  5
20E
330
1F
100
AcDbEntity
  8
SLD-0
  6
Continuous
370
    15
100
AcDbLine
 10
78.6144969731
 20
52.00614993
 30
0.0
 11
78.6144969731
 21
51.5062001321
 31
0.0
  0
LINE
  5
20F
330
1F
100
AcDbEntity
  8
SLD-0
  6
Continuous
370
    15
100
AcDbLine
 10
78.5764978388
 20
52.00614993
 30
0.0
 11
78.5764978388
 21
51.5062001321
 31
0.0
  0
LINE
  5
210
330
1F
100
AcDbEntity
  8
SLD-0
  6
Continuous
370
    15
100
AcDbLine
 10
78.6144969731
 20
39.2774501463
 30
0.0
 11
78.5764978388
 21
39.2774501463
 31
0.0
  0
LINE
  5
211
330
1F
100
AcDbEntity
  8
SLD-0
  6
Continuous
370
    15
100
AcDbLine
 10
78.6144969731
 20
39.2774501463
 30
0.0
 11
78.6144969731
 21
39.7773999442
 31
0.0
  0
LINE
  5
212
330
1F
100
AcDbEntity
  8
SLD-0
  6
Continuous
370
    15
100
AcDbLine
 10
78.5764978388
 20
39.2774501463
 30
0.0
 11
78.5764978388
 21
39.7773999442
 31
0.0
  0
LINE
  5
213
330
1F
100
AcDbEntity
  8
SLD-0
  6
Continuous
370
    15
100
AcDbLine
 10
29.0473729368
 20
51.4782000289
 30
0.0
 11
29.0473729368
 21
51.5062001321
 31
0.0
  0
LINE
  5
214
330
1F
100
AcDbEntity
  8
SLD-0
  6
Continuous
370
    15
100
AcDbLine
 10
30.5686219232
 20
51.5062001321
 30
0.0
 11
29.0473729368
 21
51.5062001321
 31
0.0
  0
LINE
  5
215
330
1F
100
AcDbEntity
  8
SLD-0
  6
Continuous
370
    15
100
AcDbLine
 10
30.5686219232
 20
51.5062001321
 30
0.0
 11
30.5686219232
 21
51.4782000289
 31
0.0
  0
LINE
  5
216
330
1F
100
AcDbEntity
  8
SLD-0
  6
Continuous
370
    15
100
AcDbLine
 10
30.5686219232
 20
51.4782000289
 30
0.0
 11
29.0473729368
 21
51.4782000289
 31
0.0
  0
LINE
  5
217
330
1F
100
AcDbEntity
  8
SLD-0
  6
Continuous
370
    15
100
AcDbLine
 10
30.5736226121
 20
51.470199748
 30
0.0
 11
30.5736226121
 21
51.4731999266
 31
0.0
  0
LINE
  5
218
330
1F
100
AcDbEntity
  8
SLD-0
  6
Continuous
370
    15
100
AcDbLine
 10
29.0143721447
 20
39.8104001496
 30
0.0
 11
29.0423722479
 21
39.8104001496
 31
0.0
  0
LINE
  5
219
330
1F
100
AcDbEntity
  8
SLD-0
  6
Continuous
370
    15
100
AcDbLine
 10
29.0143721447
 20
39.8104001496
 30
0.0
 11
29.0143721447
 21
39.8134003283
 31
0.0
  0
LINE
  5
21A
330
1F
100
AcDbEntity
  8
SLD-0
  6
Continuous
370
    15
100
AcDbLine
 10
29.0143721447
 20
51.470199748
 30
0.0
 11
29.0143721447
 21
51.4731999266
 31
0.0
  0
LINE
  5
21B
330
1F
100
AcDbEntity
  8
SLD-0
  6
Continuous
370
    15
100
AcDbLine
 10
29.0143721447
 20
51.4731999266
 30
0.0
 11
29.0423722479
 21
51.4731999266
 31
0.0
  0
LINE
  5
21C
330
1F
100
AcDbEntity
  8
SLD-0
  6
Continuous
370
    15
100
AcDbLine
 10
29.0423722479
 20
39.8104001496
 30
0.0
 11
29.0423722479
 21
39.8134003283
 31
0.0
  0
LINE
  5
21D
330
1F
100
AcDbEntity
  8
SLD-0
  6
Continuous
370
    15
100
AcDbLine
 10
29.0423722479
 20
51.470199748
 30
0.0
 11
29.0423722479
 21
51.4731999266
 31
0.0
  0
ARC
  5
21E
330
1F
100
AcDbEntity
  8
SLD-0
  6
Continuous
370
    15
100
AcDbCircle
 10
30.5686223396
 20
51.4732000381
 30
0.0
 40
0.0330000000000013
100
AcDbArc
 50
41.0804302839
 51
90.0
  0
ARC
  5
21F
330
1F
100
AcDbEntity
  8
SLD-0
  6
Continuous
370
    15
100
AcDbCircle
 10
30.5686223396
 20
51.4732000381
 30
0.0
 40
0.004999999999999
100
AcDbArc
 50
0.0
 51
90.0
  0
ARC
  5
220
330
1F
100
AcDbEntity
  8
SLD-0
  6
Continuous
370
    15
100
AcDbCircle
 10
29.0473723396
 20
51.4732000381
 30
0.0
 40
0.0330000000000013
100
AcDbArc
 50
90.0
 51
180.0
  0
ARC
  5
221
330
1F
100
AcDbEntity
  8
SLD-0
  6
Continuous
370
    15
100
AcDbCircle
 10
29.0473723396
 20
51.4732000381
 30
0.0
 40
0.004999999999999
100
AcDbArc
 50
90.0
 51
180.0
  0
LINE
  5
222
330
1F
100
AcDbEntity
  8
SLD-0
  6
Continuous
370
    15
100
AcDbLine
 10
30.5736226121
 20
39.8134003283
 30
0.0
 11
30.5736226121
 21
39.8104001496
 31
0.0
  0
ARC
  5
223
330
1F
100
AcDbEntity
  8
SLD-0
  6
Continuous
370
    15
100
AcDbCircle
 10
30.5686223396
 20
39.8104000381
 30
0.0
 40
0.0330000000000013
100
AcDbArc
 50
270.0
 51
318.9195697161
  0
LINE
  5
224
330
1F
100
AcDbEntity
  8
SLD-0
  6
Continuous
370
    15
100
AcDbLine
 10
30.5686219232
 20
39.7773999442
 30
0.0
 11
30.5686219232
 21
39.8054000474
 31
0.0
  0
ARC
  5
225
330
1F
100
AcDbEntity
  8
SLD-0
  6
Continuous
370
    15
100
AcDbCircle
 10
30.5686223396
 20
39.8104000381
 30
0.0
 40
0.0050000000000026
100
AcDbArc
 50
270.0
 51
0.0000000001
  0
LINE
  5
226
330
1F
100
AcDbEntity
  8
SLD-0
  6
Continuous
370
    15
100
AcDbLine
 10
30.5686219232
 20
39.7773999442
 30
0.0
 11
29.0473729368
 21
39.7773999442
 31
0.0
  0
LINE
  5
227
330
1F
100
AcDbEntity
  8
SLD-0
  6
Continuous
370
    15
100
AcDbLine
 10
29.0473729368
 20
39.8054000474
 30
0.0
 11
29.0473729368
 21
39.7773999442
 31
0.0
  0
LINE
  5
228
330
1F
100
AcDbEntity
  8
SLD-0
  6
Continuous
370
    15
100
AcDbLine
 10
30.5686219232
 20
39.8054000474
 30
0.0
 11
29.0473729368
 21
39.8054000474
 31
0.0
  0
ARC
  5
229
330
1F
100
AcDbEntity
  8
SLD-0
  6
Continuous
370
    15
100
AcDbCircle
 10
29.0473723396
 20
39.8104000381
 30
0.0
 40
0.0050000000000026
100
AcDbArc
 50
180.0
 51
270.0
  0
ARC
  5
22A
330
1F
100
AcDbEntity
  8
SLD-0
  6
Continuous
370
    15
100
AcDbCircle
 10
29.0473723396
 20
39.8104000381
 30
0.0
 40
0.0330000000000013
100
AcDbArc
 50
180.0
 51
270.0
  0
ARC
  5
22B
330
1F
100
AcDbEntity
  8
SLD-0
  6
Continuous
370
    15
100
AcDbCircle
 10
78.6563723396
 20
51.4732000381
 30
0.0
 40
0.0330000000000013
100
AcDbArc
 50
90.0
 51
138.9195697161
  0
LINE
  5
22C
330
1F
100
AcDbEntity
  8
SLD-0
  6
Continuous
370
    15
100
AcDbLine
 10
78.6563727561
 20
51.5062001321
 30
0.0
 11
78.6563727561
 21
51.4782000289
 31
0.0
  0
ARC
  5
22D
330
1F
100
AcDbEntity
  8
SLD-0
  6
Continuous
370
    15
100
AcDbCircle
 10
78.6563723396
 20
51.4732000381
 30
0.0
 40
0.0049999999999955
100
AcDbArc
 50
90.0
 51
180.0
  0
LINE
  5
22E
330
1F
100
AcDbEntity
  8
SLD-0
  6
Continuous
370
    15
100
AcDbLine
 10
80.2106225346
 20
51.4731999266
 30
0.0
 11
80.1826224314
 21
51.4731999266
 31
0.0
  0
LINE
  5
22F
330
1F
100
AcDbEntity
  8
SLD-0
  6
Continuous
370
    15
100
AcDbLine
 10
80.2106225346
 20
39.8104001496
 30
0.0
 11
80.1826224314
 21
39.8104001496
 31
0.0
  0
LINE
  5
230
330
1F
100
AcDbEntity
  8
SLD-0
  6
Continuous
370
    15
100
AcDbLine
 10
80.1826224314
 20
51.4731999266
 30
0.0
 11
80.1826224314
 21
51.470199748
 31
0.0
  0
LINE
  5
231
330
1F
100
AcDbEntity
  8
SLD-0
  6
Continuous
370
    15
100
AcDbLine
 10
80.1826224314
 20
39.8134003283
 30
0.0
 11
80.1826224314
 21
39.8104001496
 31
0.0
  0
LINE
  5
232
330
1F
100
AcDbEntity
  8
SLD-0
  6
Continuous
370
    15
100
AcDbLine
 10
80.2106225346
 20
51.4731999266
 30
0.0
 11
80.2106225346
 21
51.470199748
 31
0.0
  0
LINE
  5
233
330
1F
100
AcDbEntity
  8
SLD-0
  6
Continuous
370
    15
100
AcDbLine
 10
80.2106225346
 20
39.8134003283
 30
0.0
 11
80.2106225346
 21
39.8104001496
 31
0.0
  0
LINE
  5
234
330
1F
100
AcDbEntity
  8
SLD-0
  6
Continuous
370
    15
100
AcDbLine
 10
78.6513720672
 20
51.470199748
 30
0.0
 11
78.6513720672
 21
51.4731999266
 31
0.0
  0
LINE
  5
235
330
1F
100
AcDbEntity
  8
SLD-0
  6
Continuous
370
    15
100
AcDbLine
 10
80.1776217425
 20
51.4782000289
 30
0.0
 11
80.1776217425
 21
51.5062001321
 31
0.0
  0
LINE
  5
236
330
1F
100
AcDbEntity
  8
SLD-0
  6
Continuous
370
    15
100
AcDbLine
 10
78.6563727561
 20
51.5062001321
 30
0.0
 11
80.1776217425
 21
51.5062001321
 31
0.0
  0
LINE
  5
237
330
1F
100
AcDbEntity
  8
SLD-0
  6
Continuous
370
    15
100
AcDbLine
 10
78.6563727561
 20
51.4782000289
 30
0.0
 11
80.1776217425
 21
51.4782000289
 31
0.0
  0
ARC
  5
238
330
1F
100
AcDbEntity
  8
SLD-0
  6
Continuous
370
    15
100
AcDbCircle
 10
80.1776223396
 20
51.4732000381
 30
0.0
 40
0.0330000000000013
100
AcDbArc
 50
0.0
 51
90.0
  0
ARC
  5
239
330
1F
100
AcDbEntity
  8
SLD-0
  6
Continuous
370
    15
100
AcDbCircle
 10
80.1776223396
 20
51.4732000381
 30
0.0
 40
0.0049999999999955
100
AcDbArc
 50
0.0
 51
90.0
  0
LINE
  5
23A
330
1F
100
AcDbEntity
  8
SLD-0
  6
Continuous
370
    15
100
AcDbLine
 10
78.6513720672
 20
39.8134003283
 30
0.0
 11
78.6513720672
 21
39.8104001496
 31
0.0
  0
ARC
  5
23B
330
1F
100
AcDbEntity
  8
SLD-0
  6
Continuous
370
    15
100
AcDbCircle
 10
80.1776223396
 20
39.8104000381
 30
0.0
 40
0.0050000000000026
100
AcDbArc
 50
270.0
 51
0.0
  0
LINE
  5
23C
330
1F
100
AcDbEntity
  8
SLD-0
  6
Continuous
370
    15
100
AcDbLine
 10
80.1776217425
 20
39.8054000474
 30
0.0
 11
80.1776217425
 21
39.7773999442
 31
0.0
  0
ARC
  5
23D
330
1F
100
AcDbEntity
  8
SLD-0
  6
Continuous
370
    15
100
AcDbCircle
 10
80.1776223396
 20
39.8104000381
 30
0.0
 40
0.0330000000000013
100
AcDbArc
 50
270.0
 51
0.0
  0
LINE
  5
23E
330
1F
100
AcDbEntity
  8
SLD-0
  6
Continuous
370
    15
100
AcDbLine
 10
78.6563727561
 20
39.7773999442
 30
0.0
 11
80.1776217425
 21
39.7773999442
 31
0.0
  0
LINE
  5
23F
330
1F
100
AcDbEntity
  8
SLD-0
  6
Continuous
370
    15
100
AcDbLine
 10
78.6563727561
 20
39.7773999442
 30
0.0
 11
78.6563727561
 21
39.8054000474
 31
0.0
  0
LINE
  5
240
330
1F
100
AcDbEntity
  8
SLD-0
  6
Continuous
370
    15
100
AcDbLine
 10
78.6563727561
 20
39.8054000474
 30
0.0
 11
80.1776217425
 21
39.8054000474
 31
0.0
  0
ARC
  5
241
330
1F
100
AcDbEntity
  8
SLD-0
  6
Continuous
370
    15
100
AcDbCircle
 10
78.6563723396
 20
39.8104000381
 30
0.0
 40
0.0330000000000013
100
AcDbArc
 50
221.0804302839
 51
270.0
  0
ARC
  5
242
330
1F
100
AcDbEntity
  8
SLD-0
  6
Continuous
370
    15
100
AcDbCircle
 10
78.6563723396
 20
39.8104000381
 30
0.0
 40
0.0050000000000026
100
AcDbArc
 50
179.9999999999
 51
270.0
  0
LINE
  5
243
330
1F
100
AcDbEntity
  8
SLD-0
  6
Continuous
370
    15
100
AcDbLine
 10
78.5384963578
 20
51.9905500568
 30
0.0
 11
78.5384963578
 21
51.9901998209
 31
0.0
  0
LINE
  5
244
330
1F
100
AcDbEntity
  8
SLD-0
  6
Continuous
370
    15
100
AcDbLine
 10
30.6864983215
 20
51.9901998209
 30
0.0
 11
30.6864983215
 21
51.9905500568
 31
0.0
  0
LINE
  5
245
330
1F
100
AcDbEntity
  8
SLD-0
  6
Continuous
370
    15
100
AcDbLine
 10
30.6864983215
 20
51.9905500568
 30
0.0
 11
78.5384963578
 21
51.9905500568
 31
0.0
  0
LINE
  5
246
330
1F
100
AcDbEntity
  8
SLD-0
  6
Continuous
370
    15
100
AcDbLine
 10
78.5384963578
 20
39.2934002554
 30
0.0
 11
78.5384963578
 21
39.2930500194
 31
0.0
  0
LINE
  5
247
330
1F
100
AcDbEntity
  8
SLD-0
  6
Continuous
370
    15
100
AcDbLine
 10
30.6864983215
 20
39.2930500194
 30
0.0
 11
78.5384963578
 21
39.2930500194
 31
0.0
  0
LINE
  5
248
330
1F
100
AcDbEntity
  8
SLD-0
  6
Continuous
370
    15
100
AcDbLine
 10
30.6864983215
 20
39.2930500194
 30
0.0
 11
30.6864983215
 21
39.2934002554
 31
0.0
  0
LINE
  5
249
330
1F
100
AcDbEntity
  8
SLD-0
  6
Continuous
370
    15
100
AcDbLine
 10
80.2865973369
 20
40.6417998786
 30
0.0
 11
80.3131988429
 21
40.6417998786
 31
0.0
  0
LINE
  5
24A
330
1F
100
AcDbEntity
  8
SLD-0
  6
Continuous
370
    15
100
AcDbLine
 10
80.3131988429
 20
40.6417998786
 30
0.0
 11
80.3131988429
 21
41.6418000865
 31
0.0
  0
LINE
  5
24B
330
1F
100
AcDbEntity
  8
SLD-0
  6
Continuous
370
    15
100
AcDbLine
 10
80.3131988429
 20
41.6418000865
 30
0.0
 11
80.2865973369
 21
41.6418000865
 31
0.0
  0
LINE
  5
24C
330
1F
100
AcDbEntity
  8
SLD-0
  6
Continuous
370
    15
100
AcDbLine
 10
80.2865973369
 20
41.7668000025
 30
0.0
 11
80.3131988429
 21
41.7668000025
 31
0.0
  0
LINE
  5
24D
330
1F
100
AcDbEntity
  8
SLD-0
  6
Continuous
370
    15
100
AcDbLine
 10
80.3131988429
 20
41.7668000025
 30
0.0
 11
80.3131988429
 21
41.8785000454
 31
0.0
  0
LINE
  5
24E
330
1F
100
AcDbEntity
  8
SLD-0
  6
Continuous
370
    15
100
AcDbLine
 10
80.3131988429
 20
42.0285001793
 30
0.0
 11
80.3131988429
 21
42.766799917
 31
0.0
  0
LINE
  5
24F
330
1F
100
AcDbEntity
  8
SLD-0
  6
Continuous
370
    15
100
AcDbLine
 10
80.3131988429
 20
42.766799917
 30
0.0
 11
80.2865973369
 21
42.766799917
 31
0.0
  0
LINE
  5
250
330
1F
100
AcDbEntity
  8
SLD-0
  6
Continuous
370
    15
100
AcDbLine
 10
80.2865973369
 20
42.8918001264
 30
0.0
 11
80.3131988429
 21
42.8918001264
 31
0.0
  0
LINE
  5
251
330
1F
100
AcDbEntity
  8
SLD-0
  6
Continuous
370
    15
100
AcDbLine
 10
80.3131988429
 20
42.8918001264
 30
0.0
 11
80.3131988429
 21
43.8285000255
 31
0.0
  0
LINE
  5
252
330
1F
100
AcDbEntity
  8
SLD-0
  6
Continuous
370
    15
100
AcDbLine
 10
80.2865973369
 20
44.0168001036
 30
0.0
 11
80.3131988429
 21
44.0168001036
 31
0.0
  0
LINE
  5
253
330
1F
100
AcDbEntity
  8
SLD-0
  6
Continuous
370
    15
100
AcDbLine
 10
80.3131988429
 20
44.0168001036
 30
0.0
 11
80.3131988429
 21
45.0168000182
 31
0.0
  0
LINE
  5
254
330
1F
100
AcDbEntity
  8
SLD-0
  6
Continuous
370
    15
100
AcDbLine
 10
80.3131988429
 20
45.0168000182
 30
0.0
 11
80.2865973369
 21
45.0168000182
 31
0.0
  0
LINE
  5
255
330
1F
100
AcDbEntity
  8
SLD-0
  6
Continuous
370
    15
100
AcDbLine
 10
80.2865973369
 20
45.1418000442
 30
0.0
 11
80.3131988429
 21
45.1418000442
 31
0.0
  0
LINE
  5
256
330
1F
100
AcDbEntity
  8
SLD-0
  6
Continuous
370
    15
100
AcDbLine
 10
80.3131988429
 20
45.1418000442
 30
0.0
 11
80.3131988429
 21
46.1418000321
 31
0.0
  0
LINE
  5
257
330
1F
100
AcDbEntity
  8
SLD-0
  6
Continuous
370
    15
100
AcDbLine
 10
80.3131988429
 20
46.1418000321
 30
0.0
 11
80.2865973369
 21
46.1418000321
 31
0.0
  0
LINE
  5
258
330
1F
100
AcDbEntity
  8
SLD-0
  6
Continuous
370
    15
100
AcDbLine
 10
80.2865973369
 20
46.2668000581
 30
0.0
 11
80.3131988429
 21
46.2668000581
 31
0.0
  0
LINE
  5
259
330
1F
100
AcDbEntity
  8
SLD-0
  6
Continuous
370
    15
100
AcDbLine
 10
80.3131988429
 20
46.2668000581
 30
0.0
 11
80.3131988429
 21
47.2667999727
 31
0.0
  0
LINE
  5
25A
330
1F
100
AcDbEntity
  8
SLD-0
  6
Continuous
370
    15
100
AcDbLine
 10
80.3131988429
 20
47.2667999727
 30
0.0
 11
80.2865973369
 21
47.2667999727
 31
0.0
  0
LINE
  5
25B
330
1F
100
AcDbEntity
  8
SLD-0
  6
Continuous
370
    15
100
AcDbLine
 10
80.3131988429
 20
47.4551000507
 30
0.0
 11
80.3131988429
 21
48.3917999499
 31
0.0
  0
LINE
  5
25C
330
1F
100
AcDbEntity
  8
SLD-0
  6
Continuous
370
    15
100
AcDbLine
 10
80.3131988429
 20
48.3917999499
 30
0.0
 11
80.2865973369
 21
48.3917999499
 31
0.0
  0
LINE
  5
25D
330
1F
100
AcDbEntity
  8
SLD-0
  6
Continuous
370
    15
100
AcDbLine
 10
80.2865973369
 20
48.5168001592
 30
0.0
 11
80.3131988429
 21
48.5168001592
 31
0.0
  0
LINE
  5
25E
330
1F
100
AcDbEntity
  8
SLD-0
  6
Continuous
370
    15
100
AcDbLine
 10
80.3131988429
 20
48.5168001592
 30
0.0
 11
80.3131988429
 21
49.255099897
 31
0.0
  0
LINE
  5
25F
330
1F
100
AcDbEntity
  8
SLD-0
  6
Continuous
370
    15
100
AcDbLine
 10
80.3131988429
 20
49.4051000308
 30
0.0
 11
80.3131988429
 21
49.5168000738
 31
0.0
  0
LINE
  5
260
330
1F
100
AcDbEntity
  8
SLD-0
  6
Continuous
370
    15
100
AcDbLine
 10
80.3131988429
 20
49.5168000738
 30
0.0
 11
80.2865973369
 21
49.5168000738
 31
0.0
  0
LINE
  5
261
330
1F
100
AcDbEntity
  8
SLD-0
  6
Continuous
370
    15
100
AcDbLine
 10
80.2865973369
 20
49.6417999898
 30
0.0
 11
80.3131988429
 21
49.6417999898
 31
0.0
  0
LINE
  5
262
330
1F
100
AcDbEntity
  8
SLD-0
  6
Continuous
370
    15
100
AcDbLine
 10
80.3131988429
 20
49.6417999898
 30
0.0
 11
80.3131988429
 21
50.6418001977
 31
0.0
  0
LINE
  5
263
330
1F
100
AcDbEntity
  8
SLD-0
  6
Continuous
370
    15
100
AcDbLine
 10
80.3131988429
 20
50.6418001977
 30
0.0
 11
80.2865973369
 21
50.6418001977
 31
0.0
  0
LINE
  5
264
330
1F
100
AcDbEntity
  8
SLD-0
  6
Continuous
370
    15
100
AcDbLine
 10
28.9383973423
 20
50.6418001977
 30
0.0
 11
28.9117958363
 21
50.6418001977
 31
0.0
  0
LINE
  5
265
330
1F
100
AcDbEntity
  8
SLD-0
  6
Continuous
370
    15
100
AcDbLine
 10
28.9117958363
 20
50.6418001977
 30
0.0
 11
28.9117958363
 21
49.6417999898
 31
0.0
  0
LINE
  5
266
330
1F
100
AcDbEntity
  8
SLD-0
  6
Continuous
370
    15
100
AcDbLine
 10
28.9117958363
 20
49.6417999898
 30
0.0
 11
28.9383973423
 21
49.6417999898
 31
0.0
  0
LINE
  5
267
330
1F
100
AcDbEntity
  8
SLD-0
  6
Continuous
370
    15
100
AcDbLine
 10
28.9383973423
 20
49.5168000738
 30
0.0
 11
28.9117958363
 21
49.5168000738
 31
0.0
  0
LINE
  5
268
330
1F
100
AcDbEntity
  8
SLD-0
  6
Continuous
370
    15
100
AcDbLine
 10
28.9117958363
 20
49.5168000738
 30
0.0
 11
28.9117958363
 21
49.4051000308
 31
0.0
  0
LINE
  5
269
330
1F
100
AcDbEntity
  8
SLD-0
  6
Continuous
370
    15
100
AcDbLine
 10
28.9117958363
 20
49.255099897
 30
0.0
 11
28.9117958363
 21
48.5168001592
 31
0.0
  0
LINE
  5
26A
330
1F
100
AcDbEntity
  8
SLD-0
  6
Continuous
370
    15
100
AcDbLine
 10
28.9117958363
 20
48.5168001592
 30
0.0
 11
28.9383973423
 21
48.5168001592
 31
0.0
  0
LINE
  5
26B
330
1F
100
AcDbEntity
  8
SLD-0
  6
Continuous
370
    15
100
AcDbLine
 10
28.9383973423
 20
48.3917999499
 30
0.0
 11
28.9117958363
 21
48.3917999499
 31
0.0
  0
LINE
  5
26C
330
1F
100
AcDbEntity
  8
SLD-0
  6
Continuous
370
    15
100
AcDbLine
 10
28.9117958363
 20
48.3917999499
 30
0.0
 11
28.9117958363
 21
47.4551000507
 31
0.0
  0
LINE
  5
26D
330
1F
100
AcDbEntity
  8
SLD-0
  6
Continuous
370
    15
100
AcDbLine
 10
28.9383973423
 20
47.2667999727
 30
0.0
 11
28.9117958363
 21
47.2667999727
 31
0.0
  0
LINE
  5
26E
330
1F
100
AcDbEntity
  8
SLD-0
  6
Continuous
370
    15
100
AcDbLine
 10
28.9117958363
 20
47.2667999727
 30
0.0
 11
28.9117958363
 21
46.2668000581
 31
0.0
  0
LINE
  5
26F
330
1F
100
AcDbEntity
  8
SLD-0
  6
Continuous
370
    15
100
AcDbLine
 10
28.9117958363
 20
46.2668000581
 30
0.0
 11
28.9383973423
 21
46.2668000581
 31
0.0
  0
LINE
  5
270
330
1F
100
AcDbEntity
  8
SLD-0
  6
Continuous
370
    15
100
AcDbLine
 10
28.9383973423
 20
46.1418000321
 30
0.0
 11
28.9117958363
 21
46.1418000321
 31
0.0
  0
LINE
  5
271
330
1F
100
AcDbEntity
  8
SLD-0
  6
Continuous
370
    15
100
AcDbLine
 10
28.9117958363
 20
46.1418000321
 30
0.0
 11
28.9117958363
 21
45.1418000442
 31
0.0
  0
LINE
  5
272
330
1F
100
AcDbEntity
  8
SLD-0
  6
Continuous
370
    15
100
AcDbLine
 10
28.9117958363
 20
45.1418000442
 30
0.0
 11
28.9383973423
 21
45.1418000442
 31
0.0
  0
LINE
  5
273
330
1F
100
AcDbEntity
  8
SLD-0
  6
Continuous
370
    15
100
AcDbLine
 10
28.9383973423
 20
45.0168000182
 30
0.0
 11
28.9117958363
 21
45.0168000182
 31
0.0
  0
LINE
  5
274
330
1F
100
AcDbEntity
  8
SLD-0
  6
Continuous
370
    15
100
AcDbLine
 10
28.9117958363
 20
45.0168000182
 30
0.0
 11
28.9117958363
 21
44.0168001036
 31
0.0
  0
LINE
  5
275
330
1F
100
AcDbEntity
  8
SLD-0
  6
Continuous
370
    15
100
AcDbLine
 10
28.9117958363
 20
44.0168001036
 30
0.0
 11
28.9383973423
 21
44.0168001036
 31
0.0
  0
LINE
  5
276
330
1F
100
AcDbEntity
  8
SLD-0
  6
Continuous
370
    15
100
AcDbLine
 10
28.9117958363
 20
43.8285000255
 30
0.0
 11
28.9117958363
 21
42.8918001264
 31
0.0
  0
LINE
  5
277
330
1F
100
AcDbEntity
  8
SLD-0
  6
Continuous
370
    15
100
AcDbLine
 10
28.9117958363
 20
42.8918001264
 30
0.0
 11
28.9383973423
 21
42.8918001264
 31
0.0
  0
LINE
  5
278
330
1F
100
AcDbEntity
  8
SLD-0
  6
Continuous
370
    15
100
AcDbLine
 10
28.9383973423
 20
42.766799917
 30
0.0
 11
28.9117958363
 21
42.766799917
 31
0.0
  0
LINE
  5
279
330
1F
100
AcDbEntity
  8
SLD-0
  6
Continuous
370
    15
100
AcDbLine
 10
28.9117958363
 20
42.766799917
 30
0.0
 11
28.9117958363
 21
42.0285001793
 31
0.0
  0
LINE
  5
27A
330
1F
100
AcDbEntity
  8
SLD-0
  6
Continuous
370
    15
100
AcDbLine
 10
28.9117958363
 20
41.8785000454
 30
0.0
 11
28.9117958363
 21
41.7668000025
 31
0.0
  0
LINE
  5
27B
330
1F
100
AcDbEntity
  8
SLD-0
  6
Continuous
370
    15
100
AcDbLine
 10
28.9117958363
 20
41.7668000025
 30
0.0
 11
28.9383973423
 21
41.7668000025
 31
0.0
  0
LINE
  5
27C
330
1F
100
AcDbEntity
  8
SLD-0
  6
Continuous
370
    15
100
AcDbLine
 10
28.9383973423
 20
41.6418000865
 30
0.0
 11
28.9117958363
 21
41.6418000865
 31
0.0
  0
LINE
  5
27D
330
1F
100
AcDbEntity
  8
SLD-0
  6
Continuous
370
    15
100
AcDbLine
 10
28.9117958363
 20
41.6418000865
 30
0.0
 11
28.9117958363
 21
40.6417998786
 31
0.0
  0
LINE
  5
27E
330
1F
100
AcDbEntity
  8
SLD-0
  6
Continuous
370
    15
100
AcDbLine
 10
28.9117958363
 20
40.6417998786
 30
0.0
 11
28.9383973423
 21
40.6417998786
 31
0.0
  0
LINE
  5
27F
330
1F
100
AcDbEntity
  8
SLD-0
  6
Continuous
370
    15
100
AcDbLine
 10
29.1185230482
 20
51.470199748
 30
0.0
 11
29.1214962405
 21
51.4731752869
 31
0.0
  0
LINE
  5
280
330
1F
100
AcDbEntity
  8
SLD-0
  6
Continuous
370
    15
100
AcDbLine
 10
30.5736226121
 20
51.4731752869
 30
0.0
 11
29.1214962405
 21
51.4731752869
 31
0.0
  0
LINE
  5
281
330
1F
100
AcDbEntity
  8
SLD-0
  6
Continuous
370
    15
100
AcDbLine
 10
80.1034984387
 20
51.4731752869
 30
0.0
 11
78.6513720672
 21
51.4731752869
 31
0.0
  0
LINE
  5
282
330
1F
100
AcDbEntity
  8
SLD-0
  6
Continuous
370
    15
100
AcDbLine
 10
80.1034984387
 20
51.4731752869
 30
0.0
 11
80.1064716311
 21
51.470199748
 31
0.0
  0
LINE
  5
283
330
1F
100
AcDbEntity
  8
SLD-0
  6
Continuous
370
    15
100
AcDbLine
 10
80.1064716311
 20
39.8134003283
 30
0.0
 11
80.1034984387
 21
39.8104247893
 31
0.0
  0
LINE
  5
284
330
1F
100
AcDbEntity
  8
SLD-0
  6
Continuous
370
    15
100
AcDbLine
 10
78.6513720672
 20
39.8104247893
 30
0.0
 11
80.1034984387
 21
39.8104247893
 31
0.0
  0
LINE
  5
285
330
1F
100
AcDbEntity
  8
SLD-0
  6
Continuous
370
    15
100
AcDbLine
 10
29.1214962405
 20
39.8104247893
 30
0.0
 11
30.5736226121
 21
39.8104247893
 31
0.0
  0
LINE
  5
286
330
1F
100
AcDbEntity
  8
SLD-0
  6
Continuous
370
    15
100
AcDbLine
 10
29.1214962405
 20
39.8104247893
 30
0.0
 11
29.1185230482
 21
39.8134003283
 31
0.0
  0
LINE
  5
287
330
1F
100
AcDbEntity
  8
SLD-0
  6
Continuous
370
    15
100
AcDbLine
 10
30.5736226121
 20
51.4731999266
 30
0.0
 11
30.5934963025
 21
51.4731999266
 31
0.0
  0
LINE
  5
288
330
1F
100
AcDbEntity
  8
SLD-0
  6
Continuous
370
    15
100
AcDbLine
 10
30.5736226121
 20
39.8104001496
 30
0.0
 11
30.5934963025
 21
39.8104001496
 31
0.0
  0
LINE
  5
289
330
1F
100
AcDbEntity
  8
SLD-0
  6
Continuous
370
    15
100
AcDbLine
 10
78.6513720672
 20
51.4731999266
 30
0.0
 11
78.6314983767
 21
51.4731999266
 31
0.0
  0
LINE
  5
28A
330
1F
100
AcDbEntity
  8
SLD-0
  6
Continuous
370
    15
100
AcDbLine
 10
78.6513720672
 20
39.8104001496
 30
0.0
 11
78.6314983767
 21
39.8104001496
 31
0.0
  0
DIMENSION
  5
28B
330
1F
100
AcDbEntity
  8
DIM
100
AcDbDimension
  2
_D_5
 10
28.2383973396
 20
56.0061500381
 30
0.0
 11
24.2383973396
 21
56.0061500381
 31
0.0
 70
   160
  1
<>
 71
     2
 42
-1.0
  3
SLDDIMSTYLE1
100
AcDbAlignedDimension
 13
28.9894973396
 23
51.4702000381
 33
0.0
 14
28.2383973396
 24
50.8301000381
 34
0.0
100
AcDbRotatedDimension
  0
DIMENSION
  5
29A
330
1F
100
AcDbEntity
  8
DIM
100
AcDbDimension
  2
_D_6
 10
80.2865973396
 20
56.0061500381
 30
0.0
 11
54.6124973396
 21
56.0061500381
 31
0.0
 70
   160
  1
<>
 71
     2
 42
-1.0
  3
SLDDIMSTYLE0
100
AcDbAlignedDimension
 13
28.9383973396
 23
51.4551000381
 33
0.0
 14
80.2865973396
 24
51.4551000381
 34
0.0
100
AcDbRotatedDimension
  0
DIMENSION
  5
2A9
330
1F
100
AcDbEntity
  8
DIM
100
AcDbDimension
  2
_D_7
 10
80.9865973396
 20
56.0061500381
 30
0.0
 11
85.8267114097
 21
56.0061500381
 31
0.0
 70
   160
  1
<>
 71
     2
 42
-1.0
  3
SLDDIMSTYLE1
100
AcDbAlignedDimension
 13
80.2354973396
 23
51.4702000381
 33
0.0
 14
80.9865973396
 24
50.8301000381
 34
0.0
100
AcDbRotatedDimension
  0
DIMENSION
  5
2B7
330
1F
100
AcDbEntity
  8
DIM
100
AcDbDimension
  2
_D_8
 10
84.9865973396
 20
51.5062000381
 30
0.0
 11
84.9865973396
 21
45.6418000381
 31
0.0
 70
   160
  1
<>
 71
     2
 42
-1.0
  3
SLDDIMSTYLE0
100
AcDbAlignedDimension
 13
80.1776223396
 23
39.7774000381
 33
0.0
 14
80.1776223396
 24
51.5062000381
 34
0.0
 50
90.0
100
AcDbRotatedDimension
  0
LINE
  5
2C6
330
1F
100
AcDbEntity
  8
SLD-0
  6
Continuous
370
    15
100
AcDbLine
 10
95.1760532479
 20
15.0521355639
 30
0.0
 11
96.6760531198
 21
15.0521355639
 31
0.0
  0
LINE
  5
2C7
330
1F
100
AcDbEntity
  8
SLD-0
  6
Continuous
370
    15
100
AcDbLine
 10
95.1760532479
 20
15.7527124841
 30
0.0
 11
95.1760532479
 21
15.0521355639
 31
0.0
  0
LINE
  5
2C8
330
1F
100
AcDbEntity
  8
SLD-0
  6
Continuous
370
    15
100
AcDbLine
 10
95.1760532479
 20
15.7527124841
 30
0.0
 11
96.6760531198
 21
15.7527124841
 31
0.0
  0
LINE
  5
2C9
330
1F
100
AcDbEntity
  8
SLD-0
  6
Continuous
370
    15
100
AcDbLine
 10
96.6760531198
 20
15.7527124841
 30
0.0
 11
96.6760531198
 21
15.0521355639
 31
0.0
  0
LINE
  5
2CA
330
1F
100
AcDbEntity
  8
SLD-0
  6
Continuous
370
    15
100
AcDbLine
 10
95.1760532479
 20
15.8055834467
 30
0.0
 11
95.1760532479
 21
15.7527124841
 31
0.0
  0
LINE
  5
2CB
330
1F
100
AcDbEntity
  8
SLD-0
  6
Continuous
370
    15
100
AcDbLine
 10
95.1760532479
 20
15.8055834467
 30
0.0
 11
96.6760531198
 21
15.8055834467
 31
0.0
  0
LINE
  5
2CC
330
1F
100
AcDbEntity
  8
SLD-0
  6
Continuous
370
    15
100
AcDbLine
 10
96.6760531198
 20
15.8055834467
 30
0.0
 11
96.6760531198
 21
15.7527124841
 31
0.0
  0
LINE
  5
2CD
330
1F
100
AcDbEntity
  8
SLD-0
  6
Continuous
370
    15
100
AcDbLine
 10
95.1760532479
 20
15.8198750682
 30
0.0
 11
95.1760532479
 21
15.8055834467
 31
0.0
  0
LINE
  5
2CE
330
1F
100
AcDbEntity
  8
SLD-0
  6
Continuous
370
    15
100
AcDbLine
 10
96.6760531198
 20
15.8198750682
 30
0.0
 11
96.6760531198
 21
15.8055834467
 31
0.0
  0
LINE
  5
2CF
330
1F
100
AcDbEntity
  8
SLD-0
  6
Continuous
370
    15
100
AcDbLine
 10
105.1826033314
 20
15.0521355639
 30
0.0
 11
106.6826032033
 21
15.0521355639
 31
0.0
  0
LINE
  5
2D0
330
1F
100
AcDbEntity
  8
SLD-0
  6
Continuous
370
    15
100
AcDbLine
 10
105.1826033314
 20
15.7527124841
 30
0.0
 11
105.1826033314
 21
15.0521355639
 31
0.0
  0
LINE
  5
2D1
330
1F
100
AcDbEntity
  8
SLD-0
  6
Continuous
370
    15
100
AcDbLine
 10
105.1826033314
 20
15.7527124841
 30
0.0
 11
106.6826032033
 21
15.7527124841
 31
0.0
  0
LINE
  5
2D2
330
1F
100
AcDbEntity
  8
SLD-0
  6
Continuous
370
    15
100
AcDbLine
 10
106.6826032033
 20
15.7527124841
 30
0.0
 11
106.6826032033
 21
15.0521355639
 31
0.0
  0
LINE
  5
2D3
330
1F
100
AcDbEntity
  8
SLD-0
  6
Continuous
370
    15
100
AcDbLine
 10
105.1826033314
 20
15.8055834467
 30
0.0
 11
105.1826033314
 21
15.7527124841
 31
0.0
  0
LINE
  5
2D4
330
1F
100
AcDbEntity
  8
SLD-0
  6
Continuous
370
    15
100
AcDbLine
 10
105.1826033314
 20
15.8055834467
 30
0.0
 11
106.6826032033
 21
15.8055834467
 31
0.0
  0
LINE
  5
2D5
330
1F
100
AcDbEntity
  8
SLD-0
  6
Continuous
370
    15
100
AcDbLine
 10
106.6826032033
 20
15.8055834467
 30
0.0
 11
106.6826032033
 21
15.7527124841
 31
0.0
  0
LINE
  5
2D6
330
1F
100
AcDbEntity
  8
SLD-0
  6
Continuous
370
    15
100
AcDbLine
 10
105.1826033314
 20
15.8198750682
 30
0.0
 11
105.1826033314
 21
15.8055834467
 31
0.0
  0
LINE
  5
2D7
330
1F
100
AcDbEntity
  8
SLD-0
  6
Continuous
370
    15
100
AcDbLine
 10
106.6826032033
 20
15.8198750682
 30
0.0
 11
106.6826032033
 21
15.8055834467
 31
0.0
  0
LINE
  5
2D8
330
1F
100
AcDbEntity
  8
SLD-0
  6
Continuous
370
    15
100
AcDbLine
 10
95.7410284279
 20
27.6440555943
 30
0.0
 11
106.1176280232
 21
27.6440555943
 31
0.0
  0
LINE
  5
2D9
330
1F
100
AcDbEntity
  8
SLD-0
  6
Continuous
370
    15
100
AcDbLine
 10
106.1176280232
 20
27.6170551595
 30
0.0
 11
106.1176280232
 21
27.6440555943
 31
0.0
  0
LINE
  5
2DA
330
1F
100
AcDbEntity
  8
SLD-0
  6
Continuous
370
    15
100
AcDbLine
 10
95.7410284279
 20
27.6170551595
 30
0.0
 11
106.1176280232
 21
27.6170551595
 31
0.0
  0
LINE
  5
2DB
330
1F
100
AcDbEntity
  8
SLD-0
  6
Continuous
370
    15
100
AcDbLine
 10
95.7410284279
 20
27.6170551595
 30
0.0
 11
95.7410284279
 21
27.6440555943
 31
0.0
  0
LINE
  5
2DC
330
1F
100
AcDbEntity
  8
SLD-0
  6
Continuous
370
    15
100
AcDbLine
 10
105.9306284235
 20
27.6681555826
 30
0.0
 11
106.1176280232
 21
27.6681555826
 31
0.0
  0
LINE
  5
2DD
330
1F
100
AcDbEntity
  8
SLD-0
  6
Continuous
370
    15
100
AcDbLine
 10
106.1176280232
 20
27.6681555826
 30
0.0
 11
106.1176280232
 21
27.6440555943
 31
0.0
  0
LINE
  5
2DE
330
1F
100
AcDbEntity
  8
SLD-0
  6
Continuous
370
    15
100
AcDbLine
 10
105.9306284235
 20
27.6440555943
 30
0.0
 11
105.9306284235
 21
27.6681555826
 31
0.0
  0
LINE
  5
2DF
330
1F
100
AcDbEntity
  8
SLD-0
  6
Continuous
370
    15
100
AcDbLine
 10
104.5426280844
 20
27.6681555826
 30
0.0
 11
104.6926282183
 21
27.6681555826
 31
0.0
  0
LINE
  5
2E0
330
1F
100
AcDbEntity
  8
SLD-0
  6
Continuous
370
    15
100
AcDbLine
 10
104.6926282183
 20
27.6681555826
 30
0.0
 11
104.6926282183
 21
27.6440555943
 31
0.0
  0
LINE
  5
2E1
330
1F
100
AcDbEntity
  8
SLD-0
  6
Continuous
370
    15
100
AcDbLine
 10
104.5426280844
 20
27.6440555943
 30
0.0
 11
104.5426280844
 21
27.6681555826
 31
0.0
  0
LINE
  5
2E2
330
1F
100
AcDbEntity
  8
SLD-0
  6
Continuous
370
    15
100
AcDbLine
 10
102.592628251
 20
27.6440555943
 30
0.0
 11
102.592628251
 21
27.6681555826
 31
0.0
  0
LINE
  5
2E3
330
1F
100
AcDbEntity
  8
SLD-0
  6
Continuous
370
    15
100
AcDbLine
 10
102.592628251
 20
27.6681555826
 30
0.0
 11
102.7426282382
 21
27.6681555826
 31
0.0
  0
LINE
  5
2E4
330
1F
100
AcDbEntity
  8
SLD-0
  6
Continuous
370
    15
100
AcDbLine
 10
102.7426282382
 20
27.6681555826
 30
0.0
 11
102.7426282382
 21
27.6440555943
 31
0.0
  0
LINE
  5
2E5
330
1F
100
AcDbEntity
  8
SLD-0
  6
Continuous
370
    15
100
AcDbLine
 10
99.2660282002
 20
27.6681555826
 30
0.0
 11
99.116028213
 21
27.6681555826
 31
0.0
  0
LINE
  5
2E6
330
1F
100
AcDbEntity
  8
SLD-0
  6
Continuous
370
    15
100
AcDbLine
 10
99.2660282002
 20
27.6440555943
 30
0.0
 11
99.2660282002
 21
27.6681555826
 31
0.0
  0
LINE
  5
2E7
330
1F
100
AcDbEntity
  8
SLD-0
  6
Continuous
370
    15
100
AcDbLine
 10
99.116028213
 20
27.6681555826
 30
0.0
 11
99.116028213
 21
27.6440555943
 31
0.0
  0
LINE
  5
2E8
330
1F
100
AcDbEntity
  8
SLD-0
  6
Continuous
370
    15
100
AcDbLine
 10
97.3160283667
 20
27.6681555826
 30
0.0
 11
97.1660282329
 21
27.6681555826
 31
0.0
  0
LINE
  5
2E9
330
1F
100
AcDbEntity
  8
SLD-0
  6
Continuous
370
    15
100
AcDbLine
 10
97.3160283667
 20
27.6440555943
 30
0.0
 11
97.3160283667
 21
27.6681555826
 31
0.0
  0
LINE
  5
2EA
330
1F
100
AcDbEntity
  8
SLD-0
  6
Continuous
370
    15
100
AcDbLine
 10
97.1660282329
 20
27.6681555826
 30
0.0
 11
97.1660282329
 21
27.6440555943
 31
0.0
  0
LINE
  5
2EB
330
1F
100
AcDbEntity
  8
SLD-0
  6
Continuous
370
    15
100
AcDbLine
 10
95.9280280277
 20
27.6681555826
 30
0.0
 11
95.7410284279
 21
27.6681555826
 31
0.0
  0
LINE
  5
2EC
330
1F
100
AcDbEntity
  8
SLD-0
  6
Continuous
370
    15
100
AcDbLine
 10
95.9280280277
 20
27.6440555943
 30
0.0
 11
95.9280280277
 21
27.6681555826
 31
0.0
  0
LINE
  5
2ED
330
1F
100
AcDbEntity
  8
SLD-0
  6
Continuous
370
    15
100
AcDbLine
 10
95.7410284279
 20
27.6681555826
 30
0.0
 11
95.7410284279
 21
27.6440555943
 31
0.0
  0
LINE
  5
2EE
330
1F
100
AcDbEntity
  8
SLD-0
  6
Continuous
370
    15
100
AcDbLine
 10
99.116028213
 20
27.6681555826
 30
0.0
 11
99.116028213
 21
27.7066756709
 31
0.0
  0
LINE
  5
2EF
330
1F
100
AcDbEntity
  8
SLD-0
  6
Continuous
370
    15
100
AcDbLine
 10
99.116028213
 20
27.7066756709
 30
0.0
 11
97.3160283667
 21
27.7066756709
 31
0.0
  0
LINE
  5
2F0
330
1F
100
AcDbEntity
  8
SLD-0
  6
Continuous
370
    15
100
AcDbLine
 10
97.3160283667
 20
27.7066756709
 30
0.0
 11
97.3160283667
 21
27.6681555826
 31
0.0
  0
LINE
  5
2F1
330
1F
100
AcDbEntity
  8
SLD-0
  6
Continuous
370
    15
100
AcDbLine
 10
97.1660282329
 20
27.6681555826
 30
0.0
 11
97.1660282329
 21
27.7066756709
 31
0.0
  0
LINE
  5
2F2
330
1F
100
AcDbEntity
  8
SLD-0
  6
Continuous
370
    15
100
AcDbLine
 10
97.1660282329
 20
27.7066756709
 30
0.0
 11
95.9280280277
 21
27.7066756709
 31
0.0
  0
LINE
  5
2F3
330
1F
100
AcDbEntity
  8
SLD-0
  6
Continuous
370
    15
100
AcDbLine
 10
95.9280280277
 20
27.7066756709
 30
0.0
 11
95.9280280277
 21
27.6681555826
 31
0.0
  0
LINE
  5
2F4
330
1F
100
AcDbEntity
  8
SLD-0
  6
Continuous
370
    15
100
AcDbLine
 10
95.7410284279
 20
27.6681555826
 30
0.0
 11
95.7410284279
 21
27.6716755419
 31
0.0
  0
LINE
  5
2F5
330
1F
100
AcDbEntity
  8
SLD-0
  6
Continuous
370
    15
100
AcDbLine
 10
95.7410284279
 20
27.6716755419
 30
0.0
 11
95.116027968
 21
27.6716755419
 31
0.0
  0
LINE
  5
2F6
330
1F
100
AcDbEntity
  8
SLD-0
  6
Continuous
370
    15
100
AcDbLine
 10
95.116027968
 20
27.6716755419
 30
0.0
 11
95.116027968
 21
28.2840569476
 31
0.0
  0
LINE
  5
2F7
330
1F
100
AcDbEntity
  8
SLD-0
  6
Continuous
370
    15
100
AcDbLine
 10
106.7426284832
 20
28.2840569476
 30
0.0
 11
95.116027968
 21
28.2840569476
 31
0.0
  0
LINE
  5
2F8
330
1F
100
AcDbEntity
  8
SLD-0
  6
Continuous
370
    15
100
AcDbLine
 10
106.7426284832
 20
27.6716755419
 30
0.0
 11
106.7426284832
 21
28.2840569476
 31
0.0
  0
LINE
  5
2F9
330
1F
100
AcDbEntity
  8
SLD-0
  6
Continuous
370
    15
100
AcDbLine
 10
106.1176280232
 20
27.6681555826
 30
0.0
 11
106.1176280232
 21
27.6716755419
 31
0.0
  0
LINE
  5
2FA
330
1F
100
AcDbEntity
  8
SLD-0
  6
Continuous
370
    15
100
AcDbLine
 10
105.9306284235
 20
27.7066756709
 30
0.0
 11
105.9306284235
 21
27.6681555826
 31
0.0
  0
LINE
  5
2FB
330
1F
100
AcDbEntity
  8
SLD-0
  6
Continuous
370
    15
100
AcDbLine
 10
104.6926282183
 20
27.7066756709
 30
0.0
 11
105.9306284235
 21
27.7066756709
 31
0.0
  0
LINE
  5
2FC
330
1F
100
AcDbEntity
  8
SLD-0
  6
Continuous
370
    15
100
AcDbLine
 10
104.6926282183
 20
27.6681555826
 30
0.0
 11
104.6926282183
 21
27.7066756709
 31
0.0
  0
LINE
  5
2FD
330
1F
100
AcDbEntity
  8
SLD-0
  6
Continuous
370
    15
100
AcDbLine
 10
104.5426280844
 20
27.7066756709
 30
0.0
 11
104.5426280844
 21
27.6681555826
 31
0.0
  0
LINE
  5
2FE
330
1F
100
AcDbEntity
  8
SLD-0
  6
Continuous
370
    15
100
AcDbLine
 10
102.7426282382
 20
27.7066756709
 30
0.0
 11
104.5426280844
 21
27.7066756709
 31
0.0
  0
LINE
  5
2FF
330
1F
100
AcDbEntity
  8
SLD-0
  6
Continuous
370
    15
100
AcDbLine
 10
102.7426282382
 20
27.6681555826
 30
0.0
 11
102.7426282382
 21
27.7066756709
 31
0.0
  0
LINE
  5
300
330
1F
100
AcDbEntity
  8
SLD-0
  6
Continuous
370
    15
100
AcDbLine
 10
102.592628251
 20
27.7066756709
 30
0.0
 11
102.592628251
 21
27.6681555826
 31
0.0
  0
LINE
  5
301
330
1F
100
AcDbEntity
  8
SLD-0
  6
Continuous
370
    15
100
AcDbLine
 10
102.592628251
 20
27.7066756709
 30
0.0
 11
99.2660282002
 21
27.7066756709
 31
0.0
  0
LINE
  5
302
330
1F
100
AcDbEntity
  8
SLD-0
  6
Continuous
370
    15
100
AcDbLine
 10
99.2660282002
 20
27.7066756709
 30
0.0
 11
99.2660282002
 21
27.6681555826
 31
0.0
  0
LINE
  5
303
330
1F
100
AcDbEntity
  8
SLD-0
  6
Continuous
370
    15
100
AcDbLine
 10
106.1176280232
 20
27.6716755419
 30
0.0
 11
106.7426284832
 21
27.6716755419
 31
0.0
  0
LINE
  5
304
330
1F
100
AcDbEntity
  8
SLD-0
  6
Continuous
370
    15
100
AcDbLine
 10
106.7426284832
 20
28.2840569476
 30
0.0
 11
106.7426284832
 21
28.3351573706
 31
0.0
  0
LINE
  5
305
330
1F
100
AcDbEntity
  8
SLD-0
  6
Continuous
370
    15
100
AcDbLine
 10
95.116027968
 20
28.2840569476
 30
0.0
 11
95.116027968
 21
28.3351573706
 31
0.0
  0
LINE
  5
306
330
1F
100
AcDbEntity
  8
SLD-0
  6
Continuous
370
    15
100
AcDbLine
 10
95.116027968
 20
28.3351573706
 30
0.0
 11
106.7426284832
 21
28.3351573706
 31
0.0
  0
LINE
  5
307
330
1F
100
AcDbEntity
  8
SLD-0
  6
Continuous
370
    15
100
AcDbLine
 10
106.7577279354
 20
28.3328740903
 30
0.0
 11
106.7497499476
 21
28.3070798283
 31
0.0
  0
ARC
  5
308
330
1F
100
AcDbEntity
  8
SLD-0
  6
Continuous
370
    15
100
AcDbCircle
 10
106.7426282256
 20
28.2840562695
 30
0.0
 40
0.0241000000000063
100
AcDbArc
 50
72.8125367085
 51
90.0
  0
ARC
  5
309
330
1F
100
AcDbEntity
  8
SLD-0
  6
Continuous
370
    15
100
AcDbCircle
 10
106.7426282256
 20
28.2840562695
 30
0.0
 40
0.0511000000000053
100
AcDbArc
 50
72.8125367085
 51
90.0
  0
ARC
  5
30A
330
1F
100
AcDbEntity
  8
SLD-0
  6
Continuous
370
    15
100
AcDbCircle
 10
95.1160282256
 20
28.2840562695
 30
0.0
 40
0.0241000000000042
100
AcDbArc
 50
90.0
 51
107.1874632914
  0
LINE
  5
30B
330
1F
100
AcDbEntity
  8
SLD-0
  6
Continuous
370
    15
100
AcDbLine
 10
95.1009285158
 20
28.3328740903
 30
0.0
 11
95.1089065036
 21
28.3070798283
 31
0.0
  0
ARC
  5
30C
330
1F
100
AcDbEntity
  8
SLD-0
  6
Continuous
370
    15
100
AcDbCircle
 10
95.1160282256
 20
28.2840562695
 30
0.0
 40
0.0511000000000053
100
AcDbArc
 50
90.0
 51
107.1874632915
  0
LINE
  5
30D
330
1F
100
AcDbEntity
  8
SLD-0
  6
Continuous
370
    15
100
AcDbLine
 10
106.7667284714
 20
28.2840569476
 30
0.0
 11
106.7937283195
 21
28.2840569476
 31
0.0
  0
LINE
  5
30E
330
1F
100
AcDbEntity
  8
SLD-0
  6
Continuous
370
    15
100
AcDbLine
 10
106.7937283195
 20
28.2840569476
 30
0.0
 11
106.7937283195
 21
28.2769067369
 31
0.0
  0
LINE
  5
30F
330
1F
100
AcDbEntity
  8
SLD-0
  6
Continuous
370
    15
100
AcDbLine
 10
106.7667284714
 20
28.2840569476
 30
0.0
 11
106.7667284714
 21
28.2769067369
 31
0.0
  0
ARC
  5
310
330
1F
100
AcDbEntity
  8
SLD-0
  6
Continuous
370
    15
100
AcDbCircle
 10
106.7426282256
 20
28.2840562695
 30
0.0
 40
0.0241000000000063
100
AcDbArc
 50
0.0
 51
72.8125367085
  0
ARC
  5
311
330
1F
100
AcDbEntity
  8
SLD-0
  6
Continuous
370
    15
100
AcDbCircle
 10
106.7426282256
 20
28.2840562695
 30
0.0
 40
0.0511000000000053
100
AcDbArc
 50
0.0
 51
72.8125367085
  0
LINE
  5
312
330
1F
100
AcDbEntity
  8
SLD-0
  6
Continuous
370
    15
100
AcDbLine
 10
95.0919279797
 20
28.2840569476
 30
0.0
 11
95.0649281316
 21
28.2840569476
 31
0.0
  0
ARC
  5
313
330
1F
100
AcDbEntity
  8
SLD-0
  6
Continuous
370
    15
100
AcDbCircle
 10
95.1160282256
 20
28.2840562695
 30
0.0
 40
0.0241000000000021
100
AcDbArc
 50
107.1874632914
 51
180.0
  0
ARC
  5
314
330
1F
100
AcDbEntity
  8
SLD-0
  6
Continuous
370
    15
100
AcDbCircle
 10
95.1160282256
 20
28.2840562695
 30
0.0
 40
0.0511000000000039
100
AcDbArc
 50
107.1874632915
 51
180.0
  0
LINE
  5
315
330
1F
100
AcDbEntity
  8
SLD-0
  6
Continuous
370
    15
100
AcDbLine
 10
95.0649281316
 20
28.2840569476
 30
0.0
 11
95.0649281316
 21
28.2769067369
 31
0.0
  0
LINE
  5
316
330
1F
100
AcDbEntity
  8
SLD-0
  6
Continuous
370
    15
100
AcDbLine
 10
95.0919279797
 20
28.2840569476
 30
0.0
 11
95.0919279797
 21
28.2769067369
 31
0.0
  0
LWPOLYLINE
  5
317
330
1F
100
AcDbEntity
  8
SLD-0
  6
Continuous
370
    15
100
AcDbPolyline
 90
        3
 70
   128
 43
0.0
 10
106.7937283195
 20
25.77925623
 10
106.7941911942
 20
25.7745547376
 10
106.7942211138
 20
25.774405726
  0
LWPOLYLINE
  5
318
330
1F
100
AcDbEntity
  8
SLD-0
  6
Continuous
370
    15
100
AcDbPolyline
 90
        3
 70
   128
 43
0.0
 10
95.0649281316
 20
25.77925623
 10
95.064465257
 20
25.7745547376
 10
95.0644353373
 20
25.774405726
  0
LINE
  5
319
330
1F
100
AcDbEntity
  8
SLD-0
  6
Continuous
370
    15
100
AcDbLine
 10
107.2936781174
 20
25.774405726
 30
0.0
 11
106.7937283195
 21
25.774405726
 31
0.0
  0
LINE
  5
31A
330
1F
100
AcDbEntity
  8
SLD-0
  6
Continuous
370
    15
100
AcDbLine
 10
95.0649281316
 20
13.6654065169
 30
0.0
 11
94.5649783338
 21
13.6654065169
 31
0.0
  0
LINE
  5
31B
330
1F
100
AcDbEntity
  8
SLD-0
  6
Continuous
370
    15
100
AcDbLine
 10
94.5649783338
 20
25.774405726
 30
0.0
 11
94.5649783338
 21
13.6654065169
 31
0.0
  0
LINE
  5
31C
330
1F
100
AcDbEntity
  8
SLD-0
  6
Continuous
370
    15
100
AcDbLine
 10
94.5649783338
 20
25.774405726
 30
0.0
 11
95.0649281316
 21
25.774405726
 31
0.0
  0
LINE
  5
31D
330
1F
100
AcDbEntity
  8
SLD-0
  6
Continuous
370
    15
100
AcDbLine
 10
107.2936781174
 20
25.774405726
 30
0.0
 11
107.2936781174
 21
13.6654065169
 31
0.0
  0
LINE
  5
31E
330
1F
100
AcDbEntity
  8
SLD-0
  6
Continuous
370
    15
100
AcDbLine
 10
106.7937283195
 20
13.6654065169
 30
0.0
 11
107.2936781174
 21
13.6654065169
 31
0.0
  0
LINE
  5
31F
330
1F
100
AcDbEntity
  8
SLD-0
  6
Continuous
370
    15
100
AcDbLine
 10
104.9293281773
 20
6.2484062587
 30
0.0
 11
104.9293281773
 21
7.1244062695
 31
0.0
  0
LINE
  5
320
330
1F
100
AcDbEntity
  8
SLD-0
  6
Continuous
370
    15
100
AcDbLine
 10
96.9293282739
 20
6.2484062587
 30
0.0
 11
104.9293281773
 21
6.2484062587
 31
0.0
  0
LINE
  5
321
330
1F
100
AcDbEntity
  8
SLD-0
  6
Continuous
370
    15
100
AcDbLine
 10
96.9293282739
 20
7.1244062695
 30
0.0
 11
96.9293282739
 21
6.2484062587
 31
0.0
  0
LINE
  5
322
330
1F
100
AcDbEntity
  8
SLD-0
  6
Continuous
370
    15
100
AcDbLine
 10
96.9293282739
 20
7.1244062695
 30
0.0
 11
104.9293281773
 21
7.1244062695
 31
0.0
  0
LINE
  5
323
330
1F
100
AcDbEntity
  8
SLD-0
  6
Continuous
370
    15
100
AcDbLine
 10
96.9293282739
 20
7.1244062695
 30
0.0
 11
96.9293282739
 21
7.1864062695
 31
0.0
  0
LINE
  5
324
330
1F
100
AcDbEntity
  8
SLD-0
  6
Continuous
370
    15
100
AcDbLine
 10
104.9293281773
 20
7.1864062695
 30
0.0
 11
104.9293281773
 21
7.1244062695
 31
0.0
  0
LINE
  5
325
330
1F
100
AcDbEntity
  8
SLD-0
  6
Continuous
370
    15
100
AcDbLine
 10
96.6916782193
 20
15.8198750682
 30
0.0
 11
95.1604281484
 21
15.8198750682
 31
0.0
  0
LINE
  5
326
330
1F
100
AcDbEntity
  8
SLD-0
  6
Continuous
370
    15
100
AcDbLine
 10
95.1604281484
 20
15.8198750682
 30
0.0
 11
95.1604281484
 21
15.7573752569
 31
0.0
  0
LINE
  5
327
330
1F
100
AcDbEntity
  8
SLD-0
  6
Continuous
370
    15
100
AcDbLine
 10
95.1604281484
 20
15.7573752569
 30
0.0
 11
95.1760532479
 21
15.7573752569
 31
0.0
  0
LINE
  5
328
330
1F
100
AcDbEntity
  8
SLD-0
  6
Continuous
370
    15
100
AcDbLine
 10
96.6760531198
 20
15.7573752569
 30
0.0
 11
96.6916782193
 21
15.7573752569
 31
0.0
  0
LINE
  5
329
330
1F
100
AcDbEntity
  8
SLD-0
  6
Continuous
370
    15
100
AcDbLine
 10
96.6916782193
 20
15.7573752569
 30
0.0
 11
96.6916782193
 21
15.8198750682
 31
0.0
  0
LINE
  5
32A
330
1F
100
AcDbEntity
  8
SLD-0
  6
Continuous
370
    15
100
AcDbLine
 10
95.0979283371
 20
28.2769067369
 30
0.0
 11
95.0979283371
 21
7.2144062696
 31
0.0
  0
LINE
  5
32B
330
1F
100
AcDbEntity
  8
SLD-0
  6
Continuous
370
    15
100
AcDbLine
 10
106.7607281141
 20
28.2769067369
 30
0.0
 11
106.7607281141
 21
7.2144062696
 31
0.0
  0
LINE
  5
32C
330
1F
100
AcDbEntity
  8
SLD-0
  6
Continuous
370
    15
100
AcDbLine
 10
106.6982283028
 20
15.7573752569
 30
0.0
 11
106.6826032033
 21
15.7573752569
 31
0.0
  0
LINE
  5
32D
330
1F
100
AcDbEntity
  8
SLD-0
  6
Continuous
370
    15
100
AcDbLine
 10
105.1826033314
 20
15.7573752569
 30
0.0
 11
105.1669782319
 21
15.7573752569
 31
0.0
  0
LINE
  5
32E
330
1F
100
AcDbEntity
  8
SLD-0
  6
Continuous
370
    15
100
AcDbLine
 10
105.1669782319
 20
15.7573752569
 30
0.0
 11
105.1669782319
 21
15.8198750682
 31
0.0
  0
LINE
  5
32F
330
1F
100
AcDbEntity
  8
SLD-0
  6
Continuous
370
    15
100
AcDbLine
 10
100.7607282233
 20
7.9644062353
 30
0.0
 11
103.2607282664
 21
7.9644062353
 31
0.0
  0
LINE
  5
330
330
1F
100
AcDbEntity
  8
SLD-0
  6
Continuous
370
    15
100
AcDbLine
 10
103.2607282664
 20
7.9644062353
 30
0.0
 11
103.2607282664
 21
12.4644063642
 31
0.0
  0
LINE
  5
331
330
1F
100
AcDbEntity
  8
SLD-0
  6
Continuous
370
    15
100
AcDbLine
 10
103.2607282664
 20
12.4644063642
 30
0.0
 11
100.7607282233
 21
12.4644063642
 31
0.0
  0
LINE
  5
332
330
1F
100
AcDbEntity
  8
SLD-0
  6
Continuous
370
    15
100
AcDbLine
 10
100.7607282233
 20
12.4644063642
 30
0.0
 11
100.7607282233
 21
7.9644062353
 31
0.0
  0
CIRCLE
  5
333
330
1F
100
AcDbEntity
  8
SLD-0
  6
Continuous
370
    15
100
AcDbCircle
 10
99.0979282256
 20
9.7144062695
 30
0.0
 40
0.8749999999999858
  0
LINE
  5
334
330
1F
100
AcDbEntity
  8
SLD-0
  6
Continuous
370
    15
100
AcDbLine
 10
105.1669782319
 20
15.8198750682
 30
0.0
 11
106.6982283028
 21
15.8198750682
 31
0.0
  0
LINE
  5
335
330
1F
100
AcDbEntity
  8
SLD-0
  6
Continuous
370
    15
100
AcDbLine
 10
106.6982283028
 20
15.8198750682
 30
0.0
 11
106.6982283028
 21
15.7573752569
 31
0.0
  0
LINE
  5
336
330
1F
100
AcDbEntity
  8
SLD-0
  6
Continuous
370
    15
100
AcDbLine
 10
106.7607281141
 20
28.2769067369
 30
0.0
 11
106.7426284832
 21
28.2769067369
 31
0.0
  0
LINE
  5
337
330
1F
100
AcDbEntity
  8
SLD-0
  6
Continuous
370
    15
100
AcDbLine
 10
95.116027968
 20
28.2769067369
 30
0.0
 11
95.0979283371
 21
28.2769067369
 31
0.0
  0
LINE
  5
338
330
1F
100
AcDbEntity
  8
SLD-0
  6
Continuous
370
    15
100
AcDbLine
 10
106.7607281141
 20
7.2144062696
 30
0.0
 11
106.6535782052
 21
7.2144062696
 31
0.0
  0
LINE
  5
339
330
1F
100
AcDbEntity
  8
SLD-0
  6
Continuous
370
    15
100
AcDbLine
 10
95.2050782459
 20
7.2144062696
 30
0.0
 11
95.0979283371
 21
7.2144062696
 31
0.0
  0
LINE
  5
33A
330
1F
100
AcDbEntity
  8
SLD-0
  6
Continuous
370
    15
100
AcDbLine
 10
106.7937283195
 20
28.2769067369
 30
0.0
 11
106.7937283195
 21
7.2144062696
 31
0.0
  0
LINE
  5
33B
330
1F
100
AcDbEntity
  8
SLD-0
  6
Continuous
370
    15
100
AcDbLine
 10
106.7607281141
 20
7.2144062696
 30
0.0
 11
106.7937283195
 21
7.2144062696
 31
0.0
  0
LINE
  5
33C
330
1F
100
AcDbEntity
  8
SLD-0
  6
Continuous
370
    15
100
AcDbLine
 10
106.7937283195
 20
28.2769067369
 30
0.0
 11
106.7607281141
 21
28.2769067369
 31
0.0
  0
LINE
  5
33D
330
1F
100
AcDbEntity
  8
SLD-0
  6
Continuous
370
    15
100
AcDbLine
 10
95.0649281316
 20
28.2769067369
 30
0.0
 11
95.0649281316
 21
7.2144062696
 31
0.0
  0
LINE
  5
33E
330
1F
100
AcDbEntity
  8
SLD-0
  6
Continuous
370
    15
100
AcDbLine
 10
95.0649281316
 20
28.2769067369
 30
0.0
 11
95.0979283371
 21
28.2769067369
 31
0.0
  0
LINE
  5
33F
330
1F
100
AcDbEntity
  8
SLD-0
  6
Continuous
370
    15
100
AcDbLine
 10
95.0979283371
 20
7.2144062696
 30
0.0
 11
95.0649281316
 21
7.2144062696
 31
0.0
  0
LINE
  5
340
330
1F
100
AcDbEntity
  8
SLD-0
  6
Continuous
370
    15
100
AcDbLine
 10
105.399654584
 20
7.8444062749
 30
0.0
 11
105.399654584
 21
7.8724063048
 31
0.0
  0
LINE
  5
341
330
1F
100
AcDbEntity
  8
SLD-0
  6
Continuous
370
    15
100
AcDbLine
 10
106.1146548309
 20
7.8724063048
 30
0.0
 11
105.399654584
 21
7.8724063048
 31
0.0
  0
LINE
  5
342
330
1F
100
AcDbEntity
  8
SLD-0
  6
Continuous
370
    15
100
AcDbLine
 10
106.1146548309
 20
7.8724063048
 30
0.0
 11
106.1146548309
 21
7.8444062749
 31
0.0
  0
LINE
  5
343
330
1F
100
AcDbEntity
  8
SLD-0
  6
Continuous
370
    15
100
AcDbLine
 10
106.1146548309
 20
7.8444062749
 30
0.0
 11
105.399654584
 21
7.8444062749
 31
0.0
  0
LINE
  5
344
330
1F
100
AcDbEntity
  8
SLD-0
  6
Continuous
370
    15
100
AcDbLine
 10
95.7440016203
 20
7.8724063048
 30
0.0
 11
95.7440016203
 21
7.8444062749
 31
0.0
  0
LINE
  5
345
330
1F
100
AcDbEntity
  8
SLD-0
  6
Continuous
370
    15
100
AcDbLine
 10
96.4590018672
 20
7.8724063048
 30
0.0
 11
96.4590018672
 21
7.8444062749
 31
0.0
  0
LINE
  5
346
330
1F
100
AcDbEntity
  8
SLD-0
  6
Continuous
370
    15
100
AcDbLine
 10
96.4590018672
 20
7.8444062749
 30
0.0
 11
95.7440016203
 21
7.8444062749
 31
0.0
  0
LINE
  5
347
330
1F
100
AcDbEntity
  8
SLD-0
  6
Continuous
370
    15
100
AcDbLine
 10
96.4590018672
 20
7.8724063048
 30
0.0
 11
95.7440016203
 21
7.8724063048
 31
0.0
  0
LINE
  5
348
330
1F
100
AcDbEntity
  8
SLD-0
  6
Continuous
370
    15
100
AcDbLine
 10
96.4590018672
 20
7.8444062749
 30
0.0
 11
105.399654584
 21
7.8444062749
 31
0.0
  0
LINE
  5
349
330
1F
100
AcDbEntity
  8
SLD-0
  6
Continuous
370
    15
100
AcDbLine
 10
96.4590018672
 20
7.8724063048
 30
0.0
 11
105.399654584
 21
7.8724063048
 31
0.0
  0
LINE
  5
34A
330
1F
100
AcDbEntity
  8
SLD-0
  6
Continuous
370
    15
100
AcDbLine
 10
105.9293283852
 20
7.839406246
 30
0.0
 11
105.9293283852
 21
7.8444062749
 31
0.0
  0
SPLINE
  5
34B
330
1F
100
AcDbEntity
  8
SLD-0
  6
Continuous
370
    15
100
AcDbSpline
210
0.0
220
0.0
230
1.0
 70
     8
 71
     3
 72
    14
 73
    10
 74
     0
 42
0.00000001
 43
0.00000001
 12
1.0
 22
0.0
 32
0.0
 13
1.0
 23
0.0
 33
0.0
 40
0.0
 40
0.0
 40
0.0
 40
0.0
 40
0.25
 40
0.25
 40
0.5
 40
0.5
 40
0.75
 40
0.75
 40
1.0
 40
1.0
 40
1.0
 40
1.0
 10
106.1146545548122
 20
7.844406269481209
 30
0.0
 10
106.1164086493607
 20
7.844406269481214
 30
0.0
 10
106.1181626666087
 20
7.844276132864558
 30
0.0
 10
106.1216707784052
 20
7.843775201422991
 30
0.0
 10
106.1234248343035
 20
7.843404603693211
 30
0.0
 10
106.1269329461
 20
7.842479003081093
 30
0.0
 10
106.1286870019983
 20
7.841924364383072
 30
0.0
 10
106.1321951137948
 20
7.840715008903011
 30
0.0
 10
106.1339491310428
 20
7.840060782372431
 30
0.0
 10
106.1357032255913
 20
7.83940626948121
 30
0.0
  0
LINE
  5
34C
330
1F
100
AcDbEntity
  8
SLD-0
  6
Continuous
370
    15
100
AcDbLine
 10
105.9293283852
 20
7.839406246
 30
0.0
 11
106.1357030144
 21
7.839406246
 31
0.0
  0
SPLINE
  5
34D
330
1F
100
AcDbEntity
  8
SLD-0
  6
Continuous
370
    15
100
AcDbSpline
210
0.0
220
0.0
230
1.0
 70
     8
 71
     3
 72
    10
 73
     6
 74
     0
 42
0.00000001
 43
0.00000001
 12
1.0
 22
0.0
 32
0.0
 13
1.0
 23
0.0
 33
0.0
 40
0.0
 40
0.0
 40
0.0
 40
0.0
 40
0.5
 40
0.5
 40
1.0
 40
1.0
 40
1.0
 40
1.0
 10
106.1146545548122
 20
7.87240626948121
 30
0.0
 10
106.1181626666087
 20
7.872406269481256
 30
0.0
 10
106.1216707784052
 20
7.8688497573004
 30
0.0
 10
106.1286870019983
 20
7.856631829220455
 30
0.0
 10
106.1321951137948
 20
7.848045649278611
 30
0.0
 10
106.1357032255913
 20
7.83940626948121
 30
0.0
  0
SPLINE
  5
34E
330
1F
100
AcDbEntity
  8
SLD-0
  6
Continuous
370
    15
100
AcDbSpline
210
0.0
220
0.0
230
1.0
 70
     8
 71
     3
 72
    10
 73
     6
 74
     0
 42
0.00000001
 43
0.00000001
 12
1.0
 22
0.0
 32
0.0
 13
1.0
 23
0.0
 33
0.0
 40
0.0
 40
0.0
 40
0.0
 40
0.0
 40
0.5
 40
0.5
 40
1.0
 40
1.0
 40
1.0
 40
1.0
 10
95.72295322559128
 20
7.83940626948121
 30
0.0
 10
95.72646133738779
 20
7.848045649278611
 30
0.0
 10
95.7299694491843
 20
7.856631829220455
 30
0.0
 10
95.73698567277731
 20
7.8688497573004
 30
0.0
 10
95.74049378457381
 20
7.872406269481256
 30
0.0
 10
95.74400189637034
 20
7.87240626948121
 30
0.0
  0
LINE
  5
34F
330
1F
100
AcDbEntity
  8
SLD-0
  6
Continuous
370
    15
100
AcDbLine
 10
95.929328066
 20
7.8444062749
 30
0.0
 11
95.929328066
 21
7.839406246
 31
0.0
  0
LINE
  5
350
330
1F
100
AcDbEntity
  8
SLD-0
  6
Continuous
370
    15
100
AcDbLine
 10
95.7229534367
 20
7.839406246
 30
0.0
 11
95.929328066
 21
7.839406246
 31
0.0
  0
SPLINE
  5
351
330
1F
100
AcDbEntity
  8
SLD-0
  6
Continuous
370
    15
100
AcDbSpline
210
0.0
220
0.0
230
1.0
 70
     8
 71
     3
 72
    14
 73
    10
 74
     0
 42
0.00000001
 43
0.00000001
 12
1.0
 22
0.0
 32
0.0
 13
1.0
 23
0.0
 33
0.0
 40
0.0
 40
0.0
 40
0.0
 40
0.0
 40
0.25
 40
0.25
 40
0.5
 40
0.5
 40
0.75
 40
0.75
 40
1.0
 40
1.0
 40
1.0
 40
1.0
 10
95.72295322559128
 20
7.83940626948121
 30
0.0
 10
95.72470732013974
 20
7.840060782372429
 30
0.0
 10
95.72646133738779
 20
7.840715008903011
 30
0.0
 10
95.7299694491843
 20
7.841924364383072
 30
0.0
 10
95.73172350508256
 20
7.842479003081093
 30
0.0
 10
95.73523161687906
 20
7.843404603693211
 30
0.0
 10
95.73698567277731
 20
7.843775201422991
 30
0.0
 10
95.74049378457381
 20
7.844276132864558
 30
0.0
 10
95.74224780182186
 20
7.844406269481214
 30
0.0
 10
95.74400189637034
 20
7.844406269481209
 30
0.0
  0
LINE
  5
352
330
1F
100
AcDbEntity
  8
SLD-0
  6
Continuous
370
    15
100
AcDbLine
 10
104.8043282613
 20
7.839406246
 30
0.0
 11
104.9293281773
 21
7.839406246
 31
0.0
  0
LINE
  5
353
330
1F
100
AcDbEntity
  8
SLD-0
  6
Continuous
370
    15
100
AcDbLine
 10
104.9293281773
 20
7.8444062749
 30
0.0
 11
104.9293281773
 21
7.839406246
 31
0.0
  0
LINE
  5
354
330
1F
100
AcDbEntity
  8
SLD-0
  6
Continuous
370
    15
100
AcDbLine
 10
104.8043282613
 20
7.839406246
 30
0.0
 11
104.8043282613
 21
7.8444062749
 31
0.0
  0
LINE
  5
355
330
1F
100
AcDbEntity
  8
SLD-0
  6
Continuous
370
    15
100
AcDbLine
 10
103.6793281374
 20
7.839406246
 30
0.0
 11
103.8043283467
 21
7.839406246
 31
0.0
  0
LINE
  5
356
330
1F
100
AcDbEntity
  8
SLD-0
  6
Continuous
370
    15
100
AcDbLine
 10
103.6793281374
 20
7.839406246
 30
0.0
 11
103.6793281374
 21
7.8444062749
 31
0.0
  0
LINE
  5
357
330
1F
100
AcDbEntity
  8
SLD-0
  6
Continuous
370
    15
100
AcDbLine
 10
103.8043283467
 20
7.8444062749
 30
0.0
 11
103.8043283467
 21
7.839406246
 31
0.0
  0
LINE
  5
358
330
1F
100
AcDbEntity
  8
SLD-0
  6
Continuous
370
    15
100
AcDbLine
 10
102.5543281601
 20
7.839406246
 30
0.0
 11
102.6793282228
 21
7.839406246
 31
0.0
  0
LINE
  5
359
330
1F
100
AcDbEntity
  8
SLD-0
  6
Continuous
370
    15
100
AcDbLine
 10
102.6793282228
 20
7.8444062749
 30
0.0
 11
102.6793282228
 21
7.839406246
 31
0.0
  0
LINE
  5
35A
330
1F
100
AcDbEntity
  8
SLD-0
  6
Continuous
370
    15
100
AcDbLine
 10
102.5543281601
 20
7.839406246
 30
0.0
 11
102.5543281601
 21
7.8444062749
 31
0.0
  0
LINE
  5
35B
330
1F
100
AcDbEntity
  8
SLD-0
  6
Continuous
370
    15
100
AcDbLine
 10
100.3043282056
 20
7.839406246
 30
0.0
 11
100.4293282316
 21
7.839406246
 31
0.0
  0
LINE
  5
35C
330
1F
100
AcDbEntity
  8
SLD-0
  6
Continuous
370
    15
100
AcDbLine
 10
100.3043282056
 20
7.839406246
 30
0.0
 11
100.3043282056
 21
7.8444062749
 31
0.0
  0
LINE
  5
35D
330
1F
100
AcDbEntity
  8
SLD-0
  6
Continuous
370
    15
100
AcDbLine
 10
100.4293282316
 20
7.8444062749
 30
0.0
 11
100.4293282316
 21
7.839406246
 31
0.0
  0
LINE
  5
35E
330
1F
100
AcDbEntity
  8
SLD-0
  6
Continuous
370
    15
100
AcDbLine
 10
101.4293282195
 20
7.839406246
 30
0.0
 11
101.5543282455
 21
7.839406246
 31
0.0
  0
LINE
  5
35F
330
1F
100
AcDbEntity
  8
SLD-0
  6
Continuous
370
    15
100
AcDbLine
 10
101.4293282195
 20
7.839406246
 30
0.0
 11
101.4293282195
 21
7.8444062749
 31
0.0
  0
LINE
  5
360
330
1F
100
AcDbEntity
  8
SLD-0
  6
Continuous
370
    15
100
AcDbLine
 10
101.5543282455
 20
7.8444062749
 30
0.0
 11
101.5543282455
 21
7.839406246
 31
0.0
  0
LINE
  5
361
330
1F
100
AcDbEntity
  8
SLD-0
  6
Continuous
370
    15
100
AcDbLine
 10
99.1793282284
 20
7.839406246
 30
0.0
 11
99.3043282911
 21
7.839406246
 31
0.0
  0
LINE
  5
362
330
1F
100
AcDbEntity
  8
SLD-0
  6
Continuous
370
    15
100
AcDbLine
 10
99.3043282911
 20
7.8444062749
 30
0.0
 11
99.3043282911
 21
7.839406246
 31
0.0
  0
LINE
  5
363
330
1F
100
AcDbEntity
  8
SLD-0
  6
Continuous
370
    15
100
AcDbLine
 10
99.1793282284
 20
7.839406246
 30
0.0
 11
99.1793282284
 21
7.8444062749
 31
0.0
  0
LINE
  5
364
330
1F
100
AcDbEntity
  8
SLD-0
  6
Continuous
370
    15
100
AcDbLine
 10
98.0543281045
 20
7.839406246
 30
0.0
 11
98.1793283138
 21
7.839406246
 31
0.0
  0
LINE
  5
365
330
1F
100
AcDbEntity
  8
SLD-0
  6
Continuous
370
    15
100
AcDbLine
 10
98.0543281045
 20
7.839406246
 30
0.0
 11
98.0543281045
 21
7.8444062749
 31
0.0
  0
LINE
  5
366
330
1F
100
AcDbEntity
  8
SLD-0
  6
Continuous
370
    15
100
AcDbLine
 10
98.1793283138
 20
7.8444062749
 30
0.0
 11
98.1793283138
 21
7.839406246
 31
0.0
  0
LINE
  5
367
330
1F
100
AcDbEntity
  8
SLD-0
  6
Continuous
370
    15
100
AcDbLine
 10
96.9293282739
 20
7.839406246
 30
0.0
 11
97.0543281899
 21
7.839406246
 31
0.0
  0
LINE
  5
368
330
1F
100
AcDbEntity
  8
SLD-0
  6
Continuous
370
    15
100
AcDbLine
 10
97.0543281899
 20
7.8444062749
 30
0.0
 11
97.0543281899
 21
7.839406246
 31
0.0
  0
LINE
  5
369
330
1F
100
AcDbEntity
  8
SLD-0
  6
Continuous
370
    15
100
AcDbLine
 10
96.9293282739
 20
7.839406246
 30
0.0
 11
96.9293282739
 21
7.8444062749
 31
0.0
  0
LINE
  5
36A
330
1F
100
AcDbEntity
  8
SLD-0
  6
Continuous
370
    15
100
AcDbLine
 10
95.7229534367
 20
7.839406246
 30
0.0
 11
95.7229534367
 21
7.2194062687
 31
0.0
  0
LINE
  5
36B
330
1F
100
AcDbEntity
  8
SLD-0
  6
Continuous
370
    15
100
AcDbLine
 10
95.929328066
 20
7.808156267
 30
0.0
 11
95.929328066
 21
7.839406246
 31
0.0
  0
LINE
  5
36C
330
1F
100
AcDbEntity
  8
SLD-0
  6
Continuous
370
    15
100
AcDbLine
 10
96.9293282739
 20
7.808156267
 30
0.0
 11
95.929328066
 21
7.808156267
 31
0.0
  0
LINE
  5
36D
330
1F
100
AcDbEntity
  8
SLD-0
  6
Continuous
370
    15
100
AcDbLine
 10
96.9293282739
 20
7.839406246
 30
0.0
 11
96.9293282739
 21
7.808156267
 31
0.0
  0
LINE
  5
36E
330
1F
100
AcDbEntity
  8
SLD-0
  6
Continuous
370
    15
100
AcDbLine
 10
97.0543281899
 20
7.808156267
 30
0.0
 11
97.0543281899
 21
7.839406246
 31
0.0
  0
LINE
  5
36F
330
1F
100
AcDbEntity
  8
SLD-0
  6
Continuous
370
    15
100
AcDbLine
 10
98.0543281045
 20
7.808156267
 30
0.0
 11
97.0543281899
 21
7.808156267
 31
0.0
  0
LINE
  5
370
330
1F
100
AcDbEntity
  8
SLD-0
  6
Continuous
370
    15
100
AcDbLine
 10
98.0543281045
 20
7.839406246
 30
0.0
 11
98.0543281045
 21
7.808156267
 31
0.0
  0
LINE
  5
371
330
1F
100
AcDbEntity
  8
SLD-0
  6
Continuous
370
    15
100
AcDbLine
 10
98.1793283138
 20
7.808156267
 30
0.0
 11
98.1793283138
 21
7.839406246
 31
0.0
  0
LINE
  5
372
330
1F
100
AcDbEntity
  8
SLD-0
  6
Continuous
370
    15
100
AcDbLine
 10
99.1793282284
 20
7.808156267
 30
0.0
 11
98.1793283138
 21
7.808156267
 31
0.0
  0
LINE
  5
373
330
1F
100
AcDbEntity
  8
SLD-0
  6
Continuous
370
    15
100
AcDbLine
 10
99.1793282284
 20
7.839406246
 30
0.0
 11
99.1793282284
 21
7.808156267
 31
0.0
  0
LINE
  5
374
330
1F
100
AcDbEntity
  8
SLD-0
  6
Continuous
370
    15
100
AcDbLine
 10
99.3043282911
 20
7.808156267
 30
0.0
 11
99.3043282911
 21
7.839406246
 31
0.0
  0
LINE
  5
375
330
1F
100
AcDbEntity
  8
SLD-0
  6
Continuous
370
    15
100
AcDbLine
 10
100.3043282056
 20
7.808156267
 30
0.0
 11
99.3043282911
 21
7.808156267
 31
0.0
  0
LINE
  5
376
330
1F
100
AcDbEntity
  8
SLD-0
  6
Continuous
370
    15
100
AcDbLine
 10
100.3043282056
 20
7.839406246
 30
0.0
 11
100.3043282056
 21
7.808156267
 31
0.0
  0
LINE
  5
377
330
1F
100
AcDbEntity
  8
SLD-0
  6
Continuous
370
    15
100
AcDbLine
 10
100.4293282316
 20
7.808156267
 30
0.0
 11
100.4293282316
 21
7.839406246
 31
0.0
  0
LINE
  5
378
330
1F
100
AcDbEntity
  8
SLD-0
  6
Continuous
370
    15
100
AcDbLine
 10
101.4293282195
 20
7.808156267
 30
0.0
 11
100.4293282316
 21
7.808156267
 31
0.0
  0
LINE
  5
379
330
1F
100
AcDbEntity
  8
SLD-0
  6
Continuous
370
    15
100
AcDbLine
 10
101.4293282195
 20
7.839406246
 30
0.0
 11
101.4293282195
 21
7.808156267
 31
0.0
  0
LINE
  5
37A
330
1F
100
AcDbEntity
  8
SLD-0
  6
Continuous
370
    15
100
AcDbLine
 10
101.5543282455
 20
7.808156267
 30
0.0
 11
101.5543282455
 21
7.839406246
 31
0.0
  0
LINE
  5
37B
330
1F
100
AcDbEntity
  8
SLD-0
  6
Continuous
370
    15
100
AcDbLine
 10
102.5543281601
 20
7.808156267
 30
0.0
 11
101.5543282455
 21
7.808156267
 31
0.0
  0
LINE
  5
37C
330
1F
100
AcDbEntity
  8
SLD-0
  6
Continuous
370
    15
100
AcDbLine
 10
102.5543281601
 20
7.839406246
 30
0.0
 11
102.5543281601
 21
7.808156267
 31
0.0
  0
LINE
  5
37D
330
1F
100
AcDbEntity
  8
SLD-0
  6
Continuous
370
    15
100
AcDbLine
 10
102.6793282228
 20
7.808156267
 30
0.0
 11
102.6793282228
 21
7.839406246
 31
0.0
  0
LINE
  5
37E
330
1F
100
AcDbEntity
  8
SLD-0
  6
Continuous
370
    15
100
AcDbLine
 10
103.6793281374
 20
7.808156267
 30
0.0
 11
102.6793282228
 21
7.808156267
 31
0.0
  0
LINE
  5
37F
330
1F
100
AcDbEntity
  8
SLD-0
  6
Continuous
370
    15
100
AcDbLine
 10
103.6793281374
 20
7.839406246
 30
0.0
 11
103.6793281374
 21
7.808156267
 31
0.0
  0
LINE
  5
380
330
1F
100
AcDbEntity
  8
SLD-0
  6
Continuous
370
    15
100
AcDbLine
 10
103.8043283467
 20
7.808156267
 30
0.0
 11
103.8043283467
 21
7.839406246
 31
0.0
  0
LINE
  5
381
330
1F
100
AcDbEntity
  8
SLD-0
  6
Continuous
370
    15
100
AcDbLine
 10
104.8043282613
 20
7.808156267
 30
0.0
 11
103.8043283467
 21
7.808156267
 31
0.0
  0
LINE
  5
382
330
1F
100
AcDbEntity
  8
SLD-0
  6
Continuous
370
    15
100
AcDbLine
 10
104.8043282613
 20
7.839406246
 30
0.0
 11
104.8043282613
 21
7.808156267
 31
0.0
  0
LINE
  5
383
330
1F
100
AcDbEntity
  8
SLD-0
  6
Continuous
370
    15
100
AcDbLine
 10
104.9293281773
 20
7.808156267
 30
0.0
 11
104.9293281773
 21
7.839406246
 31
0.0
  0
LINE
  5
384
330
1F
100
AcDbEntity
  8
SLD-0
  6
Continuous
370
    15
100
AcDbLine
 10
105.9293283852
 20
7.808156267
 30
0.0
 11
104.9293281773
 21
7.808156267
 31
0.0
  0
LINE
  5
385
330
1F
100
AcDbEntity
  8
SLD-0
  6
Continuous
370
    15
100
AcDbLine
 10
105.9293283852
 20
7.839406246
 30
0.0
 11
105.9293283852
 21
7.808156267
 31
0.0
  0
LINE
  5
386
330
1F
100
AcDbEntity
  8
SLD-0
  6
Continuous
370
    15
100
AcDbLine
 10
106.1357030144
 20
7.2194062687
 30
0.0
 11
106.1357030144
 21
7.839406246
 31
0.0
  0
LINE
  5
387
330
1F
100
AcDbEntity
  8
SLD-0
  6
Continuous
370
    15
100
AcDbLine
 10
106.1357030144
 20
7.2194062687
 30
0.0
 11
95.7229534367
 21
7.2194062687
 31
0.0
  0
LINE
  5
388
330
1F
100
AcDbEntity
  8
SLD-0
  6
Continuous
370
    15
100
AcDbLine
 10
95.7229534367
 20
7.1864062695
 30
0.0
 11
95.7229534367
 21
7.2194062687
 31
0.0
  0
LINE
  5
389
330
1F
100
AcDbEntity
  8
SLD-0
  6
Continuous
370
    15
100
AcDbLine
 10
95.7229534367
 20
7.1864062695
 30
0.0
 11
106.1357030144
 21
7.1864062695
 31
0.0
  0
LINE
  5
38A
330
1F
100
AcDbEntity
  8
SLD-0
  6
Continuous
370
    15
100
AcDbLine
 10
106.1357030144
 20
7.2194062687
 30
0.0
 11
106.1357030144
 21
7.1864062695
 31
0.0
  0
LINE
  5
38B
330
1F
100
AcDbEntity
  8
SLD-0
  6
Continuous
370
    15
100
AcDbLine
 10
106.6357032651
 20
7.2144062696
 30
0.0
 11
106.6357032651
 21
7.1864062695
 31
0.0
  0
LINE
  5
38C
330
1F
100
AcDbEntity
  8
SLD-0
  6
Continuous
370
    15
100
AcDbLine
 10
106.6357032651
 20
7.2144062696
 30
0.0
 11
106.1357030144
 21
7.2144062696
 31
0.0
  0
LINE
  5
38D
330
1F
100
AcDbEntity
  8
SLD-0
  6
Continuous
370
    15
100
AcDbLine
 10
106.6357032651
 20
7.1864062695
 30
0.0
 11
106.1357030144
 21
7.1864062695
 31
0.0
  0
LINE
  5
38E
330
1F
100
AcDbEntity
  8
SLD-0
  6
Continuous
370
    15
100
AcDbLine
 10
106.7607034744
 20
7.2144062696
 30
0.0
 11
106.7607034744
 21
7.1864062695
 31
0.0
  0
LINE
  5
38F
330
1F
100
AcDbEntity
  8
SLD-0
  6
Continuous
370
    15
100
AcDbLine
 10
106.6535782052
 20
7.2144062696
 30
0.0
 11
106.6357032651
 21
7.2144062696
 31
0.0
  0
LINE
  5
390
330
1F
100
AcDbEntity
  8
SLD-0
  6
Continuous
370
    15
100
AcDbLine
 10
106.7607034744
 20
7.1864062695
 30
0.0
 11
106.6357032651
 21
7.1864062695
 31
0.0
  0
LINE
  5
391
330
1F
100
AcDbEntity
  8
SLD-0
  6
Continuous
370
    15
100
AcDbLine
 10
95.2229531861
 20
7.1864062695
 30
0.0
 11
95.2229531861
 21
7.2144062696
 31
0.0
  0
LINE
  5
392
330
1F
100
AcDbEntity
  8
SLD-0
  6
Continuous
370
    15
100
AcDbLine
 10
95.7229534367
 20
7.2144062696
 30
0.0
 11
95.2229531861
 21
7.2144062696
 31
0.0
  0
LINE
  5
393
330
1F
100
AcDbEntity
  8
SLD-0
  6
Continuous
370
    15
100
AcDbLine
 10
95.7229534367
 20
7.1864062695
 30
0.0
 11
95.2229531861
 21
7.1864062695
 31
0.0
  0
LINE
  5
394
330
1F
100
AcDbEntity
  8
SLD-0
  6
Continuous
370
    15
100
AcDbLine
 10
95.0979529768
 20
7.1864062695
 30
0.0
 11
95.0979529768
 21
7.2144062696
 31
0.0
  0
LINE
  5
395
330
1F
100
AcDbEntity
  8
SLD-0
  6
Continuous
370
    15
100
AcDbLine
 10
95.2229531861
 20
7.2144062696
 30
0.0
 11
95.2050782459
 21
7.2144062696
 31
0.0
  0
LINE
  5
396
330
1F
100
AcDbEntity
  8
SLD-0
  6
Continuous
370
    15
100
AcDbLine
 10
95.2229531861
 20
7.1864062695
 30
0.0
 11
95.0979529768
 21
7.1864062695
 31
0.0
  0
SPLINE
  5
397
330
1F
100
AcDbEntity
  8
SLD-0
  6
Continuous
370
    15
100
AcDbSpline
210
0.0
220
0.0
230
1.0
 70
     8
 71
     3
 72
    13
 73
     9
 74
     0
 42
0.00000001
 43
0.00000001
 12
1.0
 22
0.0
 32
0.0
 13
1.0
 23
0.0
 33
0.0
 40
0.0
 40
0.0
 40
0.0
 40
0.0
 40
0.2087875807190829
 40
0.4543473614573886
 40
0.594897704167224
 40
0.7481979726800372
 40
0.9148680922922867
 40
0.9999999999999999
 40
0.9999999999999999
 40
0.9999999999999999
 40
0.9999999999999999
 10
106.7607034743801
 20
7.186406269481208
 30
0.0
 10
106.7631106031688
 20
7.186526834890874
 30
0.0
 10
106.7683488103937
 20
7.18678919999696
 30
0.0
 10
106.7772432775704
 20
7.190317275805174
 30
0.0
 10
106.7842233060773
 20
7.195851144063113
 30
0.0
 10
106.7890819125459
 20
7.20202969566213
 30
0.0
 10
106.7923448021605
 20
7.208452349473705
 30
0.0
 10
106.7928127371762
 20
7.212901913597415
 30
0.0
 10
106.7929709416236
 20
7.214406269564487
 30
0.0
  0
SPLINE
  5
398
330
1F
100
AcDbEntity
  8
SLD-0
  6
Continuous
370
    15
100
AcDbSpline
210
0.0
220
0.0
230
1.0
 70
     8
 71
     3
 72
    14
 73
    10
 74
     0
 42
0.00000001
 43
0.00000001
 12
1.0
 22
0.0
 32
0.0
 13
1.0
 23
0.0
 33
0.0
 40
0.0
 40
0.0
 40
0.0
 40
0.0
 40
0.1123850780875686
 40
0.3009217207080672
 40
0.4677997536556587
 40
0.6133376469139178
 40
0.8422022795962016
 40
0.9288240391816871
 40
1.0
 40
1.0
 40
1.0
 40
1.0
 10
95.06578876169951
 20
7.214406269564487
 30
0.0
 10
95.06601331881048
 20
7.212466812544164
 30
0.0
 10
95.06661459180312
 20
7.207273732166182
 30
0.0
 10
95.07071843920906
 20
7.200176904518059
 30
0.0
 10
95.07642126053383
 20
7.193979973432205
 30
0.0
 10
95.08387317247141
 20
7.18909269146992
 30
0.0
 10
95.09080046113364
 20
7.186946481641318
 30
0.0
 10
95.09593097628338
 20
7.186430994197301
 30
0.0
 10
95.097324442427
 20
7.186413955104354
 30
0.0
 10
95.09795297680242
 20
7.18640626948121
 30
0.0
  0
LINE
  5
399
330
1F
100
AcDbEntity
  8
SLD-0
  6
Continuous
370
    15
100
AcDbLine
 10
107.2780782443
 20
13.6524061337
 30
0.0
 11
106.7987031954
 21
13.6524061337
 31
0.0
  0
LINE
  5
39A
330
1F
100
AcDbEntity
  8
SLD-0
  6
Continuous
370
    15
100
AcDbLine
 10
107.2780782443
 20
13.6654065169
 30
0.0
 11
107.2780782443
 21
13.6524061337
 31
0.0
  0
ARC
  5
39B
330
1F
100
AcDbEntity
  8
SLD-0
  6
Continuous
370
    15
100
AcDbCircle
 10
106.7987032256
 20
13.6474062695
 30
0.0
 40
0.0050000000000097
100
AcDbArc
 50
90.0000000003
 51
174.2680320329
  0
LINE
  5
39C
330
1F
100
AcDbEntity
  8
SLD-0
  6
Continuous
370
    15
100
AcDbLine
 10
94.5805782069
 20
13.6524061337
 30
0.0
 11
94.5805782069
 21
13.6654065169
 31
0.0
  0
LINE
  5
39D
330
1F
100
AcDbEntity
  8
SLD-0
  6
Continuous
370
    15
100
AcDbLine
 10
95.0599532558
 20
13.6524061337
 30
0.0
 11
94.5805782069
 21
13.6524061337
 31
0.0
  0
ARC
  5
39E
330
1F
100
AcDbEntity
  8
SLD-0
  6
Continuous
370
    15
100
AcDbCircle
 10
95.0599532256
 20
13.6474062695
 30
0.0
 40
0.0050000000000345
100
AcDbArc
 50
5.7319679654
 51
89.9999999997
  0
LINE
  5
39F
330
1F
100
AcDbEntity
  8
SLD-0
  6
Continuous
370
    15
100
AcDbLine
 10
106.7987031954
 20
13.6654065169
 30
0.0
 11
106.7987031954
 21
13.6524061337
 31
0.0
  0
LINE
  5
3A0
330
1F
100
AcDbEntity
  8
SLD-0
  6
Continuous
370
    15
100
AcDbLine
 10
95.0599532558
 20
13.6524061337
 30
0.0
 11
95.0599532558
 21
13.6654065169
 31
0.0
  0
DIMENSION
  5
3A1
330
1F
100
AcDbEntity
  8
DIM
100
AcDbDimension
  2
_D_9
 10
111.2936782256
 20
7.1864062695
 30
0.0
 11
111.2936782256
 21
2.2484062695
 31
0.0
 70
   160
  1
<>
 71
     2
 42
-1.0
  3
SLDDIMSTYLE1
100
AcDbAlignedDimension
 13
104.9293282256
 23
6.2484062695
 33
0.0
 14
106.7607032256
 24
7.1864062695
 34
0.0
 50
90.0
100
AcDbRotatedDimension
  0
DIMENSION
  5
3B0
330
1F
100
AcDbEntity
  8
DIM
100
AcDbDimension
  2
_D_10
 10
95.0649282256
 20
2.2484062695
 30
0.0
 11
100.9293282256
 21
2.2484062695
 31
0.0
 70
   160
  1
<>
 71
     2
 42
-1.0
  3
SLDDIMSTYLE0
100
AcDbAlignedDimension
 13
106.7937282256
 23
7.2144062695
 33
0.0
 14
95.0649282256
 24
7.2144062695
 34
0.0
100
AcDbRotatedDimension
  0
DIMENSION
  5
3BF
330
1F
100
AcDbEntity
  8
DIM
100
AcDbDimension
  2
_D_11
 10
111.2936782256
 20
28.3351562695
 30
0.0
 11
111.2936782256
 21
17.7607812695
 31
0.0
 70
   160
  1
<>
 71
     2
 42
-1.0
  3
SLDDIMSTYLE0
100
AcDbAlignedDimension
 13
106.7607032256
 23
7.1864062695
 33
0.0
 14
106.7426282256
 24
28.3351562695
 34
0.0
 50
90.0
100
AcDbRotatedDimension
  0
LINE
  5
3CE
330
1F
100
AcDbEntity
  8
SLD-0
  6
Continuous
370
    15
100
AcDbLine
 10
3.3725190908
 20
15.0521355639
 30
0.0
 11
4.8725189627
 21
15.0521355639
 31
0.0
  0
LINE
  5
3CF
330
1F
100
AcDbEntity
  8
SLD-0
  6
Continuous
370
    15
100
AcDbLine
 10
3.3725190908
 20
15.7527124841
 30
0.0
 11
3.3725190908
 21
15.0521355639
 31
0.0
  0
LINE
  5
3D0
330
1F
100
AcDbEntity
  8
SLD-0
  6
Continuous
370
    15
100
AcDbLine
 10
3.3725190908
 20
15.7527124841
 30
0.0
 11
4.8725189627
 21
15.7527124841
 31
0.0
  0
LINE
  5
3D1
330
1F
100
AcDbEntity
  8
SLD-0
  6
Continuous
370
    15
100
AcDbLine
 10
4.8725189627
 20
15.7527124841
 30
0.0
 11
4.8725189627
 21
15.0521355639
 31
0.0
  0
LINE
  5
3D2
330
1F
100
AcDbEntity
  8
SLD-0
  6
Continuous
370
    15
100
AcDbLine
 10
3.3725190908
 20
15.8055834467
 30
0.0
 11
3.3725190908
 21
15.7527124841
 31
0.0
  0
LINE
  5
3D3
330
1F
100
AcDbEntity
  8
SLD-0
  6
Continuous
370
    15
100
AcDbLine
 10
3.3725190908
 20
15.8055834467
 30
0.0
 11
4.8725189627
 21
15.8055834467
 31
0.0
  0
LINE
  5
3D4
330
1F
100
AcDbEntity
  8
SLD-0
  6
Continuous
370
    15
100
AcDbLine
 10
4.8725189627
 20
15.8055834467
 30
0.0
 11
4.8725189627
 21
15.7527124841
 31
0.0
  0
LINE
  5
3D5
330
1F
100
AcDbEntity
  8
SLD-0
  6
Continuous
370
    15
100
AcDbLine
 10
3.3725190908
 20
15.8198750682
 30
0.0
 11
3.3725190908
 21
15.8055834467
 31
0.0
  0
LINE
  5
3D6
330
1F
100
AcDbEntity
  8
SLD-0
  6
Continuous
370
    15
100
AcDbLine
 10
4.8725189627
 20
15.8198750682
 30
0.0
 11
4.8725189627
 21
15.8055834467
 31
0.0
  0
LINE
  5
3D7
330
1F
100
AcDbEntity
  8
SLD-0
  6
Continuous
370
    15
100
AcDbLine
 10
13.3790691743
 20
15.0521355639
 30
0.0
 11
14.8790690462
 21
15.0521355639
 31
0.0
  0
LINE
  5
3D8
330
1F
100
AcDbEntity
  8
SLD-0
  6
Continuous
370
    15
100
AcDbLine
 10
13.3790691743
 20
15.7527124841
 30
0.0
 11
13.3790691743
 21
15.0521355639
 31
0.0
  0
LINE
  5
3D9
330
1F
100
AcDbEntity
  8
SLD-0
  6
Continuous
370
    15
100
AcDbLine
 10
13.3790691743
 20
15.7527124841
 30
0.0
 11
14.8790690462
 21
15.7527124841
 31
0.0
  0
LINE
  5
3DA
330
1F
100
AcDbEntity
  8
SLD-0
  6
Continuous
370
    15
100
AcDbLine
 10
14.8790690462
 20
15.7527124841
 30
0.0
 11
14.8790690462
 21
15.0521355639
 31
0.0
  0
LINE
  5
3DB
330
1F
100
AcDbEntity
  8
SLD-0
  6
Continuous
370
    15
100
AcDbLine
 10
13.3790691743
 20
15.8055834467
 30
0.0
 11
13.3790691743
 21
15.7527124841
 31
0.0
  0
LINE
  5
3DC
330
1F
100
AcDbEntity
  8
SLD-0
  6
Continuous
370
    15
100
AcDbLine
 10
13.3790691743
 20
15.8055834467
 30
0.0
 11
14.8790690462
 21
15.8055834467
 31
0.0
  0
LINE
  5
3DD
330
1F
100
AcDbEntity
  8
SLD-0
  6
Continuous
370
    15
100
AcDbLine
 10
14.8790690462
 20
15.8055834467
 30
0.0
 11
14.8790690462
 21
15.7527124841
 31
0.0
  0
LINE
  5
3DE
330
1F
100
AcDbEntity
  8
SLD-0
  6
Continuous
370
    15
100
AcDbLine
 10
13.3790691743
 20
15.8198750682
 30
0.0
 11
13.3790691743
 21
15.8055834467
 31
0.0
  0
LINE
  5
3DF
330
1F
100
AcDbEntity
  8
SLD-0
  6
Continuous
370
    15
100
AcDbLine
 10
14.8790690462
 20
15.8198750682
 30
0.0
 11
14.8790690462
 21
15.8055834467
 31
0.0
  0
LINE
  5
3E0
330
1F
100
AcDbEntity
  8
SLD-0
  6
Continuous
370
    15
100
AcDbLine
 10
14.3140938662
 20
27.6170551595
 30
0.0
 11
3.9374942709
 21
27.6170551595
 31
0.0
  0
LINE
  5
3E1
330
1F
100
AcDbEntity
  8
SLD-0
  6
Continuous
370
    15
100
AcDbLine
 10
3.9374942709
 20
27.6170551595
 30
0.0
 11
3.9374942709
 21
27.6440555943
 31
0.0
  0
LINE
  5
3E2
330
1F
100
AcDbEntity
  8
SLD-0
  6
Continuous
370
    15
100
AcDbLine
 10
14.3140938662
 20
27.6170551595
 30
0.0
 11
14.3140938662
 21
27.6440555943
 31
0.0
  0
LINE
  5
3E3
330
1F
100
AcDbEntity
  8
SLD-0
  6
Continuous
370
    15
100
AcDbLine
 10
14.3140938662
 20
27.6440555943
 30
0.0
 11
3.9374942709
 21
27.6440555943
 31
0.0
  0
LINE
  5
3E4
330
1F
100
AcDbEntity
  8
SLD-0
  6
Continuous
370
    15
100
AcDbLine
 10
3.9374942709
 20
27.6681555826
 30
0.0
 11
3.9374942709
 21
27.6440555943
 31
0.0
  0
LINE
  5
3E5
330
1F
100
AcDbEntity
  8
SLD-0
  6
Continuous
370
    15
100
AcDbLine
 10
4.1244938706
 20
27.6681555826
 30
0.0
 11
3.9374942709
 21
27.6681555826
 31
0.0
  0
LINE
  5
3E6
330
1F
100
AcDbEntity
  8
SLD-0
  6
Continuous
370
    15
100
AcDbLine
 10
4.1244938706
 20
27.6440555943
 30
0.0
 11
4.1244938706
 21
27.6681555826
 31
0.0
  0
LINE
  5
3E7
330
1F
100
AcDbEntity
  8
SLD-0
  6
Continuous
370
    15
100
AcDbLine
 10
5.5124942097
 20
27.6681555826
 30
0.0
 11
5.3624940758
 21
27.6681555826
 31
0.0
  0
LINE
  5
3E8
330
1F
100
AcDbEntity
  8
SLD-0
  6
Continuous
370
    15
100
AcDbLine
 10
5.5124942097
 20
27.6440555943
 30
0.0
 11
5.5124942097
 21
27.6681555826
 31
0.0
  0
LINE
  5
3E9
330
1F
100
AcDbEntity
  8
SLD-0
  6
Continuous
370
    15
100
AcDbLine
 10
5.3624940758
 20
27.6681555826
 30
0.0
 11
5.3624940758
 21
27.6440555943
 31
0.0
  0
LINE
  5
3EA
330
1F
100
AcDbEntity
  8
SLD-0
  6
Continuous
370
    15
100
AcDbLine
 10
7.4624940431
 20
27.6681555826
 30
0.0
 11
7.3124940559
 21
27.6681555826
 31
0.0
  0
LINE
  5
3EB
330
1F
100
AcDbEntity
  8
SLD-0
  6
Continuous
370
    15
100
AcDbLine
 10
7.3124940559
 20
27.6681555826
 30
0.0
 11
7.3124940559
 21
27.6440555943
 31
0.0
  0
LINE
  5
3EC
330
1F
100
AcDbEntity
  8
SLD-0
  6
Continuous
370
    15
100
AcDbLine
 10
7.4624940431
 20
27.6440555943
 30
0.0
 11
7.4624940431
 21
27.6681555826
 31
0.0
  0
LINE
  5
3ED
330
1F
100
AcDbEntity
  8
SLD-0
  6
Continuous
370
    15
100
AcDbLine
 10
10.7890940939
 20
27.6440555943
 30
0.0
 11
10.7890940939
 21
27.6681555826
 31
0.0
  0
LINE
  5
3EE
330
1F
100
AcDbEntity
  8
SLD-0
  6
Continuous
370
    15
100
AcDbLine
 10
10.7890940939
 20
27.6681555826
 30
0.0
 11
10.9390940811
 21
27.6681555826
 31
0.0
  0
LINE
  5
3EF
330
1F
100
AcDbEntity
  8
SLD-0
  6
Continuous
370
    15
100
AcDbLine
 10
10.9390940811
 20
27.6681555826
 30
0.0
 11
10.9390940811
 21
27.6440555943
 31
0.0
  0
LINE
  5
3F0
330
1F
100
AcDbEntity
  8
SLD-0
  6
Continuous
370
    15
100
AcDbLine
 10
12.7390939274
 20
27.6440555943
 30
0.0
 11
12.7390939274
 21
27.6681555826
 31
0.0
  0
LINE
  5
3F1
330
1F
100
AcDbEntity
  8
SLD-0
  6
Continuous
370
    15
100
AcDbLine
 10
12.7390939274
 20
27.6681555826
 30
0.0
 11
12.8890940612
 21
27.6681555826
 31
0.0
  0
LINE
  5
3F2
330
1F
100
AcDbEntity
  8
SLD-0
  6
Continuous
370
    15
100
AcDbLine
 10
12.8890940612
 20
27.6681555826
 30
0.0
 11
12.8890940612
 21
27.6440555943
 31
0.0
  0
LINE
  5
3F3
330
1F
100
AcDbEntity
  8
SLD-0
  6
Continuous
370
    15
100
AcDbLine
 10
14.1270942664
 20
27.6681555826
 30
0.0
 11
14.3140938662
 21
27.6681555826
 31
0.0
  0
LINE
  5
3F4
330
1F
100
AcDbEntity
  8
SLD-0
  6
Continuous
370
    15
100
AcDbLine
 10
14.1270942664
 20
27.6440555943
 30
0.0
 11
14.1270942664
 21
27.6681555826
 31
0.0
  0
LINE
  5
3F5
330
1F
100
AcDbEntity
  8
SLD-0
  6
Continuous
370
    15
100
AcDbLine
 10
14.3140938662
 20
27.6681555826
 30
0.0
 11
14.3140938662
 21
27.6440555943
 31
0.0
  0
LINE
  5
3F6
330
1F
100
AcDbEntity
  8
SLD-0
  6
Continuous
370
    15
100
AcDbLine
 10
7.4624940431
 20
27.7066756709
 30
0.0
 11
10.7890940939
 21
27.7066756709
 31
0.0
  0
LINE
  5
3F7
330
1F
100
AcDbEntity
  8
SLD-0
  6
Continuous
370
    15
100
AcDbLine
 10
7.4624940431
 20
27.7066756709
 30
0.0
 11
7.4624940431
 21
27.6681555826
 31
0.0
  0
LINE
  5
3F8
330
1F
100
AcDbEntity
  8
SLD-0
  6
Continuous
370
    15
100
AcDbLine
 10
7.3124940559
 20
27.6681555826
 30
0.0
 11
7.3124940559
 21
27.7066756709
 31
0.0
  0
LINE
  5
3F9
330
1F
100
AcDbEntity
  8
SLD-0
  6
Continuous
370
    15
100
AcDbLine
 10
7.3124940559
 20
27.7066756709
 30
0.0
 11
5.5124942097
 21
27.7066756709
 31
0.0
  0
LINE
  5
3FA
330
1F
100
AcDbEntity
  8
SLD-0
  6
Continuous
370
    15
100
AcDbLine
 10
5.5124942097
 20
27.7066756709
 30
0.0
 11
5.5124942097
 21
27.6681555826
 31
0.0
  0
LINE
  5
3FB
330
1F
100
AcDbEntity
  8
SLD-0
  6
Continuous
370
    15
100
AcDbLine
 10
5.3624940758
 20
27.6681555826
 30
0.0
 11
5.3624940758
 21
27.7066756709
 31
0.0
  0
LINE
  5
3FC
330
1F
100
AcDbEntity
  8
SLD-0
  6
Continuous
370
    15
100
AcDbLine
 10
5.3624940758
 20
27.7066756709
 30
0.0
 11
4.1244938706
 21
27.7066756709
 31
0.0
  0
LINE
  5
3FD
330
1F
100
AcDbEntity
  8
SLD-0
  6
Continuous
370
    15
100
AcDbLine
 10
4.1244938706
 20
27.7066756709
 30
0.0
 11
4.1244938706
 21
27.6681555826
 31
0.0
  0
LINE
  5
3FE
330
1F
100
AcDbEntity
  8
SLD-0
  6
Continuous
370
    15
100
AcDbLine
 10
3.9374942709
 20
27.6681555826
 30
0.0
 11
3.9374942709
 21
27.6716755419
 31
0.0
  0
LINE
  5
3FF
330
1F
100
AcDbEntity
  8
SLD-0
  6
Continuous
370
    15
100
AcDbLine
 10
3.3124938109
 20
28.2840569476
 30
0.0
 11
14.9390943261
 21
28.2840569476
 31
0.0
  0
LINE
  5
400
330
1F
100
AcDbEntity
  8
SLD-0
  6
Continuous
370
    15
100
AcDbLine
 10
14.9390943261
 20
27.6716755419
 30
0.0
 11
14.9390943261
 21
28.2840569476
 31
0.0
  0
LINE
  5
401
330
1F
100
AcDbEntity
  8
SLD-0
  6
Continuous
370
    15
100
AcDbLine
 10
14.3140938662
 20
27.6716755419
 30
0.0
 11
14.9390943261
 21
27.6716755419
 31
0.0
  0
LINE
  5
402
330
1F
100
AcDbEntity
  8
SLD-0
  6
Continuous
370
    15
100
AcDbLine
 10
14.3140938662
 20
27.6681555826
 30
0.0
 11
14.3140938662
 21
27.6716755419
 31
0.0
  0
LINE
  5
403
330
1F
100
AcDbEntity
  8
SLD-0
  6
Continuous
370
    15
100
AcDbLine
 10
14.1270942664
 20
27.7066756709
 30
0.0
 11
14.1270942664
 21
27.6681555826
 31
0.0
  0
LINE
  5
404
330
1F
100
AcDbEntity
  8
SLD-0
  6
Continuous
370
    15
100
AcDbLine
 10
12.8890940612
 20
27.7066756709
 30
0.0
 11
14.1270942664
 21
27.7066756709
 31
0.0
  0
LINE
  5
405
330
1F
100
AcDbEntity
  8
SLD-0
  6
Continuous
370
    15
100
AcDbLine
 10
12.8890940612
 20
27.6681555826
 30
0.0
 11
12.8890940612
 21
27.7066756709
 31
0.0
  0
LINE
  5
406
330
1F
100
AcDbEntity
  8
SLD-0
  6
Continuous
370
    15
100
AcDbLine
 10
12.7390939274
 20
27.7066756709
 30
0.0
 11
12.7390939274
 21
27.6681555826
 31
0.0
  0
LINE
  5
407
330
1F
100
AcDbEntity
  8
SLD-0
  6
Continuous
370
    15
100
AcDbLine
 10
10.9390940811
 20
27.7066756709
 30
0.0
 11
12.7390939274
 21
27.7066756709
 31
0.0
  0
LINE
  5
408
330
1F
100
AcDbEntity
  8
SLD-0
  6
Continuous
370
    15
100
AcDbLine
 10
10.9390940811
 20
27.6681555826
 30
0.0
 11
10.9390940811
 21
27.7066756709
 31
0.0
  0
LINE
  5
409
330
1F
100
AcDbEntity
  8
SLD-0
  6
Continuous
370
    15
100
AcDbLine
 10
10.7890940939
 20
27.7066756709
 30
0.0
 11
10.7890940939
 21
27.6681555826
 31
0.0
  0
LINE
  5
40A
330
1F
100
AcDbEntity
  8
SLD-0
  6
Continuous
370
    15
100
AcDbLine
 10
3.9374942709
 20
27.6716755419
 30
0.0
 11
3.3124938109
 21
27.6716755419
 31
0.0
  0
LINE
  5
40B
330
1F
100
AcDbEntity
  8
SLD-0
  6
Continuous
370
    15
100
AcDbLine
 10
3.3124938109
 20
27.6716755419
 30
0.0
 11
3.3124938109
 21
28.2840569476
 31
0.0
  0
LINE
  5
40C
330
1F
100
AcDbEntity
  8
SLD-0
  6
Continuous
370
    15
100
AcDbLine
 10
14.9390943261
 20
28.2840569476
 30
0.0
 11
14.9390943261
 21
28.3351573706
 31
0.0
  0
LINE
  5
40D
330
1F
100
AcDbEntity
  8
SLD-0
  6
Continuous
370
    15
100
AcDbLine
 10
3.3124938109
 20
28.2840569476
 30
0.0
 11
3.3124938109
 21
28.3351573706
 31
0.0
  0
LINE
  5
40E
330
1F
100
AcDbEntity
  8
SLD-0
  6
Continuous
370
    15
100
AcDbLine
 10
14.9390943261
 20
28.3351573706
 30
0.0
 11
3.3124938109
 21
28.3351573706
 31
0.0
  0
LINE
  5
40F
330
1F
100
AcDbEntity
  8
SLD-0
  6
Continuous
370
    15
100
AcDbLine
 10
3.2973943587
 20
28.3328740903
 30
0.0
 11
3.3053723465
 21
28.3070798283
 31
0.0
  0
ARC
  5
410
330
1F
100
AcDbEntity
  8
SLD-0
  6
Continuous
370
    15
100
AcDbCircle
 10
3.3124940685
 20
28.2840562695
 30
0.0
 40
0.0511000000000053
100
AcDbArc
 50
90.0
 51
107.1874632915
  0
ARC
  5
411
330
1F
100
AcDbEntity
  8
SLD-0
  6
Continuous
370
    15
100
AcDbCircle
 10
3.3124940685
 20
28.2840562695
 30
0.0
 40
0.0241000000000066
100
AcDbArc
 50
90.0
 51
107.1874632915
  0
ARC
  5
412
330
1F
100
AcDbEntity
  8
SLD-0
  6
Continuous
370
    15
100
AcDbCircle
 10
14.9390940685
 20
28.2840562695
 30
0.0
 40
0.0511000000000053
100
AcDbArc
 50
72.8125367085
 51
90.0
  0
ARC
  5
413
330
1F
100
AcDbEntity
  8
SLD-0
  6
Continuous
370
    15
100
AcDbCircle
 10
14.9390940685
 20
28.2840562695
 30
0.0
 40
0.0241000000000074
100
AcDbArc
 50
72.8125367085
 51
90.0
  0
LINE
  5
414
330
1F
100
AcDbEntity
  8
SLD-0
  6
Continuous
370
    15
100
AcDbLine
 10
14.9541937784
 20
28.3328740903
 30
0.0
 11
14.9462157905
 21
28.3070798283
 31
0.0
  0
LINE
  5
415
330
1F
100
AcDbEntity
  8
SLD-0
  6
Continuous
370
    15
100
AcDbLine
 10
3.2883938227
 20
28.2840569476
 30
0.0
 11
3.2613939746
 21
28.2840569476
 31
0.0
  0
ARC
  5
416
330
1F
100
AcDbEntity
  8
SLD-0
  6
Continuous
370
    15
100
AcDbCircle
 10
3.3124940685
 20
28.2840562695
 30
0.0
 40
0.0511000000000026
100
AcDbArc
 50
107.1874632915
 51
180.0
  0
ARC
  5
417
330
1F
100
AcDbEntity
  8
SLD-0
  6
Continuous
370
    15
100
AcDbCircle
 10
3.3124940685
 20
28.2840562695
 30
0.0
 40
0.0241000000000066
100
AcDbArc
 50
107.1874632915
 51
180.0
  0
LINE
  5
418
330
1F
100
AcDbEntity
  8
SLD-0
  6
Continuous
370
    15
100
AcDbLine
 10
3.2613939746
 20
28.2840569476
 30
0.0
 11
3.2613939746
 21
28.2769067369
 31
0.0
  0
LINE
  5
419
330
1F
100
AcDbEntity
  8
SLD-0
  6
Continuous
370
    15
100
AcDbLine
 10
3.2883938227
 20
28.2840569476
 30
0.0
 11
3.2883938227
 21
28.2769067369
 31
0.0
  0
LINE
  5
41A
330
1F
100
AcDbEntity
  8
SLD-0
  6
Continuous
370
    15
100
AcDbLine
 10
14.9631943144
 20
28.2840569476
 30
0.0
 11
14.9631943144
 21
28.2769067369
 31
0.0
  0
LINE
  5
41B
330
1F
100
AcDbEntity
  8
SLD-0
  6
Continuous
370
    15
100
AcDbLine
 10
14.9631943144
 20
28.2840569476
 30
0.0
 11
14.9901941625
 21
28.2840569476
 31
0.0
  0
LINE
  5
41C
330
1F
100
AcDbEntity
  8
SLD-0
  6
Continuous
370
    15
100
AcDbLine
 10
14.9901941625
 20
28.2840569476
 30
0.0
 11
14.9901941625
 21
28.2769067369
 31
0.0
  0
ARC
  5
41D
330
1F
100
AcDbEntity
  8
SLD-0
  6
Continuous
370
    15
100
AcDbCircle
 10
14.9390940685
 20
28.2840562695
 30
0.0
 40
0.0511000000000029
100
AcDbArc
 50
0.0
 51
72.8125367085
  0
ARC
  5
41E
330
1F
100
AcDbEntity
  8
SLD-0
  6
Continuous
370
    15
100
AcDbCircle
 10
14.9390940685
 20
28.2840562695
 30
0.0
 40
0.0241000000000074
100
AcDbArc
 50
0.0
 51
72.8125367085
  0
LWPOLYLINE
  5
41F
330
1F
100
AcDbEntity
  8
SLD-0
  6
Continuous
370
    15
100
AcDbPolyline
 90
        3
 70
   128
 43
0.0
 10
3.2613939746
 20
25.77925623
 10
3.2609310999
 20
25.7745547376
 10
3.2609011803
 20
25.774405726
  0
LWPOLYLINE
  5
420
330
1F
100
AcDbEntity
  8
SLD-0
  6
Continuous
370
    15
100
AcDbPolyline
 90
        3
 70
   128
 43
0.0
 10
14.9901941625
 20
25.77925623
 10
14.9906570371
 20
25.7745547376
 10
14.9906869568
 20
25.774405726
  0
LINE
  5
421
330
1F
100
AcDbEntity
  8
SLD-0
  6
Continuous
370
    15
100
AcDbLine
 10
15.4901439603
 20
25.774405726
 30
0.0
 11
14.9901941625
 21
25.774405726
 31
0.0
  0
LINE
  5
422
330
1F
100
AcDbEntity
  8
SLD-0
  6
Continuous
370
    15
100
AcDbLine
 10
15.4901439603
 20
25.774405726
 30
0.0
 11
15.4901439603
 21
13.6654065169
 31
0.0
  0
LINE
  5
423
330
1F
100
AcDbEntity
  8
SLD-0
  6
Continuous
370
    15
100
AcDbLine
 10
14.9901941625
 20
13.6654065169
 30
0.0
 11
15.4901439603
 21
13.6654065169
 31
0.0
  0
LINE
  5
424
330
1F
100
AcDbEntity
  8
SLD-0
  6
Continuous
370
    15
100
AcDbLine
 10
2.7614441767
 20
25.774405726
 30
0.0
 11
2.7614441767
 21
13.6654065169
 31
0.0
  0
LINE
  5
425
330
1F
100
AcDbEntity
  8
SLD-0
  6
Continuous
370
    15
100
AcDbLine
 10
3.2613939746
 20
13.6654065169
 30
0.0
 11
2.7614441767
 21
13.6654065169
 31
0.0
  0
LINE
  5
426
330
1F
100
AcDbEntity
  8
SLD-0
  6
Continuous
370
    15
100
AcDbLine
 10
2.7614441767
 20
25.774405726
 30
0.0
 11
3.2613939746
 21
25.774405726
 31
0.0
  0
LINE
  5
427
330
1F
100
AcDbEntity
  8
SLD-0
  6
Continuous
370
    15
100
AcDbLine
 10
13.1257940202
 20
6.2484062587
 30
0.0
 11
13.1257940202
 21
7.1244062695
 31
0.0
  0
LINE
  5
428
330
1F
100
AcDbEntity
  8
SLD-0
  6
Continuous
370
    15
100
AcDbLine
 10
5.1257941169
 20
6.2484062587
 30
0.0
 11
13.1257940202
 21
6.2484062587
 31
0.0
  0
LINE
  5
429
330
1F
100
AcDbEntity
  8
SLD-0
  6
Continuous
370
    15
100
AcDbLine
 10
5.1257941169
 20
7.1244062695
 30
0.0
 11
5.1257941169
 21
6.2484062587
 31
0.0
  0
LINE
  5
42A
330
1F
100
AcDbEntity
  8
SLD-0
  6
Continuous
370
    15
100
AcDbLine
 10
5.1257941169
 20
7.1244062695
 30
0.0
 11
13.1257940202
 21
7.1244062695
 31
0.0
  0
LINE
  5
42B
330
1F
100
AcDbEntity
  8
SLD-0
  6
Continuous
370
    15
100
AcDbLine
 10
13.1257940202
 20
7.1864062695
 30
0.0
 11
13.1257940202
 21
7.1244062695
 31
0.0
  0
LINE
  5
42C
330
1F
100
AcDbEntity
  8
SLD-0
  6
Continuous
370
    15
100
AcDbLine
 10
5.1257941169
 20
7.1244062695
 30
0.0
 11
5.1257941169
 21
7.1864062695
 31
0.0
  0
LINE
  5
42D
330
1F
100
AcDbEntity
  8
SLD-0
  6
Continuous
370
    15
100
AcDbLine
 10
3.2613939746
 20
28.2769067369
 30
0.0
 11
3.2613939746
 21
7.2144062696
 31
0.0
  0
LINE
  5
42E
330
1F
100
AcDbEntity
  8
SLD-0
  6
Continuous
370
    15
100
AcDbLine
 10
3.2613939746
 20
28.2769067369
 30
0.0
 11
3.29439418
 21
28.2769067369
 31
0.0
  0
LINE
  5
42F
330
1F
100
AcDbEntity
  8
SLD-0
  6
Continuous
370
    15
100
AcDbLine
 10
3.29439418
 20
28.2769067369
 30
0.0
 11
3.29439418
 21
7.2144062696
 31
0.0
  0
LINE
  5
430
330
1F
100
AcDbEntity
  8
SLD-0
  6
Continuous
370
    15
100
AcDbLine
 10
3.29439418
 20
7.2144062696
 30
0.0
 11
3.2613939746
 21
7.2144062696
 31
0.0
  0
CIRCLE
  5
431
330
1F
100
AcDbEntity
  8
SLD-0
  6
Continuous
370
    15
100
AcDbCircle
 10
6.9901940685
 20
9.2144062695
 30
0.0
 40
0.4374999999999982
  0
LINE
  5
432
330
1F
100
AcDbEntity
  8
SLD-0
  6
Continuous
370
    15
100
AcDbLine
 10
3.3568939914
 20
15.7573752569
 30
0.0
 11
3.3725190908
 21
15.7573752569
 31
0.0
  0
LINE
  5
433
330
1F
100
AcDbEntity
  8
SLD-0
  6
Continuous
370
    15
100
AcDbLine
 10
4.8725189627
 20
15.7573752569
 30
0.0
 11
4.8881440622
 21
15.7573752569
 31
0.0
  0
LINE
  5
434
330
1F
100
AcDbEntity
  8
SLD-0
  6
Continuous
370
    15
100
AcDbLine
 10
4.8881440622
 20
15.7573752569
 30
0.0
 11
4.8881440622
 21
15.8198750682
 31
0.0
  0
LINE
  5
435
330
1F
100
AcDbEntity
  8
SLD-0
  6
Continuous
370
    15
100
AcDbLine
 10
14.957193957
 20
28.2769067369
 30
0.0
 11
14.957193957
 21
7.2144062696
 31
0.0
  0
LINE
  5
436
330
1F
100
AcDbEntity
  8
SLD-0
  6
Continuous
370
    15
100
AcDbLine
 10
14.8946941457
 20
15.7573752569
 30
0.0
 11
14.8790690462
 21
15.7573752569
 31
0.0
  0
LINE
  5
437
330
1F
100
AcDbEntity
  8
SLD-0
  6
Continuous
370
    15
100
AcDbLine
 10
13.3790691743
 20
15.7573752569
 30
0.0
 11
13.3634440748
 21
15.7573752569
 31
0.0
  0
LINE
  5
438
330
1F
100
AcDbEntity
  8
SLD-0
  6
Continuous
370
    15
100
AcDbLine
 10
14.8946941457
 20
15.8198750682
 30
0.0
 11
14.8946941457
 21
15.7573752569
 31
0.0
  0
LINE
  5
439
330
1F
100
AcDbEntity
  8
SLD-0
  6
Continuous
370
    15
100
AcDbLine
 10
13.3634440748
 20
15.8198750682
 30
0.0
 11
14.8946941457
 21
15.8198750682
 31
0.0
  0
LINE
  5
43A
330
1F
100
AcDbEntity
  8
SLD-0
  6
Continuous
370
    15
100
AcDbLine
 10
13.3634440748
 20
15.7573752569
 30
0.0
 11
13.3634440748
 21
15.8198750682
 31
0.0
  0
CIRCLE
  5
43B
330
1F
100
AcDbEntity
  8
SLD-0
  6
Continuous
370
    15
100
AcDbCircle
 10
8.9901940685
 20
9.7769062695
 30
0.0
 40
0.875
  0
LINE
  5
43C
330
1F
100
AcDbEntity
  8
SLD-0
  6
Continuous
370
    15
100
AcDbLine
 10
4.8881440622
 20
15.8198750682
 30
0.0
 11
3.3568939914
 21
15.8198750682
 31
0.0
  0
LINE
  5
43D
330
1F
100
AcDbEntity
  8
SLD-0
  6
Continuous
370
    15
100
AcDbLine
 10
14.957193957
 20
28.2769067369
 30
0.0
 11
14.9390943261
 21
28.2769067369
 31
0.0
  0
LINE
  5
43E
330
1F
100
AcDbEntity
  8
SLD-0
  6
Continuous
370
    15
100
AcDbLine
 10
3.3124938109
 20
28.2769067369
 30
0.0
 11
3.29439418
 21
28.2769067369
 31
0.0
  0
LINE
  5
43F
330
1F
100
AcDbEntity
  8
SLD-0
  6
Continuous
370
    15
100
AcDbLine
 10
14.957193957
 20
7.2144062696
 30
0.0
 11
14.8500440482
 21
7.2144062696
 31
0.0
  0
LINE
  5
440
330
1F
100
AcDbEntity
  8
SLD-0
  6
Continuous
370
    15
100
AcDbLine
 10
3.4015440889
 20
7.2144062696
 30
0.0
 11
3.29439418
 21
7.2144062696
 31
0.0
  0
LINE
  5
441
330
1F
100
AcDbEntity
  8
SLD-0
  6
Continuous
370
    15
100
AcDbLine
 10
3.3568939914
 20
15.8198750682
 30
0.0
 11
3.3568939914
 21
15.7573752569
 31
0.0
  0
LINE
  5
442
330
1F
100
AcDbEntity
  8
SLD-0
  6
Continuous
370
    15
100
AcDbLine
 10
14.9901941625
 20
28.2769067369
 30
0.0
 11
14.9901941625
 21
7.2144062696
 31
0.0
  0
LINE
  5
443
330
1F
100
AcDbEntity
  8
SLD-0
  6
Continuous
370
    15
100
AcDbLine
 10
14.9901941625
 20
28.2769067369
 30
0.0
 11
14.957193957
 21
28.2769067369
 31
0.0
  0
LINE
  5
444
330
1F
100
AcDbEntity
  8
SLD-0
  6
Continuous
370
    15
100
AcDbLine
 10
14.957193957
 20
7.2144062696
 30
0.0
 11
14.9901941625
 21
7.2144062696
 31
0.0
  0
LINE
  5
445
330
1F
100
AcDbEntity
  8
SLD-0
  6
Continuous
370
    15
100
AcDbLine
 10
4.6554677101
 20
7.8444062749
 30
0.0
 11
3.9404674632
 21
7.8444062749
 31
0.0
  0
LINE
  5
446
330
1F
100
AcDbEntity
  8
SLD-0
  6
Continuous
370
    15
100
AcDbLine
 10
3.9404674632
 20
7.8724063048
 30
0.0
 11
3.9404674632
 21
7.8444062749
 31
0.0
  0
LINE
  5
447
330
1F
100
AcDbEntity
  8
SLD-0
  6
Continuous
370
    15
100
AcDbLine
 10
4.6554677101
 20
7.8724063048
 30
0.0
 11
3.9404674632
 21
7.8724063048
 31
0.0
  0
LINE
  5
448
330
1F
100
AcDbEntity
  8
SLD-0
  6
Continuous
370
    15
100
AcDbLine
 10
4.6554677101
 20
7.8724063048
 30
0.0
 11
4.6554677101
 21
7.8444062749
 31
0.0
  0
LINE
  5
449
330
1F
100
AcDbEntity
  8
SLD-0
  6
Continuous
370
    15
100
AcDbLine
 10
13.5961204269
 20
7.8444062749
 30
0.0
 11
13.5961204269
 21
7.8724063048
 31
0.0
  0
LINE
  5
44A
330
1F
100
AcDbEntity
  8
SLD-0
  6
Continuous
370
    15
100
AcDbLine
 10
14.3111206739
 20
7.8724063048
 30
0.0
 11
14.3111206739
 21
7.8444062749
 31
0.0
  0
LINE
  5
44B
330
1F
100
AcDbEntity
  8
SLD-0
  6
Continuous
370
    15
100
AcDbLine
 10
14.3111206739
 20
7.8724063048
 30
0.0
 11
13.5961204269
 21
7.8724063048
 31
0.0
  0
LINE
  5
44C
330
1F
100
AcDbEntity
  8
SLD-0
  6
Continuous
370
    15
100
AcDbLine
 10
14.3111206739
 20
7.8444062749
 30
0.0
 11
13.5961204269
 21
7.8444062749
 31
0.0
  0
LINE
  5
44D
330
1F
100
AcDbEntity
  8
SLD-0
  6
Continuous
370
    15
100
AcDbLine
 10
4.6554677101
 20
7.8724063048
 30
0.0
 11
13.5961204269
 21
7.8724063048
 31
0.0
  0
LINE
  5
44E
330
1F
100
AcDbEntity
  8
SLD-0
  6
Continuous
370
    15
100
AcDbLine
 10
4.6554677101
 20
7.8444062749
 30
0.0
 11
13.5961204269
 21
7.8444062749
 31
0.0
  0
LINE
  5
44F
330
1F
100
AcDbEntity
  8
SLD-0
  6
Continuous
370
    15
100
AcDbLine
 10
4.125793909
 20
7.8444062749
 30
0.0
 11
4.125793909
 21
7.839406246
 31
0.0
  0
LINE
  5
450
330
1F
100
AcDbEntity
  8
SLD-0
  6
Continuous
370
    15
100
AcDbLine
 10
4.125793909
 20
7.839406246
 30
0.0
 11
3.9194192797
 21
7.839406246
 31
0.0
  0
SPLINE
  5
451
330
1F
100
AcDbEntity
  8
SLD-0
  6
Continuous
370
    15
100
AcDbSpline
210
0.0
220
0.0
230
1.0
 70
     8
 71
     3
 72
    14
 73
    10
 74
     0
 42
0.00000001
 43
0.00000001
 12
1.0
 22
0.0
 32
0.0
 13
1.0
 23
0.0
 33
0.0
 40
0.0
 40
0.0
 40
0.0
 40
0.0
 40
0.25
 40
0.25
 40
0.5
 40
0.5
 40
0.75
 40
0.75
 40
1.0
 40
1.0
 40
1.0
 40
1.0
 10
3.919419068524187
 20
7.83940626948121
 30
0.0
 10
3.921173163072654
 20
7.840060782372428
 30
0.0
 10
3.922927180320696
 20
7.840715008903007
 30
0.0
 10
3.926435292117204
 20
7.841924364383065
 30
0.0
 10
3.928189348015459
 20
7.842479003081086
 30
0.0
 10
3.931697459811967
 20
7.843404603693202
 30
0.0
 10
3.933451515710222
 20
7.843775201422981
 30
0.0
 10
3.93695962750673
 20
7.844276132864551
 30
0.0
 10
3.938713644754775
 20
7.844406269481211
 30
0.0
 10
3.94046773930324
 20
7.844406269481209
 30
0.0
  0
SPLINE
  5
452
330
1F
100
AcDbEntity
  8
SLD-0
  6
Continuous
370
    15
100
AcDbSpline
210
0.0
220
0.0
230
1.0
 70
     8
 71
     3
 72
    10
 73
     6
 74
     0
 42
0.00000001
 43
0.00000001
 12
1.0
 22
0.0
 32
0.0
 13
1.0
 23
0.0
 33
0.0
 40
0.0
 40
0.0
 40
0.0
 40
0.0
 40
0.5
 40
0.5
 40
1.0
 40
1.0
 40
1.0
 40
1.0
 10
3.919419068524187
 20
7.83940626948121
 30
0.0
 10
3.922927180320695
 20
7.848045649278583
 30
0.0
 10
3.926435292117203
 20
7.856631829220399
 30
0.0
 10
3.933451515710224
 20
7.868849757300334
 30
0.0
 10
3.936959627506732
 20
7.872406269481211
 30
0.0
 10
3.94046773930324
 20
7.87240626948121
 30
0.0
  0
LINE
  5
453
330
1F
100
AcDbEntity
  8
SLD-0
  6
Continuous
370
    15
100
AcDbLine
 10
14.1257942281
 20
7.839406246
 30
0.0
 11
14.1257942281
 21
7.8444062749
 31
0.0
  0
SPLINE
  5
454
330
1F
100
AcDbEntity
  8
SLD-0
  6
Continuous
370
    15
100
AcDbSpline
210
0.0
220
0.0
230
1.0
 70
     8
 71
     3
 72
    14
 73
    10
 74
     0
 42
0.00000001
 43
0.00000001
 12
1.0
 22
0.0
 32
0.0
 13
1.0
 23
0.0
 33
0.0
 40
0.0
 40
0.0
 40
0.0
 40
0.0
 40
0.25
 40
0.25
 40
0.5
 40
0.5
 40
0.75
 40
0.75
 40
1.0
 40
1.0
 40
1.0
 40
1.0
 10
14.31112039774513
 20
7.844406269481209
 30
0.0
 10
14.3128744922936
 20
7.844406269481211
 30
0.0
 10
14.31462850954164
 20
7.844276132864551
 30
0.0
 10
14.31813662133815
 20
7.843775201422981
 30
0.0
 10
14.3198906772364
 20
7.843404603693202
 30
0.0
 10
14.32339878903291
 20
7.842479003081086
 30
0.0
 10
14.32515284493117
 20
7.841924364383065
 30
0.0
 10
14.32866095672768
 20
7.840715008903007
 30
0.0
 10
14.33041497397572
 20
7.840060782372428
 30
0.0
 10
14.33216906852419
 20
7.83940626948121
 30
0.0
  0
LINE
  5
455
330
1F
100
AcDbEntity
  8
SLD-0
  6
Continuous
370
    15
100
AcDbLine
 10
14.3321688574
 20
7.839406246
 30
0.0
 11
14.1257942281
 21
7.839406246
 31
0.0
  0
SPLINE
  5
456
330
1F
100
AcDbEntity
  8
SLD-0
  6
Continuous
370
    15
100
AcDbSpline
210
0.0
220
0.0
230
1.0
 70
     8
 71
     3
 72
    10
 73
     6
 74
     0
 42
0.00000001
 43
0.00000001
 12
1.0
 22
0.0
 32
0.0
 13
1.0
 23
0.0
 33
0.0
 40
0.0
 40
0.0
 40
0.0
 40
0.0
 40
0.5
 40
0.5
 40
1.0
 40
1.0
 40
1.0
 40
1.0
 10
14.31112039774513
 20
7.87240626948121
 30
0.0
 10
14.31462850954164
 20
7.872406269481211
 30
0.0
 10
14.31813662133815
 20
7.868849757300334
 30
0.0
 10
14.32515284493117
 20
7.856631829220399
 30
0.0
 10
14.32866095672767
 20
7.848045649278583
 30
0.0
 10
14.33216906852419
 20
7.83940626948121
 30
0.0
  0
LINE
  5
457
330
1F
100
AcDbEntity
  8
SLD-0
  6
Continuous
370
    15
100
AcDbLine
 10
5.2507940329
 20
7.839406246
 30
0.0
 11
5.1257941169
 21
7.839406246
 31
0.0
  0
LINE
  5
458
330
1F
100
AcDbEntity
  8
SLD-0
  6
Continuous
370
    15
100
AcDbLine
 10
5.1257941169
 20
7.839406246
 30
0.0
 11
5.1257941169
 21
7.8444062749
 31
0.0
  0
LINE
  5
459
330
1F
100
AcDbEntity
  8
SLD-0
  6
Continuous
370
    15
100
AcDbLine
 10
5.2507940329
 20
7.8444062749
 30
0.0
 11
5.2507940329
 21
7.839406246
 31
0.0
  0
LINE
  5
45A
330
1F
100
AcDbEntity
  8
SLD-0
  6
Continuous
370
    15
100
AcDbLine
 10
6.3757941568
 20
7.8444062749
 30
0.0
 11
6.3757941568
 21
7.839406246
 31
0.0
  0
LINE
  5
45B
330
1F
100
AcDbEntity
  8
SLD-0
  6
Continuous
370
    15
100
AcDbLine
 10
6.3757941568
 20
7.839406246
 30
0.0
 11
6.2507939474
 21
7.839406246
 31
0.0
  0
LINE
  5
45C
330
1F
100
AcDbEntity
  8
SLD-0
  6
Continuous
370
    15
100
AcDbLine
 10
6.2507939474
 20
7.839406246
 30
0.0
 11
6.2507939474
 21
7.8444062749
 31
0.0
  0
LINE
  5
45D
330
1F
100
AcDbEntity
  8
SLD-0
  6
Continuous
370
    15
100
AcDbLine
 10
7.500794134
 20
7.8444062749
 30
0.0
 11
7.500794134
 21
7.839406246
 31
0.0
  0
LINE
  5
45E
330
1F
100
AcDbEntity
  8
SLD-0
  6
Continuous
370
    15
100
AcDbLine
 10
7.500794134
 20
7.839406246
 30
0.0
 11
7.3757940713
 21
7.839406246
 31
0.0
  0
LINE
  5
45F
330
1F
100
AcDbEntity
  8
SLD-0
  6
Continuous
370
    15
100
AcDbLine
 10
7.3757940713
 20
7.839406246
 30
0.0
 11
7.3757940713
 21
7.8444062749
 31
0.0
  0
LINE
  5
460
330
1F
100
AcDbEntity
  8
SLD-0
  6
Continuous
370
    15
100
AcDbLine
 10
8.6257940746
 20
7.839406246
 30
0.0
 11
8.5007940486
 21
7.839406246
 31
0.0
  0
LINE
  5
461
330
1F
100
AcDbEntity
  8
SLD-0
  6
Continuous
370
    15
100
AcDbLine
 10
8.5007940486
 20
7.839406246
 30
0.0
 11
8.5007940486
 21
7.8444062749
 31
0.0
  0
LINE
  5
462
330
1F
100
AcDbEntity
  8
SLD-0
  6
Continuous
370
    15
100
AcDbLine
 10
8.6257940746
 20
7.8444062749
 30
0.0
 11
8.6257940746
 21
7.839406246
 31
0.0
  0
LINE
  5
463
330
1F
100
AcDbEntity
  8
SLD-0
  6
Continuous
370
    15
100
AcDbLine
 10
9.7507940885
 20
7.839406246
 30
0.0
 11
9.6257940625
 21
7.839406246
 31
0.0
  0
LINE
  5
464
330
1F
100
AcDbEntity
  8
SLD-0
  6
Continuous
370
    15
100
AcDbLine
 10
9.6257940625
 20
7.839406246
 30
0.0
 11
9.6257940625
 21
7.8444062749
 31
0.0
  0
LINE
  5
465
330
1F
100
AcDbEntity
  8
SLD-0
  6
Continuous
370
    15
100
AcDbLine
 10
9.7507940885
 20
7.8444062749
 30
0.0
 11
9.7507940885
 21
7.839406246
 31
0.0
  0
LINE
  5
466
330
1F
100
AcDbEntity
  8
SLD-0
  6
Continuous
370
    15
100
AcDbLine
 10
10.8757940657
 20
7.8444062749
 30
0.0
 11
10.8757940657
 21
7.839406246
 31
0.0
  0
LINE
  5
467
330
1F
100
AcDbEntity
  8
SLD-0
  6
Continuous
370
    15
100
AcDbLine
 10
10.8757940657
 20
7.839406246
 30
0.0
 11
10.7507940031
 21
7.839406246
 31
0.0
  0
LINE
  5
468
330
1F
100
AcDbEntity
  8
SLD-0
  6
Continuous
370
    15
100
AcDbLine
 10
10.7507940031
 20
7.839406246
 30
0.0
 11
10.7507940031
 21
7.8444062749
 31
0.0
  0
LINE
  5
469
330
1F
100
AcDbEntity
  8
SLD-0
  6
Continuous
370
    15
100
AcDbLine
 10
12.0007941896
 20
7.8444062749
 30
0.0
 11
12.0007941896
 21
7.839406246
 31
0.0
  0
LINE
  5
46A
330
1F
100
AcDbEntity
  8
SLD-0
  6
Continuous
370
    15
100
AcDbLine
 10
12.0007941896
 20
7.839406246
 30
0.0
 11
11.8757939803
 21
7.839406246
 31
0.0
  0
LINE
  5
46B
330
1F
100
AcDbEntity
  8
SLD-0
  6
Continuous
370
    15
100
AcDbLine
 10
11.8757939803
 20
7.839406246
 30
0.0
 11
11.8757939803
 21
7.8444062749
 31
0.0
  0
LINE
  5
46C
330
1F
100
AcDbEntity
  8
SLD-0
  6
Continuous
370
    15
100
AcDbLine
 10
13.1257940202
 20
7.839406246
 30
0.0
 11
13.0007941042
 21
7.839406246
 31
0.0
  0
LINE
  5
46D
330
1F
100
AcDbEntity
  8
SLD-0
  6
Continuous
370
    15
100
AcDbLine
 10
13.0007941042
 20
7.839406246
 30
0.0
 11
13.0007941042
 21
7.8444062749
 31
0.0
  0
LINE
  5
46E
330
1F
100
AcDbEntity
  8
SLD-0
  6
Continuous
370
    15
100
AcDbLine
 10
13.1257940202
 20
7.8444062749
 30
0.0
 11
13.1257940202
 21
7.839406246
 31
0.0
  0
LINE
  5
46F
330
1F
100
AcDbEntity
  8
SLD-0
  6
Continuous
370
    15
100
AcDbLine
 10
4.125793909
 20
7.808156267
 30
0.0
 11
4.125793909
 21
7.839406246
 31
0.0
  0
LINE
  5
470
330
1F
100
AcDbEntity
  8
SLD-0
  6
Continuous
370
    15
100
AcDbLine
 10
5.1257941169
 20
7.808156267
 30
0.0
 11
4.125793909
 21
7.808156267
 31
0.0
  0
LINE
  5
471
330
1F
100
AcDbEntity
  8
SLD-0
  6
Continuous
370
    15
100
AcDbLine
 10
5.1257941169
 20
7.839406246
 30
0.0
 11
5.1257941169
 21
7.808156267
 31
0.0
  0
LINE
  5
472
330
1F
100
AcDbEntity
  8
SLD-0
  6
Continuous
370
    15
100
AcDbLine
 10
5.2507940329
 20
7.808156267
 30
0.0
 11
5.2507940329
 21
7.839406246
 31
0.0
  0
LINE
  5
473
330
1F
100
AcDbEntity
  8
SLD-0
  6
Continuous
370
    15
100
AcDbLine
 10
6.2507939474
 20
7.808156267
 30
0.0
 11
5.2507940329
 21
7.808156267
 31
0.0
  0
LINE
  5
474
330
1F
100
AcDbEntity
  8
SLD-0
  6
Continuous
370
    15
100
AcDbLine
 10
6.2507939474
 20
7.839406246
 30
0.0
 11
6.2507939474
 21
7.808156267
 31
0.0
  0
LINE
  5
475
330
1F
100
AcDbEntity
  8
SLD-0
  6
Continuous
370
    15
100
AcDbLine
 10
6.3757941568
 20
7.808156267
 30
0.0
 11
6.3757941568
 21
7.839406246
 31
0.0
  0
LINE
  5
476
330
1F
100
AcDbEntity
  8
SLD-0
  6
Continuous
370
    15
100
AcDbLine
 10
7.3757940713
 20
7.808156267
 30
0.0
 11
6.3757941568
 21
7.808156267
 31
0.0
  0
LINE
  5
477
330
1F
100
AcDbEntity
  8
SLD-0
  6
Continuous
370
    15
100
AcDbLine
 10
7.3757940713
 20
7.839406246
 30
0.0
 11
7.3757940713
 21
7.808156267
 31
0.0
  0
LINE
  5
478
330
1F
100
AcDbEntity
  8
SLD-0
  6
Continuous
370
    15
100
AcDbLine
 10
7.500794134
 20
7.808156267
 30
0.0
 11
7.500794134
 21
7.839406246
 31
0.0
  0
LINE
  5
479
330
1F
100
AcDbEntity
  8
SLD-0
  6
Continuous
370
    15
100
AcDbLine
 10
8.5007940486
 20
7.808156267
 30
0.0
 11
7.500794134
 21
7.808156267
 31
0.0
  0
LINE
  5
47A
330
1F
100
AcDbEntity
  8
SLD-0
  6
Continuous
370
    15
100
AcDbLine
 10
8.5007940486
 20
7.839406246
 30
0.0
 11
8.5007940486
 21
7.808156267
 31
0.0
  0
LINE
  5
47B
330
1F
100
AcDbEntity
  8
SLD-0
  6
Continuous
370
    15
100
AcDbLine
 10
8.6257940746
 20
7.808156267
 30
0.0
 11
8.6257940746
 21
7.839406246
 31
0.0
  0
LINE
  5
47C
330
1F
100
AcDbEntity
  8
SLD-0
  6
Continuous
370
    15
100
AcDbLine
 10
9.6257940625
 20
7.808156267
 30
0.0
 11
8.6257940746
 21
7.808156267
 31
0.0
  0
LINE
  5
47D
330
1F
100
AcDbEntity
  8
SLD-0
  6
Continuous
370
    15
100
AcDbLine
 10
9.6257940625
 20
7.839406246
 30
0.0
 11
9.6257940625
 21
7.808156267
 31
0.0
  0
LINE
  5
47E
330
1F
100
AcDbEntity
  8
SLD-0
  6
Continuous
370
    15
100
AcDbLine
 10
9.7507940885
 20
7.808156267
 30
0.0
 11
9.7507940885
 21
7.839406246
 31
0.0
  0
LINE
  5
47F
330
1F
100
AcDbEntity
  8
SLD-0
  6
Continuous
370
    15
100
AcDbLine
 10
10.7507940031
 20
7.808156267
 30
0.0
 11
9.7507940885
 21
7.808156267
 31
0.0
  0
LINE
  5
480
330
1F
100
AcDbEntity
  8
SLD-0
  6
Continuous
370
    15
100
AcDbLine
 10
10.7507940031
 20
7.839406246
 30
0.0
 11
10.7507940031
 21
7.808156267
 31
0.0
  0
LINE
  5
481
330
1F
100
AcDbEntity
  8
SLD-0
  6
Continuous
370
    15
100
AcDbLine
 10
10.8757940657
 20
7.808156267
 30
0.0
 11
10.8757940657
 21
7.839406246
 31
0.0
  0
LINE
  5
482
330
1F
100
AcDbEntity
  8
SLD-0
  6
Continuous
370
    15
100
AcDbLine
 10
11.8757939803
 20
7.808156267
 30
0.0
 11
10.8757940657
 21
7.808156267
 31
0.0
  0
LINE
  5
483
330
1F
100
AcDbEntity
  8
SLD-0
  6
Continuous
370
    15
100
AcDbLine
 10
11.8757939803
 20
7.839406246
 30
0.0
 11
11.8757939803
 21
7.808156267
 31
0.0
  0
LINE
  5
484
330
1F
100
AcDbEntity
  8
SLD-0
  6
Continuous
370
    15
100
AcDbLine
 10
12.0007941896
 20
7.808156267
 30
0.0
 11
12.0007941896
 21
7.839406246
 31
0.0
  0
LINE
  5
485
330
1F
100
AcDbEntity
  8
SLD-0
  6
Continuous
370
    15
100
AcDbLine
 10
13.0007941042
 20
7.808156267
 30
0.0
 11
12.0007941896
 21
7.808156267
 31
0.0
  0
LINE
  5
486
330
1F
100
AcDbEntity
  8
SLD-0
  6
Continuous
370
    15
100
AcDbLine
 10
13.0007941042
 20
7.839406246
 30
0.0
 11
13.0007941042
 21
7.808156267
 31
0.0
  0
LINE
  5
487
330
1F
100
AcDbEntity
  8
SLD-0
  6
Continuous
370
    15
100
AcDbLine
 10
13.1257940202
 20
7.808156267
 30
0.0
 11
13.1257940202
 21
7.839406246
 31
0.0
  0
LINE
  5
488
330
1F
100
AcDbEntity
  8
SLD-0
  6
Continuous
370
    15
100
AcDbLine
 10
14.1257942281
 20
7.808156267
 30
0.0
 11
13.1257940202
 21
7.808156267
 31
0.0
  0
LINE
  5
489
330
1F
100
AcDbEntity
  8
SLD-0
  6
Continuous
370
    15
100
AcDbLine
 10
14.1257942281
 20
7.839406246
 30
0.0
 11
14.1257942281
 21
7.808156267
 31
0.0
  0
LINE
  5
48A
330
1F
100
AcDbEntity
  8
SLD-0
  6
Continuous
370
    15
100
AcDbLine
 10
14.3321688574
 20
7.2194062687
 30
0.0
 11
14.3321688574
 21
7.839406246
 31
0.0
  0
LINE
  5
48B
330
1F
100
AcDbEntity
  8
SLD-0
  6
Continuous
370
    15
100
AcDbLine
 10
14.3321688574
 20
7.2194062687
 30
0.0
 11
3.9194192797
 21
7.2194062687
 31
0.0
  0
LINE
  5
48C
330
1F
100
AcDbEntity
  8
SLD-0
  6
Continuous
370
    15
100
AcDbLine
 10
3.9194192797
 20
7.839406246
 30
0.0
 11
3.9194192797
 21
7.2194062687
 31
0.0
  0
LINE
  5
48D
330
1F
100
AcDbEntity
  8
SLD-0
  6
Continuous
370
    15
100
AcDbLine
 10
14.3321688574
 20
7.2194062687
 30
0.0
 11
14.3321688574
 21
7.1864062695
 31
0.0
  0
LINE
  5
48E
330
1F
100
AcDbEntity
  8
SLD-0
  6
Continuous
370
    15
100
AcDbLine
 10
3.9194192797
 20
7.1864062695
 30
0.0
 11
14.3321688574
 21
7.1864062695
 31
0.0
  0
LINE
  5
48F
330
1F
100
AcDbEntity
  8
SLD-0
  6
Continuous
370
    15
100
AcDbLine
 10
3.9194192797
 20
7.1864062695
 30
0.0
 11
3.9194192797
 21
7.2194062687
 31
0.0
  0
LINE
  5
490
330
1F
100
AcDbEntity
  8
SLD-0
  6
Continuous
370
    15
100
AcDbLine
 10
3.4194190291
 20
7.1864062695
 30
0.0
 11
3.4194190291
 21
7.2144062696
 31
0.0
  0
LINE
  5
491
330
1F
100
AcDbEntity
  8
SLD-0
  6
Continuous
370
    15
100
AcDbLine
 10
3.2944188197
 20
7.1864062695
 30
0.0
 11
3.2944188197
 21
7.2144062696
 31
0.0
  0
LINE
  5
492
330
1F
100
AcDbEntity
  8
SLD-0
  6
Continuous
370
    15
100
AcDbLine
 10
3.4194190291
 20
7.2144062696
 30
0.0
 11
3.4015440889
 21
7.2144062696
 31
0.0
  0
LINE
  5
493
330
1F
100
AcDbEntity
  8
SLD-0
  6
Continuous
370
    15
100
AcDbLine
 10
3.4194190291
 20
7.1864062695
 30
0.0
 11
3.2944188197
 21
7.1864062695
 31
0.0
  0
LINE
  5
494
330
1F
100
AcDbEntity
  8
SLD-0
  6
Continuous
370
    15
100
AcDbLine
 10
3.9194192797
 20
7.2144062696
 30
0.0
 11
3.4194190291
 21
7.2144062696
 31
0.0
  0
LINE
  5
495
330
1F
100
AcDbEntity
  8
SLD-0
  6
Continuous
370
    15
100
AcDbLine
 10
3.9194192797
 20
7.1864062695
 30
0.0
 11
3.4194190291
 21
7.1864062695
 31
0.0
  0
LINE
  5
496
330
1F
100
AcDbEntity
  8
SLD-0
  6
Continuous
370
    15
100
AcDbLine
 10
14.832169108
 20
7.2144062696
 30
0.0
 11
14.832169108
 21
7.1864062695
 31
0.0
  0
LINE
  5
497
330
1F
100
AcDbEntity
  8
SLD-0
  6
Continuous
370
    15
100
AcDbLine
 10
14.832169108
 20
7.2144062696
 30
0.0
 11
14.3321688574
 21
7.2144062696
 31
0.0
  0
LINE
  5
498
330
1F
100
AcDbEntity
  8
SLD-0
  6
Continuous
370
    15
100
AcDbLine
 10
14.832169108
 20
7.1864062695
 30
0.0
 11
14.3321688574
 21
7.1864062695
 31
0.0
  0
LINE
  5
499
330
1F
100
AcDbEntity
  8
SLD-0
  6
Continuous
370
    15
100
AcDbLine
 10
14.9571693173
 20
7.2144062696
 30
0.0
 11
14.9571693173
 21
7.1864062695
 31
0.0
  0
LINE
  5
49A
330
1F
100
AcDbEntity
  8
SLD-0
  6
Continuous
370
    15
100
AcDbLine
 10
14.8500440482
 20
7.2144062696
 30
0.0
 11
14.832169108
 21
7.2144062696
 31
0.0
  0
LINE
  5
49B
330
1F
100
AcDbEntity
  8
SLD-0
  6
Continuous
370
    15
100
AcDbLine
 10
14.9571693173
 20
7.1864062695
 30
0.0
 11
14.832169108
 21
7.1864062695
 31
0.0
  0
SPLINE
  5
49C
330
1F
100
AcDbEntity
  8
SLD-0
  6
Continuous
370
    15
100
AcDbSpline
210
0.0
220
0.0
230
1.0
 70
     8
 71
     3
 72
    14
 73
    10
 74
     0
 42
0.00000001
 43
0.00000001
 12
1.0
 22
0.0
 32
0.0
 13
1.0
 23
0.0
 33
0.0
 40
0.0
 40
0.0
 40
0.0
 40
0.0
 40
0.1123850780870107
 40
0.3009217207065735
 40
0.4677997536533366
 40
0.6133376469108733
 40
0.8422022795920212
 40
0.9288240391833337
 40
1.0
 40
1.0
 40
1.0
 40
1.0
 10
3.262254604632425
 20
7.214406269564487
 30
0.0
 10
3.262479161743394
 20
7.212466812544168
 30
0.0
 10
3.263080434736033
 20
7.207273732166197
 30
0.0
 10
3.267184282141959
 20
7.200176904517952
 30
0.0
 10
3.272887103466764
 20
7.193979973432535
 30
0.0
 10
3.280339015404263
 20
7.189092691468611
 30
0.0
 10
3.287266304066889
 20
7.186946481647195
 30
0.0
 10
3.292396819216136
 20
7.18643099419031
 30
0.0
 10
3.293790285359873
 20
7.18641395510218
 30
0.0
 10
3.294418819735334
 20
7.186406269481208
 30
0.0
  0
SPLINE
  5
49D
330
1F
100
AcDbEntity
  8
SLD-0
  6
Continuous
370
    15
100
AcDbSpline
210
0.0
220
0.0
230
1.0
 70
     8
 71
     3
 72
    13
 73
     9
 74
     0
 42
0.00000001
 43
0.00000001
 12
1.0
 22
0.0
 32
0.0
 13
1.0
 23
0.0
 33
0.0
 40
0.0
 40
0.0
 40
0.0
 40
0.0
 40
0.2087875807190806
 40
0.4543473614573871
 40
0.5948977041672228
 40
0.7481979726800365
 40
0.9148680922922866
 40
1.0
 40
1.0
 40
1.0
 40
1.0
 10
14.95716931731303
 20
7.18640626948121
 30
0.0
 10
14.95957644610167
 20
7.186526834890876
 30
0.0
 10
14.96481465332664
 20
7.18678919999696
 30
0.0
 10
14.97370912050328
 20
7.190317275805174
 30
0.0
 10
14.98068914901023
 20
7.195851144063113
 30
0.0
 10
14.98554775547881
 20
7.20202969566213
 30
0.0
 10
14.98881064509338
 20
7.208452349473705
 30
0.0
 10
14.98927858010914
 20
7.212901913597415
 30
0.0
 10
14.9894367845565
 20
7.214406269564487
 30
0.0
  0
LINE
  5
49E
330
1F
100
AcDbEntity
  8
SLD-0
  6
Continuous
370
    15
100
AcDbLine
 10
2.7770440498
 20
13.6524061337
 30
0.0
 11
2.7770440498
 21
13.6654065169
 31
0.0
  0
LINE
  5
49F
330
1F
100
AcDbEntity
  8
SLD-0
  6
Continuous
370
    15
100
AcDbLine
 10
3.2564190987
 20
13.6524061337
 30
0.0
 11
2.7770440498
 21
13.6524061337
 31
0.0
  0
ARC
  5
4A0
330
1F
100
AcDbEntity
  8
SLD-0
  6
Continuous
370
    15
100
AcDbCircle
 10
3.2564190685
 20
13.6474062695
 30
0.0
 40
0.0050000000000345
100
AcDbArc
 50
5.7319679868
 51
89.9999999996
  0
LINE
  5
4A1
330
1F
100
AcDbEntity
  8
SLD-0
  6
Continuous
370
    15
100
AcDbLine
 10
15.4745440872
 20
13.6524061337
 30
0.0
 11
14.9951690383
 21
13.6524061337
 31
0.0
  0
LINE
  5
4A2
330
1F
100
AcDbEntity
  8
SLD-0
  6
Continuous
370
    15
100
AcDbLine
 10
15.4745440872
 20
13.6654065169
 30
0.0
 11
15.4745440872
 21
13.6524061337
 31
0.0
  0
ARC
  5
4A3
330
1F
100
AcDbEntity
  8
SLD-0
  6
Continuous
370
    15
100
AcDbCircle
 10
14.9951690685
 20
13.6474062695
 30
0.0
 40
0.0050000000000132
100
AcDbArc
 50
90.0000000004
 51
174.2680320546
  0
LINE
  5
4A4
330
1F
100
AcDbEntity
  8
SLD-0
  6
Continuous
370
    15
100
AcDbLine
 10
3.2564190987
 20
13.6524061337
 30
0.0
 11
3.2564190987
 21
13.6654065169
 31
0.0
  0
LINE
  5
4A5
330
1F
100
AcDbEntity
  8
SLD-0
  6
Continuous
370
    15
100
AcDbLine
 10
14.9951690383
 20
13.6654065169
 30
0.0
 11
14.9951690383
 21
13.6524061337
 31
0.0
  0
ENDSEC
  0
SECTION
  2
OBJECTS
  0
DICTIONARY
  5
C
330
0
100
AcDbDictionary
281
     1
  3
ACAD_GROUP
350
D
  3
ACAD_LAYOUT
350
1A
  3
ACAD_MATERIAL
350
3B
  3
ACAD_MLEADERSTYLE
350
4A7
  3
ACAD_MLINESTYLE
350
17
  3
ACAD_PLOTSETTINGS
350
19
  3
ACAD_PLOTSTYLENAME
350
E
  3
ACAD_TABLESTYLE
350
4A6
  0
DICTIONARY
  5
D
102
{ACAD_REACTORS
330
C
102
}
330
C
100
AcDbDictionary
281
     1
  0
DICTIONARY
  5
1A
102
{ACAD_REACTORS
330
C
102
}
330
C
100
AcDbDictionary
281
     1
  3
Layout1
350
1E
  3
Layout2
350
26
  3
Model
350
22
  0
DICTIONARY
  5
3B
102
{ACAD_REACTORS
330
C
102
}
330
C
100
AcDbDictionary
281
     1
  3
ByBlock
350
3D
  3
ByLayer
350
3C
  3
Global
350
3E
  0
DICTIONARY
  5
4A7
102
{ACAD_REACTORS
330
C
102
}
330
C
100
AcDbDictionary
281
     1
  0
DICTIONARY
  5
17
102
{ACAD_REACTORS
330
C
102
}
330
C
100
AcDbDictionary
281
     1
  3
Standard
350
18
  0
DICTIONARY
  5
19
102
{ACAD_REACTORS
330
C
102
}
330
C
100
AcDbDictionary
281
     1
  0
ACDBDICTIONARYWDFLT
  5
E
102
{ACAD_REACTORS
330
C
102
}
330
C
100
AcDbDictionary
281
     1
  3
Normal
350
F
100
AcDbDictionaryWithDefault
340
F
  0
DICTIONARY
  5
4A6
102
{ACAD_REACTORS
330
C
102
}
330
C
100
AcDbDictionary
281
     1
  0
LAYOUT
  5
1E
102
{ACAD_REACTORS
330
1A
102
}
330
1A
100
AcDbPlotSettings
  1

  2
none_device
  4

  6

 40
0.0
 41
0.0
 42
0.0
 43
0.0
 44
0.0
 45
0.0
 46
0.0
 47
0.0
 48
0.0
 49
0.0
140
0.0
141
0.0
142
1.0
143
1.0
 70
   688
 72
     0
 73
     0
 74
     5
  7

 75
    16
 76
     0
 77
     2
 78
   300
147
1.0
148
0.0
149
0.0
100
AcDbLayout
  1
Layout1
 70
     1
 71
     1
 10
0.0
 20
0.0
 11
12.0
 21
9.0
 12
0.0
 22
0.0
 32
0.0
 14
1.0000000000E+20
 24
1.0000000000E+20
 34
1.0000000000E+20
 15
-1.0000000000E+20
 25
-1.0000000000E+20
 35
-1.0000000000E+20
146
0.0
 13
0.0
 23
0.0
 33
0.0
 16
1.0
 26
0.0
 36
0.0
 17
0.0
 27
1.0
 37
0.0
 76
     0
330
1B
  0
LAYOUT
  5
26
102
{ACAD_REACTORS
330
1A
102
}
330
1A
100
AcDbPlotSettings
  1

  2
none_device
  4

  6

 40
0.0
 41
0.0
 42
0.0
 43
0.0
 44
0.0
 45
0.0
 46
0.0
 47
0.0
 48
0.0
 49
0.0
140
0.0
141
0.0
142
1.0
143
1.0
 70
   688
 72
     0
 73
     0
 74
     5
  7

 75
    16
 76
     0
 77
     2
 78
   300
147
1.0
148
0.0
149
0.0
100
AcDbLayout
  1
Layout2
 70
     1
 71
     2
 10
0.0
 20
0.0
 11
0.0
 21
0.0
 12
0.0
 22
0.0
 32
0.0
 14
0.0
 24
0.0
 34
0.0
 15
0.0
 25
0.0
 35
0.0
146
0.0
 13
0.0
 23
0.0
 33
0.0
 16
1.0
 26
0.0
 36
0.0
 17
0.0
 27
1.0
 37
0.0
 76
     0
330
23
  0
LAYOUT
  5
22
102
{ACAD_REACTORS
330
1A
102
}
330
1A
100
AcDbPlotSettings
  1

  2
none_device
  4

  6

 40
0.0
 41
0.0
 42
0.0
 43
0.0
 44
0.0
 45
0.0
 46
0.0
 47
0.0
 48
0.0
 49
0.0
140
0.0
141
0.0
142
1.0
143
1.0
 70
  1712
 72
     0
 73
     0
 74
     0
  7

 75
     0
 76
     0
 77
     2
 78
   300
147
1.0
148
0.0
149
0.0
100
AcDbLayout
  1
Model
 70
     1
 71
     0
 10
0.0
 20
0.0
 11
120.0
 21
60.0
 12
0.0
 22
0.0
 32
0.0
 14
0.0
 24
0.0
 34
0.0
 15
120.0
 25
60.0
 35
0.0
146
0.0
 13
0.0
 23
0.0
 33
0.0
 16
1.0
 26
0.0
 36
0.0
 17
0.0
 27
1.0
 37
0.0
 76
     0
330
1F
331
29
  0
MATERIAL
  5
3D
102
{ACAD_REACTORS
330
3B
102
}
330
3B
100
AcDbMaterial
  1
ByBlock
  0
MATERIAL
  5
3C
102
{ACAD_REACTORS
330
3B
102
}
330
3B
100
AcDbMaterial
  1
ByLayer
  0
MATERIAL
  5
3E
102
{ACAD_REACTORS
330
3B
102
}
330
3B
100
AcDbMaterial
  1
Global
  0
MLINESTYLE
  5
18
102
{ACAD_REACTORS
330
17
102
}
330
17
100
AcDbMlineStyle
  2
Standard
 70
     0
  3

 62
   256
 51
90.0
 52
90.0
 71
     2
 49
0.5
 62
   256
  6
BYLAYER
 49
-0.5
 62
   256
  6
BYLAYER
  0
ACDBPLACEHOLDER
  5
F
102
{ACAD_REACTORS
330
E
102
}
330
E
  0
ENDSEC
  0
EOF
