  0
SECTION
  2
HEADER
  9
$ACADVER
  1
AC1018
  9
$ACADMAINTVER
 70
     0
  9
$DWGCODEPAGE
  3
ANSI_1252
  9
$INSBASE
 10
0.0
 20
0.0
 30
0.0
  9
$EXTMIN
 10
0.0
 20
0.0
 30
0.0
  9
$EXTMAX
 10
100.0
 20
65.0
 30
0.0
  9
$LIMMIN
 10
0.0
 20
0.0
  9
$LIMMAX
 10
100.0
 20
65.0
  9
$ORTHOMODE
 70
     0
  9
$REGENMODE
 70
     1
  9
$FILLMODE
 70
     1
  9
$QTEXTMODE
 70
     0
  9
$MIRRTEXT
 70
     1
  9
$LTSCALE
 40
1.0
  9
$ATTMODE
 70
     1
  9
$TEXTSIZE
 40
0.1388888889
  9
$TRACEWID
 40
0.05
  9
$TEXTSTYLE
  7
Standard
  9
$CLAYER
  8
0
  9
$CELTYPE
  6
ByLayer
  9
$CECOLOR
 62
   256
  9
$CELTSCALE
 40
1.0
  9
$DISPSILH
 70
     0
  9
$DIMSCALE
 40
1.0
  9
$DIMASZ
 40
1.0
  9
$DIMEXO
 40
0.0393700787
  9
$DIMDLI
 40
0.38
  9
$DIMRND
 40
0.0
  9
$DIMDLE
 40
0.0
  9
$DIMEXE
 40
0.0393700787
  9
$DIMTP
 40
0.0
  9
$DIMTM
 40
0.0
  9
$DIMTXT
 40
1.25
  9
$DIMCEN
 40
0.09
  9
$DIMTSZ
 40
0.0
  9
$DIMTOL
 70
     0
  9
$DIMLIM
 70
     0
  9
$DIMTIH
 70
     1
  9
$DIMTOH
 70
     1
  9
$DIMSE1
 70
     0
  9
$DIMSE2
 70
     0
  9
$DIMTAD
 70
     0
  9
$DIMZIN
 70
     0
  9
$DIMBLK
  1

  9
$DIMASO
 70
     1
  9
$DIMSHO
 70
     1
  9
$DIMPOST
  1

  9
$DIMAPOST
  1

  9
$DIMALT
 70
     0
  9
$DIMALTD
 70
     2
  9
$DIMALTF
 40
25.4
  9
$DIMLFAC
 40
1.0
  9
$DIMTOFL
 70
     0
  9
$DIMTVP
 40
0.0
  9
$DIMTIX
 70
     0
  9
$DIMSOXD
 70
     0
  9
$DIMSAH
 70
     0
  9
$DIMBLK1
  1

  9
$DIMBLK2
  1

  9
$DIMSTYLE
  2
Standard
  9
$DIMCLRD
 70
     0
  9
$DIMCLRE
 70
     0
  9
$DIMCLRT
 70
     0
  9
$DIMTFAC
 40
1.0
  9
$DIMGAP
 40
0.06
  9
$DIMJUST
 70
     0
  9
$DIMSD1
 70
     0
  9
$DIMSD2
 70
     0
  9
$DIMTOLJ
 70
     1
  9
$DIMTZIN
 70
     0
  9
$DIMALTZ
 70
     0
  9
$DIMALTTZ
 70
     0
  9
$DIMUPT
 70
     0
  9
$DIMDEC
 70
     3
  9
$DIMTDEC
 70
     2
  9
$DIMALTU
 70
     2
  9
$DIMALTTD
 70
     2
  9
$DIMTXSTY
  7
Standard
  9
$DIMAUNIT
 70
     0
  9
$DIMADEC
 70
     2
  9
$DIMALTRND
 40
0.0
  9
$DIMAZIN
 70
     0
  9
$DIMDSEP
 70
    46
  9
$DIMATFIT
 70
     3
  9
$DIMFRAC
 70
     0
  9
$DIMLDRBLK
  1

  9
$DIMLUNIT
 70
     2
  9
$DIMLWD
 70
    -2
  9
$DIMLWE
 70
    -2
  9
$DIMTMOVE
 70
     0
  9
$LUNITS
 70
     2
  9
$LUPREC
 70
     3
  9
$SKETCHINC
 40
0.1
  9
$FILLETRAD
 40
0.5
  9
$AUNITS
 70
     0
  9
$AUPREC
 70
     2
  9
$MENU
  1
.
  9
$ELEVATION
 40
0.0
  9
$PELEVATION
 40
0.0
  9
$THICKNESS
 40
0.0
  9
$LIMCHECK
 70
     0
  9
$CHAMFERA
 40
0.5
  9
$CHAMFERB
 40
0.5
  9
$CHAMFERC
 40
1.0
  9
$CHAMFERD
 40
0.0
  9
$SKPOLY
 70
     0
  9
$TDCREATE
 40
2456591.393136933
  9
$TDUCREATE
 40
2456591.601470266
  9
$TDUPDATE
 40
2456591.393143623
  9
$TDUUPDATE
 40
2456591.601476956
  9
$TDINDWG
 40
0.0000000116
  9
$TDUSRTIMER
 40
0.0000000116
  9
$USRTIMER
 70
     1
  9
$ANGBASE
 50
0.0
  9
$ANGDIR
 70
     0
  9
$PDMODE
 70
     0
  9
$PDSIZE
 40
-1.0
  9
$PLINEWID
 40
0.0
  9
$SPLFRAME
 70
     0
  9
$SPLINETYPE
 70
     6
  9
$SPLINESEGS
 70
     8
  9
$HANDSEED
  5
3FD
  9
$SURFTAB1
 70
     6
  9
$SURFTAB2
 70
     6
  9
$SURFTYPE
 70
     6
  9
$SURFU
 70
     6
  9
$SURFV
 70
     6
  9
$UCSBASE
  2

  9
$UCSNAME
  2

  9
$UCSORG
 10
0.0
 20
0.0
 30
0.0
  9
$UCSXDIR
 10
1.0
 20
0.0
 30
0.0
  9
$UCSYDIR
 10
0.0
 20
1.0
 30
0.0
  9
$UCSORTHOREF
  2

  9
$UCSORTHOVIEW
 70
     0
  9
$UCSORGTOP
 10
0.0
 20
0.0
 30
0.0
  9
$UCSORGBOTTOM
 10
0.0
 20
0.0
 30
0.0
  9
$UCSORGLEFT
 10
0.0
 20
0.0
 30
0.0
  9
$UCSORGRIGHT
 10
0.0
 20
0.0
 30
0.0
  9
$UCSORGFRONT
 10
0.0
 20
0.0
 30
0.0
  9
$UCSORGBACK
 10
0.0
 20
0.0
 30
0.0
  9
$PUCSBASE
  2

  9
$PUCSNAME
  2

  9
$PUCSORG
 10
0.0
 20
0.0
 30
0.0
  9
$PUCSXDIR
 10
1.0
 20
0.0
 30
0.0
  9
$PUCSYDIR
 10
0.0
 20
1.0
 30
0.0
  9
$PUCSORTHOREF
  2

  9
$PUCSORTHOVIEW
 70
     0
  9
$PUCSORGTOP
 10
0.0
 20
0.0
 30
0.0
  9
$PUCSORGBOTTOM
 10
0.0
 20
0.0
 30
0.0
  9
$PUCSORGLEFT
 10
0.0
 20
0.0
 30
0.0
  9
$PUCSORGRIGHT
 10
0.0
 20
0.0
 30
0.0
  9
$PUCSORGFRONT
 10
0.0
 20
0.0
 30
0.0
  9
$PUCSORGBACK
 10
0.0
 20
0.0
 30
0.0
  9
$USERI1
 70
     0
  9
$USERI2
 70
     0
  9
$USERI3
 70
     0
  9
$USERI4
 70
     0
  9
$USERI5
 70
     0
  9
$USERR1
 40
0.0
  9
$USERR2
 40
0.0
  9
$USERR3
 40
0.0
  9
$USERR4
 40
0.0
  9
$USERR5
 40
0.0
  9
$WORLDVIEW
 70
     1
  9
$SHADEDGE
 70
     3
  9
$SHADEDIF
 70
    70
  9
$TILEMODE
 70
     1
  9
$MAXACTVP
 70
    64
  9
$PINSBASE
 10
0.0
 20
0.0
 30
0.0
  9
$PLIMCHECK
 70
     0
  9
$PEXTMIN
 10
1.0000000000E+20
 20
1.0000000000E+20
 30
1.0000000000E+20
  9
$PEXTMAX
 10
-1.0000000000E+20
 20
-1.0000000000E+20
 30
-1.0000000000E+20
  9
$PLIMMIN
 10
0.0
 20
0.0
  9
$PLIMMAX
 10
12.0
 20
9.0
  9
$UNITMODE
 70
     0
  9
$VISRETAIN
 70
     1
  9
$PLINEGEN
 70
     0
  9
$PSLTSCALE
 70
     1
  9
$TREEDEPTH
 70
  3020
  9
$CMLSTYLE
  2
Standard
  9
$CMLJUST
 70
     0
  9
$CMLSCALE
 40
1.0
  9
$PROXYGRAPHICS
 70
     1
  9
$MEASUREMENT
 70
     0
  9
$CELWEIGHT
370
    -1
  9
$ENDCAPS
280
     0
  9
$JOINSTYLE
280
     0
  9
$LWDISPLAY
290
     1
  9
$INSUNITS
 70
     1
  9
$HYPERLINKBASE
  1

  9
$STYLESHEET
  1

  9
$XEDIT
290
     1
  9
$CEPSNTYPE
380
     0
  9
$PSTYLEMODE
290
     1
  9
$FINGERPRINTGUID
  2
{1B99544A-FB98-4CEC-9DE5-D0A6D1BC95DB}
  9
$VERSIONGUID
  2
{FAEB1C32-E019-11D5-929B-00C0DF256EC4}
  9
$EXTNAMES
290
     1
  9
$PSVPSCALE
 40
0.0
  9
$OLESTARTUP
290
     0
  9
$SORTENTS
280
   127
  9
$INDEXCTL
280
     0
  9
$HIDETEXT
280
     1
  9
$XCLIPFRAME
290
     0
  9
$HALOGAP
280
     0
  9
$OBSCOLOR
 70
   257
  9
$OBSLTYPE
280
     0
  9
$INTERSECTIONDISPLAY
280
     0
  9
$INTERSECTIONCOLOR
 70
   257
  9
$DIMASSOC
280
     2
  9
$PROJECTNAME
  1

  0
ENDSEC
  0
SECTION
  2
CLASSES
  0
CLASS
  1
ACDBDICTIONARYWDFLT
  2
AcDbDictionaryWithDefault
  3
ObjectDBX Classes
 90
        0
 91
        4
280
     0
281
     0
  0
CLASS
  1
VISUALSTYLE
  2
AcDbVisualStyle
  3
ObjectDBX Classes
 90
     4095
 91
        4
280
     0
281
     0
  0
CLASS
  1
MATERIAL
  2
AcDbMaterial
  3
ObjectDBX Classes
 90
     1153
 91
        4
280
     0
281
     0
  0
ENDSEC
  0
SECTION
  2
TABLES
  0
TABLE
  2
VPORT
  5
8
330
0
100
AcDbSymbolTable
 70
     1
  0
VPORT
  5
29
330
8
100
AcDbSymbolTableRecord
100
AcDbViewportTableRecord
  2
*Active
 70
     0
 10
0.0
 20
0.0
 11
1.0
 21
1.0
 12
50.0
 22
32.5
 13
0.0
 23
0.0
 14
0.5
 24
0.5
 15
0.5
 25
0.5
 16
0.0
 26
0.0
 36
1.0
 17
0.0
 27
0.0
 37
0.0
 40
65.0
 41
1.5384615385
 42
50.0
 43
0.0
 44
0.0
 50
0.0
 51
0.0
 71
     0
 72
  2000
 73
     1
 74
     3
 75
     0
 76
     0
 77
     0
 78
     0
281
     0
 65
     1
110
0.0
120
0.0
130
0.0
111
1.0
121
0.0
131
0.0
112
0.0
122
1.0
132
0.0
 79
     0
146
0.0
  0
ENDTAB
  0
TABLE
  2
LTYPE
  5
5
330
0
100
AcDbSymbolTable
 70
     6
  0
LTYPE
  5
14
330
5
100
AcDbSymbolTableRecord
100
AcDbLinetypeTableRecord
  2
ByBlock
 70
     0
  3

 72
    65
 73
     0
 40
0.0
  0
LTYPE
  5
15
330
5
100
AcDbSymbolTableRecord
100
AcDbLinetypeTableRecord
  2
ByLayer
 70
     0
  3

 72
    65
 73
     0
 40
0.0
  0
LTYPE
  5
16
330
5
100
AcDbSymbolTableRecord
100
AcDbLinetypeTableRecord
  2
Continuous
 70
     0
  3
Solid line
 72
    65
 73
     0
 40
0.0
  0
LTYPE
  5
3F
330
5
100
AcDbSymbolTableRecord
100
AcDbLinetypeTableRecord
  2
HIDDEN
 70
     0
  3
Hidden __ __ __ __ __ __ __ __ __ __ __ __ __ __
 72
    65
 73
     2
 40
0.075
 49
0.05
 74
     0
 49
-0.025
 74
     0
  0
LTYPE
  5
40
330
5
100
AcDbSymbolTableRecord
100
AcDbLinetypeTableRecord
  2
PHANTOM
 70
     0
  3
Phantom ______  __  __  ______  __  __  ______
 72
    65
 73
     6
 40
0.5
 49
0.25
 74
     0
 49
-0.05
 74
     0
 49
0.05
 74
     0
 49
-0.05
 74
     0
 49
0.05
 74
     0
 49
-0.05
 74
     0
  0
LTYPE
  5
41
330
5
100
AcDbSymbolTableRecord
100
AcDbLinetypeTableRecord
  2
CENTER
 70
     0
  3
Center ____ _ ____ _ ____ _ ____ _ ____ _ ____
 72
    65
 73
     4
 40
0.4
 49
0.25
 74
     0
 49
-0.05
 74
     0
 49
0.05
 74
     0
 49
-0.05
 74
     0
  0
LTYPE
  5
42
330
5
100
AcDbSymbolTableRecord
100
AcDbLinetypeTableRecord
  2
CENTERX2
 70
     0
  3
Center (2x) ________  __  ________  __  _____
 72
    65
 73
     4
 40
0.8
 49
0.5
 74
     0
 49
-0.1
 74
     0
 49
0.1
 74
     0
 49
-0.1
 74
     0
  0
LTYPE
  5
43
330
5
100
AcDbSymbolTableRecord
100
AcDbLinetypeTableRecord
  2
DOT2
 70
     0
  3
Dot (.5x) ........................................
 72
    65
 73
     2
 40
0.025
 49
0.0
 74
     0
 49
-0.025
 74
     0
  0
ENDTAB
  0
TABLE
  2
LAYER
  5
2
330
0
100
AcDbSymbolTable
 70
     4
  0
LAYER
  5
10
330
2
100
AcDbSymbolTableRecord
100
AcDbLayerTableRecord
  2
0
 70
     0
 62
     7
  6
Continuous
370
    -3
390
F
  0
LAYER
  5
44
330
2
100
AcDbSymbolTableRecord
100
AcDbLayerTableRecord
  2
SLD-0
 70
     0
 62
     7
  6
Continuous
370
    -3
390
F
  0
LAYER
  5
45
330
2
100
AcDbSymbolTableRecord
100
AcDbLayerTableRecord
  2
NOTES
 70
     0
 62
     1
  6
Continuous
370
    -3
390
F
  0
LAYER
  5
46
330
2
100
AcDbSymbolTableRecord
100
AcDbLayerTableRecord
  2
DIM
 70
     0
 62
   100
  6
Continuous
370
    -3
390
F
  0
ENDTAB
  0
TABLE
  2
STYLE
  5
3
330
0
100
AcDbSymbolTable
 70
     2
  0
STYLE
  5
11
330
3
100
AcDbSymbolTableRecord
100
AcDbTextStyleTableRecord
  2
Standard
 70
     0
 40
0.0
 41
1.0
 50
0.0
 71
     0
 42
0.1388888889
  3
txt
  4

  0
STYLE
  5
4A
330
3
100
AcDbSymbolTableRecord
100
AcDbTextStyleTableRecord
  2
SLDTEXTSTYLE0
 70
     0
 40
0.0
 41
0.75
 50
0.0
 71
     0
 42
0.2
  3
TXT
  4

  0
ENDTAB
  0
TABLE
  2
VIEW
  5
6
330
0
100
AcDbSymbolTable
 70
     0
  0
ENDTAB
  0
TABLE
  2
UCS
  5
7
330
0
100
AcDbSymbolTable
 70
     0
  0
ENDTAB
  0
TABLE
  2
APPID
  5
9
330
0
100
AcDbSymbolTable
 70
     1
  0
APPID
  5
12
330
9
100
AcDbSymbolTableRecord
100
AcDbRegAppTableRecord
  2
ACAD
 70
     0
  0
ENDTAB
  0
TABLE
  2
DIMSTYLE
  5
A
330
0
100
AcDbSymbolTable
 70
     3
100
AcDbDimStyleTable
  0
DIMSTYLE
105
27
330
A
100
AcDbSymbolTableRecord
100
AcDbDimStyleTableRecord
  2
Standard
 70
     0
178
     0
340
11
  0
DIMSTYLE
105
161
102
{ACAD_REACTORS
330
160
330
16E
330
17D
330
228
330
237
330
246
330
323
330
32E
102
}
330
A
100
AcDbSymbolTableRecord
100
AcDbDimStyleTableRecord
  2
SLDDIMSTYLE0
 70
     0
 41
1.0
 44
0.0
 45
0.000000001
 78
    12
 79
     3
140
1.25
147
0.3125
173
     1
178
     0
271
     3
272
     2
276
     2
277
     5
284
    12
340
4A
  0
DIMSTYLE
105
18D
102
{ACAD_REACTORS
330
18C
330
19C
330
313
102
}
330
A
100
AcDbSymbolTableRecord
100
AcDbDimStyleTableRecord
  2
SLDDIMSTYLE1
 70
     0
 41
1.0
 44
0.0
 45
0.000000001
 78
    12
 79
     3
140
1.25
147
0.3125
172
     1
173
     1
178
     0
271
     3
272
     2
276
     2
277
     5
284
    12
289
     0
340
4A
  0
ENDTAB
  0
TABLE
  2
BLOCK_RECORD
  5
1
330
0
100
AcDbSymbolTable
 70
    13
  0
BLOCK_RECORD
  5
1F
330
1
100
AcDbSymbolTableRecord
100
AcDbBlockTableRecord
  2
*Model_Space
340
22
  0
BLOCK_RECORD
  5
1B
330
1
100
AcDbSymbolTableRecord
100
AcDbBlockTableRecord
  2
*Paper_Space
340
1E
  0
BLOCK_RECORD
  5
23
330
1
100
AcDbSymbolTableRecord
100
AcDbBlockTableRecord
  2
*Paper_Space0
340
26
  0
BLOCK_RECORD
  5
47
330
1
100
AcDbSymbolTableRecord
100
AcDbBlockTableRecord
  2
SW_NOTE_0
340
0
102
{BLKREFS
331
4E
102
}
  0
BLOCK_RECORD
  5
162
330
1
100
AcDbSymbolTableRecord
100
AcDbBlockTableRecord
  2
_D
340
0
  0
BLOCK_RECORD
  5
16F
330
1
100
AcDbSymbolTableRecord
100
AcDbBlockTableRecord
  2
_D_1
340
0
  0
BLOCK_RECORD
  5
17E
330
1
100
AcDbSymbolTableRecord
100
AcDbBlockTableRecord
  2
_D_2
340
0
  0
BLOCK_RECORD
  5
18E
330
1
100
AcDbSymbolTableRecord
100
AcDbBlockTableRecord
  2
_D_3
340
0
  0
BLOCK_RECORD
  5
19D
330
1
100
AcDbSymbolTableRecord
100
AcDbBlockTableRecord
  2
_D_4
340
0
  0
BLOCK_RECORD
  5
229
330
1
100
AcDbSymbolTableRecord
100
AcDbBlockTableRecord
  2
_D_5
340
0
  0
BLOCK_RECORD
  5
238
330
1
100
AcDbSymbolTableRecord
100
AcDbBlockTableRecord
  2
_D_6
340
0
  0
BLOCK_RECORD
  5
247
330
1
100
AcDbSymbolTableRecord
100
AcDbBlockTableRecord
  2
_D_7
340
0
  0
BLOCK_RECORD
  5
314
330
1
100
AcDbSymbolTableRecord
100
AcDbBlockTableRecord
  2
_D_8
340
0
  0
BLOCK_RECORD
  5
324
330
1
100
AcDbSymbolTableRecord
100
AcDbBlockTableRecord
  2
_D_9
340
0
  0
BLOCK_RECORD
  5
32F
330
1
100
AcDbSymbolTableRecord
100
AcDbBlockTableRecord
  2
_D_10
340
0
  0
ENDTAB
  0
ENDSEC
  0
SECTION
  2
BLOCKS
  0
BLOCK
  5
20
330
1F
100
AcDbEntity
  8
0
100
AcDbBlockBegin
  2
*Model_Space
 70
     0
 10
0.0
 20
0.0
 30
0.0
  3
*Model_Space
  1

  0
ENDBLK
  5
21
330
1F
100
AcDbEntity
  8
0
100
AcDbBlockEnd
  0
BLOCK
  5
1C
330
1B
100
AcDbEntity
 67
     1
  8
0
100
AcDbBlockBegin
  2
*Paper_Space
 70
     0
 10
0.0
 20
0.0
 30
0.0
  3
*Paper_Space
  1

  0
ENDBLK
  5
1D
330
1B
100
AcDbEntity
 67
     1
  8
0
100
AcDbBlockEnd
  0
BLOCK
  5
24
330
23
100
AcDbEntity
  8
0
100
AcDbBlockBegin
  2
*Paper_Space0
 70
     0
 10
0.0
 20
0.0
 30
0.0
  3
*Paper_Space0
  1

  0
ENDBLK
  5
25
330
23
100
AcDbEntity
  8
0
100
AcDbBlockEnd
  0
BLOCK
  5
48
330
47
100
AcDbEntity
  8
0
100
AcDbBlockBegin
  2
SW_NOTE_0
 70
     0
 10
0.0
 20
0.0
 30
0.0
  3
SW_NOTE_0
  1

  0
MTEXT
  5
4B
330
47
100
AcDbEntity
  8
NOTES
 62
     0
100
AcDbMText
 10
0.0
 20
1.9336016097
 30
0.0
 40
1.5
 41
0.0
 71
     1
 72
     1
  1
VFP28IN2(0,1,2,3)L(N,P)-1
  7
SLDTEXTSTYLE0
 73
     1
 44
1.0
  0
MTEXT
  5
4C
330
47
100
AcDbEntity
  8
NOTES
 62
     0
100
AcDbMText
 10
0.0
 20
-0.0059817841
 30
0.0
 40
1.5
 41
0.0
 71
     1
 72
     1
  1
VFP28IN3(0,1,2,3)L(N,P)-1
  7
SLDTEXTSTYLE0
 73
     1
 44
1.0
  0
MTEXT
  5
4D
330
47
100
AcDbEntity
  8
NOTES
 62
     0
100
AcDbMText
 10
0.0
 20
-1.9455651779
 30
0.0
 40
1.5
 41
0.0
 71
     1
 72
     1
  1
VFP28IN73L(N,P)-1
  7
SLDTEXTSTYLE0
 73
     1
 44
1.0
  0
ENDBLK
  5
49
330
47
100
AcDbEntity
  8
0
100
AcDbBlockEnd
  0
BLOCK
  5
163
330
162
100
AcDbEntity
  8
0
100
AcDbBlockBegin
  2
_D
 70
     0
 10
0.0
 20
0.0
 30
0.0
  3
_D
  1

  0
SOLID
  5
165
330
162
100
AcDbEntity
  8
DIM
100
AcDbTrace
 10
33.5514355302
 20
15.1769821566
 30
0.0
 11
34.5514355302
 21
14.9269821566
 31
0.0
 12
34.5514355302
 22
15.4269821566
 32
0.0
 13
34.5514355302
 23
15.4269821566
 33
0.0
  0
SOLID
  5
166
330
162
100
AcDbEntity
  8
DIM
100
AcDbTrace
 10
62.013279846
 20
15.1769821566
 30
0.0
 11
61.013279846
 21
15.4269821566
 31
0.0
 12
61.013279846
 22
14.9269821566
 32
0.0
 13
61.013279846
 23
14.9269821566
 33
0.0
  0
LINE
  5
167
330
162
100
AcDbEntity
  8
DIM
100
AcDbLine
 10
47.7886696512
 20
16.4269821232
 30
0.0
 11
46.2886696033
 21
13.9269820434
 31
0.0
  0
LINE
  5
168
330
162
100
AcDbEntity
  8
DIM
100
AcDbLine
 10
33.5514355302
 20
15.1769821566
 30
0.0
 11
44.2678363962
 21
15.1769821566
 31
0.0
  0
LINE
  5
169
330
162
100
AcDbEntity
  8
DIM
100
AcDbLine
 10
62.013279846
 20
15.1769821566
 30
0.0
 11
50.4171419989
 21
15.1769821566
 31
0.0
  0
MTEXT
  5
16A
330
162
100
AcDbEntity
  8
DIM
100
AcDbMText
 10
44.2678363962
 20
15.8933515501
 30
7.4880630143
 40
1.25
 41
0.0
 71
     1
 72
     1
  1
28
  7
SLDTEXTSTYLE0
 73
     1
 44
1.0
  0
MTEXT
  5
16B
330
162
100
AcDbEntity
  8
DIM
100
AcDbMText
 10
46.1150585502
 20
16.7883166847
 30
7.4880630143
 40
1.25
 41
0.0
 71
     1
 72
     1
  1
7
  7
SLDTEXTSTYLE0
 73
     1
 44
1.0
  0
MTEXT
  5
16C
330
162
100
AcDbEntity
  8
DIM
100
AcDbMText
 10
47.0386696273
 20
15.1719972632
 30
7.4880630143
 40
1.25
 41
0.0
 71
     1
 72
     1
  1
16
  7
SLDTEXTSTYLE0
 73
     1
 44
1.0
  0
MTEXT
  5
16D
330
162
100
AcDbEntity
  8
DIM
100
AcDbMText
 10
48.885891928
 20
15.8933515501
 30
7.4880630143
 40
1.25
 41
0.0
 71
     1
 72
     1
  1
"
  7
SLDTEXTSTYLE0
 73
     1
 44
1.0
  0
ENDBLK
  5
164
330
162
100
AcDbEntity
  8
0
100
AcDbBlockEnd
  0
BLOCK
  5
170
330
16F
100
AcDbEntity
  8
0
100
AcDbBlockBegin
  2
_D_1
 70
     0
 10
0.0
 20
0.0
 30
0.0
  3
_D_1
  1

  0
SOLID
  5
172
330
16F
100
AcDbEntity
  8
DIM
100
AcDbTrace
 10
26.9859069776
 20
26.6437641725
 30
0.0
 11
26.7359069776
 21
25.6437641725
 31
0.0
 12
27.2359069776
 22
25.6437641725
 32
0.0
 13
27.2359069776
 23
25.6437641725
 33
0.0
  0
SOLID
  5
173
330
16F
100
AcDbEntity
  8
DIM
100
AcDbTrace
 10
26.9859069776
 20
3.9035641725
 30
0.0
 11
27.2359069776
 21
4.9035641725
 31
0.0
 12
26.7359069776
 22
4.9035641725
 32
0.0
 13
26.7359069776
 23
4.9035641725
 33
0.0
  0
LINE
  5
174
330
16F
100
AcDbEntity
  8
DIM
100
AcDbLine
 10
27.8938931898
 20
16.4269821232
 30
0.0
 11
26.393893142
 21
13.9269820434
 31
0.0
  0
LINE
  5
175
330
16F
100
AcDbEntity
  8
DIM
100
AcDbLine
 10
31.9929876094
 20
26.6437641725
 30
0.0
 11
26.9465368989
 21
26.6437641725
 31
0.0
  0
LINE
  5
176
330
16F
100
AcDbEntity
  8
DIM
100
AcDbLine
 10
32.7429876094
 20
3.9035641725
 30
0.0
 11
26.9465368989
 21
3.9035641725
 31
0.0
  0
LINE
  5
177
330
16F
100
AcDbEntity
  8
DIM
100
AcDbLine
 10
26.9859069776
 20
26.6437641725
 30
0.0
 11
26.9859069776
 21
16.7933015781
 31
0.0
  0
LINE
  5
178
330
16F
100
AcDbEntity
  8
DIM
100
AcDbLine
 10
26.9859069776
 20
3.9035641725
 30
0.0
 11
26.9859069776
 21
13.5606627352
 31
0.0
  0
MTEXT
  5
179
330
16F
100
AcDbEntity
  8
DIM
100
AcDbMText
 10
24.3730599348
 20
15.8933515501
 30
7.4880630143
 40
1.25
 41
0.0
 71
     1
 72
     1
  1
22
  7
SLDTEXTSTYLE0
 73
     1
 44
1.0
  0
MTEXT
  5
17A
330
16F
100
AcDbEntity
  8
DIM
100
AcDbMText
 10
26.2202820889
 20
16.7883166847
 30
7.4880630143
 40
1.25
 41
0.0
 71
     1
 72
     1
  1
3
  7
SLDTEXTSTYLE0
 73
     1
 44
1.0
  0
MTEXT
  5
17B
330
16F
100
AcDbEntity
  8
DIM
100
AcDbMText
 10
27.1438931659
 20
15.1719972632
 30
7.4880630143
 40
1.25
 41
0.0
 71
     1
 72
     1
  1
4
  7
SLDTEXTSTYLE0
 73
     1
 44
1.0
  0
MTEXT
  5
17C
330
16F
100
AcDbEntity
  8
DIM
100
AcDbMText
 10
28.0675042429
 20
15.8933515501
 30
7.4880630143
 40
1.25
 41
0.0
 71
     1
 72
     1
  1
"
  7
SLDTEXTSTYLE0
 73
     1
 44
1.0
  0
ENDBLK
  5
171
330
16F
100
AcDbEntity
  8
0
100
AcDbBlockEnd
  0
BLOCK
  5
17F
330
17E
100
AcDbEntity
  8
0
100
AcDbBlockBegin
  2
_D_2
 70
     0
 10
0.0
 20
0.0
 30
0.0
  3
_D_2
  1

  0
SOLID
  5
181
330
17E
100
AcDbEntity
  8
DIM
100
AcDbTrace
 10
68.2918137016
 20
22.5315641725
 30
0.0
 11
68.0418137016
 21
21.5315641725
 31
0.0
 12
68.5418137016
 22
21.5315641725
 32
0.0
 13
68.5418137016
 23
21.5315641725
 33
0.0
  0
SOLID
  5
182
330
17E
100
AcDbEntity
  8
DIM
100
AcDbTrace
 10
68.2918137016
 20
7.822141606
 30
0.0
 11
68.5418137016
 21
8.822141606
 31
0.0
 12
68.0418137016
 22
8.822141606
 32
0.0
 13
68.0418137016
 23
8.822141606
 33
0.0
  0
LINE
  5
183
330
17E
100
AcDbEntity
  8
DIM
100
AcDbLine
 10
69.1997997672
 20
16.4269821232
 30
0.0
 11
67.6997997193
 21
13.9269820434
 31
0.0
  0
LINE
  5
184
330
17E
100
AcDbEntity
  8
DIM
100
AcDbLine
 10
63.9230359204
 20
22.5315641725
 30
0.0
 11
68.3311837804
 21
22.5315641725
 31
0.0
  0
LINE
  5
185
330
17E
100
AcDbEntity
  8
DIM
100
AcDbLine
 10
63.9235281475
 20
7.822141606
 30
0.0
 11
68.3311837804
 21
7.822141606
 31
0.0
  0
LINE
  5
186
330
17E
100
AcDbEntity
  8
DIM
100
AcDbLine
 10
68.2918137016
 20
22.5315641725
 30
0.0
 11
68.2918137016
 21
16.7933015781
 31
0.0
  0
LINE
  5
187
330
17E
100
AcDbEntity
  8
DIM
100
AcDbLine
 10
68.2918137016
 20
7.822141606
 30
0.0
 11
68.2918137016
 21
13.5606627352
 31
0.0
  0
MTEXT
  5
188
330
17E
100
AcDbEntity
  8
DIM
100
AcDbMText
 10
64.7553554351
 20
15.8933515501
 30
7.4880630143
 40
1.25
 41
0.0
 71
     1
 72
     1
  1
14
  7
SLDTEXTSTYLE0
 73
     1
 44
1.0
  0
MTEXT
  5
189
330
17E
100
AcDbEntity
  8
DIM
100
AcDbMText
 10
66.6025775892
 20
16.7883166847
 30
7.4880630143
 40
1.25
 41
0.0
 71
     1
 72
     1
  1
11
  7
SLDTEXTSTYLE0
 73
     1
 44
1.0
  0
MTEXT
  5
18A
330
17E
100
AcDbEntity
  8
DIM
100
AcDbMText
 10
68.4497997432
 20
15.1719972632
 30
7.4880630143
 40
1.25
 41
0.0
 71
     1
 72
     1
  1
16
  7
SLDTEXTSTYLE0
 73
     1
 44
1.0
  0
MTEXT
  5
18B
330
17E
100
AcDbEntity
  8
DIM
100
AcDbMText
 10
70.2970221906
 20
15.8933515501
 30
7.4880630143
 40
1.25
 41
0.0
 71
     1
 72
     1
  1
"
  7
SLDTEXTSTYLE0
 73
     1
 44
1.0
  0
ENDBLK
  5
180
330
17E
100
AcDbEntity
  8
0
100
AcDbBlockEnd
  0
BLOCK
  5
18F
330
18E
100
AcDbEntity
  8
0
100
AcDbBlockBegin
  2
_D_3
 70
     0
 10
0.0
 20
0.0
 30
0.0
  3
_D_3
  1

  0
SOLID
  5
191
330
18E
100
AcDbEntity
  8
DIM
100
AcDbTrace
 10
68.2918137016
 20
26.6437641725
 30
0.0
 11
68.5418137016
 21
27.6437641725
 31
0.0
 12
68.0418137016
 22
27.6437641725
 32
0.0
 13
68.0418137016
 23
27.6437641725
 33
0.0
  0
SOLID
  5
192
330
18E
100
AcDbEntity
  8
DIM
100
AcDbTrace
 10
68.2918137016
 20
22.5315641725
 30
0.0
 11
68.0418137016
 21
21.5315641725
 31
0.0
 12
68.5418137016
 22
21.5315641725
 32
0.0
 13
68.5418137016
 23
21.5315641725
 33
0.0
  0
LINE
  5
193
330
18E
100
AcDbEntity
  8
DIM
100
AcDbLine
 10
68.7379941553
 20
25.8376641391
 30
0.0
 11
67.2379941074
 21
23.3376640593
 31
0.0
  0
LINE
  5
194
330
18E
100
AcDbEntity
  8
DIM
100
AcDbLine
 10
63.5717277669
 20
26.6437641725
 30
0.0
 11
68.3311837804
 21
26.6437641725
 31
0.0
  0
LINE
  5
195
330
18E
100
AcDbEntity
  8
DIM
100
AcDbLine
 10
63.9230359204
 20
22.5315641725
 30
0.0
 11
68.3311837804
 21
22.5315641725
 31
0.0
  0
LINE
  5
196
330
18E
100
AcDbEntity
  8
DIM
100
AcDbLine
 10
68.2918137016
 20
26.6437641725
 30
0.0
 11
68.2918137016
 21
28.1437641725
 31
0.0
  0
LINE
  5
197
330
18E
100
AcDbEntity
  8
DIM
100
AcDbLine
 10
68.2918137016
 20
22.5315641725
 30
0.0
 11
68.2918137016
 21
21.0315641725
 31
0.0
  0
MTEXT
  5
198
330
18E
100
AcDbEntity
  8
DIM
100
AcDbMText
 10
66.1407719773
 20
25.3040335659
 30
7.4880630143
 40
1.25
 41
0.0
 71
     1
 72
     1
  1
4
  7
SLDTEXTSTYLE0
 73
     1
 44
1.0
  0
MTEXT
  5
199
330
18E
100
AcDbEntity
  8
DIM
100
AcDbMText
 10
67.0643830543
 20
26.1989987006
 30
7.4880630143
 40
1.25
 41
0.0
 71
     1
 72
     1
  1
1
  7
SLDTEXTSTYLE0
 73
     1
 44
1.0
  0
MTEXT
  5
19A
330
18E
100
AcDbEntity
  8
DIM
100
AcDbMText
 10
67.9879941314
 20
24.5826792791
 30
7.4880630143
 40
1.25
 41
0.0
 71
     1
 72
     1
  1
8
  7
SLDTEXTSTYLE0
 73
     1
 44
1.0
  0
MTEXT
  5
19B
330
18E
100
AcDbEntity
  8
DIM
100
AcDbMText
 10
68.9116053551
 20
25.3040335659
 30
7.4880630143
 40
1.25
 41
0.0
 71
     1
 72
     1
  1
"
  7
SLDTEXTSTYLE0
 73
     1
 44
1.0
  0
ENDBLK
  5
190
330
18E
100
AcDbEntity
  8
0
100
AcDbBlockEnd
  0
BLOCK
  5
19E
330
19D
100
AcDbEntity
  8
0
100
AcDbBlockBegin
  2
_D_4
 70
     0
 10
0.0
 20
0.0
 30
0.0
  3
_D_4
  1

  0
SOLID
  5
1A0
330
19D
100
AcDbEntity
  8
DIM
100
AcDbTrace
 10
68.2918137016
 20
3.9035641725
 30
0.0
 11
68.0418137016
 21
2.9035641725
 31
0.0
 12
68.5418137016
 22
2.9035641725
 32
0.0
 13
68.5418137016
 23
2.9035641725
 33
0.0
  0
SOLID
  5
1A1
330
19D
100
AcDbEntity
  8
DIM
100
AcDbTrace
 10
68.2918137016
 20
7.822141606
 30
0.0
 11
68.5418137016
 21
8.822141606
 31
0.0
 12
68.0418137016
 22
8.822141606
 32
0.0
 13
68.0418137016
 23
8.822141606
 33
0.0
  0
LINE
  5
1A2
330
19D
100
AcDbEntity
  8
DIM
100
AcDbLine
 10
68.7379944486
 20
7.1128528558
 30
0.0
 11
67.2379944008
 21
4.612852776
 31
0.0
  0
LINE
  5
1A3
330
19D
100
AcDbEntity
  8
DIM
100
AcDbLine
 10
62.8217277669
 20
3.9035641725
 30
0.0
 11
68.3311837804
 21
3.9035641725
 31
0.0
  0
LINE
  5
1A4
330
19D
100
AcDbEntity
  8
DIM
100
AcDbLine
 10
63.9235281475
 20
7.822141606
 30
0.0
 11
68.3311837804
 21
7.822141606
 31
0.0
  0
LINE
  5
1A5
330
19D
100
AcDbEntity
  8
DIM
100
AcDbLine
 10
68.2918137016
 20
3.9035641725
 30
0.0
 11
68.2918137016
 21
2.4035641725
 31
0.0
  0
LINE
  5
1A6
330
19D
100
AcDbEntity
  8
DIM
100
AcDbLine
 10
68.2918137016
 20
7.822141606
 30
0.0
 11
68.2918137016
 21
9.322141606
 31
0.0
  0
MTEXT
  5
1A7
330
19D
100
AcDbEntity
  8
DIM
100
AcDbMText
 10
65.2171611936
 20
6.5792222827
 30
7.4880630143
 40
1.25
 41
0.0
 71
     1
 72
     1
  1
3
  7
SLDTEXTSTYLE0
 73
     1
 44
1.0
  0
MTEXT
  5
1A8
330
19D
100
AcDbEntity
  8
DIM
100
AcDbMText
 10
66.1407722706
 20
7.4741874173
 30
7.4880630143
 40
1.25
 41
0.0
 71
     1
 72
     1
  1
15
  7
SLDTEXTSTYLE0
 73
     1
 44
1.0
  0
MTEXT
  5
1A9
330
19D
100
AcDbEntity
  8
DIM
100
AcDbMText
 10
67.9879944247
 20
5.8578679958
 30
7.4880630143
 40
1.25
 41
0.0
 71
     1
 72
     1
  1
16
  7
SLDTEXTSTYLE0
 73
     1
 44
1.0
  0
MTEXT
  5
1AA
330
19D
100
AcDbEntity
  8
DIM
100
AcDbMText
 10
69.8352164321
 20
6.5792222827
 30
7.4880630143
 40
1.25
 41
0.0
 71
     1
 72
     1
  1
"
  7
SLDTEXTSTYLE0
 73
     1
 44
1.0
  0
ENDBLK
  5
19F
330
19D
100
AcDbEntity
  8
0
100
AcDbBlockEnd
  0
BLOCK
  5
22A
330
229
100
AcDbEntity
  8
0
100
AcDbBlockBegin
  2
_D_5
 70
     0
 10
0.0
 20
0.0
 30
0.0
  3
_D_5
  1

  0
SOLID
  5
22C
330
229
100
AcDbEntity
  8
DIM
100
AcDbTrace
 10
38.8023484531
 20
60.4273866897
 30
0.0
 11
39.8023484531
 21
60.1773866897
 31
0.0
 12
39.8023484531
 22
60.6773866897
 32
0.0
 13
39.8023484531
 23
60.6773866897
 33
0.0
  0
SOLID
  5
22D
330
229
100
AcDbEntity
  8
DIM
100
AcDbTrace
 10
56.7623669232
 20
60.4273866897
 30
0.0
 11
55.7623669232
 21
60.6773866897
 31
0.0
 12
55.7623669232
 22
60.1773866897
 32
0.0
 13
55.7623669232
 23
60.1773866897
 33
0.0
  0
LINE
  5
22E
330
229
100
AcDbEntity
  8
DIM
100
AcDbLine
 10
48.6903437536
 20
61.6773866563
 30
0.0
 11
47.1903437058
 21
59.1773865765
 31
0.0
  0
LINE
  5
22F
330
229
100
AcDbEntity
  8
DIM
100
AcDbLine
 10
38.8023484531
 20
57.0197196731
 30
0.0
 11
38.8023484531
 21
60.4667567685
 31
0.0
  0
LINE
  5
230
330
229
100
AcDbEntity
  8
DIM
100
AcDbLine
 10
56.7623669232
 20
57.0197196731
 30
0.0
 11
56.7623669232
 21
60.4667567685
 31
0.0
  0
LINE
  5
231
330
229
100
AcDbEntity
  8
DIM
100
AcDbLine
 10
38.8023484531
 20
60.4273866897
 30
0.0
 11
44.2458994216
 21
60.4273866897
 31
0.0
  0
LINE
  5
232
330
229
100
AcDbEntity
  8
DIM
100
AcDbLine
 10
56.7623669232
 20
60.4273866897
 30
0.0
 11
51.3188159546
 21
60.4273866897
 31
0.0
  0
MTEXT
  5
233
330
229
100
AcDbEntity
  8
DIM
100
AcDbMText
 10
44.2458994216
 20
61.1437560831
 30
-0.8023470203
 40
1.25
 41
0.0
 71
     1
 72
     1
  1
17
  7
SLDTEXTSTYLE0
 73
     1
 44
1.0
  0
MTEXT
  5
234
330
229
100
AcDbEntity
  8
DIM
100
AcDbMText
 10
46.0931215756
 20
62.0387212178
 30
-0.8023470203
 40
1.25
 41
0.0
 71
     1
 72
     1
  1
15
  7
SLDTEXTSTYLE0
 73
     1
 44
1.0
  0
MTEXT
  5
235
330
229
100
AcDbEntity
  8
DIM
100
AcDbMText
 10
47.9403437297
 20
60.4224017963
 30
-0.8023470203
 40
1.25
 41
0.0
 71
     1
 72
     1
  1
16
  7
SLDTEXTSTYLE0
 73
     1
 44
1.0
  0
MTEXT
  5
236
330
229
100
AcDbEntity
  8
DIM
100
AcDbMText
 10
49.7875661771
 20
61.1437560831
 30
-0.8023470203
 40
1.25
 41
0.0
 71
     1
 72
     1
  1
"
  7
SLDTEXTSTYLE0
 73
     1
 44
1.0
  0
ENDBLK
  5
22B
330
229
100
AcDbEntity
  8
0
100
AcDbBlockEnd
  0
BLOCK
  5
239
330
238
100
AcDbEntity
  8
0
100
AcDbBlockBegin
  2
_D_6
 70
     0
 10
0.0
 20
0.0
 30
0.0
  3
_D_6
  1

  0
SOLID
  5
23B
330
238
100
AcDbEntity
  8
DIM
100
AcDbTrace
 10
31.649777428
 20
35.2375645118
 30
0.0
 11
32.649777428
 21
34.9875645118
 31
0.0
 12
32.649777428
 22
35.4875645118
 32
0.0
 13
32.649777428
 23
35.4875645118
 33
0.0
  0
SOLID
  5
23C
330
238
100
AcDbEntity
  8
DIM
100
AcDbTrace
 10
63.9149379482
 20
35.2375645118
 30
0.0
 11
62.9149379482
 21
35.4875645118
 31
0.0
 12
62.9149379482
 22
34.9875645118
 32
0.0
 13
62.9149379482
 23
34.9875645118
 33
0.0
  0
LINE
  5
23D
330
238
100
AcDbEntity
  8
DIM
100
AcDbLine
 10
48.6903439003
 20
36.4875644784
 30
0.0
 11
47.1903438524
 21
33.9875643986
 31
0.0
  0
LINE
  5
23E
330
238
100
AcDbEntity
  8
DIM
100
AcDbLine
 10
31.649777428
 20
42.0066177135
 30
0.0
 11
31.649777428
 21
35.1981944331
 31
0.0
  0
LINE
  5
23F
330
238
100
AcDbEntity
  8
DIM
100
AcDbLine
 10
63.9149379482
 20
42.0066177135
 30
0.0
 11
63.9149379482
 21
35.1981944331
 31
0.0
  0
LINE
  5
240
330
238
100
AcDbEntity
  8
DIM
100
AcDbLine
 10
31.649777428
 20
35.2375645118
 30
0.0
 11
45.1695106453
 21
35.2375645118
 31
0.0
  0
LINE
  5
241
330
238
100
AcDbEntity
  8
DIM
100
AcDbLine
 10
63.9149379482
 20
35.2375645118
 30
0.0
 11
50.3952047309
 21
35.2375645118
 31
0.0
  0
MTEXT
  5
242
330
238
100
AcDbEntity
  8
DIM
100
AcDbMText
 10
45.1695106453
 20
35.9539339053
 30
-0.8023470203
 40
1.25
 41
0.0
 71
     1
 72
     1
  1
32
  7
SLDTEXTSTYLE0
 73
     1
 44
1.0
  0
MTEXT
  5
243
330
238
100
AcDbEntity
  8
DIM
100
AcDbMText
 10
47.0167327993
 20
36.8488990399
 30
-0.8023470203
 40
1.25
 41
0.0
 71
     1
 72
     1
  1
1
  7
SLDTEXTSTYLE0
 73
     1
 44
1.0
  0
MTEXT
  5
244
330
238
100
AcDbEntity
  8
DIM
100
AcDbMText
 10
47.9403438764
 20
35.2325796184
 30
-0.8023470203
 40
1.25
 41
0.0
 71
     1
 72
     1
  1
4
  7
SLDTEXTSTYLE0
 73
     1
 44
1.0
  0
MTEXT
  5
245
330
238
100
AcDbEntity
  8
DIM
100
AcDbMText
 10
48.8639549534
 20
35.9539339053
 30
-0.8023470203
 40
1.25
 41
0.0
 71
     1
 72
     1
  1
"
  7
SLDTEXTSTYLE0
 73
     1
 44
1.0
  0
ENDBLK
  5
23A
330
238
100
AcDbEntity
  8
0
100
AcDbBlockEnd
  0
BLOCK
  5
248
330
247
100
AcDbEntity
  8
0
100
AcDbBlockBegin
  2
_D_7
 70
     0
 10
0.0
 20
0.0
 30
0.0
  3
_D_7
  1

  0
SOLID
  5
24A
330
247
100
AcDbEntity
  8
DIM
100
AcDbTrace
 10
32.7545421725
 20
38.7375645118
 30
0.0
 11
33.7545421725
 21
38.4875645118
 31
0.0
 12
33.7545421725
 22
38.9875645118
 32
0.0
 13
33.7545421725
 23
38.9875645118
 33
0.0
  0
SOLID
  5
24B
330
247
100
AcDbEntity
  8
DIM
100
AcDbTrace
 10
62.8101732038
 20
38.7375645118
 30
0.0
 11
61.8101732038
 21
38.9875645118
 31
0.0
 12
61.8101732038
 22
38.4875645118
 32
0.0
 13
61.8101732038
 23
38.4875645118
 33
0.0
  0
LINE
  5
24C
330
247
100
AcDbEntity
  8
DIM
100
AcDbLine
 10
48.2285381418
 20
39.9875644784
 30
0.0
 11
46.7285380939
 21
37.4875643986
 31
0.0
  0
LINE
  5
24D
330
247
100
AcDbEntity
  8
DIM
100
AcDbLine
 10
32.7545421725
 20
42.0066177135
 30
0.0
 11
32.7545421725
 21
38.6981944331
 31
0.0
  0
LINE
  5
24E
330
247
100
AcDbEntity
  8
DIM
100
AcDbLine
 10
62.8101732038
 20
42.0066177135
 30
0.0
 11
62.8101732038
 21
38.6981944331
 31
0.0
  0
LINE
  5
24F
330
247
100
AcDbEntity
  8
DIM
100
AcDbLine
 10
32.7545421725
 20
38.7375645118
 30
0.0
 11
44.7077048868
 21
38.7375645118
 31
0.0
  0
LINE
  5
250
330
247
100
AcDbEntity
  8
DIM
100
AcDbLine
 10
62.8101732038
 20
38.7375645118
 30
0.0
 11
50.8570104895
 21
38.7375645118
 31
0.0
  0
MTEXT
  5
251
330
247
100
AcDbEntity
  8
DIM
100
AcDbMText
 10
44.7077048868
 20
39.4539339053
 30
-0.8023470203
 40
1.25
 41
0.0
 71
     1
 72
     1
  1
30
  7
SLDTEXTSTYLE0
 73
     1
 44
1.0
  0
MTEXT
  5
252
330
247
100
AcDbEntity
  8
DIM
100
AcDbMText
 10
46.5549270408
 20
40.3488990399
 30
-0.8023470203
 40
1.25
 41
0.0
 71
     1
 72
     1
  1
1
  7
SLDTEXTSTYLE0
 73
     1
 44
1.0
  0
MTEXT
  5
253
330
247
100
AcDbEntity
  8
DIM
100
AcDbMText
 10
47.4785381179
 20
38.7325796184
 30
-0.8023470203
 40
1.25
 41
0.0
 71
     1
 72
     1
  1
16
  7
SLDTEXTSTYLE0
 73
     1
 44
1.0
  0
MTEXT
  5
254
330
247
100
AcDbEntity
  8
DIM
100
AcDbMText
 10
49.3257604186
 20
39.4539339053
 30
-0.8023470203
 40
1.25
 41
0.0
 71
     1
 72
     1
  1
"
  7
SLDTEXTSTYLE0
 73
     1
 44
1.0
  0
ENDBLK
  5
249
330
247
100
AcDbEntity
  8
0
100
AcDbBlockEnd
  0
BLOCK
  5
315
330
314
100
AcDbEntity
  8
0
100
AcDbBlockBegin
  2
_D_8
 70
     0
 10
0.0
 20
0.0
 30
0.0
  3
_D_8
  1

  0
SOLID
  5
317
330
314
100
AcDbEntity
  8
DIM
100
AcDbTrace
 10
75.8225226295
 20
25.0187641725
 30
0.0
 11
75.5725226295
 21
24.0187641725
 31
0.0
 12
76.0725226295
 22
24.0187641725
 32
0.0
 13
76.0725226295
 23
24.0187641725
 33
0.0
  0
SOLID
  5
318
330
314
100
AcDbEntity
  8
DIM
100
AcDbTrace
 10
75.8225226295
 20
26.6437641725
 30
0.0
 11
76.0725226295
 21
27.6437641725
 31
0.0
 12
75.5725226295
 22
27.6437641725
 32
0.0
 13
75.5725226295
 23
27.6437641725
 33
0.0
  0
LINE
  5
319
330
314
100
AcDbEntity
  8
DIM
100
AcDbLine
 10
73.2411931095
 20
29.7423805016
 30
0.0
 11
71.7411930616
 21
27.2423804218
 31
0.0
  0
LINE
  5
31A
330
314
100
AcDbEntity
  8
DIM
100
AcDbLine
 10
79.1259376333
 20
25.0187641725
 30
0.0
 11
75.7831525508
 21
25.0187641725
 31
0.0
  0
LINE
  5
31B
330
314
100
AcDbEntity
  8
DIM
100
AcDbLine
 10
79.0959376333
 20
26.6437641725
 30
0.0
 11
75.7831525508
 21
26.6437641725
 31
0.0
  0
LINE
  5
31C
330
314
100
AcDbEntity
  8
DIM
100
AcDbLine
 10
74.9460543801
 20
28.492380535
 30
0.0
 11
75.8225226295
 21
28.492380535
 31
0.0
  0
LINE
  5
31D
330
314
100
AcDbEntity
  8
DIM
100
AcDbLine
 10
75.8225226295
 20
28.492380535
 30
0.0
 11
75.8225226295
 21
26.6437641725
 31
0.0
  0
LINE
  5
31E
330
314
100
AcDbEntity
  8
DIM
100
AcDbLine
 10
75.8225226295
 20
25.0187641725
 30
0.0
 11
75.8225226295
 21
23.5187641725
 31
0.0
  0
MTEXT
  5
31F
330
314
100
AcDbEntity
  8
DIM
100
AcDbMText
 10
70.6439709315
 20
29.2087499285
 30
0.0039370079
 40
1.25
 41
0.0
 71
     1
 72
     1
  1
1
  7
SLDTEXTSTYLE0
 73
     1
 44
1.0
  0
MTEXT
  5
320
330
314
100
AcDbEntity
  8
DIM
100
AcDbMText
 10
71.5675820085
 20
30.1037150631
 30
0.0039370079
 40
1.25
 41
0.0
 71
     1
 72
     1
  1
5
  7
SLDTEXTSTYLE0
 73
     1
 44
1.0
  0
MTEXT
  5
321
330
314
100
AcDbEntity
  8
DIM
100
AcDbMText
 10
72.4911930855
 20
28.4873956416
 30
0.0039370079
 40
1.25
 41
0.0
 71
     1
 72
     1
  1
8
  7
SLDTEXTSTYLE0
 73
     1
 44
1.0
  0
MTEXT
  5
322
330
314
100
AcDbEntity
  8
DIM
100
AcDbMText
 10
73.4148043092
 20
29.2087499285
 30
0.0039370079
 40
1.25
 41
0.0
 71
     1
 72
     1
  1
"
  7
SLDTEXTSTYLE0
 73
     1
 44
1.0
  0
ENDBLK
  5
316
330
314
100
AcDbEntity
  8
0
100
AcDbBlockEnd
  0
BLOCK
  5
325
330
324
100
AcDbEntity
  8
0
100
AcDbBlockBegin
  2
_D_9
 70
     0
 10
0.0
 20
0.0
 30
0.0
  3
_D_9
  1

  0
SOLID
  5
327
330
324
100
AcDbEntity
  8
DIM
100
AcDbTrace
 10
79.1077077121
 20
29.1437641725
 30
0.0
 11
80.1077077121
 21
28.8937641725
 31
0.0
 12
80.1077077121
 22
29.3937641725
 32
0.0
 13
80.1077077121
 23
29.3937641725
 33
0.0
  0
SOLID
  5
328
330
324
100
AcDbEntity
  8
DIM
100
AcDbTrace
 10
94.1229077121
 20
29.1437641725
 30
0.0
 11
93.1229077121
 21
29.3937641725
 31
0.0
 12
93.1229077121
 22
28.8937641725
 32
0.0
 13
93.1229077121
 23
28.8937641725
 33
0.0
  0
LINE
  5
329
330
324
100
AcDbEntity
  8
DIM
100
AcDbLine
 10
79.1077077121
 20
26.6831342512
 30
0.0
 11
79.1077077121
 21
29.1831342512
 31
0.0
  0
LINE
  5
32A
330
324
100
AcDbEntity
  8
DIM
100
AcDbLine
 10
94.1229077121
 20
25.0005342512
 30
0.0
 11
94.1229077121
 21
29.1831342512
 31
0.0
  0
LINE
  5
32B
330
324
100
AcDbEntity
  8
DIM
100
AcDbLine
 10
79.1077077121
 20
29.1437641725
 30
0.0
 11
84.9260715996
 21
29.1437641725
 31
0.0
  0
LINE
  5
32C
330
324
100
AcDbEntity
  8
DIM
100
AcDbLine
 10
94.1229077121
 20
29.1437641725
 30
0.0
 11
88.3045438245
 21
29.1437641725
 31
0.0
  0
MTEXT
  5
32D
330
324
100
AcDbEntity
  8
DIM
100
AcDbMText
 10
84.9260715996
 20
29.7629114091
 30
0.0039370079
 40
1.25
 41
0.0
 71
     1
 72
     1
  1
15"
  7
SLDTEXTSTYLE0
 73
     1
 44
1.0
  0
ENDBLK
  5
326
330
324
100
AcDbEntity
  8
0
100
AcDbBlockEnd
  0
BLOCK
  5
330
330
32F
100
AcDbEntity
  8
0
100
AcDbBlockBegin
  2
_D_10
 70
     0
 10
0.0
 20
0.0
 30
0.0
  3
_D_10
  1

  0
SOLID
  5
332
330
32F
100
AcDbEntity
  8
DIM
100
AcDbTrace
 10
97.5123448074
 20
25.0187641725
 30
0.0
 11
97.2623448074
 21
24.0187641725
 31
0.0
 12
97.7623448074
 22
24.0187641725
 32
0.0
 13
97.7623448074
 23
24.0187641725
 33
0.0
  0
SOLID
  5
333
330
32F
100
AcDbEntity
  8
DIM
100
AcDbTrace
 10
97.5123448074
 20
3.9035641725
 30
0.0
 11
97.7623448074
 21
4.9035641725
 31
0.0
 12
97.2623448074
 22
4.9035641725
 32
0.0
 13
97.2623448074
 23
4.9035641725
 33
0.0
  0
LINE
  5
334
330
32F
100
AcDbEntity
  8
DIM
100
AcDbLine
 10
98.4203310196
 20
16.1762437407
 30
0.0
 11
96.9203309717
 21
13.6762436609
 31
0.0
  0
LINE
  5
335
330
32F
100
AcDbEntity
  8
DIM
100
AcDbLine
 10
94.1046777908
 20
25.0187641725
 30
0.0
 11
97.5517148861
 21
25.0187641725
 31
0.0
  0
LINE
  5
336
330
32F
100
AcDbEntity
  8
DIM
100
AcDbLine
 10
94.1046777908
 20
3.9035641725
 30
0.0
 11
97.5517148861
 21
3.9035641725
 31
0.0
  0
LINE
  5
337
330
32F
100
AcDbEntity
  8
DIM
100
AcDbLine
 10
97.5123448074
 20
25.0187641725
 30
0.0
 11
97.5123448074
 21
16.5425631956
 31
0.0
  0
LINE
  5
338
330
32F
100
AcDbEntity
  8
DIM
100
AcDbLine
 10
97.5123448074
 20
3.9035641725
 30
0.0
 11
97.5123448074
 21
13.3099243526
 31
0.0
  0
MTEXT
  5
339
330
32F
100
AcDbEntity
  8
DIM
100
AcDbMText
 10
94.8994977646
 20
15.6426131675
 30
0.0039370079
 40
1.25
 41
0.0
 71
     1
 72
     1
  1
21
  7
SLDTEXTSTYLE0
 73
     1
 44
1.0
  0
MTEXT
  5
33A
330
32F
100
AcDbEntity
  8
DIM
100
AcDbMText
 10
96.7467199186
 20
16.5375783022
 30
0.0039370079
 40
1.25
 41
0.0
 71
     1
 72
     1
  1
1
  7
SLDTEXTSTYLE0
 73
     1
 44
1.0
  0
MTEXT
  5
33B
330
32F
100
AcDbEntity
  8
DIM
100
AcDbMText
 10
97.6703309957
 20
14.9212588807
 30
0.0039370079
 40
1.25
 41
0.0
 71
     1
 72
     1
  1
8
  7
SLDTEXTSTYLE0
 73
     1
 44
1.0
  0
MTEXT
  5
33C
330
32F
100
AcDbEntity
  8
DIM
100
AcDbMText
 10
98.5939420727
 20
15.6426131675
 30
0.0039370079
 40
1.25
 41
0.0
 71
     1
 72
     1
  1
"
  7
SLDTEXTSTYLE0
 73
     1
 44
1.0
  0
ENDBLK
  5
331
330
32F
100
AcDbEntity
  8
0
100
AcDbBlockEnd
  0
ENDSEC
  0
SECTION
  2
ENTITIES
  0
INSERT
  5
4E
330
1F
100
AcDbEntity
  8
NOTES
100
AcDbBlockReference
  2
SW_NOTE_0
 10
1.1728042064
 20
59.7271105247
 30
0.0
  0
MTEXT
  5
4F
330
1F
100
AcDbEntity
  8
NOTES
100
AcDbMText
 10
1.1728042064
 20
50.618939796
 30
0.0
 40
1.0
 41
0.0
 71
     1
 72
     1
  1
REQUIRES DECORATIVE SURROUND
  7
SLDTEXTSTYLE0
 73
     1
 44
1.0
  0
LINE
  5
50
330
1F
100
AcDbEntity
  8
SLD-0
  6
Continuous
370
    15
100
AcDbLine
 10
62.7823581668
 20
4.4977327109
 30
0.0
 11
32.7823572094
 21
4.4977327109
 31
0.0
  0
LINE
  5
51
330
1F
100
AcDbEntity
  8
SLD-0
  6
Continuous
370
    15
100
AcDbLine
 10
35.1573582532
 20
22.5279641041
 30
0.0
 11
35.0323574572
 21
22.5279641041
 31
0.0
  0
LINE
  5
52
330
1F
100
AcDbEntity
  8
SLD-0
  6
Continuous
370
    15
100
AcDbLine
 10
35.0323574572
 20
22.5615644627
 30
0.0
 11
35.0323574572
 21
22.5279641041
 31
0.0
  0
LINE
  5
53
330
1F
100
AcDbEntity
  8
SLD-0
  6
Continuous
370
    15
100
AcDbLine
 10
35.1573582532
 20
22.5279641041
 30
0.0
 11
35.1573582532
 21
22.5615644627
 31
0.0
  0
LINE
  5
54
330
1F
100
AcDbEntity
  8
SLD-0
  6
Continuous
370
    15
100
AcDbLine
 10
34.5323577932
 20
22.5279641041
 30
0.0
 11
34.5323577932
 21
22.5615644627
 31
0.0
  0
LINE
  5
55
330
1F
100
AcDbEntity
  8
SLD-0
  6
Continuous
370
    15
100
AcDbLine
 10
34.5323577932
 20
22.5279641041
 30
0.0
 11
34.4073581706
 21
22.5279641041
 31
0.0
  0
LINE
  5
56
330
1F
100
AcDbEntity
  8
SLD-0
  6
Continuous
370
    15
100
AcDbLine
 10
34.4073581706
 20
22.5615644627
 30
0.0
 11
34.4073581706
 21
22.5279641041
 31
0.0
  0
LINE
  5
57
330
1F
100
AcDbEntity
  8
SLD-0
  6
Continuous
370
    15
100
AcDbLine
 10
34.2823573746
 20
24.0615640412
 30
0.0
 11
34.1573577519
 21
24.0615640412
 31
0.0
  0
LINE
  5
58
330
1F
100
AcDbEntity
  8
SLD-0
  6
Continuous
370
    15
100
AcDbLine
 10
34.2823573746
 20
24.0615640412
 30
0.0
 11
34.2823573746
 21
24.0478954524
 31
0.0
  0
LINE
  5
59
330
1F
100
AcDbEntity
  8
SLD-0
  6
Continuous
370
    15
100
AcDbLine
 10
34.2823573746
 20
24.0478954524
 30
0.0
 11
35.2823578758
 21
24.0478954524
 31
0.0
  0
LINE
  5
5A
330
1F
100
AcDbEntity
  8
SLD-0
  6
Continuous
370
    15
100
AcDbLine
 10
35.2823578758
 20
24.0478954524
 30
0.0
 11
35.2823578758
 21
24.0615640412
 31
0.0
  0
LINE
  5
5B
330
1F
100
AcDbEntity
  8
SLD-0
  6
Continuous
370
    15
100
AcDbLine
 10
35.4073574985
 20
24.0615640412
 30
0.0
 11
35.2823578758
 21
24.0615640412
 31
0.0
  0
LINE
  5
5C
330
1F
100
AcDbEntity
  8
SLD-0
  6
Continuous
370
    15
100
AcDbLine
 10
35.4073574985
 20
24.0615640412
 30
0.0
 11
35.4073574985
 21
23.3115639586
 31
0.0
  0
LINE
  5
5D
330
1F
100
AcDbEntity
  8
SLD-0
  6
Continuous
370
    15
100
AcDbLine
 10
34.1573577519
 20
23.3115639586
 30
0.0
 11
34.1573577519
 21
24.0615640412
 31
0.0
  0
LINE
  5
5E
330
1F
100
AcDbEntity
  8
SLD-0
  6
Continuous
370
    15
100
AcDbLine
 10
47.2823576942
 20
24.0478954524
 30
0.0
 11
48.2823576821
 21
24.0478954524
 31
0.0
  0
LINE
  5
5F
330
1F
100
AcDbEntity
  8
SLD-0
  6
Continuous
370
    15
100
AcDbLine
 10
48.2823576821
 20
24.0478954524
 30
0.0
 11
48.2823576821
 21
24.0615640412
 31
0.0
  0
LINE
  5
60
330
1F
100
AcDbEntity
  8
SLD-0
  6
Continuous
370
    15
100
AcDbLine
 10
48.4073577081
 20
24.0615640412
 30
0.0
 11
48.2823576821
 21
24.0615640412
 31
0.0
  0
LINE
  5
61
330
1F
100
AcDbEntity
  8
SLD-0
  6
Continuous
370
    15
100
AcDbLine
 10
47.2823576942
 20
24.0615640412
 30
0.0
 11
47.1573576682
 21
24.0615640412
 31
0.0
  0
LINE
  5
62
330
1F
100
AcDbEntity
  8
SLD-0
  6
Continuous
370
    15
100
AcDbLine
 10
47.2823576942
 20
24.0615640412
 30
0.0
 11
47.2823576942
 21
24.0478954524
 31
0.0
  0
LINE
  5
63
330
1F
100
AcDbEntity
  8
SLD-0
  6
Continuous
370
    15
100
AcDbLine
 10
47.1573576682
 20
23.3115639586
 30
0.0
 11
47.1573576682
 21
24.0615640412
 31
0.0
  0
LINE
  5
64
330
1F
100
AcDbEntity
  8
SLD-0
  6
Continuous
370
    15
100
AcDbLine
 10
48.4073577081
 20
24.0615640412
 30
0.0
 11
48.4073577081
 21
23.3115639586
 31
0.0
  0
LINE
  5
65
330
1F
100
AcDbEntity
  8
SLD-0
  6
Continuous
370
    15
100
AcDbLine
 10
61.4073576243
 20
24.0615640412
 30
0.0
 11
61.2823580016
 21
24.0615640412
 31
0.0
  0
LINE
  5
66
330
1F
100
AcDbEntity
  8
SLD-0
  6
Continuous
370
    15
100
AcDbLine
 10
61.4073576243
 20
24.0615640412
 30
0.0
 11
61.4073576243
 21
23.3115639586
 31
0.0
  0
LINE
  5
67
330
1F
100
AcDbEntity
  8
SLD-0
  6
Continuous
370
    15
100
AcDbLine
 10
60.1573578777
 20
23.3115639586
 30
0.0
 11
60.1573578777
 21
24.0615640412
 31
0.0
  0
LINE
  5
68
330
1F
100
AcDbEntity
  8
SLD-0
  6
Continuous
370
    15
100
AcDbLine
 10
60.2823575004
 20
24.0615640412
 30
0.0
 11
60.1573578777
 21
24.0615640412
 31
0.0
  0
LINE
  5
69
330
1F
100
AcDbEntity
  8
SLD-0
  6
Continuous
370
    15
100
AcDbLine
 10
60.2823575004
 20
24.0615640412
 30
0.0
 11
60.2823575004
 21
24.0478954524
 31
0.0
  0
LINE
  5
6A
330
1F
100
AcDbEntity
  8
SLD-0
  6
Continuous
370
    15
100
AcDbLine
 10
60.2823575004
 20
24.0478954524
 30
0.0
 11
61.2823580016
 21
24.0478954524
 31
0.0
  0
LINE
  5
6B
330
1F
100
AcDbEntity
  8
SLD-0
  6
Continuous
370
    15
100
AcDbLine
 10
61.2823580016
 20
24.0478954524
 30
0.0
 11
61.2823580016
 21
24.0615640412
 31
0.0
  0
LINE
  5
6C
330
1F
100
AcDbEntity
  8
SLD-0
  6
Continuous
370
    15
100
AcDbLine
 10
61.1573572056
 20
22.5279641041
 30
0.0
 11
61.032357583
 21
22.5279641041
 31
0.0
  0
LINE
  5
6D
330
1F
100
AcDbEntity
  8
SLD-0
  6
Continuous
370
    15
100
AcDbLine
 10
61.032357583
 20
22.5615644627
 30
0.0
 11
61.032357583
 21
22.5279641041
 31
0.0
  0
LINE
  5
6E
330
1F
100
AcDbEntity
  8
SLD-0
  6
Continuous
370
    15
100
AcDbLine
 10
61.1573572056
 20
22.5279641041
 30
0.0
 11
61.1573572056
 21
22.5615644627
 31
0.0
  0
LINE
  5
6F
330
1F
100
AcDbEntity
  8
SLD-0
  6
Continuous
370
    15
100
AcDbLine
 10
60.532357919
 20
22.5279641041
 30
0.0
 11
60.532357919
 21
22.5615644627
 31
0.0
  0
LINE
  5
70
330
1F
100
AcDbEntity
  8
SLD-0
  6
Continuous
370
    15
100
AcDbLine
 10
60.532357919
 20
22.5279641041
 30
0.0
 11
60.407357123
 21
22.5279641041
 31
0.0
  0
LINE
  5
71
330
1F
100
AcDbEntity
  8
SLD-0
  6
Continuous
370
    15
100
AcDbLine
 10
60.407357123
 20
22.5615644627
 30
0.0
 11
60.407357123
 21
22.5279641041
 31
0.0
  0
LINE
  5
72
330
1F
100
AcDbEntity
  8
SLD-0
  6
Continuous
370
    15
100
AcDbLine
 10
35.2823578758
 20
24.126414012
 30
0.0
 11
35.2823578758
 21
24.0615640412
 31
0.0
  0
LINE
  5
73
330
1F
100
AcDbEntity
  8
SLD-0
  6
Continuous
370
    15
100
AcDbLine
 10
35.2823578758
 20
24.126414012
 30
0.0
 11
35.4073574985
 21
24.126414012
 31
0.0
  0
LINE
  5
74
330
1F
100
AcDbEntity
  8
SLD-0
  6
Continuous
370
    15
100
AcDbLine
 10
35.4073574985
 20
24.0615640412
 30
0.0
 11
35.4073574985
 21
24.126414012
 31
0.0
  0
LINE
  5
75
330
1F
100
AcDbEntity
  8
SLD-0
  6
Continuous
370
    15
100
AcDbLine
 10
47.1573576682
 20
24.126414012
 30
0.0
 11
47.2823576942
 21
24.126414012
 31
0.0
  0
LINE
  5
76
330
1F
100
AcDbEntity
  8
SLD-0
  6
Continuous
370
    15
100
AcDbLine
 10
47.2823576942
 20
24.0615640412
 30
0.0
 11
47.2823576942
 21
24.126414012
 31
0.0
  0
LINE
  5
77
330
1F
100
AcDbEntity
  8
SLD-0
  6
Continuous
370
    15
100
AcDbLine
 10
47.1573576682
 20
24.126414012
 30
0.0
 11
47.1573576682
 21
24.0615640412
 31
0.0
  0
LINE
  5
78
330
1F
100
AcDbEntity
  8
SLD-0
  6
Continuous
370
    15
100
AcDbLine
 10
48.2823576821
 20
24.126414012
 30
0.0
 11
48.4073577081
 21
24.126414012
 31
0.0
  0
LINE
  5
79
330
1F
100
AcDbEntity
  8
SLD-0
  6
Continuous
370
    15
100
AcDbLine
 10
48.4073577081
 20
24.0615640412
 30
0.0
 11
48.4073577081
 21
24.126414012
 31
0.0
  0
LINE
  5
7A
330
1F
100
AcDbEntity
  8
SLD-0
  6
Continuous
370
    15
100
AcDbLine
 10
48.2823576821
 20
24.126414012
 30
0.0
 11
48.2823576821
 21
24.0615640412
 31
0.0
  0
LINE
  5
7B
330
1F
100
AcDbEntity
  8
SLD-0
  6
Continuous
370
    15
100
AcDbLine
 10
34.1573577519
 20
24.126414012
 30
0.0
 11
34.2823573746
 21
24.126414012
 31
0.0
  0
LINE
  5
7C
330
1F
100
AcDbEntity
  8
SLD-0
  6
Continuous
370
    15
100
AcDbLine
 10
34.2823573746
 20
24.0615640412
 30
0.0
 11
34.2823573746
 21
24.126414012
 31
0.0
  0
LINE
  5
7D
330
1F
100
AcDbEntity
  8
SLD-0
  6
Continuous
370
    15
100
AcDbLine
 10
34.1573577519
 20
24.126414012
 30
0.0
 11
34.1573577519
 21
24.0615640412
 31
0.0
  0
LINE
  5
7E
330
1F
100
AcDbEntity
  8
SLD-0
  6
Continuous
370
    15
100
AcDbLine
 10
61.2823580016
 20
24.126414012
 30
0.0
 11
61.2823580016
 21
24.0615640412
 31
0.0
  0
LINE
  5
7F
330
1F
100
AcDbEntity
  8
SLD-0
  6
Continuous
370
    15
100
AcDbLine
 10
61.2823580016
 20
24.126414012
 30
0.0
 11
61.4073576243
 21
24.126414012
 31
0.0
  0
LINE
  5
80
330
1F
100
AcDbEntity
  8
SLD-0
  6
Continuous
370
    15
100
AcDbLine
 10
61.4073576243
 20
24.0615640412
 30
0.0
 11
61.4073576243
 21
24.126414012
 31
0.0
  0
LINE
  5
81
330
1F
100
AcDbEntity
  8
SLD-0
  6
Continuous
370
    15
100
AcDbLine
 10
60.1573578777
 20
24.126414012
 30
0.0
 11
60.2823575004
 21
24.126414012
 31
0.0
  0
LINE
  5
82
330
1F
100
AcDbEntity
  8
SLD-0
  6
Continuous
370
    15
100
AcDbLine
 10
60.1573578777
 20
24.126414012
 30
0.0
 11
60.1573578777
 21
24.0615640412
 31
0.0
  0
LINE
  5
83
330
1F
100
AcDbEntity
  8
SLD-0
  6
Continuous
370
    15
100
AcDbLine
 10
60.2823575004
 20
24.0615640412
 30
0.0
 11
60.2823575004
 21
24.126414012
 31
0.0
  0
LINE
  5
84
330
1F
100
AcDbEntity
  8
SLD-0
  6
Continuous
370
    15
100
AcDbLine
 10
33.1573572507
 20
24.126414012
 30
0.0
 11
33.1573572507
 21
24.0928142402
 31
0.0
  0
LINE
  5
85
330
1F
100
AcDbEntity
  8
SLD-0
  6
Continuous
370
    15
100
AcDbLine
 10
33.1573572507
 20
24.126414012
 30
0.0
 11
34.1573577519
 21
24.126414012
 31
0.0
  0
LINE
  5
86
330
1F
100
AcDbEntity
  8
SLD-0
  6
Continuous
370
    15
100
AcDbLine
 10
33.1573572507
 20
24.0928142402
 30
0.0
 11
34.1573577519
 21
24.0928142402
 31
0.0
  0
LINE
  5
87
330
1F
100
AcDbEntity
  8
SLD-0
  6
Continuous
370
    15
100
AcDbLine
 10
47.1573576682
 20
24.126414012
 30
0.0
 11
35.4073574985
 21
24.126414012
 31
0.0
  0
LINE
  5
88
330
1F
100
AcDbEntity
  8
SLD-0
  6
Continuous
370
    15
100
AcDbLine
 10
47.1573576682
 20
24.0928142402
 30
0.0
 11
35.4073574985
 21
24.0928142402
 31
0.0
  0
LINE
  5
89
330
1F
100
AcDbEntity
  8
SLD-0
  6
Continuous
370
    15
100
AcDbLine
 10
60.1573578777
 20
24.126414012
 30
0.0
 11
48.4073577081
 21
24.126414012
 31
0.0
  0
LINE
  5
8A
330
1F
100
AcDbEntity
  8
SLD-0
  6
Continuous
370
    15
100
AcDbLine
 10
60.1573578777
 20
24.0928142402
 30
0.0
 11
48.4073577081
 21
24.0928142402
 31
0.0
  0
LINE
  5
8B
330
1F
100
AcDbEntity
  8
SLD-0
  6
Continuous
370
    15
100
AcDbLine
 10
62.4073581255
 20
24.126414012
 30
0.0
 11
62.4073581255
 21
24.0928142402
 31
0.0
  0
LINE
  5
8C
330
1F
100
AcDbEntity
  8
SLD-0
  6
Continuous
370
    15
100
AcDbLine
 10
62.4073581255
 20
24.126414012
 30
0.0
 11
61.4073576243
 21
24.126414012
 31
0.0
  0
LINE
  5
8D
330
1F
100
AcDbEntity
  8
SLD-0
  6
Continuous
370
    15
100
AcDbLine
 10
62.4073581255
 20
24.0928142402
 30
0.0
 11
61.4073576243
 21
24.0928142402
 31
0.0
  0
LINE
  5
8E
330
1F
100
AcDbEntity
  8
SLD-0
  6
Continuous
370
    15
100
AcDbLine
 10
34.5323577932
 20
22.5279641041
 30
0.0
 11
35.0323574572
 21
22.5279641041
 31
0.0
  0
LINE
  5
8F
330
1F
100
AcDbEntity
  8
SLD-0
  6
Continuous
370
    15
100
AcDbLine
 10
61.2823580016
 20
24.126414012
 30
0.0
 11
60.2823575004
 21
24.126414012
 31
0.0
  0
LINE
  5
90
330
1F
100
AcDbEntity
  8
SLD-0
  6
Continuous
370
    15
100
AcDbLine
 10
61.2823580016
 20
24.0928142402
 30
0.0
 11
60.2823575004
 21
24.0928142402
 31
0.0
  0
LINE
  5
91
330
1F
100
AcDbEntity
  8
SLD-0
  6
Continuous
370
    15
100
AcDbLine
 10
60.532357919
 20
22.5279641041
 30
0.0
 11
61.032357583
 21
22.5279641041
 31
0.0
  0
LINE
  5
92
330
1F
100
AcDbEntity
  8
SLD-0
  6
Continuous
370
    15
100
AcDbLine
 10
48.2823576821
 20
24.126414012
 30
0.0
 11
47.2823576942
 21
24.126414012
 31
0.0
  0
LINE
  5
93
330
1F
100
AcDbEntity
  8
SLD-0
  6
Continuous
370
    15
100
AcDbLine
 10
48.2823576821
 20
24.0928142402
 30
0.0
 11
47.2823576942
 21
24.0928142402
 31
0.0
  0
LINE
  5
94
330
1F
100
AcDbEntity
  8
SLD-0
  6
Continuous
370
    15
100
AcDbLine
 10
35.2823578758
 20
24.126414012
 30
0.0
 11
34.2823573746
 21
24.126414012
 31
0.0
  0
LINE
  5
95
330
1F
100
AcDbEntity
  8
SLD-0
  6
Continuous
370
    15
100
AcDbLine
 10
35.2823578758
 20
24.0928142402
 30
0.0
 11
34.2823573746
 21
24.0928142402
 31
0.0
  0
LINE
  5
96
330
1F
100
AcDbEntity
  8
SLD-0
  6
Continuous
370
    15
100
AcDbLine
 10
41.28235795
 20
24.0928142402
 30
0.0
 11
41.28235795
 21
24.0615640412
 31
0.0
  0
LINE
  5
97
330
1F
100
AcDbEntity
  8
SLD-0
  6
Continuous
370
    15
100
AcDbLine
 10
55.0323575088
 20
24.0928142402
 30
0.0
 11
55.0323575088
 21
24.0615640412
 31
0.0
  0
LINE
  5
98
330
1F
100
AcDbEntity
  8
SLD-0
  6
Continuous
370
    15
100
AcDbLine
 10
40.5323578674
 20
24.0615640412
 30
0.0
 11
40.5323578674
 21
24.0928142402
 31
0.0
  0
LINE
  5
99
330
1F
100
AcDbEntity
  8
SLD-0
  6
Continuous
370
    15
100
AcDbLine
 10
54.2823574262
 20
24.0615640412
 30
0.0
 11
54.2823574262
 21
24.0928142402
 31
0.0
  0
LINE
  5
9A
330
1F
100
AcDbEntity
  8
SLD-0
  6
Continuous
370
    15
100
AcDbLine
 10
41.28235795
 20
23.3115639586
 30
0.0
 11
41.28235795
 21
24.0615640412
 31
0.0
  0
LINE
  5
9B
330
1F
100
AcDbEntity
  8
SLD-0
  6
Continuous
370
    15
100
AcDbLine
 10
40.5323578674
 20
24.0615640412
 30
0.0
 11
40.5323578674
 21
23.3115639586
 31
0.0
  0
LINE
  5
9C
330
1F
100
AcDbEntity
  8
SLD-0
  6
Continuous
370
    15
100
AcDbLine
 10
55.0323575088
 20
23.3115639586
 30
0.0
 11
55.0323575088
 21
24.0615640412
 31
0.0
  0
LINE
  5
9D
330
1F
100
AcDbEntity
  8
SLD-0
  6
Continuous
370
    15
100
AcDbLine
 10
54.2823574262
 20
24.0615640412
 30
0.0
 11
54.2823574262
 21
23.3115639586
 31
0.0
  0
LINE
  5
9E
330
1F
100
AcDbEntity
  8
SLD-0
  6
Continuous
370
    15
100
AcDbLine
 10
33.6025570144
 20
7.1797663145
 30
0.0
 11
61.9621583618
 21
7.1797663145
 31
0.0
  0
LINE
  5
9F
330
1F
100
AcDbEntity
  8
SLD-0
  6
Continuous
370
    15
100
AcDbLine
 10
32.8525569318
 20
7.1797663145
 30
0.0
 11
32.8525569318
 21
7.1769392005
 31
0.0
  0
LINE
  5
A0
330
1F
100
AcDbEntity
  8
SLD-0
  6
Continuous
370
    15
100
AcDbLine
 10
31.6805571375
 20
7.1797663145
 30
0.0
 11
32.8525569318
 21
7.1797663145
 31
0.0
  0
LINE
  5
A1
330
1F
100
AcDbEntity
  8
SLD-0
  6
Continuous
370
    15
100
AcDbLine
 10
31.6805571375
 20
7.8221418804
 30
0.0
 11
31.6805571375
 21
7.1797663145
 31
0.0
  0
LINE
  5
A2
330
1F
100
AcDbEntity
  8
SLD-0
  6
Continuous
370
    15
100
AcDbLine
 10
31.6805571375
 20
7.8221418804
 30
0.0
 11
33.5189145673
 21
7.8221418804
 31
0.0
  0
LINE
  5
A3
330
1F
100
AcDbEntity
  8
SLD-0
  6
Continuous
370
    15
100
AcDbLine
 10
62.0458008089
 20
7.8221418804
 30
0.0
 11
33.5189145673
 21
7.8221418804
 31
0.0
  0
LINE
  5
A4
330
1F
100
AcDbEntity
  8
SLD-0
  6
Continuous
370
    15
100
AcDbLine
 10
62.0458008089
 20
7.8221418804
 30
0.0
 11
63.8841582387
 21
7.8221418804
 31
0.0
  0
LINE
  5
A5
330
1F
100
AcDbEntity
  8
SLD-0
  6
Continuous
370
    15
100
AcDbLine
 10
63.8841582387
 20
7.1797663145
 30
0.0
 11
63.8841582387
 21
7.8221418804
 31
0.0
  0
LINE
  5
A6
330
1F
100
AcDbEntity
  8
SLD-0
  6
Continuous
370
    15
100
AcDbLine
 10
62.7121584444
 20
7.1797663145
 30
0.0
 11
63.8841582387
 21
7.1797663145
 31
0.0
  0
LINE
  5
A7
330
1F
100
AcDbEntity
  8
SLD-0
  6
Continuous
370
    15
100
AcDbLine
 10
62.7121584444
 20
7.1769392005
 30
0.0
 11
62.7121584444
 21
7.1797663145
 31
0.0
  0
LINE
  5
A8
330
1F
100
AcDbEntity
  8
SLD-0
  6
Continuous
370
    15
100
AcDbLine
 10
62.7121584444
 20
7.1769392005
 30
0.0
 11
32.8525569318
 21
7.1769392005
 31
0.0
  0
LINE
  5
A9
330
1F
100
AcDbEntity
  8
SLD-0
  6
Continuous
370
    15
100
AcDbLine
 10
62.0153062279
 20
7.8737667773
 30
0.0
 11
33.5494091483
 21
7.8737667773
 31
0.0
  0
SPLINE
  5
AA
330
1F
100
AcDbEntity
  8
SLD-0
  6
Continuous
370
    15
100
AcDbSpline
210
0.0
220
0.0
230
1.0
 70
     8
 71
     3
 72
    11
 73
     7
 74
     0
 42
0.00000001
 43
0.00000001
 12
1.0
 22
0.0
 32
0.0
 13
1.0
 23
0.0
 33
0.0
 40
0.0
 40
0.0
 40
0.0
 40
0.0
 40
0.2499988850229826
 40
0.4999997326141217
 40
0.7499997357873304
 40
1.0
 40
1.0
 40
1.0
 40
1.0
 10
33.54940914834951
 20
7.873766777347351
 30
0.0
 10
33.54686826249058
 20
7.87299058096615
 30
0.0
 10
33.54178647082598
 20
7.871438182110368
 30
0.0
 10
33.53416137575282
 20
7.85950083347928
 30
0.0
 10
33.52653921056543
 20
7.842435793212005
 30
0.0
 10
33.52145611593452
 20
7.828906520351271
 30
0.0
 10
33.51891456729218
 20
7.822141880389233
 30
0.0
  0
SPLINE
  5
AB
330
1F
100
AcDbEntity
  8
SLD-0
  6
Continuous
370
    15
100
AcDbSpline
210
0.0
220
0.0
230
1.0
 70
     8
 71
     3
 72
    11
 73
     7
 74
     0
 42
0.00000001
 43
0.00000001
 12
1.0
 22
0.0
 32
0.0
 13
1.0
 23
0.0
 33
0.0
 40
0.0
 40
0.0
 40
0.0
 40
0.0
 40
0.2500002642126696
 40
0.5000002673858783
 40
0.7500011149770174
 40
1.0
 40
1.0
 40
1.0
 40
1.0
 10
62.04580080893469
 20
7.822141880389233
 30
0.0
 10
62.04325926029235
 20
7.82890652035127
 30
0.0
 10
62.03817616566144
 20
7.842435793212005
 30
0.0
 10
62.03055400047404
 20
7.859500833479282
 30
0.0
 10
62.0229289054009
 20
7.871438182110365
 30
0.0
 10
62.01784711373629
 20
7.87299058096615
 30
0.0
 10
62.01530622787736
 20
7.873766777347351
 30
0.0
  0
LINE
  5
AC
330
1F
100
AcDbEntity
  8
SLD-0
  6
Continuous
370
    15
100
AcDbLine
 10
62.7121584444
 20
7.1253143035
 30
0.0
 11
62.7121584444
 21
7.1769392005
 31
0.0
  0
LINE
  5
AD
330
1F
100
AcDbEntity
  8
SLD-0
  6
Continuous
370
    15
100
AcDbLine
 10
62.7121584444
 20
7.1253143035
 30
0.0
 11
32.8525569318
 21
7.1253143035
 31
0.0
  0
LINE
  5
AE
330
1F
100
AcDbEntity
  8
SLD-0
  6
Continuous
370
    15
100
AcDbLine
 10
32.8525569318
 20
7.1769392005
 30
0.0
 11
32.8525569318
 21
7.1253143035
 31
0.0
  0
LINE
  5
AF
330
1F
100
AcDbEntity
  8
SLD-0
  6
Continuous
370
    15
100
AcDbLine
 10
63.9073571174
 20
23.2371643381
 30
0.0
 11
63.9073571174
 21
22.6161643119
 31
0.0
  0
LINE
  5
B0
330
1F
100
AcDbEntity
  8
SLD-0
  6
Continuous
370
    15
100
AcDbLine
 10
63.9073571174
 20
22.6161643119
 30
0.0
 11
62.7323571444
 21
22.6161643119
 31
0.0
  0
LINE
  5
B1
330
1F
100
AcDbEntity
  8
SLD-0
  6
Continuous
370
    15
100
AcDbLine
 10
32.8323582318
 20
22.6161643119
 30
0.0
 11
62.7323571444
 21
22.6161643119
 31
0.0
  0
LINE
  5
B2
330
1F
100
AcDbEntity
  8
SLD-0
  6
Continuous
370
    15
100
AcDbLine
 10
31.6573582588
 20
22.6161643119
 30
0.0
 11
32.8323582318
 21
22.6161643119
 31
0.0
  0
LINE
  5
B3
330
1F
100
AcDbEntity
  8
SLD-0
  6
Continuous
370
    15
100
AcDbLine
 10
31.6573582588
 20
23.2371643381
 30
0.0
 11
31.6573582588
 21
22.6161643119
 31
0.0
  0
LINE
  5
B4
330
1F
100
AcDbEntity
  8
SLD-0
  6
Continuous
370
    15
100
AcDbLine
 10
32.8323582318
 20
23.2371643381
 30
0.0
 11
31.6573582588
 21
23.2371643381
 31
0.0
  0
LINE
  5
B5
330
1F
100
AcDbEntity
  8
SLD-0
  6
Continuous
370
    15
100
AcDbLine
 10
32.8521580031
 20
23.2569641093
 30
0.0
 11
32.8323582318
 21
23.2371643381
 31
0.0
  0
LINE
  5
B6
330
1F
100
AcDbEntity
  8
SLD-0
  6
Continuous
370
    15
100
AcDbLine
 10
62.7125573732
 20
23.2569641093
 30
0.0
 11
32.8521580031
 21
23.2569641093
 31
0.0
  0
LINE
  5
B7
330
1F
100
AcDbEntity
  8
SLD-0
  6
Continuous
370
    15
100
AcDbLine
 10
62.7323571444
 20
23.2371643381
 30
0.0
 11
63.9073571174
 21
23.2371643381
 31
0.0
  0
LINE
  5
B8
330
1F
100
AcDbEntity
  8
SLD-0
  6
Continuous
370
    15
100
AcDbLine
 10
62.7323571444
 20
23.2371643381
 30
0.0
 11
62.7125573732
 21
23.2569641093
 31
0.0
  0
LINE
  5
B9
330
1F
100
AcDbEntity
  8
SLD-0
  6
Continuous
370
    15
100
AcDbLine
 10
32.9068217982
 20
23.3115639586
 30
0.0
 11
62.657893578
 21
23.3115639586
 31
0.0
  0
SPLINE
  5
BA
330
1F
100
AcDbEntity
  8
SLD-0
  6
Continuous
370
    15
100
AcDbSpline
210
0.0
220
0.0
230
1.0
 70
     8
 71
     3
 72
    15
 73
    11
 74
     0
 42
0.00000001
 43
0.00000001
 12
1.0
 22
0.0
 32
0.0
 13
1.0
 23
0.0
 33
0.0
 40
0.0
 40
0.0
 40
0.0
 40
0.0
 40
0.1249965168709868
 40
0.2499981096039126
 40
0.375002792625063
 40
0.4999973843082861
 40
0.6249986043315213
 40
0.7499957850828912
 40
0.874997826370826
 40
1.0
 40
1.0
 40
1.0
 40
1.0
 10
32.85215800305424
 20
23.25696410933907
 30
0.0
 10
32.85443533862118
 20
23.26053772201949
 30
0.0
 10
32.85899010223316
 20
23.26768509249768
 30
0.0
 10
32.86582375650627
 20
23.27799315958367
 30
0.0
 10
32.87265712566808
 20
23.28749425214914
 30
0.0
 10
32.87948906829898
 20
23.29581957175963
 30
0.0
 10
32.88632307304201
 20
23.30266128140019
 30
0.0
 10
32.89315470396306
 20
23.30770823016244
 30
0.0
 10
32.89998847658371
 20
23.31095448059149
 30
0.0
 10
32.90454402355079
 20
23.3113607991901
 30
0.0
 10
32.90682179824008
 20
23.31156395859696
 30
0.0
  0
SPLINE
  5
BB
330
1F
100
AcDbEntity
  8
SLD-0
  6
Continuous
370
    15
100
AcDbSpline
210
0.0
220
0.0
230
1.0
 70
     8
 71
     3
 72
    15
 73
    11
 74
     0
 42
0.00000001
 43
0.00000001
 12
1.0
 22
0.0
 32
0.0
 13
1.0
 23
0.0
 33
0.0
 40
0.0
 40
0.0
 40
0.0
 40
0.0
 40
0.125002173629174
 40
0.2500042149171088
 40
0.3750013956684786
 40
0.5000026156917138
 40
0.6249972073749369
 40
0.7500018903960873
 40
0.8750034831290132
 40
1.0
 40
1.0
 40
1.0
 40
1.0
 10
62.65789357798679
 20
23.31156395859696
 30
0.0
 10
62.66017135267609
 20
23.3113607991901
 30
0.0
 10
62.66472689964318
 20
23.31095448059149
 30
0.0
 10
62.67156067226381
 20
23.30770823016244
 30
0.0
 10
62.67839230318485
 20
23.30266128140019
 30
0.0
 10
62.68522630792789
 20
23.29581957175963
 30
0.0
 10
62.69205825055879
 20
23.28749425214914
 30
0.0
 10
62.69889161972061
 20
23.27799315958367
 30
0.0
 10
62.70572527399371
 20
23.26768509249768
 30
0.0
 10
62.7102800376057
 20
23.26053772201949
 30
0.0
 10
62.71255737317263
 20
23.25696410933907
 30
0.0
  0
LINE
  5
BC
330
1F
100
AcDbEntity
  8
SLD-0
  6
Continuous
370
    15
100
AcDbLine
 10
62.7323571444
 20
22.6161643119
 30
0.0
 11
62.7323571444
 21
22.5636652917
 31
0.0
  0
LINE
  5
BD
330
1F
100
AcDbEntity
  8
SLD-0
  6
Continuous
370
    15
100
AcDbLine
 10
62.7323571444
 20
22.5636652917
 30
0.0
 11
62.7323501045
 21
22.5636652917
 31
0.0
  0
LINE
  5
BE
330
1F
100
AcDbEntity
  8
SLD-0
  6
Continuous
370
    15
100
AcDbLine
 10
62.7323501045
 20
22.5636652917
 30
0.0
 11
62.7323501045
 21
22.5615644627
 31
0.0
  0
LINE
  5
BF
330
1F
100
AcDbEntity
  8
SLD-0
  6
Continuous
370
    15
100
AcDbLine
 10
32.8323652717
 20
22.5615644627
 30
0.0
 11
62.7323501045
 21
22.5615644627
 31
0.0
  0
LINE
  5
C0
330
1F
100
AcDbEntity
  8
SLD-0
  6
Continuous
370
    15
100
AcDbLine
 10
32.8323652717
 20
22.5615644627
 30
0.0
 11
32.8323652717
 21
22.5636652917
 31
0.0
  0
LINE
  5
C1
330
1F
100
AcDbEntity
  8
SLD-0
  6
Continuous
370
    15
100
AcDbLine
 10
32.8323652717
 20
22.5636652917
 30
0.0
 11
32.8323582318
 21
22.5636652917
 31
0.0
  0
LINE
  5
C2
330
1F
100
AcDbEntity
  8
SLD-0
  6
Continuous
370
    15
100
AcDbLine
 10
32.8323582318
 20
22.5636652917
 30
0.0
 11
32.8323582318
 21
22.6161643119
 31
0.0
  0
SPLINE
  5
C3
330
1F
100
AcDbEntity
  8
SLD-0
  6
Continuous
370
    15
100
AcDbSpline
210
0.0
220
0.0
230
1.0
 70
     8
 71
     3
 72
     9
 73
     5
 74
     0
 42
0.00000001
 43
0.00000001
 12
1.0
 22
0.0
 32
0.0
 13
1.0
 23
0.0
 33
0.0
 40
0.0
 40
0.0
 40
0.0
 40
0.0
 40
0.7183222554064067
 40
1.0
 40
1.0
 40
1.0
 40
1.0
 10
33.58644616049479
 20
22.54656415593995
 30
0.0
 10
33.58465710024272
 20
22.5503516933281
 30
0.0
 10
33.58216649071671
 20
22.5556244485012
 30
0.0
 10
33.58091825523673
 20
22.56025900986343
 30
0.0
 10
33.580566655082
 20
22.56156446265513
 30
0.0
  0
SPLINE
  5
C4
330
1F
100
AcDbEntity
  8
SLD-0
  6
Continuous
370
    15
100
AcDbSpline
210
0.0
220
0.0
230
1.0
 70
     8
 71
     3
 72
    11
 73
     7
 74
     0
 42
0.00000001
 43
0.00000001
 12
1.0
 22
0.0
 32
0.0
 13
1.0
 23
0.0
 33
0.0
 40
0.0
 40
0.0
 40
0.0
 40
0.0
 40
0.2362277365930022
 40
0.5027495166964192
 40
0.7691671377198692
 40
1.0
 40
1.0
 40
1.0
 40
1.0
 10
33.62316285634039
 20
22.54656415593995
 30
0.0
 10
33.61944314157532
 20
22.54864621458239
 30
0.0
 10
33.611526692697
 20
22.55307733681772
 30
0.0
 10
33.60189292821158
 20
22.55771411378296
 30
0.0
 10
33.59330903770419
 20
22.56091014113001
 30
0.0
 10
33.58858191309481
 20
22.56135701537398
 30
0.0
 10
33.58638749450584
 20
22.56156446265513
 30
0.0
  0
LINE
  5
C5
330
1F
100
AcDbEntity
  8
SLD-0
  6
Continuous
370
    15
100
AcDbLine
 10
33.5864461605
 20
22.5465641559
 30
0.0
 11
33.6231628563
 21
22.5465641559
 31
0.0
  0
SPLINE
  5
C6
330
1F
100
AcDbEntity
  8
SLD-0
  6
Continuous
370
    15
100
AcDbSpline
210
0.0
220
0.0
230
1.0
 70
     8
 71
     3
 72
     9
 73
     5
 74
     0
 42
0.00000001
 43
0.00000001
 12
1.0
 22
0.0
 32
0.0
 13
1.0
 23
0.0
 33
0.0
 40
0.0
 40
0.0
 40
0.0
 40
0.0
 40
0.1533395184433777
 40
1.0
 40
1.0
 40
1.0
 40
1.0
 10
61.98508033704943
 20
22.56156446265513
 30
0.0
 10
61.98487855453634
 20
22.56086081901227
 30
0.0
 10
61.98356263470598
 20
22.55627202383407
 30
0.0
 10
61.98069615273662
 20
22.55101503805295
 30
0.0
 10
61.97826921573208
 20
22.54656415593995
 30
0.0
  0
SPLINE
  5
C7
330
1F
100
AcDbEntity
  8
SLD-0
  6
Continuous
370
    15
100
AcDbSpline
210
0.0
220
0.0
230
1.0
 70
     8
 71
     3
 72
    11
 73
     7
 74
     0
 42
0.00000001
 43
0.00000001
 12
1.0
 22
0.0
 32
0.0
 13
1.0
 23
0.0
 33
0.0
 40
0.0
 40
0.0
 40
0.0
 40
0.0
 40
0.2362274095289946
 40
0.5027495605679049
 40
0.7691655983703326
 40
1.0
 40
1.0
 40
1.0
 40
1.0
 10
61.97832788172104
 20
22.56156446265513
 30
0.0
 10
61.97628306902897
 20
22.56128823434371
 30
0.0
 10
61.97193120874132
 20
22.56070035310477
 30
0.0
 10
61.96321025751835
 20
22.55705093027099
 30
0.0
 10
61.95324283456672
 20
22.55235964441415
 30
0.0
 10
61.94525885552471
 20
22.54840157657921
 30
0.0
 10
61.94155251988649
 20
22.54656415593995
 30
0.0
  0
SPLINE
  5
C8
330
1F
100
AcDbEntity
  8
SLD-0
  6
Continuous
370
    15
100
AcDbSpline
210
0.0
220
0.0
230
1.0
 70
     8
 71
     3
 72
    11
 73
     7
 74
     0
 42
0.00000001
 43
0.00000001
 12
1.0
 22
0.0
 32
0.0
 13
1.0
 23
0.0
 33
0.0
 40
0.0
 40
0.0
 40
0.0
 40
0.0
 40
0.2499942289331034
 40
0.5000001091294992
 40
0.7500068169916725
 40
1.0
 40
1.0
 40
1.0
 40
1.0
 10
57.34503884587135
 20
22.54656415593995
 30
0.0
 10
57.34312332114889
 20
22.54852981132363
 30
0.0
 10
57.33929218242877
 20
22.55246121370257
 30
0.0
 10
57.3309560329476
 20
22.5574193226985
 30
0.0
 10
57.32124028904014
 20
22.5608873429884
 30
0.0
 10
57.31418239032648
 20
22.56133876016979
 30
0.0
 10
57.31065353642671
 20
22.56156446265513
 30
0.0
  0
LINE
  5
C9
330
1F
100
AcDbEntity
  8
SLD-0
  6
Continuous
370
    15
100
AcDbLine
 10
61.9782692157
 20
22.5465641559
 30
0.0
 11
61.9415525199
 21
22.5465641559
 31
0.0
  0
SPLINE
  5
CA
330
1F
100
AcDbEntity
  8
SLD-0
  6
Continuous
370
    15
100
AcDbSpline
210
0.0
220
0.0
230
1.0
 70
     8
 71
     3
 72
    11
 73
     7
 74
     0
 42
0.00000001
 43
0.00000001
 12
1.0
 22
0.0
 32
0.0
 13
1.0
 23
0.0
 33
0.0
 40
0.0
 40
0.0
 40
0.0
 40
0.0
 40
0.2499931830083276
 40
0.4999998908705008
 40
0.7500057710668966
 40
1.0
 40
1.0
 40
1.0
 40
1.0
 10
38.25406183980016
 20
22.56156446265513
 30
0.0
 10
38.25053298590039
 20
22.56133876016979
 30
0.0
 10
38.24347508718673
 20
22.5608873429884
 30
0.0
 10
38.23375934327925
 20
22.5574193226985
 30
0.0
 10
38.2254231937981
 20
22.55246121370257
 30
0.0
 10
38.22159205507798
 20
22.54852981132363
 30
0.0
 10
38.21967653035552
 20
22.54656415593995
 30
0.0
  0
LINE
  5
CB
330
1F
100
AcDbEntity
  8
SLD-0
  6
Continuous
370
    15
100
AcDbLine
 10
38.2140575019
 20
22.5315644359
 30
0.0
 11
38.2196765304
 21
22.5465641559
 31
0.0
  0
LINE
  5
CC
330
1F
100
AcDbEntity
  8
SLD-0
  6
Continuous
370
    15
100
AcDbLine
 10
33.6231628563
 20
22.5465641559
 30
0.0
 11
33.6370702157
 21
22.5315644359
 31
0.0
  0
LINE
  5
CD
330
1F
100
AcDbEntity
  8
SLD-0
  6
Continuous
370
    15
100
AcDbLine
 10
33.5864461605
 20
22.5465641559
 30
0.0
 11
33.6003546932
 21
22.5315644359
 31
0.0
  0
LINE
  5
CE
330
1F
100
AcDbEntity
  8
SLD-0
  6
Continuous
370
    15
100
AcDbLine
 10
61.9276451605
 20
22.5315644359
 30
0.0
 11
61.9415525199
 21
22.5465641559
 31
0.0
  0
LINE
  5
CF
330
1F
100
AcDbEntity
  8
SLD-0
  6
Continuous
370
    15
100
AcDbLine
 10
61.9643606831
 20
22.5315644359
 30
0.0
 11
61.9782692157
 21
22.5465641559
 31
0.0
  0
LINE
  5
D0
330
1F
100
AcDbEntity
  8
SLD-0
  6
Continuous
370
    15
100
AcDbLine
 10
57.3450388459
 20
22.5465641559
 30
0.0
 11
57.3506578743
 21
22.5315644359
 31
0.0
  0
LINE
  5
D1
330
1F
100
AcDbEntity
  8
SLD-0
  6
Continuous
370
    15
100
AcDbLine
 10
39.4337257589
 20
22.5465641559
 30
0.0
 11
56.1309896173
 21
22.5465641559
 31
0.0
  0
SPLINE
  5
D2
330
1F
100
AcDbEntity
  8
SLD-0
  6
Continuous
370
    15
100
AcDbSpline
210
0.0
220
0.0
230
1.0
 70
     8
 71
     3
 72
    11
 73
     7
 74
     0
 42
0.00000001
 43
0.00000001
 12
1.0
 22
0.0
 32
0.0
 13
1.0
 23
0.0
 33
0.0
 40
0.0
 40
0.0
 40
0.0
 40
0.0
 40
0.250005692070385
 40
0.4999999109631938
 40
0.7500064281570672
 40
1.0
 40
1.0
 40
1.0
 40
1.0
 10
39.43372575888856
 20
22.54656415593995
 30
0.0
 10
39.4291703512219
 20
22.54852976732745
 30
0.0
 10
39.42005974494381
 20
22.55246089989727
 30
0.0
 10
39.40639360121011
 20
22.55741948232808
 30
0.0
 10
39.39272789429413
 20
22.56088731914454
 30
0.0
 10
39.38361719527241
 20
22.56133875204758
 30
0.0
 10
39.37906196370272
 20
22.56156446265513
 30
0.0
  0
SPLINE
  5
D3
330
1F
100
AcDbEntity
  8
SLD-0
  6
Continuous
370
    15
100
AcDbSpline
210
0.0
220
0.0
230
1.0
 70
     8
 71
     3
 72
    11
 73
     7
 74
     0
 42
0.00000001
 43
0.00000001
 12
1.0
 22
0.0
 32
0.0
 13
1.0
 23
0.0
 33
0.0
 40
0.0
 40
0.0
 40
0.0
 40
0.0
 40
0.2499935718429328
 40
0.5000000890368062
 40
0.7499943079296151
 40
1.0
 40
1.0
 40
1.0
 40
1.0
 10
56.18565341252415
 20
22.56156446265513
 30
0.0
 10
56.18109818095446
 20
22.56133875204758
 30
0.0
 10
56.17198748193274
 20
22.56088731914454
 30
0.0
 10
56.15832177501676
 20
22.55741948232808
 30
0.0
 10
56.14465563128306
 20
22.55246089989726
 30
0.0
 10
56.13554502500497
 20
22.54852976732745
 30
0.0
 10
56.13098961733831
 20
22.54656415593995
 30
0.0
  0
LINE
  5
D4
330
1F
100
AcDbEntity
  8
SLD-0
  6
Continuous
370
    15
100
AcDbLine
 10
39.4337257589
 20
22.5465641559
 30
0.0
 11
39.4487254789
 21
22.5315644359
 31
0.0
  0
LINE
  5
D5
330
1F
100
AcDbEntity
  8
SLD-0
  6
Continuous
370
    15
100
AcDbLine
 10
56.1159898973
 20
22.5315644359
 30
0.0
 11
56.1309896173
 21
22.5465641559
 31
0.0
  0
LINE
  5
D6
330
1F
100
AcDbEntity
  8
SLD-0
  6
Continuous
370
    15
100
AcDbLine
 10
32.4310500144
 20
9.9450179167
 30
0.0
 11
32.4310500144
 21
8.4450180449
 31
0.0
  0
LINE
  5
D7
330
1F
100
AcDbEntity
  8
SLD-0
  6
Continuous
370
    15
100
AcDbLine
 10
31.6810499318
 20
9.9450179167
 30
0.0
 11
32.4310500144
 21
9.9450179167
 31
0.0
  0
LINE
  5
D8
330
1F
100
AcDbEntity
  8
SLD-0
  6
Continuous
370
    15
100
AcDbLine
 10
31.6810499318
 20
22.5315644359
 30
0.0
 11
31.6810499318
 21
9.9450179167
 31
0.0
  0
LINE
  5
D9
330
1F
100
AcDbEntity
  8
SLD-0
  6
Continuous
370
    15
100
AcDbLine
 10
33.4913075262
 20
22.5315644359
 30
0.0
 11
31.6810499318
 21
22.5315644359
 31
0.0
  0
LINE
  5
DA
330
1F
100
AcDbEntity
  8
SLD-0
  6
Continuous
370
    15
100
AcDbLine
 10
32.8525569318
 20
7.1565639159
 30
0.0
 11
31.6810499318
 21
7.1565639159
 31
0.0
  0
LINE
  5
DB
330
1F
100
AcDbEntity
  8
SLD-0
  6
Continuous
370
    15
100
AcDbLine
 10
31.6810499318
 20
8.4450180449
 30
0.0
 11
31.6810499318
 21
7.8221418804
 31
0.0
  0
LINE
  5
DC
330
1F
100
AcDbEntity
  8
SLD-0
  6
Continuous
370
    15
100
AcDbLine
 10
31.6810499318
 20
7.1797663145
 30
0.0
 11
31.6810499318
 21
7.1565639159
 31
0.0
  0
LINE
  5
DD
330
1F
100
AcDbEntity
  8
SLD-0
  6
Continuous
370
    15
100
AcDbLine
 10
32.4310500144
 20
8.4450180449
 30
0.0
 11
31.6810499318
 21
8.4450180449
 31
0.0
  0
LINE
  5
DE
330
1F
100
AcDbEntity
  8
SLD-0
  6
Continuous
370
    15
100
AcDbLine
 10
33.5514354716
 20
22.5315644359
 30
0.0
 11
33.4913075262
 21
22.5315644359
 31
0.0
  0
LINE
  5
DF
330
1F
100
AcDbEntity
  8
SLD-0
  6
Continuous
370
    15
100
AcDbLine
 10
62.07340785
 20
22.5315644359
 30
0.0
 11
62.0132799046
 21
22.5315644359
 31
0.0
  0
LINE
  5
E0
330
1F
100
AcDbEntity
  8
SLD-0
  6
Continuous
370
    15
100
AcDbLine
 10
63.8836654444
 20
8.4450180449
 30
0.0
 11
63.8836654444
 21
7.8221418804
 31
0.0
  0
LINE
  5
E1
330
1F
100
AcDbEntity
  8
SLD-0
  6
Continuous
370
    15
100
AcDbLine
 10
63.8836654444
 20
7.1797663145
 30
0.0
 11
63.8836654444
 21
7.1565639159
 31
0.0
  0
LINE
  5
E2
330
1F
100
AcDbEntity
  8
SLD-0
  6
Continuous
370
    15
100
AcDbLine
 10
63.8836654444
 20
7.1565639159
 30
0.0
 11
62.7121584444
 21
7.1565639159
 31
0.0
  0
LINE
  5
E3
330
1F
100
AcDbEntity
  8
SLD-0
  6
Continuous
370
    15
100
AcDbLine
 10
63.8836654444
 20
22.5315644359
 30
0.0
 11
62.07340785
 21
22.5315644359
 31
0.0
  0
LINE
  5
E4
330
1F
100
AcDbEntity
  8
SLD-0
  6
Continuous
370
    15
100
AcDbLine
 10
63.8836654444
 20
22.5315644359
 30
0.0
 11
63.8836654444
 21
9.9450179167
 31
0.0
  0
LINE
  5
E5
330
1F
100
AcDbEntity
  8
SLD-0
  6
Continuous
370
    15
100
AcDbLine
 10
63.1336653618
 20
9.9450179167
 30
0.0
 11
63.8836654444
 21
9.9450179167
 31
0.0
  0
LINE
  5
E6
330
1F
100
AcDbEntity
  8
SLD-0
  6
Continuous
370
    15
100
AcDbLine
 10
63.1336653618
 20
8.4450180449
 30
0.0
 11
63.1336653618
 21
9.9450179167
 31
0.0
  0
LINE
  5
E7
330
1F
100
AcDbEntity
  8
SLD-0
  6
Continuous
370
    15
100
AcDbLine
 10
63.8836654444
 20
8.4450180449
 30
0.0
 11
63.1336653618
 21
8.4450180449
 31
0.0
  0
LINE
  5
E8
330
1F
100
AcDbEntity
  8
SLD-0
  6
Continuous
370
    15
100
AcDbLine
 10
38.2744617641
 20
22.5315644359
 30
0.0
 11
35.1573582532
 21
22.5315644359
 31
0.0
  0
LINE
  5
E9
330
1F
100
AcDbEntity
  8
SLD-0
  6
Continuous
370
    15
100
AcDbLine
 10
34.4073581706
 20
22.5315644359
 30
0.0
 11
33.5514354716
 21
22.5315644359
 31
0.0
  0
LINE
  5
EA
330
1F
100
AcDbEntity
  8
SLD-0
  6
Continuous
370
    15
100
AcDbLine
 10
62.0132799046
 20
22.5315644359
 30
0.0
 11
61.1573572056
 21
22.5315644359
 31
0.0
  0
LINE
  5
EB
330
1F
100
AcDbEntity
  8
SLD-0
  6
Continuous
370
    15
100
AcDbLine
 10
60.407357123
 20
22.5315644359
 30
0.0
 11
57.2902536121
 21
22.5315644359
 31
0.0
  0
SPLINE
  5
EC
330
1F
100
AcDbEntity
  8
SLD-0
  6
Continuous
370
    15
100
AcDbSpline
210
0.0
220
0.0
230
1.0
 70
     8
 71
     3
 72
    13
 73
     9
 74
     0
 42
0.00000001
 43
0.00000001
 12
1.0
 22
0.0
 32
0.0
 13
1.0
 23
0.0
 33
0.0
 40
0.0
 40
0.0
 40
0.0
 40
0.0
 40
0.1842940348166451
 40
0.3685766541155353
 40
0.5528675024572008
 40
0.7371588955611521
 40
0.9214457541080382
 40
1.0
 40
1.0
 40
1.0
 40
1.0
 10
61.75805703964193
 20
7.091713945021739
 30
0.0
 10
61.76234733975937
 20
7.091954963209459
 30
0.0
 10
61.77092767424501
 20
7.092436984655783
 30
0.0
 10
61.78333613229569
 20
7.096297906310923
 30
0.0
 10
61.79488721553279
 20
7.102275956785658
 30
0.0
 10
61.80502543053424
 20
7.110458849828812
 30
0.0
 10
61.81226017393497
 20
7.118286534397981
 30
0.0
 10
61.81528511602412
 20
7.123697230822859
 30
0.0
 10
61.81618916809462
 20
7.125314303534196
 30
0.0
  0
LINE
  5
ED
330
1F
100
AcDbEntity
  8
SLD-0
  6
Continuous
370
    15
100
AcDbLine
 10
61.7580570396
 20
7.1253143035
 30
0.0
 11
61.7580570396
 21
7.091713945
 31
0.0
  0
LINE
  5
EE
330
1F
100
AcDbEntity
  8
SLD-0
  6
Continuous
370
    15
100
AcDbLine
 10
33.8066583366
 20
7.1253143035
 30
0.0
 11
33.8066583366
 21
7.091713945
 31
0.0
  0
SPLINE
  5
EF
330
1F
100
AcDbEntity
  8
SLD-0
  6
Continuous
370
    15
100
AcDbSpline
210
0.0
220
0.0
230
1.0
 70
     8
 71
     3
 72
    13
 73
     9
 74
     0
 42
0.00000001
 43
0.00000001
 12
1.0
 22
0.0
 32
0.0
 13
1.0
 23
0.0
 33
0.0
 40
0.0
 40
0.0
 40
0.0
 40
0.0
 40
0.0785542458919618
 40
0.2628411044388478
 40
0.447132497542799
 40
0.6314233458844646
 40
0.8157059651833549
 40
1.0
 40
1.0
 40
1.0
 40
1.0
 10
33.74852620813225
 20
7.125314303534196
 30
0.0
 10
33.74943026020275
 20
7.123697230822857
 30
0.0
 10
33.75245520229191
 20
7.118286534397983
 30
0.0
 10
33.75968994569265
 20
7.110458849828812
 30
0.0
 10
33.76982816069408
 20
7.102275956785658
 30
0.0
 10
33.78137924393118
 20
7.096297906310922
 30
0.0
 10
33.79378770198186
 20
7.092436984655782
 30
0.0
 10
33.8023680364675
 20
7.091954963209458
 30
0.0
 10
33.80665833658494
 20
7.091713945021739
 30
0.0
  0
LINE
  5
F0
330
1F
100
AcDbEntity
  8
SLD-0
  6
Continuous
370
    15
100
AcDbLine
 10
35.2683683841
 20
7.091713945
 30
0.0
 11
35.2683683841
 21
7.1253143035
 31
0.0
  0
LINE
  5
F1
330
1F
100
AcDbEntity
  8
SLD-0
  6
Continuous
370
    15
100
AcDbLine
 10
35.2683683841
 20
7.091713945
 30
0.0
 11
33.8066583366
 21
7.091713945
 31
0.0
  0
LINE
  5
F2
330
1F
100
AcDbEntity
  8
SLD-0
  6
Continuous
370
    15
100
AcDbLine
 10
60.2963469921
 20
7.091713945
 30
0.0
 11
60.2963469921
 21
7.1253143035
 31
0.0
  0
LINE
  5
F3
330
1F
100
AcDbEntity
  8
SLD-0
  6
Continuous
370
    15
100
AcDbLine
 10
60.2963469921
 20
7.091713945
 30
0.0
 11
61.7580570396
 21
7.091713945
 31
0.0
  0
LINE
  5
F4
330
1F
100
AcDbEntity
  8
SLD-0
  6
Continuous
370
    15
100
AcDbLine
 10
56.5572390933
 20
7.091713945
 30
0.0
 11
56.5572390933
 21
7.1253143035
 31
0.0
  0
LINE
  5
F5
330
1F
100
AcDbEntity
  8
SLD-0
  6
Continuous
370
    15
100
AcDbLine
 10
56.5572390933
 20
7.091713945
 30
0.0
 11
60.2963469921
 21
7.091713945
 31
0.0
  0
LINE
  5
F6
330
1F
100
AcDbEntity
  8
SLD-0
  6
Continuous
370
    15
100
AcDbLine
 10
39.007476283
 20
7.091713945
 30
0.0
 11
39.007476283
 21
7.1253143035
 31
0.0
  0
LINE
  5
F7
330
1F
100
AcDbEntity
  8
SLD-0
  6
Continuous
370
    15
100
AcDbLine
 10
39.007476283
 20
7.091713945
 30
0.0
 11
35.2683683841
 21
7.091713945
 31
0.0
  0
LINE
  5
F8
330
1F
100
AcDbEntity
  8
SLD-0
  6
Continuous
370
    15
100
AcDbLine
 10
40.101101836
 20
7.091713945
 30
0.0
 11
40.101101836
 21
7.1253143035
 31
0.0
  0
LINE
  5
F9
330
1F
100
AcDbEntity
  8
SLD-0
  6
Continuous
370
    15
100
AcDbLine
 10
39.5066775028
 20
7.1253143035
 30
0.0
 11
39.5066775028
 21
7.091713945
 31
0.0
  0
LINE
  5
FA
330
1F
100
AcDbEntity
  8
SLD-0
  6
Continuous
370
    15
100
AcDbLine
 10
40.101101836
 20
7.091713945
 30
0.0
 11
39.5066775028
 21
7.091713945
 31
0.0
  0
LINE
  5
FB
330
1F
100
AcDbEntity
  8
SLD-0
  6
Continuous
370
    15
100
AcDbLine
 10
55.4636135403
 20
7.091713945
 30
0.0
 11
55.4636135403
 21
7.1253143035
 31
0.0
  0
LINE
  5
FC
330
1F
100
AcDbEntity
  8
SLD-0
  6
Continuous
370
    15
100
AcDbLine
 10
56.0580378734
 20
7.1253143035
 30
0.0
 11
56.0580378734
 21
7.091713945
 31
0.0
  0
LINE
  5
FD
330
1F
100
AcDbEntity
  8
SLD-0
  6
Continuous
370
    15
100
AcDbLine
 10
56.0580378734
 20
7.091713945
 30
0.0
 11
55.4636135403
 21
7.091713945
 31
0.0
  0
LINE
  5
FE
330
1F
100
AcDbEntity
  8
SLD-0
  6
Continuous
370
    15
100
AcDbLine
 10
55.4636135403
 20
7.091713945
 30
0.0
 11
40.101101836
 21
7.091713945
 31
0.0
  0
SPLINE
  5
FF
330
1F
100
AcDbEntity
  8
SLD-0
  6
Continuous
370
    15
100
AcDbSpline
210
0.0
220
0.0
230
1.0
 70
     8
 71
     3
 72
    13
 73
     9
 74
     0
 42
0.00000001
 43
0.00000001
 12
1.0
 22
0.0
 32
0.0
 13
1.0
 23
0.0
 33
0.0
 40
0.0
 40
0.0
 40
0.0
 40
0.0
 40
0.0785537085507873
 40
0.2628381476104802
 40
0.4471355395169931
 40
0.631418022452833
 40
0.8157215193905112
 40
1.0
 40
1.0
 40
1.0
 40
1.0
 10
39.49633938223731
 20
7.125314303534195
 30
0.0
 10
39.49661025708703
 20
7.123697235563347
 30
0.0
 10
39.49751659550247
 20
7.118286578856498
 30
0.0
 10
39.49905652612193
 20
7.11045853754511
 30
0.0
 10
39.50096244175326
 20
7.102276383354433
 30
0.0
 10
39.50286703726429
 20
7.096297359232679
 30
0.0
 10
39.50477265944652
 20
7.09243733466322
 30
0.0
 10
39.50604258375318
 20
7.091955063991372
 30
0.0
 10
39.50667750281046
 20
7.091713945021739
 30
0.0
  0
SPLINE
  5
100
330
1F
100
AcDbEntity
  8
SLD-0
  6
Continuous
370
    15
100
AcDbSpline
210
0.0
220
0.0
230
1.0
 70
     8
 71
     3
 72
    13
 73
     9
 74
     0
 42
0.00000001
 43
0.00000001
 12
1.0
 22
0.0
 32
0.0
 13
1.0
 23
0.0
 33
0.0
 40
0.0
 40
0.0
 40
0.0
 40
0.0
 40
0.1842784806094888
 40
0.3685819775471672
 40
0.5528644604830069
 40
0.7371618523895197
 40
0.9214462914492126
 40
1.0
 40
1.0
 40
1.0
 40
1.0
 10
56.05803787341641
 20
7.091713945021739
 30
0.0
 10
56.05867279247369
 20
7.091955063991372
 30
0.0
 10
56.05994271678033
 20
7.092437334663224
 30
0.0
 10
56.06184833896258
 20
7.096297359232675
 30
0.0
 10
56.06375293447361
 20
7.102276383354438
 30
0.0
 10
56.06565885010495
 20
7.110458537545108
 30
0.0
 10
56.0671987807244
 20
7.118286578856502
 30
0.0
 10
56.06810511913984
 20
7.123697235563346
 30
0.0
 10
56.06837599398956
 20
7.125314303534196
 30
0.0
  0
LINE
  5
101
330
1F
100
AcDbEntity
  8
SLD-0
  6
Continuous
370
    15
100
AcDbLine
 10
38.3034363094
 20
22.5315644359
 30
0.0
 11
38.2744617641
 21
22.5315644359
 31
0.0
  0
LINE
  5
102
330
1F
100
AcDbEntity
  8
SLD-0
  6
Continuous
370
    15
100
AcDbLine
 10
57.2902536121
 20
22.5315644359
 30
0.0
 11
57.2612790668
 21
22.5315644359
 31
0.0
  0
LINE
  5
103
330
1F
100
AcDbEntity
  8
SLD-0
  6
Continuous
370
    15
100
AcDbLine
 10
57.2612790668
 20
22.5315644359
 30
0.0
 11
38.3034363094
 21
22.5315644359
 31
0.0
  0
LINE
  5
104
330
1F
100
AcDbEntity
  8
SLD-0
  6
Continuous
370
    15
100
AcDbLine
 10
63.9073571174
 20
25.0487642103
 30
0.0
 11
62.6971082716
 21
25.0487642103
 31
0.0
  0
LINE
  5
105
330
1F
100
AcDbEntity
  8
SLD-0
  6
Continuous
370
    15
100
AcDbLine
 10
62.6971082716
 20
25.0487642103
 30
0.0
 11
32.8676071046
 21
25.0487642103
 31
0.0
  0
LINE
  5
106
330
1F
100
AcDbEntity
  8
SLD-0
  6
Continuous
370
    15
100
AcDbLine
 10
31.6573582588
 20
25.0487642103
 30
0.0
 11
32.8676071046
 21
25.0487642103
 31
0.0
  0
LINE
  5
107
330
1F
100
AcDbEntity
  8
SLD-0
  6
Continuous
370
    15
100
AcDbLine
 10
31.6573582588
 20
25.0487642103
 30
0.0
 11
31.6573582588
 21
26.2687645168
 31
0.0
  0
LINE
  5
108
330
1F
100
AcDbEntity
  8
SLD-0
  6
Continuous
370
    15
100
AcDbLine
 10
63.9073571174
 20
26.2687645168
 30
0.0
 11
63.5323582494
 21
26.6437645581
 31
0.0
  0
LINE
  5
109
330
1F
100
AcDbEntity
  8
SLD-0
  6
Continuous
370
    15
100
AcDbLine
 10
63.5323582494
 20
26.6437645581
 30
0.0
 11
32.0323571268
 21
26.6437645581
 31
0.0
  0
LINE
  5
10A
330
1F
100
AcDbEntity
  8
SLD-0
  6
Continuous
370
    15
100
AcDbLine
 10
32.0323571268
 20
26.6437645581
 30
0.0
 11
31.6573582588
 21
26.2687645168
 31
0.0
  0
LINE
  5
10B
330
1F
100
AcDbEntity
  8
SLD-0
  6
Continuous
370
    15
100
AcDbLine
 10
63.9073571174
 20
25.0487642103
 30
0.0
 11
63.9073571174
 21
26.2687645168
 31
0.0
  0
LINE
  5
10C
330
1F
100
AcDbEntity
  8
SLD-0
  6
Continuous
370
    15
100
AcDbLine
 10
32.8676071046
 20
24.9911635957
 30
0.0
 11
62.6971082716
 21
24.9911635957
 31
0.0
  0
LINE
  5
10D
330
1F
100
AcDbEntity
  8
SLD-0
  6
Continuous
370
    15
100
AcDbLine
 10
62.6971082716
 20
25.0487642103
 30
0.0
 11
62.6971082716
 21
24.9911635957
 31
0.0
  0
LINE
  5
10E
330
1F
100
AcDbEntity
  8
SLD-0
  6
Continuous
370
    15
100
AcDbLine
 10
32.8676071046
 20
24.9911635957
 30
0.0
 11
32.8676071046
 21
25.0487642103
 31
0.0
  0
SPLINE
  5
10F
330
1F
100
AcDbEntity
  8
SLD-0
  6
Continuous
370
    15
100
AcDbSpline
210
0.0
220
0.0
230
1.0
 70
     8
 71
     3
 72
    11
 73
     7
 74
     0
 42
0.00000001
 43
0.00000001
 12
1.0
 22
0.0
 32
0.0
 13
1.0
 23
0.0
 33
0.0
 40
0.0
 40
0.0
 40
0.0
 40
0.0
 40
0.2309783899669018
 40
0.4965310836499958
 40
0.7624889590744914
 40
1.0
 40
1.0
 40
1.0
 40
1.0
 10
32.896748847937
 20
24.96116415560805
 30
0.0
 10
32.89275199191372
 20
24.96483916089348
 30
0.0
 10
32.88416000522302
 20
24.97273926945801
 30
0.0
 10
32.87552331243641
 20
24.98215297295782
 30
0.0
 10
32.86948702121074
 20
24.98945649296837
 30
0.0
 10
32.86820968627455
 20
24.99061640716488
 30
0.0
 10
32.8676071045849
 20
24.99116359571862
 30
0.0
  0
SPLINE
  5
110
330
1F
100
AcDbEntity
  8
SLD-0
  6
Continuous
370
    15
100
AcDbSpline
210
0.0
220
0.0
230
1.0
 70
     8
 71
     3
 72
    11
 73
     7
 74
     0
 42
0.00000001
 43
0.00000001
 12
1.0
 22
0.0
 32
0.0
 13
1.0
 23
0.0
 33
0.0
 40
0.0
 40
0.0
 40
0.0
 40
0.0
 40
0.2309783715095128
 40
0.4965341605485847
 40
0.7624895265337646
 40
1.0
 40
1.0
 40
1.0
 40
1.0
 10
62.69710827164197
 20
24.99116359571862
 30
0.0
 10
62.69613480505441
 20
24.99075035081794
 30
0.0
 10
62.69404214411945
 20
24.98986199833488
 30
0.0
 10
62.68819751388507
 20
24.98345706220454
 30
0.0
 10
62.68028893388074
 20
24.97413607564344
 30
0.0
 10
62.67191631768949
 20
24.96532213854982
 30
0.0
 10
62.66796652828987
 20
24.96116415560805
 30
0.0
  0
SPLINE
  5
111
330
1F
100
AcDbEntity
  8
SLD-0
  6
Continuous
370
    15
100
AcDbSpline
210
0.0
220
0.0
230
1.0
 70
     8
 71
     3
 72
    14
 73
    10
 74
     0
 42
0.00000001
 43
0.00000001
 12
1.0
 22
0.0
 32
0.0
 13
1.0
 23
0.0
 33
0.0
 40
0.0
 40
0.0
 40
0.0
 40
0.0
 40
0.1503708920860791
 40
0.3148972541491299
 40
0.4936255514323101
 40
0.6288453974532847
 40
0.7582521399119087
 40
0.8819331609648432
 40
1.0
 40
1.0
 40
1.0
 40
1.0
 10
62.69710827164197
 20
25.01876359688105
 30
0.0
 10
62.69853241104055
 20
25.01843624947954
 30
0.0
 10
62.70151475409855
 20
25.0177507391626
 30
0.0
 10
62.70470319010026
 20
25.01224776272312
 30
0.0
 10
62.70573754619042
 20
25.00426822432856
 30
0.0
 10
62.70494880034045
 20
24.99462261261487
 30
0.0
 10
62.7029093150778
 20
24.98434629319568
 30
0.0
 10
62.69942972530391
 20
24.97317741344997
 30
0.0
 10
62.69548378429701
 20
24.96510609400958
 30
0.0
 10
62.69355663267081
 20
24.96116415560805
 30
0.0
  0
LINE
  5
112
330
1F
100
AcDbEntity
  8
SLD-0
  6
Continuous
370
    15
100
AcDbLine
 10
47.4698576781
 20
24.9911635957
 30
0.0
 11
47.4698576781
 21
24.9611641556
 31
0.0
  0
LINE
  5
113
330
1F
100
AcDbEntity
  8
SLD-0
  6
Continuous
370
    15
100
AcDbLine
 10
48.0948576981
 20
24.9611641556
 30
0.0
 11
48.0948576981
 21
24.9911635957
 31
0.0
  0
LINE
  5
114
330
1F
100
AcDbEntity
  8
SLD-0
  6
Continuous
370
    15
100
AcDbLine
 10
62.7823581668
 20
4.4977327109
 30
0.0
 11
62.7823581668
 21
4.4681638792
 31
0.0
  0
LINE
  5
115
330
1F
100
AcDbEntity
  8
SLD-0
  6
Continuous
370
    15
100
AcDbLine
 10
32.7823572094
 20
4.4681638792
 30
0.0
 11
62.7823581668
 21
4.4681638792
 31
0.0
  0
LINE
  5
116
330
1F
100
AcDbEntity
  8
SLD-0
  6
Continuous
370
    15
100
AcDbLine
 10
32.7823572094
 20
4.4681638792
 30
0.0
 11
32.7823572094
 21
4.4977327109
 31
0.0
  0
LINE
  5
117
330
1F
100
AcDbEntity
  8
SLD-0
  6
Continuous
370
    15
100
AcDbLine
 10
32.7823572094
 20
4.0117330986
 30
0.0
 11
32.7823572094
 21
4.4681638792
 31
0.0
  0
LINE
  5
118
330
1F
100
AcDbEntity
  8
SLD-0
  6
Continuous
370
    15
100
AcDbLine
 10
62.7823581668
 20
4.4681638792
 30
0.0
 11
62.7823581668
 21
4.0117330986
 31
0.0
  0
LINE
  5
119
330
1F
100
AcDbEntity
  8
SLD-0
  6
Continuous
370
    15
100
AcDbLine
 10
62.7823581668
 20
4.0117330986
 30
0.0
 11
32.7823572094
 21
4.0117330986
 31
0.0
  0
LINE
  5
11A
330
1F
100
AcDbEntity
  8
SLD-0
  6
Continuous
370
    15
100
AcDbLine
 10
62.7823581668
 20
3.9611641894
 30
0.0
 11
32.7823572094
 21
3.9611641894
 31
0.0
  0
LINE
  5
11B
330
1F
100
AcDbEntity
  8
SLD-0
  6
Continuous
370
    15
100
AcDbLine
 10
62.7823581668
 20
3.9611641894
 30
0.0
 11
62.7823581668
 21
3.9035647481
 31
0.0
  0
LINE
  5
11C
330
1F
100
AcDbEntity
  8
SLD-0
  6
Continuous
370
    15
100
AcDbLine
 10
32.7823572094
 20
3.9035647481
 30
0.0
 11
62.7823581668
 21
3.9035647481
 31
0.0
  0
LINE
  5
11D
330
1F
100
AcDbEntity
  8
SLD-0
  6
Continuous
370
    15
100
AcDbLine
 10
32.7823572094
 20
3.9035647481
 30
0.0
 11
32.7823572094
 21
3.9611641894
 31
0.0
  0
LINE
  5
11E
330
1F
100
AcDbEntity
  8
SLD-0
  6
Continuous
370
    15
100
AcDbLine
 10
32.7823572094
 20
4.0117330986
 30
0.0
 11
32.7823572094
 21
3.9611641894
 31
0.0
  0
LINE
  5
11F
330
1F
100
AcDbEntity
  8
SLD-0
  6
Continuous
370
    15
100
AcDbLine
 10
62.7823581668
 20
3.9611641894
 30
0.0
 11
62.7823581668
 21
4.0117330986
 31
0.0
  0
SPLINE
  5
120
330
1F
100
AcDbEntity
  8
SLD-0
  6
Continuous
370
    15
100
AcDbSpline
210
0.0
220
0.0
230
1.0
 70
     8
 71
     3
 72
    15
 73
    11
 74
     0
 42
0.00000001
 43
0.00000001
 12
1.0
 22
0.0
 32
0.0
 13
1.0
 23
0.0
 33
0.0
 40
0.0
 40
0.0
 40
0.0
 40
0.0
 40
0.1348220868149768
 40
0.2696449402559309
 40
0.4044686931909618
 40
0.539291656266883
 40
0.6741144858019449
 40
0.8089361855605803
 40
0.9437623041890013
 40
1.0
 40
1.0
 40
1.0
 40
1.0
 10
62.7823581668279
 20
3.90356474812665
 30
0.0
 10
62.78347983163558
 20
3.903779073073495
 30
0.0
 10
62.78572316762894
 20
3.90420772418588
 30
0.0
 10
62.78868742359681
 20
3.907631521792128
 30
0.0
 10
62.79086103075359
 20
3.912955877756575
 30
0.0
 10
62.7918811809941
 20
3.920174626860188
 30
0.0
 10
62.79147012115901
 20
3.928953997154176
 30
0.0
 10
62.78922192655934
 20
3.938987701797054
 30
0.0
 10
62.78624270347922
 20
3.947717039708574
 30
0.0
 10
62.78324153139103
 20
3.953046149097743
 30
0.0
 10
62.7823581668279
 20
3.954614718393037
 30
0.0
  0
SPLINE
  5
121
330
1F
100
AcDbEntity
  8
SLD-0
  6
Continuous
370
    15
100
AcDbSpline
210
0.0
220
0.0
230
1.0
 70
     8
 71
     3
 72
    13
 73
     9
 74
     0
 42
0.00000001
 43
0.00000001
 12
1.0
 22
0.0
 32
0.0
 13
1.0
 23
0.0
 33
0.0
 40
0.0
 40
0.0
 40
0.0
 40
0.0
 40
0.0898482961834213
 40
0.2652521176358522
 40
0.4904625882741455
 40
0.722137538963053
 40
0.8603357285213932
 40
1.0
 40
1.0
 40
1.0
 40
1.0
 10
32.78235720939897
 20
3.954327255047169
 30
0.0
 10
32.78098734277668
 20
3.951832528764005
 30
0.0
 10
32.77694319238235
 20
3.944467542919639
 30
0.0
 10
32.77350315241765
 20
3.931731177573548
 30
0.0
 10
32.7724824653156
 20
3.917668092854885
 30
0.0
 10
32.77521496797673
 20
3.908649231324263
 30
0.0
 10
32.77889521843202
 20
3.904247563084383
 30
0.0
 10
32.78119916032424
 20
3.903793152313017
 30
0.0
 10
32.78235720939897
 20
3.90356474812665
 30
0.0
  0
LINE
  5
122
330
1F
100
AcDbEntity
  8
SLD-0
  6
Continuous
370
    15
100
AcDbLine
 10
62.8101728855
 20
24.9611641556
 30
0.0
 11
63.9149379365
 21
24.9611641556
 31
0.0
  0
LINE
  5
123
330
1F
100
AcDbEntity
  8
SLD-0
  6
Continuous
370
    15
100
AcDbLine
 10
63.9149379365
 20
24.9611641556
 30
0.0
 11
63.9149379365
 21
9.9611642636
 31
0.0
  0
LINE
  5
124
330
1F
100
AcDbEntity
  8
SLD-0
  6
Continuous
370
    15
100
AcDbLine
 10
63.9149379365
 20
9.9611642636
 30
0.0
 11
63.8836654444
 21
9.9611642636
 31
0.0
  0
LINE
  5
125
330
1F
100
AcDbEntity
  8
SLD-0
  6
Continuous
370
    15
100
AcDbLine
 10
63.1649378539
 20
9.9450179167
 30
0.0
 11
63.1649378539
 21
8.4611640984
 31
0.0
  0
LINE
  5
126
330
1F
100
AcDbEntity
  8
SLD-0
  6
Continuous
370
    15
100
AcDbLine
 10
63.1649378539
 20
8.4611640984
 30
0.0
 11
63.9149379365
 21
8.4611640984
 31
0.0
  0
LINE
  5
127
330
1F
100
AcDbEntity
  8
SLD-0
  6
Continuous
370
    15
100
AcDbLine
 10
63.9149379365
 20
8.4611640984
 30
0.0
 11
63.9149379365
 21
4.3361642307
 31
0.0
  0
LINE
  5
128
330
1F
100
AcDbEntity
  8
SLD-0
  6
Continuous
370
    15
100
AcDbLine
 10
63.9149379365
 20
4.3361642307
 30
0.0
 11
63.5399378952
 21
3.9611641894
 31
0.0
  0
LINE
  5
129
330
1F
100
AcDbEntity
  8
SLD-0
  6
Continuous
370
    15
100
AcDbLine
 10
63.5399378952
 20
3.9611641894
 30
0.0
 11
62.8101728855
 21
3.9611641894
 31
0.0
  0
LINE
  5
12A
330
1F
100
AcDbEntity
  8
SLD-0
  6
Continuous
370
    15
100
AcDbLine
 10
62.8101728855
 20
24.9611641556
 30
0.0
 11
62.7512041801
 21
24.9611641556
 31
0.0
  0
LINE
  5
12B
330
1F
100
AcDbEntity
  8
SLD-0
  6
Continuous
370
    15
100
AcDbLine
 10
62.7823581668
 20
3.9611641894
 30
0.0
 11
62.8101728855
 21
3.9611641894
 31
0.0
  0
LINE
  5
12C
330
1F
100
AcDbEntity
  8
SLD-0
  6
Continuous
370
    15
100
AcDbLine
 10
62.7512041801
 20
24.9611641556
 30
0.0
 11
56.7424353005
 21
24.9611641556
 31
0.0
  0
LINE
  5
12D
330
1F
100
AcDbEntity
  8
SLD-0
  6
Continuous
370
    15
100
AcDbLine
 10
56.7424353005
 20
24.9611641556
 30
0.0
 11
56.7146199952
 21
24.9611641556
 31
0.0
  0
LINE
  5
12E
330
1F
100
AcDbEntity
  8
SLD-0
  6
Continuous
370
    15
100
AcDbLine
 10
56.7146199952
 20
24.9611641556
 30
0.0
 11
47.5323576911
 21
24.9611641556
 31
0.0
  0
LINE
  5
12F
330
1F
100
AcDbEntity
  8
SLD-0
  6
Continuous
370
    15
100
AcDbLine
 10
32.024777481
 20
3.9611641894
 30
0.0
 11
32.7545424907
 21
3.9611641894
 31
0.0
  0
LINE
  5
130
330
1F
100
AcDbEntity
  8
SLD-0
  6
Continuous
370
    15
100
AcDbLine
 10
32.3997775223
 20
8.4611640984
 30
0.0
 11
31.6497774397
 21
8.4611640984
 31
0.0
  0
LINE
  5
131
330
1F
100
AcDbEntity
  8
SLD-0
  6
Continuous
370
    15
100
AcDbLine
 10
32.3997775223
 20
9.9450179167
 30
0.0
 11
32.3997775223
 21
8.4611640984
 31
0.0
  0
LINE
  5
132
330
1F
100
AcDbEntity
  8
SLD-0
  6
Continuous
370
    15
100
AcDbLine
 10
31.6497774397
 20
24.9611641556
 30
0.0
 11
31.6497774397
 21
9.9611642636
 31
0.0
  0
LINE
  5
133
330
1F
100
AcDbEntity
  8
SLD-0
  6
Continuous
370
    15
100
AcDbLine
 10
32.7545424907
 20
24.9611641556
 30
0.0
 11
31.6497774397
 21
24.9611641556
 31
0.0
  0
LINE
  5
134
330
1F
100
AcDbEntity
  8
SLD-0
  6
Continuous
370
    15
100
AcDbLine
 10
31.6497774397
 20
4.3361642307
 30
0.0
 11
32.024777481
 21
3.9611641894
 31
0.0
  0
LINE
  5
135
330
1F
100
AcDbEntity
  8
SLD-0
  6
Continuous
370
    15
100
AcDbLine
 10
31.6497774397
 20
8.4611640984
 30
0.0
 11
31.6497774397
 21
4.3361642307
 31
0.0
  0
LINE
  5
136
330
1F
100
AcDbEntity
  8
SLD-0
  6
Continuous
370
    15
100
AcDbLine
 10
31.6497774397
 20
9.9611642636
 30
0.0
 11
31.6810499318
 21
9.9611642636
 31
0.0
  0
LINE
  5
137
330
1F
100
AcDbEntity
  8
SLD-0
  6
Continuous
370
    15
100
AcDbLine
 10
32.7545424907
 20
24.9611641556
 30
0.0
 11
32.8135111962
 21
24.9611641556
 31
0.0
  0
LINE
  5
138
330
1F
100
AcDbEntity
  8
SLD-0
  6
Continuous
370
    15
100
AcDbLine
 10
32.7823572094
 20
3.9611641894
 30
0.0
 11
32.7545424907
 21
3.9611641894
 31
0.0
  0
LINE
  5
139
330
1F
100
AcDbEntity
  8
SLD-0
  6
Continuous
370
    15
100
AcDbLine
 10
32.8135111962
 20
24.9611641556
 30
0.0
 11
38.8222800757
 21
24.9611641556
 31
0.0
  0
LINE
  5
13A
330
1F
100
AcDbEntity
  8
SLD-0
  6
Continuous
370
    15
100
AcDbLine
 10
38.8222800757
 20
24.9611641556
 30
0.0
 11
38.850095381
 21
24.9611641556
 31
0.0
  0
LINE
  5
13B
330
1F
100
AcDbEntity
  8
SLD-0
  6
Continuous
370
    15
100
AcDbLine
 10
38.850095381
 20
24.9611641556
 30
0.0
 11
48.0323576851
 21
24.9611641556
 31
0.0
  0
LINE
  5
13C
330
1F
100
AcDbEntity
  8
SLD-0
  6
Continuous
370
    15
100
AcDbLine
 10
57.3450388459
 20
22.5465641559
 30
0.0
 11
60.407357123
 21
22.5465641559
 31
0.0
  0
LINE
  5
13D
330
1F
100
AcDbEntity
  8
SLD-0
  6
Continuous
370
    15
100
AcDbLine
 10
61.1573572056
 20
22.5465641559
 30
0.0
 11
61.9415525199
 21
22.5465641559
 31
0.0
  0
LINE
  5
13E
330
1F
100
AcDbEntity
  8
SLD-0
  6
Continuous
370
    15
100
AcDbLine
 10
33.6231628563
 20
22.5465641559
 30
0.0
 11
34.4073581706
 21
22.5465641559
 31
0.0
  0
LINE
  5
13F
330
1F
100
AcDbEntity
  8
SLD-0
  6
Continuous
370
    15
100
AcDbLine
 10
35.1573582532
 20
22.5465641559
 30
0.0
 11
38.2196765304
 21
22.5465641559
 31
0.0
  0
LINE
  5
140
330
1F
100
AcDbEntity
  8
SLD-0
  6
Continuous
370
    15
100
AcDbLine
 10
33.4913075262
 20
22.5315644359
 30
0.0
 11
33.4913075262
 21
7.8221418804
 31
0.0
  0
LINE
  5
141
330
1F
100
AcDbEntity
  8
SLD-0
  6
Continuous
370
    15
100
AcDbLine
 10
33.5514354716
 20
22.5315644359
 30
0.0
 11
33.5514354716
 21
7.8737667773
 31
0.0
  0
LINE
  5
142
330
1F
100
AcDbEntity
  8
SLD-0
  6
Continuous
370
    15
100
AcDbLine
 10
62.0132799046
 20
22.5315644359
 30
0.0
 11
62.0132799046
 21
7.8737667773
 31
0.0
  0
LINE
  5
143
330
1F
100
AcDbEntity
  8
SLD-0
  6
Continuous
370
    15
100
AcDbLine
 10
62.07340785
 20
22.5315644359
 30
0.0
 11
62.07340785
 21
7.8221418804
 31
0.0
  0
LINE
  5
144
330
1F
100
AcDbEntity
  8
SLD-0
  6
Continuous
370
    15
100
AcDbLine
 10
62.8101728855
 20
24.9611641556
 30
0.0
 11
62.8101728855
 21
23.2371643381
 31
0.0
  0
LINE
  5
145
330
1F
100
AcDbEntity
  8
SLD-0
  6
Continuous
370
    15
100
AcDbLine
 10
62.8101728855
 20
22.6161643119
 30
0.0
 11
62.8101728855
 21
22.5315644359
 31
0.0
  0
LINE
  5
146
330
1F
100
AcDbEntity
  8
SLD-0
  6
Continuous
370
    15
100
AcDbLine
 10
62.8101728855
 20
7.1565639159
 30
0.0
 11
62.8101728855
 21
3.9611641894
 31
0.0
  0
LINE
  5
147
330
1F
100
AcDbEntity
  8
SLD-0
  6
Continuous
370
    15
100
AcDbLine
 10
62.7512041801
 20
24.9611641556
 30
0.0
 11
62.7512041801
 21
23.2371643381
 31
0.0
  0
LINE
  5
148
330
1F
100
AcDbEntity
  8
SLD-0
  6
Continuous
370
    15
100
AcDbLine
 10
62.7512041801
 20
22.6161643119
 30
0.0
 11
62.7512041801
 21
22.5315644359
 31
0.0
  0
LINE
  5
149
330
1F
100
AcDbEntity
  8
SLD-0
  6
Continuous
370
    15
100
AcDbLine
 10
62.7512041801
 20
7.1565639159
 30
0.0
 11
62.7512041801
 21
4.4977327109
 31
0.0
  0
LINE
  5
14A
330
1F
100
AcDbEntity
  8
SLD-0
  6
Continuous
370
    15
100
AcDbLine
 10
56.7424353005
 20
24.9611641556
 30
0.0
 11
56.7424353005
 21
24.126414012
 31
0.0
  0
LINE
  5
14B
330
1F
100
AcDbEntity
  8
SLD-0
  6
Continuous
370
    15
100
AcDbLine
 10
56.7424353005
 20
24.0928142402
 30
0.0
 11
56.7424353005
 21
23.3115639586
 31
0.0
  0
LINE
  5
14C
330
1F
100
AcDbEntity
  8
SLD-0
  6
Continuous
370
    15
100
AcDbLine
 10
56.7424353005
 20
22.5615644627
 30
0.0
 11
56.7424353005
 21
22.5315644359
 31
0.0
  0
LINE
  5
14D
330
1F
100
AcDbEntity
  8
SLD-0
  6
Continuous
370
    15
100
AcDbLine
 10
56.7424353005
 20
7.091713945
 30
0.0
 11
56.7424353005
 21
4.4977327109
 31
0.0
  0
LINE
  5
14E
330
1F
100
AcDbEntity
  8
SLD-0
  6
Continuous
370
    15
100
AcDbLine
 10
56.7146199952
 20
24.9611641556
 30
0.0
 11
56.7146199952
 21
24.126414012
 31
0.0
  0
LINE
  5
14F
330
1F
100
AcDbEntity
  8
SLD-0
  6
Continuous
370
    15
100
AcDbLine
 10
56.7146199952
 20
24.0928142402
 30
0.0
 11
56.7146199952
 21
23.3115639586
 31
0.0
  0
LINE
  5
150
330
1F
100
AcDbEntity
  8
SLD-0
  6
Continuous
370
    15
100
AcDbLine
 10
56.7146199952
 20
22.5615644627
 30
0.0
 11
56.7146199952
 21
22.5315644359
 31
0.0
  0
LINE
  5
151
330
1F
100
AcDbEntity
  8
SLD-0
  6
Continuous
370
    15
100
AcDbLine
 10
56.7146199952
 20
7.091713945
 30
0.0
 11
56.7146199952
 21
4.4977327109
 31
0.0
  0
LINE
  5
152
330
1F
100
AcDbEntity
  8
SLD-0
  6
Continuous
370
    15
100
AcDbLine
 10
32.7545424907
 20
7.1565639159
 30
0.0
 11
32.7545424907
 21
3.9611641894
 31
0.0
  0
LINE
  5
153
330
1F
100
AcDbEntity
  8
SLD-0
  6
Continuous
370
    15
100
AcDbLine
 10
32.7545424907
 20
24.9611641556
 30
0.0
 11
32.7545424907
 21
23.2371643381
 31
0.0
  0
LINE
  5
154
330
1F
100
AcDbEntity
  8
SLD-0
  6
Continuous
370
    15
100
AcDbLine
 10
32.7545424907
 20
22.6161643119
 30
0.0
 11
32.7545424907
 21
22.5315644359
 31
0.0
  0
LINE
  5
155
330
1F
100
AcDbEntity
  8
SLD-0
  6
Continuous
370
    15
100
AcDbLine
 10
32.8135111962
 20
24.9611641556
 30
0.0
 11
32.8135111962
 21
23.2371643381
 31
0.0
  0
LINE
  5
156
330
1F
100
AcDbEntity
  8
SLD-0
  6
Continuous
370
    15
100
AcDbLine
 10
32.8135111962
 20
22.6161643119
 30
0.0
 11
32.8135111962
 21
22.5315644359
 31
0.0
  0
LINE
  5
157
330
1F
100
AcDbEntity
  8
SLD-0
  6
Continuous
370
    15
100
AcDbLine
 10
32.8135111962
 20
7.1565639159
 30
0.0
 11
32.8135111962
 21
4.4977327109
 31
0.0
  0
LINE
  5
158
330
1F
100
AcDbEntity
  8
SLD-0
  6
Continuous
370
    15
100
AcDbLine
 10
38.8222800757
 20
24.9611641556
 30
0.0
 11
38.8222800757
 21
24.126414012
 31
0.0
  0
LINE
  5
159
330
1F
100
AcDbEntity
  8
SLD-0
  6
Continuous
370
    15
100
AcDbLine
 10
38.8222800757
 20
24.0928142402
 30
0.0
 11
38.8222800757
 21
23.3115639586
 31
0.0
  0
LINE
  5
15A
330
1F
100
AcDbEntity
  8
SLD-0
  6
Continuous
370
    15
100
AcDbLine
 10
38.8222800757
 20
22.5615644627
 30
0.0
 11
38.8222800757
 21
22.5315644359
 31
0.0
  0
LINE
  5
15B
330
1F
100
AcDbEntity
  8
SLD-0
  6
Continuous
370
    15
100
AcDbLine
 10
38.8222800757
 20
7.091713945
 30
0.0
 11
38.8222800757
 21
4.4977327109
 31
0.0
  0
LINE
  5
15C
330
1F
100
AcDbEntity
  8
SLD-0
  6
Continuous
370
    15
100
AcDbLine
 10
38.850095381
 20
24.9611641556
 30
0.0
 11
38.850095381
 21
24.126414012
 31
0.0
  0
LINE
  5
15D
330
1F
100
AcDbEntity
  8
SLD-0
  6
Continuous
370
    15
100
AcDbLine
 10
38.850095381
 20
24.0928142402
 30
0.0
 11
38.850095381
 21
23.3115639586
 31
0.0
  0
LINE
  5
15E
330
1F
100
AcDbEntity
  8
SLD-0
  6
Continuous
370
    15
100
AcDbLine
 10
38.850095381
 20
22.5615644627
 30
0.0
 11
38.850095381
 21
22.5315644359
 31
0.0
  0
LINE
  5
15F
330
1F
100
AcDbEntity
  8
SLD-0
  6
Continuous
370
    15
100
AcDbLine
 10
38.850095381
 20
7.091713945
 30
0.0
 11
38.850095381
 21
4.4977327109
 31
0.0
  0
DIMENSION
  5
160
330
1F
100
AcDbEntity
  8
DIM
100
AcDbDimension
  2
_D
 10
62.013279846
 20
15.1769821566
 30
0.0
 11
47.3424891975
 21
15.1769821566
 31
0.0
 70
   160
  1
<>
 71
     2
 42
-1.0
  3
SLDDIMSTYLE0
100
AcDbAlignedDimension
 13
33.5514355302
 23
22.5315641725
 33
0.0
 14
62.013279846
 24
22.5315641725
 34
0.0
100
AcDbRotatedDimension
  0
DIMENSION
  5
16E
330
1F
100
AcDbEntity
  8
DIM
100
AcDbDimension
  2
_D_1
 10
26.9859069776
 20
3.9035641725
 30
0.0
 11
26.9859069776
 21
15.1769821566
 31
0.0
 70
   160
  1
<>
 71
     2
 42
-1.0
  3
SLDDIMSTYLE0
100
AcDbAlignedDimension
 13
32.0323576881
 23
26.6437641725
 33
0.0
 14
32.7823576881
 24
3.9035641725
 34
0.0
 50
90.0
100
AcDbRotatedDimension
  0
DIMENSION
  5
17D
330
1F
100
AcDbEntity
  8
DIM
100
AcDbDimension
  2
_D_2
 10
68.2918137016
 20
7.822141606
 30
0.0
 11
68.2918137016
 21
15.1769821566
 31
0.0
 70
   160
  1
<>
 71
     2
 42
-1.0
  3
SLDDIMSTYLE0
100
AcDbAlignedDimension
 13
63.8836658417
 23
22.5315641725
 33
0.0
 14
63.8841580688
 24
7.822141606
 34
0.0
 50
90.0
100
AcDbRotatedDimension
  0
DIMENSION
  5
18C
330
1F
100
AcDbEntity
  8
DIM
100
AcDbDimension
  2
_D_3
 10
68.2918137016
 20
22.5315641725
 30
0.0
 11
68.2918137016
 21
24.5876641725
 31
0.0
 70
   160
  1
<>
 71
     2
 42
-1.0
  3
SLDDIMSTYLE1
100
AcDbAlignedDimension
 13
63.5323576881
 23
26.6437641725
 33
0.0
 14
63.8836658417
 24
22.5315641725
 34
0.0
 50
90.0
100
AcDbRotatedDimension
  0
DIMENSION
  5
19C
330
1F
100
AcDbEntity
  8
DIM
100
AcDbDimension
  2
_D_4
 10
68.2918137016
 20
7.822141606
 30
0.0
 11
68.2918137016
 21
5.8628528893
 31
0.0
 70
   160
  1
<>
 71
     2
 42
-1.0
  3
SLDDIMSTYLE1
100
AcDbAlignedDimension
 13
62.7823576881
 23
3.9035641725
 33
0.0
 14
63.8841580688
 24
7.822141606
 34
0.0
 50
90.0
100
AcDbRotatedDimension
  0
SPLINE
  5
1AB
330
1F
100
AcDbEntity
  8
SLD-0
  6
Continuous
370
    15
100
AcDbSpline
210
0.0
220
0.0
230
1.0
 70
     8
 71
     3
 72
    11
 73
     7
 74
     0
 42
0.00000001
 43
0.00000001
 12
1.0
 22
0.0
 32
0.0
 13
1.0
 23
0.0
 33
0.0
 40
0.0
 40
0.0
 40
0.0
 40
0.0
 40
0.0651617716653897
 40
0.3767751076687808
 40
0.6883873911481875
 40
1.0
 40
1.0
 40
1.0
 40
1.0
 10
33.54338063132479
 20
42.01238779659944
 30
0.0
 10
33.54284911258289
 20
42.01099717359921
 30
0.0
 10
33.53977579173711
 20
42.00295638346646
 30
0.0
 10
33.53416157201128
 20
41.99075952257316
 30
0.0
 10
33.52653916150083
 20
41.97868943816744
 30
0.0
 10
33.52145609957965
 20
41.9771550051948
 30
0.0
 10
33.51891456729218
 20
41.97638778830794
 30
0.0
  0
LINE
  5
1AC
330
1F
100
AcDbEntity
  8
SLD-0
  6
Continuous
370
    15
100
AcDbLine
 10
33.5189145673
 20
41.9763877883
 30
0.0
 11
33.5189145673
 21
42.0123877966
 31
0.0
  0
SPLINE
  5
1AD
330
1F
100
AcDbEntity
  8
SLD-0
  6
Continuous
370
    15
100
AcDbSpline
210
0.0
220
0.0
230
1.0
 70
     8
 71
     3
 72
    11
 73
     7
 74
     0
 42
0.00000001
 43
0.00000001
 12
1.0
 22
0.0
 32
0.0
 13
1.0
 23
0.0
 33
0.0
 40
0.0
 40
0.0
 40
0.0
 40
0.0
 40
0.3116126088518125
 40
0.6232248923312191
 40
0.9348382283346103
 40
1.0
 40
1.0
 40
1.0
 40
1.0
 10
62.04580080893469
 20
41.97638778830794
 30
0.0
 10
62.04325927664722
 20
41.9771550051948
 30
0.0
 10
62.03817621472604
 20
41.97868943816744
 30
0.0
 10
62.03055380421559
 20
41.99075952257316
 30
0.0
 10
62.02493958448974
 20
42.00295638346646
 30
0.0
 10
62.02186626364398
 20
42.01099717359921
 30
0.0
 10
62.02133474490208
 20
42.01238779659944
 30
0.0
  0
LINE
  5
1AE
330
1F
100
AcDbEntity
  8
SLD-0
  6
Continuous
370
    15
100
AcDbLine
 10
62.0458008089
 20
41.9763877883
 30
0.0
 11
33.5189145673
 21
41.9763877883
 31
0.0
  0
LINE
  5
1AF
330
1F
100
AcDbEntity
  8
SLD-0
  6
Continuous
370
    15
100
AcDbLine
 10
62.0458008089
 20
41.9763877883
 30
0.0
 11
62.0458008089
 21
42.0123877966
 31
0.0
  0
LINE
  5
1B0
330
1F
100
AcDbEntity
  8
SLD-0
  6
Continuous
370
    15
100
AcDbLine
 10
31.6805571375
 20
41.9763877883
 30
0.0
 11
33.5189145673
 21
41.9763877883
 31
0.0
  0
LINE
  5
1B1
330
1F
100
AcDbEntity
  8
SLD-0
  6
Continuous
370
    15
100
AcDbLine
 10
31.6805571375
 20
41.9763877883
 30
0.0
 11
31.6805571375
 21
42.0123877966
 31
0.0
  0
LINE
  5
1B2
330
1F
100
AcDbEntity
  8
SLD-0
  6
Continuous
370
    15
100
AcDbLine
 10
63.8841582387
 20
41.9763877883
 30
0.0
 11
63.8841582387
 21
42.0123877966
 31
0.0
  0
LINE
  5
1B3
330
1F
100
AcDbEntity
  8
SLD-0
  6
Continuous
370
    15
100
AcDbLine
 10
62.0458008089
 20
41.9763877883
 30
0.0
 11
63.8841582387
 21
41.9763877883
 31
0.0
  0
LINE
  5
1B4
330
1F
100
AcDbEntity
  8
SLD-0
  6
Continuous
370
    15
100
AcDbLine
 10
32.8525569318
 20
42.1598673325
 30
0.0
 11
32.8525569318
 21
42.1346800251
 31
0.0
  0
LINE
  5
1B5
330
1F
100
AcDbEntity
  8
SLD-0
  6
Continuous
370
    15
100
AcDbLine
 10
32.8676071046
 20
42.1749172486
 30
0.0
 11
32.8525569318
 21
42.1598673325
 31
0.0
  0
LINE
  5
1B6
330
1F
100
AcDbEntity
  8
SLD-0
  6
Continuous
370
    15
100
AcDbLine
 10
62.7121584444
 20
42.1598673325
 30
0.0
 11
62.6971082716
 21
42.1749172486
 31
0.0
  0
LINE
  5
1B7
330
1F
100
AcDbEntity
  8
SLD-0
  6
Continuous
370
    15
100
AcDbLine
 10
62.7121584444
 20
42.1346800251
 30
0.0
 11
62.7121584444
 21
42.1598673325
 31
0.0
  0
LINE
  5
1B8
330
1F
100
AcDbEntity
  8
SLD-0
  6
Continuous
370
    15
100
AcDbLine
 10
32.8521580031
 20
42.0123877966
 30
0.0
 11
32.8521580031
 21
42.0227495944
 31
0.0
  0
LINE
  5
1B9
330
1F
100
AcDbEntity
  8
SLD-0
  6
Continuous
370
    15
100
AcDbLine
 10
32.8521580031
 20
42.0503495956
 30
0.0
 11
32.8521580031
 21
42.0519877929
 31
0.0
  0
SPLINE
  5
1BA
330
1F
100
AcDbEntity
  8
SLD-0
  6
Continuous
370
    15
100
AcDbSpline
210
0.0
220
0.0
230
1.0
 70
     8
 71
     3
 72
     9
 73
     5
 74
     0
 42
0.00000001
 43
0.00000001
 12
1.0
 22
0.0
 32
0.0
 13
1.0
 23
0.0
 33
0.0
 40
0.0
 40
0.0
 40
0.0
 40
0.0
 40
0.8845656480752683
 40
1.0
 40
1.0
 40
1.0
 40
1.0
 10
32.85215800305424
 20
42.05198779288691
 30
0.0
 10
32.85671310782371
 20
42.05205729467476
 30
0.0
 10
32.86186264622075
 20
42.05213586633082
 30
0.0
 10
32.8670126206269
 20
42.05340721984221
 30
0.0
 10
32.8676071045849
 20
42.05355397771087
 30
0.0
  0
SPLINE
  5
1BB
330
1F
100
AcDbEntity
  8
SLD-0
  6
Continuous
370
    15
100
AcDbSpline
210
0.0
220
0.0
230
1.0
 70
     8
 71
     3
 72
    11
 73
     7
 74
     0
 42
0.00000001
 43
0.00000001
 12
1.0
 22
0.0
 32
0.0
 13
1.0
 23
0.0
 33
0.0
 40
0.0
 40
0.0
 40
0.0
 40
0.0
 40
0.3153685858685668
 40
0.6307499782332013
 40
0.9461391674537138
 40
1.0
 40
1.0
 40
1.0
 40
1.0
 10
32.85215800305424
 20
42.01238779659944
 30
0.0
 10
32.8544353762474
 20
42.01258301993157
 30
0.0
 10
32.85899021511334
 20
42.01297347452346
 30
0.0
 10
32.86582330495946
 20
42.01634003216299
 30
0.0
 10
32.87076954521633
 20
42.01966164239533
 30
0.0
 10
32.87343461158309
 20
42.0223565067151
 30
0.0
 10
32.87382335277427
 20
42.02274959439907
 30
0.0
  0
SPLINE
  5
1BC
330
1F
100
AcDbEntity
  8
SLD-0
  6
Continuous
370
    15
100
AcDbSpline
210
0.0
220
0.0
230
1.0
 70
     8
 71
     3
 72
    11
 73
     7
 74
     0
 42
0.00000001
 43
0.00000001
 12
1.0
 22
0.0
 32
0.0
 13
1.0
 23
0.0
 33
0.0
 40
0.0
 40
0.0
 40
0.0
 40
0.0
 40
0.0538608325462862
 40
0.3692500217667988
 40
0.6846314141314332
 40
1.0
 40
1.0
 40
1.0
 40
1.0
 10
62.6908920234526
 20
42.02274959439907
 30
0.0
 10
62.69128076464378
 20
42.0223565067151
 30
0.0
 10
62.69394583101054
 20
42.01966164239533
 30
0.0
 10
62.69889207126742
 20
42.01634003216299
 30
0.0
 10
62.70572516111351
 20
42.01297347452346
 30
0.0
 10
62.71027999997947
 20
42.01258301993157
 30
0.0
 10
62.71255737317263
 20
42.01238779659944
 30
0.0
  0
LINE
  5
1BD
330
1F
100
AcDbEntity
  8
SLD-0
  6
Continuous
370
    15
100
AcDbLine
 10
62.7125573732
 20
42.0123877966
 30
0.0
 11
32.8521580031
 21
42.0123877966
 31
0.0
  0
SPLINE
  5
1BE
330
1F
100
AcDbEntity
  8
SLD-0
  6
Continuous
370
    15
100
AcDbSpline
210
0.0
220
0.0
230
1.0
 70
     8
 71
     3
 72
     9
 73
     5
 74
     0
 42
0.00000001
 43
0.00000001
 12
1.0
 22
0.0
 32
0.0
 13
1.0
 23
0.0
 33
0.0
 40
0.0
 40
0.0
 40
0.0
 40
0.0
 40
0.1154343519247319
 40
1.0
 40
1.0
 40
1.0
 40
1.0
 10
62.69710827164197
 20
42.05355397771087
 30
0.0
 10
62.69770275559997
 20
42.05340721984221
 30
0.0
 10
62.70285273000612
 20
42.05213586633082
 30
0.0
 10
62.70800226840316
 20
42.05205729467476
 30
0.0
 10
62.71255737317263
 20
42.05198779288691
 30
0.0
  0
LINE
  5
1BF
330
1F
100
AcDbEntity
  8
SLD-0
  6
Continuous
370
    15
100
AcDbLine
 10
62.7125573732
 20
42.0519877929
 30
0.0
 11
62.7125573732
 21
42.0503495956
 31
0.0
  0
LINE
  5
1C0
330
1F
100
AcDbEntity
  8
SLD-0
  6
Continuous
370
    15
100
AcDbLine
 10
62.7125573732
 20
42.0227495944
 30
0.0
 11
62.7125573732
 21
42.0123877966
 31
0.0
  0
LINE
  5
1C1
330
1F
100
AcDbEntity
  8
SLD-0
  6
Continuous
370
    15
100
AcDbLine
 10
32.8323582318
 20
42.0519877929
 30
0.0
 11
32.8323582318
 21
42.0503495956
 31
0.0
  0
LINE
  5
1C2
330
1F
100
AcDbEntity
  8
SLD-0
  6
Continuous
370
    15
100
AcDbLine
 10
32.8323582318
 20
42.0227495944
 30
0.0
 11
32.8323582318
 21
42.0123877966
 31
0.0
  0
LINE
  5
1C3
330
1F
100
AcDbEntity
  8
SLD-0
  6
Continuous
370
    15
100
AcDbLine
 10
32.8521580031
 20
42.0519877929
 30
0.0
 11
32.8323582318
 21
42.0519877929
 31
0.0
  0
LINE
  5
1C4
330
1F
100
AcDbEntity
  8
SLD-0
  6
Continuous
370
    15
100
AcDbLine
 10
32.8521580031
 20
42.0123877966
 30
0.0
 11
32.8323582318
 21
42.0123877966
 31
0.0
  0
LINE
  5
1C5
330
1F
100
AcDbEntity
  8
SLD-0
  6
Continuous
370
    15
100
AcDbLine
 10
62.7323571444
 20
42.0123877966
 30
0.0
 11
62.7125573732
 21
42.0123877966
 31
0.0
  0
LINE
  5
1C6
330
1F
100
AcDbEntity
  8
SLD-0
  6
Continuous
370
    15
100
AcDbLine
 10
62.7323571444
 20
42.0519877929
 30
0.0
 11
62.7125573732
 21
42.0519877929
 31
0.0
  0
LINE
  5
1C7
330
1F
100
AcDbEntity
  8
SLD-0
  6
Continuous
370
    15
100
AcDbLine
 10
62.7323571444
 20
42.0519877929
 30
0.0
 11
62.7323571444
 21
42.0503495956
 31
0.0
  0
LINE
  5
1C8
330
1F
100
AcDbEntity
  8
SLD-0
  6
Continuous
370
    15
100
AcDbLine
 10
62.7323571444
 20
42.0227495944
 30
0.0
 11
62.7323571444
 21
42.0123877966
 31
0.0
  0
LINE
  5
1C9
330
1F
100
AcDbEntity
  8
SLD-0
  6
Continuous
370
    15
100
AcDbLine
 10
31.6573582588
 20
42.0227495944
 30
0.0
 11
31.6573582588
 21
42.0123877966
 31
0.0
  0
LINE
  5
1CA
330
1F
100
AcDbEntity
  8
SLD-0
  6
Continuous
370
    15
100
AcDbLine
 10
32.8323582318
 20
42.0519877929
 30
0.0
 11
32.7815088992
 21
42.0519877929
 31
0.0
  0
LINE
  5
1CB
330
1F
100
AcDbEntity
  8
SLD-0
  6
Continuous
370
    15
100
AcDbLine
 10
32.8323582318
 20
42.0123877966
 30
0.0
 11
31.6573582588
 21
42.0123877966
 31
0.0
  0
LINE
  5
1CC
330
1F
100
AcDbEntity
  8
SLD-0
  6
Continuous
370
    15
100
AcDbLine
 10
63.9073571174
 20
42.0227495944
 30
0.0
 11
63.9073571174
 21
42.0123877966
 31
0.0
  0
LINE
  5
1CD
330
1F
100
AcDbEntity
  8
SLD-0
  6
Continuous
370
    15
100
AcDbLine
 10
62.7323571444
 20
42.0519877929
 30
0.0
 11
62.783206477
 21
42.0519877929
 31
0.0
  0
LINE
  5
1CE
330
1F
100
AcDbEntity
  8
SLD-0
  6
Continuous
370
    15
100
AcDbLine
 10
62.7323571444
 20
42.0123877966
 30
0.0
 11
63.9073571174
 21
42.0123877966
 31
0.0
  0
LINE
  5
1CF
330
1F
100
AcDbEntity
  8
SLD-0
  6
Continuous
370
    15
100
AcDbLine
 10
32.8323652717
 20
42.0628669124
 30
0.0
 11
32.8323582318
 21
42.0628669124
 31
0.0
  0
LINE
  5
1D0
330
1F
100
AcDbEntity
  8
SLD-0
  6
Continuous
370
    15
100
AcDbLine
 10
32.8323652717
 20
42.0669877925
 30
0.0
 11
32.8323652717
 21
42.0628669124
 31
0.0
  0
LINE
  5
1D1
330
1F
100
AcDbEntity
  8
SLD-0
  6
Continuous
370
    15
100
AcDbLine
 10
62.7323501045
 20
42.0628669124
 30
0.0
 11
62.7323501045
 21
42.0669877925
 31
0.0
  0
LINE
  5
1D2
330
1F
100
AcDbEntity
  8
SLD-0
  6
Continuous
370
    15
100
AcDbLine
 10
62.7323571444
 20
42.0628669124
 30
0.0
 11
62.7323501045
 21
42.0628669124
 31
0.0
  0
LINE
  5
1D3
330
1F
100
AcDbEntity
  8
SLD-0
  6
Continuous
370
    15
100
AcDbLine
 10
62.7323571444
 20
42.0519877929
 30
0.0
 11
62.7323571444
 21
42.0628669124
 31
0.0
  0
LINE
  5
1D4
330
1F
100
AcDbEntity
  8
SLD-0
  6
Continuous
370
    15
100
AcDbLine
 10
32.8323582318
 20
42.0628669124
 30
0.0
 11
32.8323582318
 21
42.0519877929
 31
0.0
  0
LINE
  5
1D5
330
1F
100
AcDbEntity
  8
SLD-0
  6
Continuous
370
    15
100
AcDbLine
 10
62.7323501045
 20
42.0669877925
 30
0.0
 11
62.7323501045
 21
42.1144877921
 31
0.0
  0
LINE
  5
1D6
330
1F
100
AcDbEntity
  8
SLD-0
  6
Continuous
370
    15
100
AcDbLine
 10
32.8323652717
 20
42.0669877925
 30
0.0
 11
32.8323652717
 21
42.1144877921
 31
0.0
  0
LINE
  5
1D7
330
1F
100
AcDbEntity
  8
SLD-0
  6
Continuous
370
    15
100
AcDbLine
 10
32.8323652717
 20
42.1144877921
 30
0.0
 11
32.8676071046
 21
42.1497299413
 31
0.0
  0
LINE
  5
1D8
330
1F
100
AcDbEntity
  8
SLD-0
  6
Continuous
370
    15
100
AcDbLine
 10
62.6971082716
 20
42.1497299413
 30
0.0
 11
62.7323501045
 21
42.1144877921
 31
0.0
  0
LINE
  5
1D9
330
1F
100
AcDbEntity
  8
SLD-0
  6
Continuous
370
    15
100
AcDbLine
 10
63.5323582494
 20
42.0503495956
 30
0.0
 11
32.0323571268
 21
42.0503495956
 31
0.0
  0
LINE
  5
1DA
330
1F
100
AcDbEntity
  8
SLD-0
  6
Continuous
370
    15
100
AcDbLine
 10
63.5323582494
 20
42.0503495956
 30
0.0
 11
63.5323582494
 21
42.0227495944
 31
0.0
  0
LINE
  5
1DB
330
1F
100
AcDbEntity
  8
SLD-0
  6
Continuous
370
    15
100
AcDbLine
 10
63.5323582494
 20
42.0227495944
 30
0.0
 11
32.0323571268
 21
42.0227495944
 31
0.0
  0
LINE
  5
1DC
330
1F
100
AcDbEntity
  8
SLD-0
  6
Continuous
370
    15
100
AcDbLine
 10
32.0323571268
 20
42.0503495956
 30
0.0
 11
32.0323571268
 21
42.0227495944
 31
0.0
  0
LINE
  5
1DD
330
1F
100
AcDbEntity
  8
SLD-0
  6
Continuous
370
    15
100
AcDbLine
 10
31.6573582588
 20
42.0503495956
 30
0.0
 11
31.6573582588
 21
42.0227495944
 31
0.0
  0
LINE
  5
1DE
330
1F
100
AcDbEntity
  8
SLD-0
  6
Continuous
370
    15
100
AcDbLine
 10
32.0323571268
 20
42.0503495956
 30
0.0
 11
31.6573582588
 21
42.0503495956
 31
0.0
  0
LINE
  5
1DF
330
1F
100
AcDbEntity
  8
SLD-0
  6
Continuous
370
    15
100
AcDbLine
 10
32.0323571268
 20
42.0227495944
 30
0.0
 11
31.6573582588
 21
42.0227495944
 31
0.0
  0
LINE
  5
1E0
330
1F
100
AcDbEntity
  8
SLD-0
  6
Continuous
370
    15
100
AcDbLine
 10
63.9073571174
 20
42.0503495956
 30
0.0
 11
63.9073571174
 21
42.0227495944
 31
0.0
  0
LINE
  5
1E1
330
1F
100
AcDbEntity
  8
SLD-0
  6
Continuous
370
    15
100
AcDbLine
 10
63.9073571174
 20
42.0503495956
 30
0.0
 11
63.5323582494
 21
42.0503495956
 31
0.0
  0
LINE
  5
1E2
330
1F
100
AcDbEntity
  8
SLD-0
  6
Continuous
370
    15
100
AcDbLine
 10
63.9073571174
 20
42.0227495944
 30
0.0
 11
63.5323582494
 21
42.0227495944
 31
0.0
  0
LINE
  5
1E3
330
1F
100
AcDbEntity
  8
SLD-0
  6
Continuous
370
    15
100
AcDbLine
 10
32.8676071046
 20
42.0803495948
 30
0.0
 11
62.6971082716
 21
42.0803495948
 31
0.0
  0
LINE
  5
1E4
330
1F
100
AcDbEntity
  8
SLD-0
  6
Continuous
370
    15
100
AcDbLine
 10
62.6971082716
 20
42.0503495956
 30
0.0
 11
62.6971082716
 21
42.0803495948
 31
0.0
  0
LINE
  5
1E5
330
1F
100
AcDbEntity
  8
SLD-0
  6
Continuous
370
    15
100
AcDbLine
 10
32.8676071046
 20
42.0803495948
 30
0.0
 11
32.8676071046
 21
42.0503495956
 31
0.0
  0
LINE
  5
1E6
330
1F
100
AcDbEntity
  8
SLD-0
  6
Continuous
370
    15
100
AcDbLine
 10
32.8676071046
 20
42.0803495948
 30
0.0
 11
32.8676071046
 21
42.2913495882
 31
0.0
  0
LINE
  5
1E7
330
1F
100
AcDbEntity
  8
SLD-0
  6
Continuous
370
    15
100
AcDbLine
 10
38.7086968545
 20
56.748554114
 30
0.0
 11
32.8676071046
 21
42.2913495882
 31
0.0
  0
LINE
  5
1E8
330
1F
100
AcDbEntity
  8
SLD-0
  6
Continuous
370
    15
100
AcDbLine
 10
47.4698576781
 20
56.9803493029
 30
0.0
 11
38.8023483059
 21
56.9803493029
 31
0.0
  0
LINE
  5
1E9
330
1F
100
AcDbEntity
  8
SLD-0
  6
Continuous
370
    15
100
AcDbLine
 10
47.4698576781
 20
56.9803493029
 30
0.0
 11
48.0948576981
 21
56.9803493029
 31
0.0
  0
LINE
  5
1EA
330
1F
100
AcDbEntity
  8
SLD-0
  6
Continuous
370
    15
100
AcDbLine
 10
56.7623670703
 20
56.9803493029
 30
0.0
 11
48.0948576981
 21
56.9803493029
 31
0.0
  0
LINE
  5
1EB
330
1F
100
AcDbEntity
  8
SLD-0
  6
Continuous
370
    15
100
AcDbLine
 10
56.8560185217
 20
56.748554114
 30
0.0
 11
56.7623670703
 21
56.9803493029
 31
0.0
  0
LINE
  5
1EC
330
1F
100
AcDbEntity
  8
SLD-0
  6
Continuous
370
    15
100
AcDbLine
 10
62.6971082716
 20
42.2913495882
 30
0.0
 11
56.8560185217
 21
56.748554114
 31
0.0
  0
LINE
  5
1ED
330
1F
100
AcDbEntity
  8
SLD-0
  6
Continuous
370
    15
100
AcDbLine
 10
62.6971082716
 20
42.2913495882
 30
0.0
 11
62.6971082716
 21
42.0803495948
 31
0.0
  0
LINE
  5
1EE
330
1F
100
AcDbEntity
  8
SLD-0
  6
Continuous
370
    15
100
AcDbLine
 10
38.8023483059
 20
56.9803493029
 30
0.0
 11
38.7086968545
 21
56.748554114
 31
0.0
  0
SPLINE
  5
1EF
330
1F
100
AcDbEntity
  8
SLD-0
  6
Continuous
370
    15
100
AcDbSpline
210
0.0
220
0.0
230
1.0
 70
     8
 71
     3
 72
    15
 73
    11
 74
     0
 42
0.00000001
 43
0.00000001
 12
1.0
 22
0.0
 32
0.0
 13
1.0
 23
0.0
 33
0.0
 40
0.0
 40
0.0
 40
0.0
 40
0.0
 40
0.1249976080453662
 40
0.2500020840979618
 40
0.3750012947428636
 40
0.499998755586148
 40
0.6249992364600095
 40
0.7499984471049115
 40
0.8749944239200326
 40
1.0
 40
1.0
 40
1.0
 40
1.0
 10
38.86377922295959
 20
57.03794991752363
 30
0.0
 10
38.86121958016383
 20
57.03773507137838
 30
0.0
 10
38.85610015393249
 20
57.03730536728312
 30
0.0
 10
38.84842187468906
 20
57.03388222257962
 30
0.0
 10
38.84074283946235
 20
57.02855746351166
 30
0.0
 10
38.8330641587244
 20
57.02133936288334
 30
0.0
 10
38.82538450127813
 20
57.01255721190684
 30
0.0
 10
38.81770610158939
 20
57.00253458764252
 30
0.0
 10
38.81002671654991
 20
56.9916595935568
 30
0.0
 10
38.80490784166489
 20
56.98411949631142
 30
0.0
 10
38.80234830594812
 20
56.98034930293085
 30
0.0
  0
LINE
  5
1F0
330
1F
100
AcDbEntity
  8
SLD-0
  6
Continuous
370
    15
100
AcDbLine
 10
47.4698576781
 20
57.0379499175
 30
0.0
 11
38.863779223
 21
57.0379499175
 31
0.0
  0
LINE
  5
1F1
330
1F
100
AcDbEntity
  8
SLD-0
  6
Continuous
370
    15
100
AcDbLine
 10
47.4698576781
 20
56.9803493029
 30
0.0
 11
47.4698576781
 21
57.0379499175
 31
0.0
  0
LINE
  5
1F2
330
1F
100
AcDbEntity
  8
SLD-0
  6
Continuous
370
    15
100
AcDbLine
 10
48.0948576981
 20
57.0379499175
 30
0.0
 11
48.0948576981
 21
56.9803493029
 31
0.0
  0
LINE
  5
1F3
330
1F
100
AcDbEntity
  8
SLD-0
  6
Continuous
370
    15
100
AcDbLine
 10
56.7009361533
 20
57.0379499175
 30
0.0
 11
48.0948576981
 21
57.0379499175
 31
0.0
  0
SPLINE
  5
1F4
330
1F
100
AcDbEntity
  8
SLD-0
  6
Continuous
370
    15
100
AcDbSpline
210
0.0
220
0.0
230
1.0
 70
     8
 71
     3
 72
    15
 73
    11
 74
     0
 42
0.00000001
 43
0.00000001
 12
1.0
 22
0.0
 32
0.0
 13
1.0
 23
0.0
 33
0.0
 40
0.0
 40
0.0
 40
0.0
 40
0.0
 40
0.1250055760799674
 40
0.2500015528950886
 40
0.3750007635399904
 40
0.500001244413852
 40
0.6249987052571363
 40
0.7499979159020382
 40
0.8750023919546338
 40
1.0
 40
1.0
 40
1.0
 40
1.0
 10
56.76236707027876
 20
56.98034930293085
 30
0.0
 10
56.75980753456199
 20
56.98411949631142
 30
0.0
 10
56.75468865967697
 20
56.9916595935568
 30
0.0
 10
56.74700927463748
 20
57.00253458764251
 30
0.0
 10
56.73933087494873
 20
57.01255721190684
 30
0.0
 10
56.73165121750247
 20
57.02133936288334
 30
0.0
 10
56.72397253676452
 20
57.02855746351166
 30
0.0
 10
56.71629350153781
 20
57.03388222257961
 30
0.0
 10
56.70861522229438
 20
57.03730536728312
 30
0.0
 10
56.70349579606304
 20
57.03773507137838
 30
0.0
 10
56.70093615326729
 20
57.03794991752363
 30
0.0
  0
SPLINE
  5
1F5
330
1F
100
AcDbEntity
  8
SLD-0
  6
Continuous
370
    15
100
AcDbSpline
210
0.0
220
0.0
230
1.0
 70
     8
 71
     3
 72
    14
 73
    10
 74
     0
 42
0.00000001
 43
0.00000001
 12
1.0
 22
0.0
 32
0.0
 13
1.0
 23
0.0
 33
0.0
 40
0.0
 40
0.0
 40
0.0
 40
0.0
 40
0.1503133535061082
 40
0.3146753521523902
 40
0.4931560435172415
 40
0.6282610141853378
 40
0.7577038376289243
 40
0.8815818422157852
 40
1.0
 40
1.0
 40
1.0
 40
1.0
 10
56.96363834517582
 20
56.63594709482788
 30
0.0
 10
56.96063271391335
 20
56.64251413239051
 30
0.0
 10
56.95434053790972
 20
56.656261978536
 30
0.0
 10
56.94024012206568
 20
56.67648651248753
 30
0.0
 10
56.92401492761906
 20
56.69534323248464
 30
0.0
 10
56.90690958373752
 20
56.711917438317
 30
0.0
 10
56.89036192752643
 20
56.72543343350457
 30
0.0
 10
56.8733893938762
 20
56.73761253524496
 30
0.0
 10
56.86172116941199
 20
56.7449621257384
 30
0.0
 10
56.85601852174253
 20
56.74855411398199
 30
0.0
  0
LINE
  5
1F6
330
1F
100
AcDbEntity
  8
SLD-0
  6
Continuous
370
    15
100
AcDbLine
 10
62.6935566327
 20
42.4539018237
 30
0.0
 11
56.9636383452
 21
56.6359470948
 31
0.0
  0
SPLINE
  5
1F7
330
1F
100
AcDbEntity
  8
SLD-0
  6
Continuous
370
    15
100
AcDbSpline
210
0.0
220
0.0
230
1.0
 70
     8
 71
     3
 72
    14
 73
    10
 74
     0
 42
0.00000001
 43
0.00000001
 12
1.0
 22
0.0
 32
0.0
 13
1.0
 23
0.0
 33
0.0
 40
0.0
 40
0.0
 40
0.0
 40
0.0
 40
0.1503708920860791
 40
0.3148972541491299
 40
0.4936255514323101
 40
0.6288453974532847
 40
0.7582521399119087
 40
0.8819331609648432
 40
1.0
 40
1.0
 40
1.0
 40
1.0
 10
62.69710827164197
 20
42.29134958817568
 30
0.0
 10
62.69853241104055
 20
42.30010655037456
 30
0.0
 10
62.70151475409855
 20
42.31844482923196
 30
0.0
 10
62.70470319010026
 20
42.34697244373155
 30
0.0
 10
62.70573754619042
 20
42.37407797120061
 30
0.0
 10
62.70494880034045
 20
42.39841879984424
 30
0.0
 10
62.7029093150778
 20
42.41881383274054
 30
0.0
 10
62.69942972530391
 20
42.43739812318854
 30
0.0
 10
62.69548378429701
 20
42.44848642583405
 30
0.0
 10
62.69355663267081
 20
42.45390182369172
 30
0.0
  0
SPLINE
  5
1F8
330
1F
100
AcDbEntity
  8
SLD-0
  6
Continuous
370
    15
100
AcDbSpline
210
0.0
220
0.0
230
1.0
 70
     8
 71
     3
 72
    14
 73
    10
 74
     0
 42
0.00000001
 43
0.00000001
 12
1.0
 22
0.0
 32
0.0
 13
1.0
 23
0.0
 33
0.0
 40
0.0
 40
0.0
 40
0.0
 40
0.0
 40
0.1503095233419077
 40
0.3146785651852188
 40
0.4931538980197699
 40
0.6282603773941383
 40
0.7577063218242089
 40
0.881580242588503
 40
1.0
 40
1.0
 40
1.0
 40
1.0
 10
38.70869685448434
 20
56.74855411398199
 30
0.0
 10
38.70173130132252
 20
56.74358700632632
 30
0.0
 10
38.68714865728275
 20
56.73318818211705
 30
0.0
 10
38.66549893188949
 20
56.71601414298181
 30
0.0
 10
38.64636004678697
 20
56.69833459187285
 30
0.0
 10
38.63042186498564
 20
56.6812891729438
 30
0.0
 10
38.61807267057851
 20
56.66607606046601
 30
0.0
 10
38.60799741098252
 20
56.6511116607828
 30
0.0
 10
38.60334894451983
 20
56.6409255182645
 30
0.0
 10
38.60107703105106
 20
56.63594709482788
 30
0.0
  0
SPLINE
  5
1F9
330
1F
100
AcDbEntity
  8
SLD-0
  6
Continuous
370
    15
100
AcDbSpline
210
0.0
220
0.0
230
1.0
 70
     8
 71
     3
 72
    14
 73
    10
 74
     0
 42
0.00000001
 43
0.00000001
 12
1.0
 22
0.0
 32
0.0
 13
1.0
 23
0.0
 33
0.0
 40
0.0
 40
0.0
 40
0.0
 40
0.0
 40
0.1503709771778322
 40
0.3148963760718635
 40
0.4936251039114294
 40
0.6288447554834415
 40
0.7582504719167028
 40
0.8819341534602038
 40
1.0
 40
1.0
 40
1.0
 40
1.0
 10
32.87115874355607
 20
42.45390182369172
 30
0.0
 10
32.86862070988928
 20
42.44674585083131
 30
0.0
 10
32.86330573741905
 20
42.43176031330736
 30
0.0
 10
32.85894547094018
 20
42.40628115960958
 30
0.0
 10
32.85707710750248
 20
42.38035020109783
 30
0.0
 10
32.85745394617427
 20
42.35553767737142
 30
0.0
 10
32.85961150030175
 20
42.33344653323754
 30
0.0
 10
32.86302574151127
 20
42.31207766422455
 30
0.0
 10
32.86610382666032
 20
42.29815107032029
 30
0.0
 10
32.8676071045849
 20
42.29134958817568
 30
0.0
  0
LINE
  5
1FA
330
1F
100
AcDbEntity
  8
SLD-0
  6
Continuous
370
    15
100
AcDbLine
 10
38.6010770311
 20
56.6359470948
 30
0.0
 11
32.8711587436
 21
42.4539018237
 31
0.0
  0
LINE
  5
1FB
330
1F
100
AcDbEntity
  8
SLD-0
  6
Continuous
370
    15
100
AcDbLine
 10
32.7859100217
 20
42.2429018303
 30
0.0
 11
32.8115001261
 21
42.2325626923
 31
0.0
  0
LINE
  5
1FC
330
1F
100
AcDbEntity
  8
SLD-0
  6
Continuous
370
    15
100
AcDbLine
 10
32.8115001261
 20
42.2325626923
 30
0.0
 11
32.8584024109
 21
42.3486513912
 31
0.0
  0
LINE
  5
1FD
330
1F
100
AcDbEntity
  8
SLD-0
  6
Continuous
370
    15
100
AcDbLine
 10
32.7859100217
 20
42.2429018303
 30
0.0
 11
32.8711587436
 21
42.4539018237
 31
0.0
  0
LINE
  5
1FE
330
1F
100
AcDbEntity
  8
SLD-0
  6
Continuous
370
    15
100
AcDbLine
 10
62.7532152502
 20
42.2325626923
 30
0.0
 11
62.7788053545
 21
42.2429018303
 31
0.0
  0
LINE
  5
1FF
330
1F
100
AcDbEntity
  8
SLD-0
  6
Continuous
370
    15
100
AcDbLine
 10
62.6935566327
 20
42.4539018237
 30
0.0
 11
62.7788053545
 21
42.2429018303
 31
0.0
  0
LINE
  5
200
330
1F
100
AcDbEntity
  8
SLD-0
  6
Continuous
370
    15
100
AcDbLine
 10
62.7045389058
 20
42.3530412572
 30
0.0
 11
62.7532152502
 21
42.2325626923
 31
0.0
  0
LINE
  5
201
330
1F
100
AcDbEntity
  8
SLD-0
  6
Continuous
370
    15
100
AcDbLine
 10
47.4698576781
 20
57.0379499175
 30
0.0
 11
48.0948576981
 21
57.0379499175
 31
0.0
  0
SPLINE
  5
202
330
1F
100
AcDbEntity
  8
SLD-0
  6
Continuous
370
    15
100
AcDbSpline
210
0.0
220
0.0
230
1.0
 70
     8
 71
     3
 72
    13
 73
     9
 74
     0
 42
0.00000001
 43
0.00000001
 12
1.0
 22
0.0
 32
0.0
 13
1.0
 23
0.0
 33
0.0
 40
0.0
 40
0.0
 40
0.0
 40
0.0
 40
0.1739138916469894
 40
0.350718632297759
 40
0.5777278190037615
 40
0.811253116415487
 40
0.950555070391984
 40
1.0
 40
1.0
 40
1.0
 40
1.0
 10
32.78591002168991
 20
42.24290183034832
 30
0.0
 10
32.78320906269855
 20
42.23528345567767
 30
0.0
 10
32.77776224856327
 20
42.21992007142169
 30
0.0
 10
32.77341903625482
 20
42.19274444325501
 30
0.0
 10
32.77250308028906
 20
42.16117958906107
 30
0.0
 10
32.77522938399922
 20
42.1300116377118
 30
0.0
 10
32.77821200442228
 20
42.10766896077379
 30
0.0
 10
32.77974971609857
 20
42.0975977685212
 30
0.0
 10
32.78015254153414
 20
42.09495947652643
 30
0.0
  0
SPLINE
  5
203
330
1F
100
AcDbEntity
  8
SLD-0
  6
Continuous
370
    15
100
AcDbSpline
210
0.0
220
0.0
230
1.0
 70
     8
 71
     3
 72
    12
 73
     8
 74
     0
 42
0.00000001
 43
0.00000001
 12
1.0
 22
0.0
 32
0.0
 13
1.0
 23
0.0
 33
0.0
 40
0.0
 40
0.0
 40
0.0
 40
0.0
 40
0.2047239565654053
 40
0.4107913719310688
 40
0.7857870072684047
 40
0.976951154262881
 40
1.0
 40
1.0
 40
1.0
 40
1.0
 10
32.81150012607084
 20
42.23256269228692
 30
0.0
 10
32.80838103682684
 20
42.22425322114096
 30
0.0
 10
32.8021223899581
 20
42.20757974965606
 30
0.0
 10
32.79346722588771
 20
42.17435547023368
 30
0.0
 10
32.78805231605445
 20
42.14039876301749
 30
0.0
 10
32.78527008525897
 20
42.11399049220239
 30
0.0
 10
32.78443681751622
 20
42.10431441091472
 30
0.0
 10
32.78434715974422
 20
42.10327328590126
 30
0.0
  0
SPLINE
  5
204
330
1F
100
AcDbEntity
  8
SLD-0
  6
Continuous
370
    15
100
AcDbSpline
210
0.0
220
0.0
230
1.0
 70
     8
 71
     3
 72
    11
 73
     7
 74
     0
 42
0.00000001
 43
0.00000001
 12
1.0
 22
0.0
 32
0.0
 13
1.0
 23
0.0
 33
0.0
 40
0.0
 40
0.0
 40
0.0
 40
0.0
 40
0.1209207407372807
 40
0.4139458448622198
 40
0.7069716814775349
 40
1.0
 40
1.0
 40
1.0
 40
1.0
 10
62.78024619122563
 20
42.10357546272299
 30
0.0
 10
62.77977587821292
 20
42.10902467836587
 30
0.0
 10
62.77816586394894
 20
42.12767888242858
 30
0.0
 10
62.77397235899519
 20
42.15895532064985
 30
0.0
 10
62.76621002998686
 20
42.19681595295285
 30
0.0
 10
62.75754685566233
 20
42.22064707886773
 30
0.0
 10
62.75321525015603
 20
42.23256269228692
 30
0.0
  0
SPLINE
  5
205
330
1F
100
AcDbEntity
  8
SLD-0
  6
Continuous
370
    15
100
AcDbSpline
210
0.0
220
0.0
230
1.0
 70
     8
 71
     3
 72
    15
 73
    11
 74
     0
 42
0.00000001
 43
0.00000001
 12
1.0
 22
0.0
 32
0.0
 13
1.0
 23
0.0
 33
0.0
 40
0.0
 40
0.0
 40
0.0
 40
0.0
 40
0.0451421642132077
 40
0.1815499078092879
 40
0.3179585614733147
 40
0.4543664159931596
 40
0.5907741354023255
 40
0.7271807117541447
 40
0.863591758921121
 40
1.0
 40
1.0
 40
1.0
 40
1.0
 10
62.78456518133228
 20
42.09495611182572
 30
0.0
 10
62.78493269365126
 20
42.09736595204708
 30
0.0
 10
62.78641073150768
 20
42.10705769540162
 30
0.0
 10
62.78867780235249
 20
42.12389979093322
 30
0.0
 10
62.79086267706826
 20
42.14528137718218
 30
0.0
 10
62.79188421691781
 20
42.16619189327005
 30
0.0
 10
62.79145633121163
 20
42.18651805777221
 30
0.0
 10
62.7892740506709
 20
42.20613455113652
 30
0.0
 10
62.78532956693995
 20
42.22503878497119
 30
0.0
 10
62.78098007709237
 20
42.23694752271846
 30
0.0
 10
62.77880535453696
 20
42.24290183034832
 30
0.0
  0
LINE
  5
206
330
1F
100
AcDbEntity
  8
SLD-0
  6
Continuous
370
    15
100
AcDbLine
 10
62.7823581668
 20
42.0519877929
 30
0.0
 11
62.7823581668
 21
42.0523928861
 31
0.0
  0
LINE
  5
207
330
1F
100
AcDbEntity
  8
SLD-0
  6
Continuous
370
    15
100
AcDbLine
 10
32.7823572094
 20
42.0523928861
 30
0.0
 11
32.7823572094
 21
42.0519877929
 31
0.0
  0
LINE
  5
208
330
1F
100
AcDbEntity
  8
SLD-0
  6
Continuous
370
    15
100
AcDbLine
 10
47.5323576911
 20
57.0103499164
 30
0.0
 11
47.5323576911
 21
56.9803493029
 31
0.0
  0
LINE
  5
209
330
1F
100
AcDbEntity
  8
SLD-0
  6
Continuous
370
    15
100
AcDbLine
 10
48.0948576981
 20
57.0103499164
 30
0.0
 11
47.5323576911
 21
57.0103499164
 31
0.0
  0
LINE
  5
20A
330
1F
100
AcDbEntity
  8
SLD-0
  6
Continuous
370
    15
100
AcDbLine
 10
62.7823581668
 20
42.0983495944
 30
0.0
 11
62.6991205151
 21
42.3043680478
 31
0.0
  0
LINE
  5
20B
330
1F
100
AcDbEntity
  8
SLD-0
  6
Continuous
370
    15
100
AcDbLine
 10
56.8658462482
 20
56.7422287471
 30
0.0
 11
56.7735887006
 21
56.9705743759
 31
0.0
  0
LINE
  5
20C
330
1F
100
AcDbEntity
  8
SLD-0
  6
Continuous
370
    15
100
AcDbLine
 10
62.7512041801
 20
42.0857628133
 30
0.0
 11
62.7823581668
 21
42.0983495944
 31
0.0
  0
LINE
  5
20D
330
1F
100
AcDbEntity
  8
SLD-0
  6
Continuous
370
    15
100
AcDbLine
 10
62.7512041801
 20
42.0857628133
 30
0.0
 11
62.6971082716
 21
42.2196554964
 31
0.0
  0
ARC
  5
20E
330
1F
100
AcDbEntity
  8
SLD-0
  6
Continuous
370
    15
100
AcDbCircle
 10
56.7146198668
 20
56.9467495944
 30
0.0
 40
0.0635999999999996
100
AcDbArc
 50
22.0
 51
56.0843042454
  0
LINE
  5
20F
330
1F
100
AcDbEntity
  8
SLD-0
  6
Continuous
370
    15
100
AcDbLine
 10
62.8101728855
 20
42.0795877918
 30
0.0
 11
63.9149379365
 21
42.0795877918
 31
0.0
  0
LINE
  5
210
330
1F
100
AcDbEntity
  8
SLD-0
  6
Continuous
370
    15
100
AcDbLine
 10
63.9149379365
 20
42.045987793
 30
0.0
 11
63.9149379365
 21
42.0795877918
 31
0.0
  0
LINE
  5
211
330
1F
100
AcDbEntity
  8
SLD-0
  6
Continuous
370
    15
100
AcDbLine
 10
63.9073571174
 20
42.045987793
 30
0.0
 11
63.9149379365
 21
42.045987793
 31
0.0
  0
ARC
  5
212
330
1F
100
AcDbEntity
  8
SLD-0
  6
Continuous
370
    15
100
AcDbCircle
 10
62.8101732038
 20
42.1095877922
 30
0.0
 40
0.0299999999999983
100
AcDbArc
 50
202.0
 51
270.0
  0
ARC
  5
213
330
1F
100
AcDbEntity
  8
SLD-0
  6
Continuous
370
    15
100
AcDbCircle
 10
62.8101732038
 20
42.1095877922
 30
0.0
 40
0.0635999999999971
100
AcDbArc
 50
202.0
 51
248.6569773623
  0
LINE
  5
214
330
1F
100
AcDbEntity
  8
SLD-0
  6
Continuous
370
    15
100
AcDbLine
 10
47.4698576781
 20
57.0103499164
 30
0.0
 11
48.0323576851
 21
57.0103499164
 31
0.0
  0
LINE
  5
215
330
1F
100
AcDbEntity
  8
SLD-0
  6
Continuous
370
    15
100
AcDbLine
 10
48.0323576851
 20
57.0103499164
 30
0.0
 11
48.0323576851
 21
56.9803493029
 31
0.0
  0
LINE
  5
216
330
1F
100
AcDbEntity
  8
SLD-0
  6
Continuous
370
    15
100
AcDbLine
 10
32.8135111962
 20
42.0857628133
 30
0.0
 11
32.7823572094
 21
42.0983495944
 31
0.0
  0
LINE
  5
217
330
1F
100
AcDbEntity
  8
SLD-0
  6
Continuous
370
    15
100
AcDbLine
 10
32.8135111962
 20
42.0857628133
 30
0.0
 11
32.8676071046
 21
42.2196554964
 31
0.0
  0
LINE
  5
218
330
1F
100
AcDbEntity
  8
SLD-0
  6
Continuous
370
    15
100
AcDbLine
 10
32.7823572094
 20
42.0983495944
 30
0.0
 11
32.8651114534
 21
42.3031732049
 31
0.0
  0
LINE
  5
219
330
1F
100
AcDbEntity
  8
SLD-0
  6
Continuous
370
    15
100
AcDbLine
 10
38.69841036
 20
56.7410929735
 30
0.0
 11
38.7911266756
 21
56.9705743759
 31
0.0
  0
ARC
  5
21A
330
1F
100
AcDbEntity
  8
SLD-0
  6
Continuous
370
    15
100
AcDbCircle
 10
38.8500955094
 20
56.9467495944
 30
0.0
 40
0.0636000000000072
100
AcDbArc
 50
123.9156957545
 51
158.0
  0
LINE
  5
21B
330
1F
100
AcDbEntity
  8
SLD-0
  6
Continuous
370
    15
100
AcDbLine
 10
31.6497774397
 20
42.045987793
 30
0.0
 11
31.6497774397
 21
42.0795877918
 31
0.0
  0
LINE
  5
21C
330
1F
100
AcDbEntity
  8
SLD-0
  6
Continuous
370
    15
100
AcDbLine
 10
32.7545424907
 20
42.0795877918
 30
0.0
 11
31.6497774397
 21
42.0795877918
 31
0.0
  0
LINE
  5
21D
330
1F
100
AcDbEntity
  8
SLD-0
  6
Continuous
370
    15
100
AcDbLine
 10
31.6573582588
 20
42.045987793
 30
0.0
 11
31.6497774397
 21
42.045987793
 31
0.0
  0
ARC
  5
21E
330
1F
100
AcDbEntity
  8
SLD-0
  6
Continuous
370
    15
100
AcDbCircle
 10
32.7545421725
 20
42.1095877922
 30
0.0
 40
0.0635999999999997
100
AcDbArc
 50
291.3430226377
 51
338.0
  0
ARC
  5
21F
330
1F
100
AcDbEntity
  8
SLD-0
  6
Continuous
370
    15
100
AcDbCircle
 10
32.7545421725
 20
42.1095877922
 30
0.0
 40
0.0300000000000049
100
AcDbArc
 50
270.0
 51
338.0
  0
LINE
  5
220
330
1F
100
AcDbEntity
  8
SLD-0
  6
Continuous
370
    15
100
AcDbLine
 10
32.8323652717
 20
42.0669877925
 30
0.0
 11
32.8676071046
 21
42.0669877925
 31
0.0
  0
LINE
  5
221
330
1F
100
AcDbEntity
  8
SLD-0
  6
Continuous
370
    15
100
AcDbLine
 10
62.6971082716
 20
42.0669877925
 30
0.0
 11
62.7323501045
 21
42.0669877925
 31
0.0
  0
LINE
  5
222
330
1F
100
AcDbEntity
  8
SLD-0
  6
Continuous
370
    15
100
AcDbLine
 10
32.8110225849
 20
42.0803495948
 30
0.0
 11
32.8323652717
 21
42.0803495948
 31
0.0
  0
LINE
  5
223
330
1F
100
AcDbEntity
  8
SLD-0
  6
Continuous
370
    15
100
AcDbLine
 10
62.7323501045
 20
42.0803495948
 30
0.0
 11
62.7536927913
 21
42.0803495948
 31
0.0
  0
LINE
  5
224
330
1F
100
AcDbEntity
  8
SLD-0
  6
Continuous
370
    15
100
AcDbLine
 10
56.7673366662
 20
56.9680482184
 30
0.0
 11
56.7735887006
 21
56.9705743759
 31
0.0
  0
LINE
  5
225
330
1F
100
AcDbEntity
  8
SLD-0
  6
Continuous
370
    15
100
AcDbLine
 10
62.8101728855
 20
42.0795877918
 30
0.0
 11
62.8101728855
 21
42.0503495956
 31
0.0
  0
LINE
  5
226
330
1F
100
AcDbEntity
  8
SLD-0
  6
Continuous
370
    15
100
AcDbLine
 10
38.79737871
 20
56.9680482184
 30
0.0
 11
38.7911266756
 21
56.9705743759
 31
0.0
  0
LINE
  5
227
330
1F
100
AcDbEntity
  8
SLD-0
  6
Continuous
370
    15
100
AcDbLine
 10
32.7545424907
 20
42.0795877918
 30
0.0
 11
32.7545424907
 21
42.0503495956
 31
0.0
  0
DIMENSION
  5
228
330
1F
100
AcDbEntity
  8
DIM
100
AcDbDimension
  2
_D_5
 10
56.7623669232
 20
60.4273866897
 30
0.0
 11
47.7823576881
 21
60.4273866897
 31
0.0
 70
   160
  1
<>
 71
     2
 42
-1.0
  3
SLDDIMSTYLE0
100
AcDbAlignedDimension
 13
38.8023484531
 23
56.9803495944
 33
0.0
 14
56.7623669232
 24
56.9803495944
 34
0.0
100
AcDbRotatedDimension
  0
DIMENSION
  5
237
330
1F
100
AcDbEntity
  8
DIM
100
AcDbDimension
  2
_D_6
 10
63.9149379482
 20
35.2375645118
 30
0.0
 11
47.7823576881
 21
35.2375645118
 31
0.0
 70
   160
  1
<>
 71
     2
 42
-1.0
  3
SLDDIMSTYLE0
100
AcDbAlignedDimension
 13
31.649777428
 23
42.0459877922
 33
0.0
 14
63.9149379482
 24
42.0459877922
 34
0.0
100
AcDbRotatedDimension
  0
DIMENSION
  5
246
330
1F
100
AcDbEntity
  8
DIM
100
AcDbDimension
  2
_D_7
 10
62.8101732038
 20
38.7375645118
 30
0.0
 11
47.7823576881
 21
38.7375645118
 31
0.0
 70
   160
  1
<>
 71
     2
 42
-1.0
  3
SLDDIMSTYLE0
100
AcDbAlignedDimension
 13
32.7545421725
 23
42.0459877922
 33
0.0
 14
62.8101732038
 24
42.0459877922
 34
0.0
 50
0.0
100
AcDbRotatedDimension
  0
LINE
  5
255
330
1F
100
AcDbEntity
  8
SLD-0
  6
Continuous
370
    15
100
AcDbLine
 10
79.061345906
 20
7.1797663145
 30
0.0
 11
79.0973459143
 21
7.1797663145
 31
0.0
  0
LINE
  5
256
330
1F
100
AcDbEntity
  8
SLD-0
  6
Continuous
370
    15
100
AcDbLine
 10
79.0973459143
 20
7.8221418804
 30
0.0
 11
79.0973459143
 21
7.1797663145
 31
0.0
  0
LINE
  5
257
330
1F
100
AcDbEntity
  8
SLD-0
  6
Continuous
370
    15
100
AcDbLine
 10
79.061345906
 20
7.1797663145
 30
0.0
 11
79.061345906
 21
7.8221418804
 31
0.0
  0
LINE
  5
258
330
1F
100
AcDbEntity
  8
SLD-0
  6
Continuous
370
    15
100
AcDbLine
 10
79.061345906
 20
7.8221418804
 30
0.0
 11
79.0973459143
 21
7.8221418804
 31
0.0
  0
LINE
  5
259
330
1F
100
AcDbEntity
  8
SLD-0
  6
Continuous
370
    15
100
AcDbLine
 10
79.1309459107
 20
7.1253143035
 30
0.0
 11
79.1129709084
 21
7.1253143035
 31
0.0
  0
ARC
  5
25A
330
1F
100
AcDbEntity
  8
SLD-0
  6
Continuous
370
    15
100
AcDbCircle
 10
79.1129709099
 20
7.1769391725
 30
0.0
 40
0.0516250000000014
100
AcDbArc
 50
180.0
 51
270.0
  0
LINE
  5
25B
330
1F
100
AcDbEntity
  8
SLD-0
  6
Continuous
370
    15
100
AcDbLine
 10
79.0973459143
 20
7.1769392005
 30
0.0
 11
79.061345906
 21
7.1769392005
 31
0.0
  0
LINE
  5
25C
330
1F
100
AcDbEntity
  8
SLD-0
  6
Continuous
370
    15
100
AcDbLine
 10
79.061345906
 20
7.1769392005
 30
0.0
 11
79.061345906
 21
7.1797663145
 31
0.0
  0
SPLINE
  5
25D
330
1F
100
AcDbEntity
  8
SLD-0
  6
Continuous
370
    15
100
AcDbSpline
210
0.0
220
0.0
230
1.0
 70
     8
 71
     3
 72
    11
 73
     7
 74
     0
 42
0.00000001
 43
0.00000001
 12
1.0
 22
0.0
 32
0.0
 13
1.0
 23
0.0
 33
0.0
 40
0.0
 40
0.0
 40
0.0
 40
0.0
 40
0.3116126088518125
 40
0.6232248923312191
 40
0.9348382283346103
 40
1.0
 40
1.0
 40
1.0
 40
1.0
 10
79.06134590599426
 20
7.822141880389233
 30
0.0
 10
79.06211312288113
 20
7.828932679243247
 30
0.0
 10
79.06364755585376
 20
7.842514269860621
 30
0.0
 10
79.07571764025948
 20
7.859186926825441
 30
0.0
 10
79.08791450115277
 20
7.869075228315065
 30
0.0
 10
79.09595529128552
 20
7.870425183770804
 30
0.0
 10
79.09734591428575
 20
7.870658653252666
 30
0.0
  0
LINE
  5
25E
330
1F
100
AcDbEntity
  8
SLD-0
  6
Continuous
370
    15
100
AcDbLine
 10
79.1309459107
 20
22.6161643119
 30
0.0
 11
79.0973459143
 21
22.6161643119
 31
0.0
  0
LINE
  5
25F
330
1F
100
AcDbEntity
  8
SLD-0
  6
Continuous
370
    15
100
AcDbLine
 10
79.0973459143
 20
23.2371643381
 30
0.0
 11
79.0973459143
 21
22.6161643119
 31
0.0
  0
LINE
  5
260
330
1F
100
AcDbEntity
  8
SLD-0
  6
Continuous
370
    15
100
AcDbLine
 10
79.1309459107
 20
23.2371643381
 30
0.0
 11
79.0973459143
 21
23.2371643381
 31
0.0
  0
LINE
  5
261
330
1F
100
AcDbEntity
  8
SLD-0
  6
Continuous
370
    15
100
AcDbLine
 10
79.1309459107
 20
23.2569641093
 30
0.0
 11
79.0973459143
 21
23.2569641093
 31
0.0
  0
LINE
  5
262
330
1F
100
AcDbEntity
  8
SLD-0
  6
Continuous
370
    15
100
AcDbLine
 10
79.0973459143
 20
23.2371643381
 30
0.0
 11
79.0973459143
 21
23.2569641093
 31
0.0
  0
ARC
  5
263
330
1F
100
AcDbEntity
  8
SLD-0
  6
Continuous
370
    15
100
AcDbCircle
 10
79.1519459099
 20
22.6161641725
 30
0.0
 40
0.054600000000022
100
AcDbArc
 50
180.0
 51
247.3801350517
  0
SPLINE
  5
264
330
1F
100
AcDbEntity
  8
SLD-0
  6
Continuous
370
    15
100
AcDbSpline
210
0.0
220
0.0
230
1.0
 70
     8
 71
     3
 72
    13
 73
     9
 74
     0
 42
0.00000001
 43
0.00000001
 12
1.0
 22
0.0
 32
0.0
 13
1.0
 23
0.0
 33
0.0
 40
0.0
 40
0.0
 40
0.0
 40
0.0
 40
0.1651097113432951
 40
0.3320897716896086
 40
0.4990609777174201
 40
0.6660456640313901
 40
0.8330262222535373
 40
0.9999999999999999
 40
0.9999999999999999
 40
0.9999999999999999
 40
0.9999999999999999
 10
79.13094591071906
 20
23.30735174059019
 30
0.0
 10
79.12775840596657
 20
23.3058130073147
 30
0.0
 10
79.12134728867433
 20
23.30271811012184
 30
0.0
 10
79.11310115072807
 20
23.29579741642794
 30
0.0
 10
79.10624522303505
 20
23.28750018701894
 30
0.0
 10
79.10120301964707
 20
23.27799157693932
 30
0.0
 10
79.09795537338869
 20
23.26768548813595
 30
0.0
 10
79.09754906457022
 20
23.26053785389713
 30
0.0
 10
79.09734591428575
 20
23.25696410933907
 30
0.0
  0
LINE
  5
265
330
1F
100
AcDbEntity
  8
SLD-0
  6
Continuous
370
    15
100
AcDbLine
 10
79.1309459107
 20
7.1565639159
 30
0.0
 11
79.0973459143
 21
7.1565639159
 31
0.0
  0
LINE
  5
266
330
1F
100
AcDbEntity
  8
SLD-0
  6
Continuous
370
    15
100
AcDbLine
 10
79.0973459143
 20
8.4450180449
 30
0.0
 11
79.0973459143
 21
7.8221418804
 31
0.0
  0
LINE
  5
267
330
1F
100
AcDbEntity
  8
SLD-0
  6
Continuous
370
    15
100
AcDbLine
 10
79.0973459143
 20
7.1797663145
 30
0.0
 11
79.0973459143
 21
7.1565639159
 31
0.0
  0
LINE
  5
268
330
1F
100
AcDbEntity
  8
SLD-0
  6
Continuous
370
    15
100
AcDbLine
 10
79.0973459143
 20
8.4450180449
 30
0.0
 11
79.1309459107
 21
8.4450180449
 31
0.0
  0
LINE
  5
269
330
1F
100
AcDbEntity
  8
SLD-0
  6
Continuous
370
    15
100
AcDbLine
 10
79.1309459107
 20
9.9611642636
 30
0.0
 11
79.1309459107
 21
9.9450179167
 31
0.0
  0
LINE
  5
26A
330
1F
100
AcDbEntity
  8
SLD-0
  6
Continuous
370
    15
100
AcDbLine
 10
79.1309459107
 20
22.5315644359
 30
0.0
 11
79.0973459143
 21
22.5315644359
 31
0.0
  0
LINE
  5
26B
330
1F
100
AcDbEntity
  8
SLD-0
  6
Continuous
370
    15
100
AcDbLine
 10
79.0973459143
 20
9.9450179167
 30
0.0
 11
79.1309459107
 21
9.9450179167
 31
0.0
  0
LINE
  5
26C
330
1F
100
AcDbEntity
  8
SLD-0
  6
Continuous
370
    15
100
AcDbLine
 10
79.0973459143
 20
22.5315644359
 30
0.0
 11
79.0973459143
 21
9.9450179167
 31
0.0
  0
LINE
  5
26D
330
1F
100
AcDbEntity
  8
SLD-0
  6
Continuous
370
    15
100
AcDbLine
 10
79.0973459143
 20
8.4450180449
 30
0.0
 11
79.0973459143
 21
9.9450179167
 31
0.0
  0
LINE
  5
26E
330
1F
100
AcDbEntity
  8
SLD-0
  6
Continuous
370
    15
100
AcDbLine
 10
79.1353077132
 20
26.2687645168
 30
0.0
 11
79.1077077121
 21
26.2687645168
 31
0.0
  0
LINE
  5
26F
330
1F
100
AcDbEntity
  8
SLD-0
  6
Continuous
370
    15
100
AcDbLine
 10
79.1353077132
 20
26.2687645168
 30
0.0
 11
79.1353077132
 21
25.0487642103
 31
0.0
  0
LINE
  5
270
330
1F
100
AcDbEntity
  8
SLD-0
  6
Continuous
370
    15
100
AcDbLine
 10
79.1353077132
 20
25.0487642103
 30
0.0
 11
79.1077077121
 21
25.0487642103
 31
0.0
  0
LINE
  5
271
330
1F
100
AcDbEntity
  8
SLD-0
  6
Continuous
370
    15
100
AcDbLine
 10
79.1077077121
 20
25.0487642103
 30
0.0
 11
79.1077077121
 21
26.2687645168
 31
0.0
  0
LINE
  5
272
330
1F
100
AcDbEntity
  8
SLD-0
  6
Continuous
370
    15
100
AcDbLine
 10
79.1353077132
 20
26.6437645581
 30
0.0
 11
79.1077077121
 21
26.6437645581
 31
0.0
  0
LINE
  5
273
330
1F
100
AcDbEntity
  8
SLD-0
  6
Continuous
370
    15
100
AcDbLine
 10
79.1353077132
 20
26.2687645168
 30
0.0
 11
79.1353077132
 21
26.6437645581
 31
0.0
  0
LINE
  5
274
330
1F
100
AcDbEntity
  8
SLD-0
  6
Continuous
370
    15
100
AcDbLine
 10
79.1077077121
 20
26.2687645168
 30
0.0
 11
79.1077077121
 21
26.6437645581
 31
0.0
  0
SPLINE
  5
275
330
1F
100
AcDbEntity
  8
SLD-0
  6
Continuous
370
    15
100
AcDbSpline
210
0.0
220
0.0
230
1.0
 70
     8
 71
     3
 72
    14
 73
    10
 74
     0
 42
0.00000001
 43
0.00000001
 12
1.0
 22
0.0
 32
0.0
 13
1.0
 23
0.0
 33
0.0
 40
0.0
 40
0.0
 40
0.0
 40
0.0
 40
0.1503133535061082
 40
0.3146753521523902
 40
0.4931560435172415
 40
0.6282610141853378
 40
0.7577038376289243
 40
0.8815818422157852
 40
1.0
 40
1.0
 40
1.0
 40
1.0
 10
93.7209052125142
 20
24.96116415560805
 30
0.0
 10
93.72747225007683
 20
24.96576216244944
 30
0.0
 10
93.7412200962223
 20
24.97538791683696
 30
0.0
 10
93.76144463017384
 20
24.98902753361689
 30
0.0
 10
93.78030135017096
 20
25.00014945085248
 30
0.0
 10
93.79687555600331
 20
25.00854118223575
 30
0.0
 10
93.81039155119089
 20
25.01429343313871
 30
0.0
 10
93.82257065293128
 20
25.01802869254188
 30
0.0
 10
93.82992024342472
 20
25.01852233665619
 30
0.0
 10
93.83351223166832
 20
25.01876359688106
 30
0.0
  0
LINE
  5
276
330
1F
100
AcDbEntity
  8
SLD-0
  6
Continuous
370
    15
100
AcDbLine
 10
79.5388599414
 20
24.9611641556
 30
0.0
 11
93.7209052125
 21
24.9611641556
 31
0.0
  0
SPLINE
  5
277
330
1F
100
AcDbEntity
  8
SLD-0
  6
Continuous
370
    15
100
AcDbSpline
210
0.0
220
0.0
230
1.0
 70
     8
 71
     3
 72
    14
 73
    10
 74
     0
 42
0.00000001
 43
0.00000001
 12
1.0
 22
0.0
 32
0.0
 13
1.0
 23
0.0
 33
0.0
 40
0.0
 40
0.0
 40
0.0
 40
0.0
 40
0.1503708920860791
 40
0.3148972541491299
 40
0.4936255514323101
 40
0.6288453974532847
 40
0.7582521399119087
 40
0.8819331609648432
 40
1.0
 40
1.0
 40
1.0
 40
1.0
 10
79.37630770586199
 20
25.01876359688105
 30
0.0
 10
79.38506466806086
 20
25.01843624947954
 30
0.0
 10
79.40340294691829
 20
25.0177507391626
 30
0.0
 10
79.43193056141787
 20
25.01224776272312
 30
0.0
 10
79.45903608888692
 20
25.00426822432856
 30
0.0
 10
79.48337691753056
 20
24.99462261261487
 30
0.0
 10
79.50377195042685
 20
24.98434629319568
 30
0.0
 10
79.52235624087484
 20
24.97317741344997
 30
0.0
 10
79.53344454352036
 20
24.96510609400958
 30
0.0
 10
79.53885994137804
 20
24.96116415560805
 30
0.0
  0
LINE
  5
278
330
1F
100
AcDbEntity
  8
SLD-0
  6
Continuous
370
    15
100
AcDbLine
 10
79.3763077059
 20
25.0187635969
 30
0.0
 11
93.8335122317
 21
25.0187635969
 31
0.0
  0
LINE
  5
279
330
1F
100
AcDbEntity
  8
SLD-0
  6
Continuous
370
    15
100
AcDbLine
 10
79.3763077059
 20
25.0187635969
 30
0.0
 11
79.3763077059
 21
24.9911635957
 31
0.0
  0
LINE
  5
27A
330
1F
100
AcDbEntity
  8
SLD-0
  6
Continuous
370
    15
100
AcDbLine
 10
79.5285207942
 20
24.9611641556
 30
0.0
 11
79.5388599414
 21
24.9611641556
 31
0.0
  0
SPLINE
  5
27B
330
1F
100
AcDbEntity
  8
SLD-0
  6
Continuous
370
    15
100
AcDbSpline
210
0.0
220
0.0
230
1.0
 70
     8
 71
     3
 72
    11
 73
     7
 74
     0
 42
0.00000001
 43
0.00000001
 12
1.0
 22
0.0
 32
0.0
 13
1.0
 23
0.0
 33
0.0
 40
0.0
 40
0.0
 40
0.0
 40
0.0
 40
0.2309783715095128
 40
0.4965341605485847
 40
0.7624895265337646
 40
1.0
 40
1.0
 40
1.0
 40
1.0
 10
79.37630770586199
 20
24.99116359571862
 30
0.0
 10
79.38852627291531
 20
24.99075035081794
 30
0.0
 10
79.41479252414602
 20
24.98986199833488
 30
0.0
 10
79.4543924053532
 20
24.98345706220454
 30
0.0
 10
79.49345947651574
 20
24.97413607564344
 30
0.0
 10
79.5172823375267
 20
24.96532213854982
 30
0.0
 10
79.52852079415008
 20
24.96116415560805
 30
0.0
  0
SPLINE
  5
27C
330
1F
100
AcDbEntity
  8
SLD-0
  6
Continuous
370
    15
100
AcDbSpline
210
0.0
220
0.0
230
1.0
 70
     8
 71
     3
 72
    11
 73
     7
 74
     0
 42
0.00000001
 43
0.00000001
 12
1.0
 22
0.0
 32
0.0
 13
1.0
 23
0.0
 33
0.0
 40
0.0
 40
0.0
 40
0.0
 40
0.0
 40
0.0850005054264514
 40
0.4007188871744035
 40
0.7171227765623234
 40
0.9999999999999999
 40
0.9999999999999999
 40
0.9999999999999999
 40
0.9999999999999999
 10
93.73145335732781
 20
24.96850913742486
 30
0.0
 10
93.73458535827679
 20
24.96962476292128
 30
0.0
 10
93.74935058736112
 20
24.97488416938231
 30
0.0
 10
93.77446532785528
 20
24.98208041086384
 30
0.0
 10
93.8056256732624
 20
24.98947380193978
 30
0.0
 10
93.82456999092895
 20
24.99062173814874
 30
0.0
 10
93.8335122316683
 20
24.99116359571862
 30
0.0
  0
LINE
  5
27D
330
1F
100
AcDbEntity
  8
SLD-0
  6
Continuous
370
    15
100
AcDbLine
 10
79.1653077125
 20
24.9911635957
 30
0.0
 11
79.1653077125
 21
25.0187635969
 31
0.0
  0
LINE
  5
27E
330
1F
100
AcDbEntity
  8
SLD-0
  6
Continuous
370
    15
100
AcDbLine
 10
79.3763077059
 20
24.9911635957
 30
0.0
 11
79.1653077125
 21
24.9911635957
 31
0.0
  0
LINE
  5
27F
330
1F
100
AcDbEntity
  8
SLD-0
  6
Continuous
370
    15
100
AcDbLine
 10
79.3763077059
 20
25.0187635969
 30
0.0
 11
79.1653077125
 21
25.0187635969
 31
0.0
  0
ARC
  5
280
330
1F
100
AcDbEntity
  8
SLD-0
  6
Continuous
370
    15
100
AcDbCircle
 10
79.1653077121
 20
25.0487641725
 30
0.0
 40
0.0576000000000043
100
AcDbArc
 50
180.0
 51
270.0
  0
ARC
  5
281
330
1F
100
AcDbEntity
  8
SLD-0
  6
Continuous
370
    15
100
AcDbCircle
 10
79.1653077121
 20
25.0487641725
 30
0.0
 40
0.0300000000000011
100
AcDbArc
 50
180.0
 51
270.0
  0
LINE
  5
282
330
1F
100
AcDbEntity
  8
SLD-0
  6
Continuous
370
    15
100
AcDbLine
 10
80.6174444515
 20
24.4911639318
 30
0.0
 11
92.6942809122
 21
24.4911639318
 31
0.0
  0
LINE
  5
283
330
1F
100
AcDbEntity
  8
SLD-0
  6
Continuous
370
    15
100
AcDbLine
 10
80.6174444515
 20
24.4911639318
 30
0.0
 11
79.5388599414
 21
24.9611641556
 31
0.0
  0
LINE
  5
284
330
1F
100
AcDbEntity
  8
SLD-0
  6
Continuous
370
    15
100
AcDbLine
 10
93.7209052125
 20
24.9611641556
 30
0.0
 11
92.6942809122
 21
24.4911639318
 31
0.0
  0
LINE
  5
285
330
1F
100
AcDbEntity
  8
SLD-0
  6
Continuous
370
    15
100
AcDbLine
 10
80.6071053042
 20
24.4911639318
 30
0.0
 11
79.5285207942
 21
24.9611641556
 31
0.0
  0
LINE
  5
286
330
1F
100
AcDbEntity
  8
SLD-0
  6
Continuous
370
    15
100
AcDbLine
 10
80.6174444515
 20
24.4911639318
 30
0.0
 11
80.6071053042
 21
24.4911639318
 31
0.0
  0
LINE
  5
287
330
1F
100
AcDbEntity
  8
SLD-0
  6
Continuous
370
    15
100
AcDbLine
 10
93.8335122317
 20
24.9911635957
 30
0.0
 11
93.8335122317
 21
25.0187635969
 31
0.0
  0
LINE
  5
288
330
1F
100
AcDbEntity
  8
SLD-0
  6
Continuous
370
    15
100
AcDbLine
 10
94.0653074206
 20
24.9911635957
 30
0.0
 11
94.0653074206
 21
25.0187635969
 31
0.0
  0
LINE
  5
289
330
1F
100
AcDbEntity
  8
SLD-0
  6
Continuous
370
    15
100
AcDbLine
 10
93.8335122317
 20
24.9911635957
 30
0.0
 11
94.0653074206
 21
24.9911635957
 31
0.0
  0
LINE
  5
28A
330
1F
100
AcDbEntity
  8
SLD-0
  6
Continuous
370
    15
100
AcDbLine
 10
93.8335122317
 20
25.0187635969
 30
0.0
 11
94.0653074206
 21
25.0187635969
 31
0.0
  0
SPLINE
  5
28B
330
1F
100
AcDbEntity
  8
SLD-0
  6
Continuous
370
    15
100
AcDbSpline
210
0.0
220
0.0
230
1.0
 70
     8
 71
     3
 72
    15
 73
    11
 74
     0
 42
0.00000001
 43
0.00000001
 12
1.0
 22
0.0
 32
0.0
 13
1.0
 23
0.0
 33
0.0
 40
0.0
 40
0.0
 40
0.0
 40
0.0
 40
0.1250055760799674
 40
0.2500015528950886
 40
0.3750007635399904
 40
0.500001244413852
 40
0.6249987052571363
 40
0.7499979159020382
 40
0.8750023919546338
 40
1.0
 40
1.0
 40
1.0
 40
1.0
 10
94.06530742061716
 20
25.01876359688105
 30
0.0
 10
94.06907761399773
 20
25.01854929628499
 30
0.0
 10
94.07661771124312
 20
25.01812071154916
 30
0.0
 10
94.08749270532883
 20
25.01469682972968
 30
0.0
 10
94.09751532959316
 20
25.00937222020786
 30
0.0
 10
94.10629748056967
 20
25.00215448704664
 30
0.0
 10
94.11351558119797
 20
24.99337184776879
 30
0.0
 10
94.11884034026593
 20
24.98334942033849
 30
0.0
 10
94.12226348496944
 20
24.97247348206018
 30
0.0
 10
94.1226931890647
 20
24.96493386204978
 30
0.0
 10
94.12290803520996
 20
24.96116415560805
 30
0.0
  0
LINE
  5
28C
330
1F
100
AcDbEntity
  8
SLD-0
  6
Continuous
370
    15
100
AcDbLine
 10
94.095308034
 20
24.9611641556
 30
0.0
 11
94.1229080352
 21
24.9611641556
 31
0.0
  0
SPLINE
  5
28D
330
1F
100
AcDbEntity
  8
SLD-0
  6
Continuous
370
    15
100
AcDbSpline
210
0.0
220
0.0
230
1.0
 70
     8
 71
     3
 72
    11
 73
     7
 74
     0
 42
0.00000001
 43
0.00000001
 12
1.0
 22
0.0
 32
0.0
 13
1.0
 23
0.0
 33
0.0
 40
0.0
 40
0.0
 40
0.0
 40
0.0
 40
0.2500008909207727
 40
0.5000021220844599
 40
0.7499973124541909
 40
1.0
 40
1.0
 40
1.0
 40
1.0
 10
94.06530742061716
 20
24.99116359571862
 30
0.0
 10
94.06923869650386
 20
24.99071271075247
 30
0.0
 10
94.07710125362757
 20
24.98981094020652
 30
0.0
 10
94.08701764740384
 20
24.98287457873395
 30
0.0
 10
94.09395400884064
 20
24.97295778095735
 30
0.0
 10
94.09485668780019
 20
24.96509540335507
 30
0.0
 10
94.09530803404752
 20
24.96116415560805
 30
0.0
  0
LINE
  5
28E
330
1F
100
AcDbEntity
  8
SLD-0
  6
Continuous
370
    15
100
AcDbLine
 10
94.1229080352
 20
24.4911639318
 30
0.0
 11
94.095308034
 21
24.4911639318
 31
0.0
  0
LINE
  5
28F
330
1F
100
AcDbEntity
  8
SLD-0
  6
Continuous
370
    15
100
AcDbLine
 10
94.1229080352
 20
24.4911639318
 30
0.0
 11
94.1229080352
 21
24.9611641556
 31
0.0
  0
SPLINE
  5
290
330
1F
100
AcDbEntity
  8
SLD-0
  6
Continuous
370
    15
100
AcDbSpline
210
0.0
220
0.0
230
1.0
 70
     8
 71
     3
 72
    15
 73
    11
 74
     0
 42
0.00000001
 43
0.00000001
 12
1.0
 22
0.0
 32
0.0
 13
1.0
 23
0.0
 33
0.0
 40
0.0
 40
0.0
 40
0.0
 40
0.0
 40
0.1249989622042525
 40
0.2499986351781854
 40
0.3749991421091409
 40
0.4999989167300475
 40
0.6249985675398694
 40
0.7499971708886691
 40
0.8749998711488162
 40
1.0
 40
1.0
 40
1.0
 40
1.0
 10
79.1653077125186
 20
3.90356474812665
 30
0.0
 10
79.17259389922509
 20
3.903779076854283
 30
0.0
 10
79.18716631406888
 20
3.904207735528264
 30
0.0
 10
79.20886199515532
 20
3.907631476422174
 30
0.0
 10
79.23023839989047
 20
3.912956047894733
 30
0.0
 10
79.25115030434662
 20
3.920173991682278
 30
0.0
 10
79.27147609687269
 20
3.928956367718285
 30
0.0
 10
79.29109268977976
 20
3.938978854675259
 30
0.0
 10
79.30999689741833
 20
3.949855094390572
 30
0.0
 10
79.32190563865841
 20
3.957394516912253
 30
0.0
 10
79.32785994803463
 20
3.961164189399656
 30
0.0
  0
LINE
  5
291
330
1F
100
AcDbEntity
  8
SLD-0
  6
Continuous
370
    15
100
AcDbLine
 10
93.7209052125
 20
3.9611641894
 30
0.0
 11
79.327859948
 21
3.9611641894
 31
0.0
  0
SPLINE
  5
292
330
1F
100
AcDbEntity
  8
SLD-0
  6
Continuous
370
    15
100
AcDbSpline
210
0.0
220
0.0
230
1.0
 70
     8
 71
     3
 72
    15
 73
    11
 74
     0
 42
0.00000001
 43
0.00000001
 12
1.0
 22
0.0
 32
0.0
 13
1.0
 23
0.0
 33
0.0
 40
0.0
 40
0.0
 40
0.0
 40
0.0
 40
0.1249994356798734
 40
0.2500031499288908
 40
0.3750009364840993
 40
0.4999997807066652
 40
0.6250002743710488
 40
0.7500013006428358
 40
0.8749992871905725
 40
0.9999999999999999
 40
0.9999999999999999
 40
0.9999999999999999
 40
0.9999999999999999
 10
93.72090521251421
 20
3.961164189399653
 30
0.0
 10
93.72641596900706
 20
3.957394500337523
 30
0.0
 10
93.73743767061882
 20
3.949854993181683
 30
0.0
 10
93.75292696013946
 20
3.938978959121555
 30
0.0
 10
93.76770673635365
 20
3.928956358455998
 30
0.0
 10
93.78177472684966
 20
3.920173935694161
 30
0.0
 10
93.79525870205379
 20
3.912956056881481
 30
0.0
 10
93.80827683730287
 20
3.907631521796062
 30
0.0
 10
93.82097535276488
 20
3.904207696605097
 30
0.0
 10
93.82933324165262
 20
3.903779065844221
 30
0.0
 10
93.8335122316683
 20
3.90356474812665
 30
0.0
  0
LINE
  5
293
330
1F
100
AcDbEntity
  8
SLD-0
  6
Continuous
370
    15
100
AcDbLine
 10
79.1653077125
 20
3.9035647481
 30
0.0
 11
93.8335122317
 21
3.9035647481
 31
0.0
  0
LINE
  5
294
330
1F
100
AcDbEntity
  8
SLD-0
  6
Continuous
370
    15
100
AcDbLine
 10
79.1653077125
 20
3.9311647493
 30
0.0
 11
79.1653077125
 21
3.9035647481
 31
0.0
  0
SPLINE
  5
295
330
1F
100
AcDbEntity
  8
SLD-0
  6
Continuous
370
    15
100
AcDbSpline
210
0.0
220
0.0
230
1.0
 70
     8
 71
     3
 72
    11
 73
     7
 74
     0
 42
0.00000001
 43
0.00000001
 12
1.0
 22
0.0
 32
0.0
 13
1.0
 23
0.0
 33
0.0
 40
0.0
 40
0.0
 40
0.0
 40
0.0
 40
0.2499996444812519
 40
0.4999986405375824
 40
0.7499982615296471
 40
1.0
 40
1.0
 40
1.0
 40
1.0
 10
79.1653077125186
 20
3.931164749289081
 30
0.0
 10
79.17852823168664
 20
3.931615623648794
 30
0.0
 10
79.20496923573263
 20
3.932517371198791
 30
0.0
 10
79.2439277932996
 20
3.939453924087261
 30
0.0
 10
79.28177048185911
 20
3.949370410369281
 30
0.0
 10
79.30560400029066
 20
3.957232918623768
 30
0.0
 10
79.31752080997323
 20
3.961164189399656
 30
0.0
  0
LINE
  5
296
330
1F
100
AcDbEntity
  8
SLD-0
  6
Continuous
370
    15
100
AcDbLine
 10
79.31752081
 20
3.9611641894
 30
0.0
 11
79.327859948
 21
3.9611641894
 31
0.0
  0
SPLINE
  5
297
330
1F
100
AcDbEntity
  8
SLD-0
  6
Continuous
370
    15
100
AcDbSpline
210
0.0
220
0.0
230
1.0
 70
     8
 71
     3
 72
    11
 73
     7
 74
     0
 42
0.00000001
 43
0.00000001
 12
1.0
 22
0.0
 32
0.0
 13
1.0
 23
0.0
 33
0.0
 40
0.0
 40
0.0
 40
0.0
 40
0.0
 40
0.1052576485222695
 40
0.403501248695261
 40
0.701747054867684
 40
1.0
 40
1.0
 40
1.0
 40
1.0
 10
93.73171970091764
 20
3.953734728558755
 30
0.0
 10
93.73558761320096
 20
3.952364374903076
 30
0.0
 10
93.7504151099014
 20
3.947111175549073
 30
0.0
 10
93.77450312182812
 20
3.939498015455038
 30
0.0
 10
93.8043956863013
 20
3.932506290694766
 30
0.0
 10
93.82380663910853
 20
3.931611933325566
 30
0.0
 10
93.8335122316683
 20
3.931164749289081
 30
0.0
  0
ARC
  5
298
330
1F
100
AcDbEntity
  8
SLD-0
  6
Continuous
370
    15
100
AcDbCircle
 10
79.1653077121
 20
3.9611641725
 30
0.0
 40
0.0300000000000016
100
AcDbArc
 50
179.9999999999
 51
270.0
  0
ARC
  5
299
330
1F
100
AcDbEntity
  8
SLD-0
  6
Continuous
370
    15
100
AcDbCircle
 10
79.1653077121
 20
3.9611641725
 30
0.0
 40
0.0576000000000008
100
AcDbArc
 50
180.0
 51
270.0
  0
LINE
  5
29A
330
1F
100
AcDbEntity
  8
SLD-0
  6
Continuous
370
    15
100
AcDbLine
 10
79.1077077121
 20
3.9611641894
 30
0.0
 11
79.1077077121
 21
4.4681638792
 31
0.0
  0
ARC
  5
29B
330
1F
100
AcDbEntity
  8
SLD-0
  6
Continuous
370
    15
100
AcDbCircle
 10
79.1057392081
 20
4.4681641725
 30
0.0
 40
0.0019685039370074
100
AcDbArc
 50
0.0
 51
180.0
  0
LINE
  5
29C
330
1F
100
AcDbEntity
  8
SLD-0
  6
Continuous
370
    15
100
AcDbLine
 10
79.1037707017
 20
4.4681638792
 30
0.0
 11
79.0761707006
 21
4.4681638792
 31
0.0
  0
ARC
  5
29D
330
1F
100
AcDbEntity
  8
SLD-0
  6
Continuous
370
    15
100
AcDbCircle
 10
79.1057392081
 20
4.4681641725
 30
0.0
 40
0.0295685039370129
100
AcDbArc
 50
31.5170268668
 51
180.0
  0
LINE
  5
29E
330
1F
100
AcDbEntity
  8
SLD-0
  6
Continuous
370
    15
100
AcDbLine
 10
79.0761707006
 20
4.4681638792
 30
0.0
 11
79.0761707006
 21
4.0117330986
 31
0.0
  0
LINE
  5
29F
330
1F
100
AcDbEntity
  8
SLD-0
  6
Continuous
370
    15
100
AcDbLine
 10
79.1037707017
 20
4.0117330986
 30
0.0
 11
79.0761707006
 21
4.0117330986
 31
0.0
  0
LINE
  5
2A0
330
1F
100
AcDbEntity
  8
SLD-0
  6
Continuous
370
    15
100
AcDbLine
 10
79.1037707017
 20
4.4681638792
 30
0.0
 11
79.1037707017
 21
4.0117330986
 31
0.0
  0
LINE
  5
2A1
330
1F
100
AcDbEntity
  8
SLD-0
  6
Continuous
370
    15
100
AcDbLine
 10
80.406444449
 20
4.4311644133
 30
0.0
 11
79.327859948
 21
3.9611641894
 31
0.0
  0
LINE
  5
2A2
330
1F
100
AcDbEntity
  8
SLD-0
  6
Continuous
370
    15
100
AcDbLine
 10
80.406444449
 20
4.4311644133
 30
0.0
 11
92.6942809122
 21
4.4311644133
 31
0.0
  0
LINE
  5
2A3
330
1F
100
AcDbEntity
  8
SLD-0
  6
Continuous
370
    15
100
AcDbLine
 10
93.7209052125
 20
3.9611641894
 30
0.0
 11
92.6942809122
 21
4.4311644133
 31
0.0
  0
LINE
  5
2A4
330
1F
100
AcDbEntity
  8
SLD-0
  6
Continuous
370
    15
100
AcDbLine
 10
80.3961053017
 20
4.4311644133
 30
0.0
 11
79.31752081
 21
3.9611641894
 31
0.0
  0
LINE
  5
2A5
330
1F
100
AcDbEntity
  8
SLD-0
  6
Continuous
370
    15
100
AcDbLine
 10
80.3961053017
 20
4.4311644133
 30
0.0
 11
80.406444449
 21
4.4311644133
 31
0.0
  0
LINE
  5
2A6
330
1F
100
AcDbEntity
  8
SLD-0
  6
Continuous
370
    15
100
AcDbLine
 10
93.8335122317
 20
3.9311647493
 30
0.0
 11
93.8335122317
 21
3.9035647481
 31
0.0
  0
LINE
  5
2A7
330
1F
100
AcDbEntity
  8
SLD-0
  6
Continuous
370
    15
100
AcDbLine
 10
94.0653074206
 20
3.9311647493
 30
0.0
 11
94.0653074206
 21
3.9035647481
 31
0.0
  0
LINE
  5
2A8
330
1F
100
AcDbEntity
  8
SLD-0
  6
Continuous
370
    15
100
AcDbLine
 10
93.8335122317
 20
3.9035647481
 30
0.0
 11
94.0653074206
 21
3.9035647481
 31
0.0
  0
LINE
  5
2A9
330
1F
100
AcDbEntity
  8
SLD-0
  6
Continuous
370
    15
100
AcDbLine
 10
93.8335122317
 20
3.9311647493
 30
0.0
 11
94.0653074206
 21
3.9311647493
 31
0.0
  0
SPLINE
  5
2AA
330
1F
100
AcDbEntity
  8
SLD-0
  6
Continuous
370
    15
100
AcDbSpline
210
0.0
220
0.0
230
1.0
 70
     8
 71
     3
 72
    11
 73
     7
 74
     0
 42
0.00000001
 43
0.00000001
 12
1.0
 22
0.0
 32
0.0
 13
1.0
 23
0.0
 33
0.0
 40
0.0
 40
0.0
 40
0.0
 40
0.0
 40
0.2500008909207727
 40
0.5000021220844599
 40
0.7499973124541909
 40
1.0
 40
1.0
 40
1.0
 40
1.0
 10
94.06530742061716
 20
3.931164749289081
 30
0.0
 10
94.06923869650386
 20
3.931615634255236
 30
0.0
 10
94.07710125362757
 20
3.93251740480118
 30
0.0
 10
94.08701764740384
 20
3.939453766273753
 30
0.0
 10
94.09395400884064
 20
3.949370564050351
 30
0.0
 10
94.09485668780019
 20
3.957232941652631
 30
0.0
 10
94.09530803404752
 20
3.961164189399656
 30
0.0
  0
LINE
  5
2AB
330
1F
100
AcDbEntity
  8
SLD-0
  6
Continuous
370
    15
100
AcDbLine
 10
94.095308034
 20
3.9611641894
 30
0.0
 11
94.1229080352
 21
3.9611641894
 31
0.0
  0
SPLINE
  5
2AC
330
1F
100
AcDbEntity
  8
SLD-0
  6
Continuous
370
    15
100
AcDbSpline
210
0.0
220
0.0
230
1.0
 70
     8
 71
     3
 72
    15
 73
    11
 74
     0
 42
0.00000001
 43
0.00000001
 12
1.0
 22
0.0
 32
0.0
 13
1.0
 23
0.0
 33
0.0
 40
0.0
 40
0.0
 40
0.0
 40
0.0
 40
0.1250055760799674
 40
0.2500015528950886
 40
0.3750007635399904
 40
0.500001244413852
 40
0.6249987052571363
 40
0.7499979159020382
 40
0.8750023919546338
 40
1.0
 40
1.0
 40
1.0
 40
1.0
 10
94.06530742061716
 20
3.90356474812665
 30
0.0
 10
94.06907761399773
 20
3.903779048722711
 30
0.0
 10
94.07661771124312
 20
3.904207633458542
 30
0.0
 10
94.08749270532883
 20
3.907631515278024
 30
0.0
 10
94.09751532959316
 20
3.912956124799842
 30
0.0
 10
94.10629748056967
 20
3.920173857961057
 30
0.0
 10
94.11351558119797
 20
3.928956497238907
 30
0.0
 10
94.11884034026593
 20
3.938978924669215
 30
0.0
 10
94.12226348496944
 20
3.949854862947524
 30
0.0
 10
94.1226931890647
 20
3.957394482957922
 30
0.0
 10
94.12290803520996
 20
3.961164189399653
 30
0.0
  0
LINE
  5
2AD
330
1F
100
AcDbEntity
  8
SLD-0
  6
Continuous
370
    15
100
AcDbLine
 10
94.095308034
 20
4.4311644133
 30
0.0
 11
94.1229080352
 21
4.4311644133
 31
0.0
  0
LINE
  5
2AE
330
1F
100
AcDbEntity
  8
SLD-0
  6
Continuous
370
    15
100
AcDbLine
 10
94.1229080352
 20
4.4311644133
 30
0.0
 11
94.1229080352
 21
3.9611641894
 31
0.0
  0
LINE
  5
2AF
330
1F
100
AcDbEntity
  8
SLD-0
  6
Continuous
370
    15
100
AcDbLine
 10
79.1645459094
 20
4.3361642307
 30
0.0
 11
79.1309459107
 21
4.3361642307
 31
0.0
  0
LINE
  5
2B0
330
1F
100
AcDbEntity
  8
SLD-0
  6
Continuous
370
    15
100
AcDbLine
 10
79.1645459094
 20
3.9611641894
 30
0.0
 11
79.1645459094
 21
4.3361642307
 31
0.0
  0
LINE
  5
2B1
330
1F
100
AcDbEntity
  8
SLD-0
  6
Continuous
370
    15
100
AcDbLine
 10
79.1309459107
 20
3.9611641894
 30
0.0
 11
79.1645459094
 21
3.9611641894
 31
0.0
  0
LINE
  5
2B2
330
1F
100
AcDbEntity
  8
SLD-0
  6
Continuous
370
    15
100
AcDbLine
 10
79.1309459107
 20
4.3361642307
 30
0.0
 11
79.1309459107
 21
3.9611641894
 31
0.0
  0
LINE
  5
2B3
330
1F
100
AcDbEntity
  8
SLD-0
  6
Continuous
370
    15
100
AcDbLine
 10
79.1645459094
 20
8.4611640984
 30
0.0
 11
79.1309459107
 21
8.4611640984
 31
0.0
  0
LINE
  5
2B4
330
1F
100
AcDbEntity
  8
SLD-0
  6
Continuous
370
    15
100
AcDbLine
 10
79.1645459094
 20
8.4611640984
 30
0.0
 11
79.1645459094
 21
4.3361642307
 31
0.0
  0
LINE
  5
2B5
330
1F
100
AcDbEntity
  8
SLD-0
  6
Continuous
370
    15
100
AcDbLine
 10
79.1309459107
 20
8.4611640984
 30
0.0
 11
79.1309459107
 21
4.3361642307
 31
0.0
  0
LINE
  5
2B6
330
1F
100
AcDbEntity
  8
SLD-0
  6
Continuous
370
    15
100
AcDbLine
 10
79.1309459107
 20
24.9611641556
 30
0.0
 11
79.1645459094
 21
24.9611641556
 31
0.0
  0
LINE
  5
2B7
330
1F
100
AcDbEntity
  8
SLD-0
  6
Continuous
370
    15
100
AcDbLine
 10
79.1645459094
 20
24.9611641556
 30
0.0
 11
79.1645459094
 21
9.9611642636
 31
0.0
  0
LINE
  5
2B8
330
1F
100
AcDbEntity
  8
SLD-0
  6
Continuous
370
    15
100
AcDbLine
 10
79.1645459094
 20
9.9611642636
 30
0.0
 11
79.1309459107
 21
9.9611642636
 31
0.0
  0
LINE
  5
2B9
330
1F
100
AcDbEntity
  8
SLD-0
  6
Continuous
370
    15
100
AcDbLine
 10
79.1309459107
 20
24.9611641556
 30
0.0
 11
79.1309459107
 21
9.9611642636
 31
0.0
  0
LINE
  5
2BA
330
1F
100
AcDbEntity
  8
SLD-0
  6
Continuous
370
    15
100
AcDbLine
 10
79.1645459094
 20
9.9611642636
 30
0.0
 11
79.1645459094
 21
8.4611640984
 31
0.0
  0
LINE
  5
2BB
330
1F
100
AcDbEntity
  8
SLD-0
  6
Continuous
370
    15
100
AcDbLine
 10
79.1309459107
 20
9.9450179167
 30
0.0
 11
79.1309459107
 21
8.4611640984
 31
0.0
  0
LINE
  5
2BC
330
1F
100
AcDbEntity
  8
SLD-0
  6
Continuous
370
    15
100
AcDbLine
 10
79.1833077121
 20
11.3513141244
 30
0.0
 11
79.1833077121
 21
3.9611641894
 31
0.0
  0
LINE
  5
2BD
330
1F
100
AcDbEntity
  8
SLD-0
  6
Continuous
370
    15
100
AcDbLine
 10
79.1645459094
 20
11.3513141244
 30
0.0
 11
79.1833077121
 21
11.3513141244
 31
0.0
  0
LINE
  5
2BE
330
1F
100
AcDbEntity
  8
SLD-0
  6
Continuous
370
    15
100
AcDbLine
 10
79.1833077121
 20
3.9611641894
 30
0.0
 11
79.1645459094
 21
3.9611641894
 31
0.0
  0
LINE
  5
2BF
330
1F
100
AcDbEntity
  8
SLD-0
  6
Continuous
370
    15
100
AcDbLine
 10
79.1833077121
 20
24.9611641556
 30
0.0
 11
79.1833077121
 21
12.101314207
 31
0.0
  0
LINE
  5
2C0
330
1F
100
AcDbEntity
  8
SLD-0
  6
Continuous
370
    15
100
AcDbLine
 10
79.1833077121
 20
12.101314207
 30
0.0
 11
79.1645459094
 21
12.101314207
 31
0.0
  0
LINE
  5
2C1
330
1F
100
AcDbEntity
  8
SLD-0
  6
Continuous
370
    15
100
AcDbLine
 10
79.1645459094
 20
24.9611641556
 30
0.0
 11
79.1833077121
 21
24.9611641556
 31
0.0
  0
LINE
  5
2C2
330
1F
100
AcDbEntity
  8
SLD-0
  6
Continuous
370
    15
100
AcDbLine
 10
79.1833077121
 20
11.3513141244
 30
0.0
 11
79.1833077121
 21
12.101314207
 31
0.0
  0
LINE
  5
2C3
330
1F
100
AcDbEntity
  8
SLD-0
  6
Continuous
370
    15
100
AcDbLine
 10
79.1833077121
 20
24.9611641556
 30
0.0
 11
79.5275023892
 21
24.9611641556
 31
0.0
  0
LINE
  5
2C4
330
1F
100
AcDbEntity
  8
SLD-0
  6
Continuous
370
    15
100
AcDbLine
 10
93.7209052125
 20
24.9611641556
 30
0.0
 11
94.0555324935
 21
24.9611641556
 31
0.0
  0
LINE
  5
2C5
330
1F
100
AcDbEntity
  8
SLD-0
  6
Continuous
370
    15
100
AcDbLine
 10
94.0555324935
 20
24.9611641556
 30
0.0
 11
94.0555324935
 21
3.9611641894
 31
0.0
  0
LWPOLYLINE
  5
2C6
330
1F
100
AcDbEntity
  8
SLD-0
  6
Continuous
370
    15
100
AcDbPolyline
 90
      142
 70
   128
 43
0.0
 10
87.5538877611
 20
5.9611640186
 10
87.5548369768
 20
6.0071030079
 10
87.5576822773
 20
6.0529510649
 10
87.5624189692
 20
6.098616084
 10
87.5690370794
 20
6.144008893
 10
87.5775231147
 20
6.1890385595
 10
87.5878606486
 20
6.2336159112
 10
87.6000291481
 20
6.2776517758
 10
87.61400456
 20
6.3210599143
 10
87.6297587246
 20
6.3637529145
 10
87.6472611358
 20
6.4056468839
 10
87.6664760071
 20
6.4466585168
 10
87.6873657925
 20
6.4867062675
 10
87.709888839
 20
6.5257103502
 10
87.7340011471
 20
6.5635939126
 10
87.7596534374
 20
6.6002812754
 10
87.7867958439
 20
6.6356996929
 10
87.8153743937
 20
6.6697787659
 10
87.845332181
 20
6.7024510285
 10
87.8766093663
 20
6.7336513614
 10
87.9091443505
 20
6.7633181653
 10
87.9428720142
 20
6.7913927744
 10
87.9777260649
 20
6.8178182824
 10
88.0136372767
 20
6.8425436501
 10
88.0505340771
 20
6.8655190114
 10
88.088342547
 20
6.8866986067
 10
88.1269887672
 20
6.9060407833
 10
88.1663952987
 20
6.9235068215
 10
88.2064841156
 20
6.9390621085
 10
88.2471760188
 20
6.9526761379
 10
88.2883894627
 20
6.9643213367
 10
88.3300429015
 20
6.9739754118
 10
88.3720536162
 20
6.9816184169
 10
88.4143388878
 20
6.9872350986
 10
88.4568136504
 20
6.9908148973
 10
88.4993940119
 20
6.9923501862
 10
88.5419960797
 20
6.9918380321
 10
88.5845342016
 20
6.989280195
 10
88.6269250719
 20
6.9846807815
 10
88.6690830383
 20
6.9780491781
 10
88.7109259682
 20
6.969398878
 10
88.7523699695
 20
6.9587463077
 10
88.7933323229
 20
6.9461137603
 10
88.8337326562
 20
6.9315252889
 10
88.8734905969
 20
6.9150102263
 10
88.9125263593
 20
6.8966014256
 10
88.9507630909
 20
6.8763358464
 10
88.9881251127
 20
6.8542527949
 10
89.0245379187
 20
6.8303968571
 10
89.0599287632
 20
6.804814966
 10
89.0942284203
 20
6.7775581608
 10
89.1273688374
 20
6.7486804144
 10
89.1592831354
 20
6.7182392194
 10
89.189907955
 20
6.6862950018
 10
89.2191834568
 20
6.6529111208
 10
89.2470498015
 20
6.6181532823
 10
89.2734541898
 20
6.5820918856
 10
89.298342649
 20
6.5447973297
 10
89.3216658996
 20
6.5063435339
 10
89.3433781821
 20
6.4668079373
 10
89.3634349104
 20
6.4262685656
 10
89.3817985382
 20
6.3848052046
 10
89.3984303461
 20
6.34250116
 10
89.4132998277
 20
6.2994397374
 10
89.42637413
 20
6.255707176
 10
89.4376297866
 20
6.2113891279
 10
89.4470445045
 20
6.1665747656
 10
89.4545983373
 20
6.1213526747
 10
89.460277205
 20
6.0758120275
 10
89.4640693745
 20
6.0300443429
 10
89.4659666326
 20
5.9841393798
 10
89.4659666326
 20
5.938189244
 10
89.4640693745
 20
5.8922842809
 10
89.460277205
 20
5.8465160097
 10
89.4545983373
 20
5.8009759491
 10
89.4470445045
 20
5.7557538581
 10
89.4376297866
 20
5.7109389092
 10
89.42637413
 20
5.6666214478
 10
89.4132998277
 20
5.6228882997
 10
89.3984303461
 20
5.5798274638
 10
89.3817985382
 20
5.5375228325
 10
89.3634349104
 20
5.4960600582
 10
89.3433781821
 20
5.4555200998
 10
89.3216658996
 20
5.4159845032
 10
89.298342649
 20
5.3775312941
 10
89.2734541898
 20
5.3402367382
 10
89.2470498015
 20
5.3041747548
 10
89.2191834568
 20
5.269417503
 10
89.189907955
 20
5.236033622
 10
89.1592831354
 20
5.2040888177
 10
89.1273688374
 20
5.1736476227
 10
89.0942284203
 20
5.1447698763
 10
89.0599287632
 20
5.1175130712
 10
89.0245379187
 20
5.0919317667
 10
88.9881251127
 20
5.0680752423
 10
88.9507630909
 20
5.0459927774
 10
88.9125263593
 20
5.0257266115
 10
88.8734905969
 20
5.0073178108
 10
88.8337326562
 20
4.9908033349
 10
88.7933323229
 20
4.9762148634
 10
88.7523699695
 20
4.9635817294
 10
88.7109259682
 20
4.9529297458
 10
88.6690830383
 20
4.9442794457
 10
88.6269250719
 20
4.9376478423
 10
88.5845342016
 20
4.9330484288
 10
88.5419960797
 20
4.930490005
 10
88.4993940119
 20
4.9299784376
 10
88.4568136504
 20
4.9315137265
 10
88.4143388878
 20
4.9350935252
 10
88.3720536162
 20
4.9407102069
 10
88.3300429015
 20
4.948353212
 10
88.2883894627
 20
4.9580067005
 10
88.2471760188
 20
4.9696524859
 10
88.2064841156
 20
4.9832659287
 10
88.1663952987
 20
4.9988218023
 10
88.1269887672
 20
5.0162878405
 10
88.088342547
 20
5.0356300171
 10
88.0505340771
 20
5.0568096124
 10
88.0136372767
 20
5.0797849737
 10
87.9777260649
 20
5.1045097547
 10
87.9428720142
 20
5.1309358494
 10
87.9091443505
 20
5.1590098718
 10
87.8766093663
 20
5.1886766757
 10
87.845332181
 20
5.2198770086
 10
87.8153743937
 20
5.2525492712
 10
87.7867958439
 20
5.2866289309
 10
87.7596534374
 20
5.3220473484
 10
87.7340011471
 20
5.3587341246
 10
87.709888839
 20
5.3966176869
 10
87.6873657925
 20
5.4356217697
 10
87.6664760071
 20
5.4756695204
 10
87.6472611358
 20
5.5166811533
 10
87.6297587246
 20
5.5585751226
 10
87.61400456
 20
5.6012687094
 10
87.6000291481
 20
5.6446762613
 10
87.5878606486
 20
5.6887127126
 10
87.5775231147
 20
5.7332900643
 10
87.5690370794
 20
5.7783191441
 10
87.5624189692
 20
5.8237119531
 10
87.5576822773
 20
5.8693775589
 10
87.5548369768
 20
5.9152250293
 10
87.5538877611
 20
5.9611640186
  0
LWPOLYLINE
  5
2C7
330
1F
100
AcDbEntity
  8
SLD-0
  6
Continuous
370
    15
100
AcDbPolyline
 90
       86
 70
   128
 43
0.0
 10
85.8598469041
 20
23.961164241
 10
85.8607961198
 20
23.9888586944
 10
85.8636396603
 20
24.0164023762
 10
85.8683610991
 20
24.0436439282
 10
85.8749352098
 20
24.070435512
 10
85.8833256196
 20
24.0966298761
 10
85.8934871555
 20
24.1220844621
 10
85.905364085
 20
24.1466602315
 10
85.9188907021
 20
24.1702228393
 10
85.9339942609
 20
24.1926432203
 10
85.9505920425
 20
24.2137999359
 10
85.9685925279
 20
24.2335768274
 10
85.9878989182
 20
24.2518659495
 10
86.0084044413
 20
24.2685669832
 10
86.0299976319
 20
24.2835889963
 10
86.0525605712
 20
24.2968504432
 10
86.0759694741
 20
24.3082785778
 10
86.1000976221
 20
24.3178106277
 10
86.1248124299
 20
24.3253949667
 10
86.1499789658
 20
24.3309893554
 10
86.1754599515
 20
24.3345644608
 10
86.2011157618
 20
24.3361003364
 10
86.2268067716
 20
24.3355875957
 10
86.2523927694
 20
24.3330309319
 10
86.27773413
 20
24.3284432515
 10
86.302691815
 20
24.3218491944
 10
86.3271297194
 20
24.3132851333
 10
86.3509146713
 20
24.3027974145
 10
86.3739164322
 20
24.2904447038
 10
86.396009457
 20
24.276293294
 10
86.4170734803
 20
24.260420624
 10
86.4369923436
 20
24.2429135196
 10
86.4556586879
 20
24.2238676063
 10
86.4729698479
 20
24.2033873095
 10
86.4888313714
 20
24.1815835081
 10
86.5031564326
 20
24.1585764672
 10
86.5158664191
 20
24.1344905587
 10
86.5268932784
 20
24.1094583679
 10
86.5361754111
 20
24.0836159998
 10
86.5436629513
 20
24.057105426
 10
86.5493148327
 20
24.0300703783
 10
86.5530993756
 20
24.002658695
 10
86.5549972204
 20
23.9750211476
 10
86.5549972204
 20
23.9473073344
 10
86.5530993756
 20
23.9196692004
 10
86.5493148327
 20
23.8922581037
 10
86.5436629513
 20
23.865223056
 10
86.5361754111
 20
23.8387118956
 10
86.5268932784
 20
23.8128701141
 10
86.5158664191
 20
23.7878379233
 10
86.5031564326
 20
23.7637520149
 10
86.4888313714
 20
23.740744974
 10
86.4729698479
 20
23.7189411725
 10
86.4556586879
 20
23.6984602891
 10
86.4369923436
 20
23.6794149625
 10
86.4170734803
 20
23.6619078581
 10
86.396009457
 20
23.6460351881
 10
86.3739164322
 20
23.6318837782
 10
86.3509146713
 20
23.6195304809
 10
86.3271297194
 20
23.6090433488
 10
86.302691815
 20
23.6004792877
 10
86.27773413
 20
23.5938852305
 10
86.2523927694
 20
23.5892975502
 10
86.2268067716
 20
23.5867402997
 10
86.2011157618
 20
23.5862281457
 10
86.1754599515
 20
23.5877640212
 10
86.1499789658
 20
23.5913391266
 10
86.1248124299
 20
23.5969335153
 10
86.1000976221
 20
23.6045178544
 10
86.0759694741
 20
23.6140499043
 10
86.0525605712
 20
23.6254780389
 10
86.0299976319
 20
23.6387394857
 10
86.0084044413
 20
23.6537614988
 10
85.9878989182
 20
23.6704625326
 10
85.9685925279
 20
23.6887516546
 10
85.9505920425
 20
23.7085285462
 10
85.9339942609
 20
23.7296846751
 10
85.9188907021
 20
23.7521056428
 10
85.905364085
 20
23.7756682506
 10
85.8934871555
 20
23.80024402
 10
85.8833256196
 20
23.8256986059
 10
85.8749352098
 20
23.85189297
 10
85.8683610991
 20
23.8786845538
 10
85.8636396603
 20
23.9059261058
 10
85.8607961198
 20
23.933469201
 10
85.8598469041
 20
23.961164241
  0
LINE
  5
2C8
330
1F
100
AcDbEntity
  8
SLD-0
  6
Continuous
370
    15
100
AcDbLine
 10
81.0667647676
 20
6.9924141321
 30
0.0
 11
81.1539199874
 21
6.9924141321
 31
0.0
  0
LINE
  5
2C9
330
1F
100
AcDbEntity
  8
SLD-0
  6
Continuous
370
    15
100
AcDbLine
 10
81.0667647676
 20
4.929913905
 30
0.0
 11
81.0667647676
 21
6.9924141321
 31
0.0
  0
LINE
  5
2CA
330
1F
100
AcDbEntity
  8
SLD-0
  6
Continuous
370
    15
100
AcDbLine
 10
87.0355109761
 20
4.929913905
 30
0.0
 11
81.0667647676
 21
4.929913905
 31
0.0
  0
LINE
  5
2CB
330
1F
100
AcDbEntity
  8
SLD-0
  6
Continuous
370
    15
100
AcDbLine
 10
87.0355109761
 20
6.9924141321
 30
0.0
 11
87.0355109761
 21
4.929913905
 31
0.0
  0
LINE
  5
2CC
330
1F
100
AcDbEntity
  8
SLD-0
  6
Continuous
370
    15
100
AcDbLine
 10
86.9483556096
 20
6.9924141321
 30
0.0
 11
87.0355109761
 21
6.9924141321
 31
0.0
  0
LINE
  5
2CD
330
1F
100
AcDbEntity
  8
SLD-0
  6
Continuous
370
    15
100
AcDbLine
 10
86.8324574285
 20
6.9924141321
 30
0.0
 11
86.9483556096
 21
6.9924141321
 31
0.0
  0
LINE
  5
2CE
330
1F
100
AcDbEntity
  8
SLD-0
  6
Continuous
370
    15
100
AcDbLine
 10
86.8324574285
 20
7.0081641902
 30
0.0
 11
86.8324574285
 21
6.9924141321
 31
0.0
  0
LINE
  5
2CF
330
1F
100
AcDbEntity
  8
SLD-0
  6
Continuous
370
    15
100
AcDbLine
 10
85.6781137502
 20
7.0081641902
 30
0.0
 11
86.8324574285
 21
7.0081641902
 31
0.0
  0
LINE
  5
2D0
330
1F
100
AcDbEntity
  8
SLD-0
  6
Continuous
370
    15
100
AcDbLine
 10
85.6781137502
 20
6.9924141321
 30
0.0
 11
85.6781137502
 21
7.0081641902
 31
0.0
  0
LINE
  5
2D1
330
1F
100
AcDbEntity
  8
SLD-0
  6
Continuous
370
    15
100
AcDbLine
 10
85.5622155691
 20
6.9924141321
 30
0.0
 11
85.6781137502
 21
6.9924141321
 31
0.0
  0
LINE
  5
2D2
330
1F
100
AcDbEntity
  8
SLD-0
  6
Continuous
370
    15
100
AcDbLine
 10
85.5622155691
 20
7.0081641902
 30
0.0
 11
85.5622155691
 21
6.9924141321
 31
0.0
  0
LINE
  5
2D3
330
1F
100
AcDbEntity
  8
SLD-0
  6
Continuous
370
    15
100
AcDbLine
 10
82.5400597346
 20
7.0081641902
 30
0.0
 11
85.5622155691
 21
7.0081641902
 31
0.0
  0
LINE
  5
2D4
330
1F
100
AcDbEntity
  8
SLD-0
  6
Continuous
370
    15
100
AcDbLine
 10
82.5400597346
 20
6.9924141321
 30
0.0
 11
82.5400597346
 21
7.0081641902
 31
0.0
  0
LINE
  5
2D5
330
1F
100
AcDbEntity
  8
SLD-0
  6
Continuous
370
    15
100
AcDbLine
 10
82.4241618468
 20
6.9924141321
 30
0.0
 11
82.5400597346
 21
6.9924141321
 31
0.0
  0
LINE
  5
2D6
330
1F
100
AcDbEntity
  8
SLD-0
  6
Continuous
370
    15
100
AcDbLine
 10
82.4241618468
 20
7.0081641902
 30
0.0
 11
82.4241618468
 21
6.9924141321
 31
0.0
  0
LINE
  5
2D7
330
1F
100
AcDbEntity
  8
SLD-0
  6
Continuous
370
    15
100
AcDbLine
 10
81.2698180219
 20
7.0081641902
 30
0.0
 11
82.4241618468
 21
7.0081641902
 31
0.0
  0
LINE
  5
2D8
330
1F
100
AcDbEntity
  8
SLD-0
  6
Continuous
370
    15
100
AcDbLine
 10
81.2698180219
 20
6.9924141321
 30
0.0
 11
81.2698180219
 21
7.0081641902
 31
0.0
  0
LINE
  5
2D9
330
1F
100
AcDbEntity
  8
SLD-0
  6
Continuous
370
    15
100
AcDbLine
 10
81.1539199874
 20
6.9924141321
 30
0.0
 11
81.2698180219
 21
6.9924141321
 31
0.0
  0
LINE
  5
2DA
330
1F
100
AcDbEntity
  8
SLD-0
  6
Continuous
370
    15
100
AcDbLine
 10
79.1833077121
 20
3.9611641894
 30
0.0
 11
79.3165024051
 21
3.9611641894
 31
0.0
  0
LINE
  5
2DB
330
1F
100
AcDbEntity
  8
SLD-0
  6
Continuous
370
    15
100
AcDbLine
 10
93.7209052125
 20
3.9611641894
 30
0.0
 11
94.0555324935
 21
3.9611641894
 31
0.0
  0
LINE
  5
2DC
330
1F
100
AcDbEntity
  8
SLD-0
  6
Continuous
370
    15
100
AcDbLine
 10
79.170720931
 20
11.3513141244
 30
0.0
 11
79.170720931
 21
12.101314207
 31
0.0
  0
LWPOLYLINE
  5
2DD
330
1F
100
AcDbEntity
  8
SLD-0
  6
Continuous
370
    15
100
AcDbPolyline
 90
        9
 70
   128
 43
0.0
 10
81.130094996
 20
6.9624141054
 10
81.1322874906
 20
6.962990792
 10
81.1343956529
 20
6.9646979723
 10
81.1363386705
 20
6.9674699403
 10
81.1380415975
 20
6.9712010972
 10
81.139439168
 20
6.9757471247
 10
81.1404777027
 20
6.9809337848
 10
81.1411173086
 20
6.9865616131
 10
81.1413331995
 20
6.9924141321
  0
LWPOLYLINE
  5
2DE
330
1F
100
AcDbEntity
  8
SLD-0
  6
Continuous
370
    15
100
AcDbPolyline
 90
        9
 70
   128
 43
0.0
 10
81.130094996
 20
6.9288143335
 10
81.1347431023
 20
6.9300363461
 10
81.139212424
 20
6.9336554509
 10
81.1433315097
 20
6.9395326097
 10
81.1469418147
 20
6.9474419583
 10
81.1499047405
 20
6.9570801937
 10
81.152106475
 20
6.9680753733
 10
81.153462246
 20
6.9800062755
 10
81.1539199874
 20
6.9924141321
  0
LINE
  5
2DF
330
1F
100
AcDbEntity
  8
SLD-0
  6
Continuous
370
    15
100
AcDbLine
 10
81.130094996
 20
6.9288143335
 30
0.0
 11
81.130094996
 21
6.9624141054
 31
0.0
  0
LWPOLYLINE
  5
2E0
330
1F
100
AcDbEntity
  8
SLD-0
  6
Continuous
370
    15
100
AcDbPolyline
 90
        9
 70
   128
 43
0.0
 10
81.2698180219
 20
6.9924141321
 10
81.2693601338
 20
6.9800062755
 10
81.2680043628
 20
6.9680753733
 10
81.2658027749
 20
6.9570801937
 10
81.2628398491
 20
6.9474419583
 10
81.2592293975
 20
6.9395326097
 10
81.2551104584
 20
6.9336554509
 10
81.2506409901
 20
6.9300363461
 10
81.2459930304
 20
6.9288143335
  0
LINE
  5
2E1
330
1F
100
AcDbEntity
  8
SLD-0
  6
Continuous
370
    15
100
AcDbLine
 10
81.130094996
 20
6.9288143335
 30
0.0
 11
81.2459930304
 21
6.9288143335
 31
0.0
  0
LINE
  5
2E2
330
1F
100
AcDbEntity
  8
SLD-0
  6
Continuous
370
    15
100
AcDbLine
 10
81.130094996
 20
6.9288143335
 30
0.0
 11
81.0667647676
 21
6.9288143335
 31
0.0
  0
LINE
  5
2E3
330
1F
100
AcDbEntity
  8
SLD-0
  6
Continuous
370
    15
100
AcDbLine
 10
81.0667647676
 20
6.9624141054
 30
0.0
 11
81.130094996
 21
6.9624141054
 31
0.0
  0
LINE
  5
2E4
330
1F
100
AcDbEntity
  8
SLD-0
  6
Continuous
370
    15
100
AcDbLine
 10
82.3985623559
 20
6.9288143335
 30
0.0
 11
82.3985623559
 21
6.9624141054
 31
0.0
  0
LINE
  5
2E5
330
1F
100
AcDbEntity
  8
SLD-0
  6
Continuous
370
    15
100
AcDbLine
 10
82.3985623559
 20
6.9288143335
 30
0.0
 11
81.2459930304
 21
6.9288143335
 31
0.0
  0
LINE
  5
2E6
330
1F
100
AcDbEntity
  8
SLD-0
  6
Continuous
370
    15
100
AcDbLine
 10
81.2670008811
 20
6.9624141054
 30
0.0
 11
82.3985623559
 21
6.9624141054
 31
0.0
  0
LINE
  5
2E7
330
1F
100
AcDbEntity
  8
SLD-0
  6
Continuous
370
    15
100
AcDbLine
 10
82.4241618468
 20
6.9924141321
 30
0.0
 11
82.4115750589
 21
6.9924141321
 31
0.0
  0
LINE
  5
2E8
330
1F
100
AcDbEntity
  8
SLD-0
  6
Continuous
370
    15
100
AcDbLine
 10
82.4115750589
 20
6.9924141321
 30
0.0
 11
82.4115750589
 21
7.0081641902
 31
0.0
  0
LWPOLYLINE
  5
2E9
330
1F
100
AcDbEntity
  8
SLD-0
  6
Continuous
370
    15
100
AcDbPolyline
 90
        9
 70
   128
 43
0.0
 10
82.5400597346
 20
6.9924141321
 10
82.5396021399
 20
6.9800062755
 10
82.5382463689
 20
6.9680753733
 10
82.5360446343
 20
6.9570801937
 10
82.5330817085
 20
6.9474419583
 10
82.5294714036
 20
6.9395326097
 10
82.5253521712
 20
6.9336554509
 10
82.5208829961
 20
6.9300363461
 10
82.5162348898
 20
6.9288143335
  0
LWPOLYLINE
  5
2EA
330
1F
100
AcDbEntity
  8
SLD-0
  6
Continuous
370
    15
100
AcDbPolyline
 90
        9
 70
   128
 43
0.0
 10
82.400337002
 20
6.9288143335
 10
82.404984815
 20
6.9300363461
 10
82.4094542834
 20
6.9336554509
 10
82.4135732224
 20
6.9395326097
 10
82.4171838207
 20
6.9474419583
 10
82.4201467465
 20
6.9570801937
 10
82.4223481877
 20
6.9680753733
 10
82.4237039587
 20
6.9800062755
 10
82.4241618468
 20
6.9924141321
  0
LINE
  5
2EB
330
1F
100
AcDbEntity
  8
SLD-0
  6
Continuous
370
    15
100
AcDbLine
 10
82.400337002
 20
6.9288143335
 30
0.0
 11
82.5162348898
 21
6.9288143335
 31
0.0
  0
LWPOLYLINE
  5
2EC
330
1F
100
AcDbEntity
  8
SLD-0
  6
Continuous
370
    15
100
AcDbPolyline
 90
        9
 70
   128
 43
0.0
 10
82.400337002
 20
6.9624141054
 10
82.40252935
 20
6.962990792
 10
82.4046375123
 20
6.9646979723
 10
82.4065805299
 20
6.9674699403
 10
82.4082836036
 20
6.9712010972
 10
82.4096810274
 20
6.9757471247
 10
82.4107197087
 20
6.9809337848
 10
82.411359168
 20
6.9865616131
 10
82.4115750589
 20
6.9924141321
  0
LINE
  5
2ED
330
1F
100
AcDbEntity
  8
SLD-0
  6
Continuous
370
    15
100
AcDbLine
 10
82.400337002
 20
6.9288143335
 30
0.0
 11
82.400337002
 21
6.9624141054
 31
0.0
  0
LINE
  5
2EE
330
1F
100
AcDbEntity
  8
SLD-0
  6
Continuous
370
    15
100
AcDbLine
 10
82.400337002
 20
6.9288143335
 30
0.0
 11
82.3985623559
 21
6.9288143335
 31
0.0
  0
LINE
  5
2EF
330
1F
100
AcDbEntity
  8
SLD-0
  6
Continuous
370
    15
100
AcDbLine
 10
82.3985623559
 20
6.9624141054
 30
0.0
 11
82.400337002
 21
6.9624141054
 31
0.0
  0
LINE
  5
2F0
330
1F
100
AcDbEntity
  8
SLD-0
  6
Continuous
370
    15
100
AcDbLine
 10
85.5366160781
 20
6.9288143335
 30
0.0
 11
85.5366160781
 21
6.9624141054
 31
0.0
  0
LINE
  5
2F1
330
1F
100
AcDbEntity
  8
SLD-0
  6
Continuous
370
    15
100
AcDbLine
 10
85.5366160781
 20
6.9288143335
 30
0.0
 11
82.5162348898
 21
6.9288143335
 31
0.0
  0
LINE
  5
2F2
330
1F
100
AcDbEntity
  8
SLD-0
  6
Continuous
370
    15
100
AcDbLine
 10
82.5372428871
 20
6.9624141054
 30
0.0
 11
85.5366160781
 21
6.9624141054
 31
0.0
  0
LINE
  5
2F3
330
1F
100
AcDbEntity
  8
SLD-0
  6
Continuous
370
    15
100
AcDbLine
 10
85.5622155691
 20
6.9924141321
 30
0.0
 11
85.5496287811
 21
6.9924141321
 31
0.0
  0
LINE
  5
2F4
330
1F
100
AcDbEntity
  8
SLD-0
  6
Continuous
370
    15
100
AcDbLine
 10
85.5496287811
 20
6.9924141321
 30
0.0
 11
85.5496287811
 21
7.0081641902
 31
0.0
  0
LWPOLYLINE
  5
2F5
330
1F
100
AcDbEntity
  8
SLD-0
  6
Continuous
370
    15
100
AcDbPolyline
 90
        9
 70
   128
 43
0.0
 10
85.6781137502
 20
6.9924141321
 10
85.6776555688
 20
6.9800062755
 10
85.6762997978
 20
6.9680753733
 10
85.6740986499
 20
6.9570801937
 10
85.6711354308
 20
6.9474419583
 10
85.6675251258
 20
6.9395326097
 10
85.6634061868
 20
6.9336554509
 10
85.6589364251
 20
6.9300363461
 10
85.6542889054
 20
6.9288143335
  0
LWPOLYLINE
  5
2F6
330
1F
100
AcDbEntity
  8
SLD-0
  6
Continuous
370
    15
100
AcDbPolyline
 90
        9
 70
   128
 43
0.0
 10
85.5383907243
 20
6.9288143335
 10
85.5430388306
 20
6.9300363461
 10
85.5475080056
 20
6.9336554509
 10
85.5516269447
 20
6.9395326097
 10
85.5552372497
 20
6.9474419583
 10
85.5582004688
 20
6.9570801937
 10
85.5604022033
 20
6.9680753733
 10
85.5617579743
 20
6.9800062755
 10
85.5622155691
 20
6.9924141321
  0
LINE
  5
2F7
330
1F
100
AcDbEntity
  8
SLD-0
  6
Continuous
370
    15
100
AcDbLine
 10
85.5383907243
 20
6.9288143335
 30
0.0
 11
85.6542889054
 21
6.9288143335
 31
0.0
  0
LWPOLYLINE
  5
2F8
330
1F
100
AcDbEntity
  8
SLD-0
  6
Continuous
370
    15
100
AcDbPolyline
 90
        9
 70
   128
 43
0.0
 10
85.5383907243
 20
6.9624141054
 10
85.5405830723
 20
6.962990792
 10
85.5426915279
 20
6.9646979723
 10
85.5446345455
 20
6.9674699403
 10
85.5463370325
 20
6.9712010972
 10
85.547735043
 20
6.9757471247
 10
85.548773431
 20
6.9809337848
 10
85.5494128903
 20
6.9865616131
 10
85.5496287811
 20
6.9924141321
  0
LINE
  5
2F9
330
1F
100
AcDbEntity
  8
SLD-0
  6
Continuous
370
    15
100
AcDbLine
 10
85.5383907243
 20
6.9288143335
 30
0.0
 11
85.5383907243
 21
6.9624141054
 31
0.0
  0
LINE
  5
2FA
330
1F
100
AcDbEntity
  8
SLD-0
  6
Continuous
370
    15
100
AcDbLine
 10
85.5383907243
 20
6.9288143335
 30
0.0
 11
85.5366160781
 21
6.9288143335
 31
0.0
  0
LINE
  5
2FB
330
1F
100
AcDbEntity
  8
SLD-0
  6
Continuous
370
    15
100
AcDbLine
 10
85.5366160781
 20
6.9624141054
 30
0.0
 11
85.5383907243
 21
6.9624141054
 31
0.0
  0
LINE
  5
2FC
330
1F
100
AcDbEntity
  8
SLD-0
  6
Continuous
370
    15
100
AcDbLine
 10
86.8068579375
 20
6.9288143335
 30
0.0
 11
86.8068579375
 21
6.9624141054
 31
0.0
  0
LINE
  5
2FD
330
1F
100
AcDbEntity
  8
SLD-0
  6
Continuous
370
    15
100
AcDbLine
 10
86.8068579375
 20
6.9288143335
 30
0.0
 11
85.6542889054
 21
6.9288143335
 31
0.0
  0
LINE
  5
2FE
330
1F
100
AcDbEntity
  8
SLD-0
  6
Continuous
370
    15
100
AcDbLine
 10
85.6752966094
 20
6.9624141054
 30
0.0
 11
86.8068579375
 21
6.9624141054
 31
0.0
  0
ARC
  5
2FF
330
1F
100
AcDbEntity
  8
SLD-0
  6
Continuous
370
    15
100
AcDbCircle
 10
86.1808617131
 20
23.974639871
 30
0.0
 40
0.3620371962270608
100
AcDbArc
 50
357.8668624948
 51
86.7721025837
  0
ARC
  5
300
330
1F
100
AcDbEntity
  8
SLD-0
  6
Continuous
370
    15
100
AcDbCircle
 10
86.1808617131
 20
23.947688611
 30
0.0
 40
0.3620371962270609
100
AcDbArc
 50
273.2278974163
 51
2.1331375052
  0
LWPOLYLINE
  5
301
330
1F
100
AcDbEntity
  8
SLD-0
  6
Continuous
370
    15
100
AcDbPolyline
 90
        9
 70
   128
 43
0.0
 10
86.8086325837
 20
6.9624141054
 10
86.8108249317
 20
6.962990792
 10
86.8129333873
 20
6.9646979723
 10
86.8148764049
 20
6.9674699403
 10
86.8165788919
 20
6.9712010972
 10
86.8179769024
 20
6.9757471247
 10
86.8190152904
 20
6.9809337848
 10
86.8196547497
 20
6.9865616131
 10
86.8198706405
 20
6.9924141321
  0
LINE
  5
302
330
1F
100
AcDbEntity
  8
SLD-0
  6
Continuous
370
    15
100
AcDbLine
 10
86.8324574285
 20
6.9924141321
 30
0.0
 11
86.8198706405
 21
6.9924141321
 31
0.0
  0
LWPOLYLINE
  5
303
330
1F
100
AcDbEntity
  8
SLD-0
  6
Continuous
370
    15
100
AcDbPolyline
 90
        9
 70
   128
 43
0.0
 10
86.8086325837
 20
6.9288143335
 10
86.81328069
 20
6.9300363461
 10
86.817749865
 20
6.9336554509
 10
86.8218688041
 20
6.9395326097
 10
86.8254791091
 20
6.9474419583
 10
86.8284423282
 20
6.9570801937
 10
86.8306440627
 20
6.9680753733
 10
86.8319998337
 20
6.9800062755
 10
86.8324574285
 20
6.9924141321
  0
LINE
  5
304
330
1F
100
AcDbEntity
  8
SLD-0
  6
Continuous
370
    15
100
AcDbLine
 10
86.8086325837
 20
6.9288143335
 30
0.0
 11
86.8086325837
 21
6.9624141054
 31
0.0
  0
LINE
  5
305
330
1F
100
AcDbEntity
  8
SLD-0
  6
Continuous
370
    15
100
AcDbLine
 10
86.8198706405
 20
6.9924141321
 30
0.0
 11
86.8198706405
 21
7.0081641902
 31
0.0
  0
LWPOLYLINE
  5
306
330
1F
100
AcDbEntity
  8
SLD-0
  6
Continuous
370
    15
100
AcDbPolyline
 90
        9
 70
   128
 43
0.0
 10
86.9483556096
 20
6.9924141321
 10
86.9478974282
 20
6.9800062755
 10
86.9465416572
 20
6.9680753733
 10
86.9443405093
 20
6.9570801937
 10
86.9413772902
 20
6.9474419583
 10
86.9377669852
 20
6.9395326097
 10
86.9336480462
 20
6.9336554509
 10
86.9291782845
 20
6.9300363461
 10
86.9245307648
 20
6.9288143335
  0
LINE
  5
307
330
1F
100
AcDbEntity
  8
SLD-0
  6
Continuous
370
    15
100
AcDbLine
 10
86.8086325837
 20
6.9288143335
 30
0.0
 11
86.9245307648
 21
6.9288143335
 31
0.0
  0
LINE
  5
308
330
1F
100
AcDbEntity
  8
SLD-0
  6
Continuous
370
    15
100
AcDbLine
 10
86.8086325837
 20
6.9288143335
 30
0.0
 11
86.8068579375
 21
6.9288143335
 31
0.0
  0
LINE
  5
309
330
1F
100
AcDbEntity
  8
SLD-0
  6
Continuous
370
    15
100
AcDbLine
 10
86.8068579375
 20
6.9624141054
 30
0.0
 11
86.8086325837
 21
6.9624141054
 31
0.0
  0
LINE
  5
30A
330
1F
100
AcDbEntity
  8
SLD-0
  6
Continuous
370
    15
100
AcDbLine
 10
87.0229241882
 20
4.929913905
 30
0.0
 11
87.0229241882
 21
6.9924141321
 31
0.0
  0
LWPOLYLINE
  5
30B
330
1F
100
AcDbEntity
  8
SLD-0
  6
Continuous
370
    15
100
AcDbPolyline
 90
       37
 70
   128
 43
0.0
 10
89.4536174419
 20
5.9611640186
 10
89.4526682262
 20
6.0071030079
 10
89.4498229258
 20
6.0529510649
 10
89.4450862338
 20
6.098616084
 10
89.4384687103
 20
6.144008893
 10
89.4299820883
 20
6.1890385595
 10
89.4196439677
 20
6.2336159112
 10
89.4074754683
 20
6.2776517758
 10
89.3935012297
 20
6.3210599143
 10
89.3777458917
 20
6.3637529145
 10
89.3602446539
 20
6.4056468839
 10
89.3410291959
 20
6.4466585168
 10
89.3201394105
 20
6.4867062675
 10
89.2976163641
 20
6.5257103502
 10
89.2735046426
 20
6.5635939126
 10
89.2478511789
 20
6.6002812754
 10
89.2207087725
 20
6.6356996929
 10
89.192131396
 20
6.6697787659
 10
89.162173022
 20
6.7024510285
 10
89.1308958367
 20
6.7336513614
 10
89.0983608525
 20
6.7633181653
 10
89.0646326022
 20
6.7913927744
 10
89.0297791381
 20
6.8178182824
 10
88.9938679263
 20
6.8425436501
 10
88.9569717125
 20
6.8655190114
 10
88.919162656
 20
6.8866986067
 10
88.8805164358
 20
6.9060407833
 10
88.8411099043
 20
6.9235068215
 10
88.8010210874
 20
6.9390621085
 10
88.7603297708
 20
6.9526761379
 10
88.7191163269
 20
6.9643213367
 10
88.6774623015
 20
6.9739754118
 10
88.6354515868
 20
6.9816184169
 10
88.5931663153
 20
6.9872350986
 10
88.5506915526
 20
6.9908148973
 10
88.5081111912
 20
6.9923501862
 10
88.5037523082
 20
6.9923918391
  0
LWPOLYLINE
  5
30C
330
1F
100
AcDbEntity
  8
SLD-0
  6
Continuous
370
    15
100
AcDbPolyline
 90
       37
 70
   128
 43
0.0
 10
88.5037528948
 20
4.9299367847
 10
88.5081111912
 20
4.9299784376
 10
88.5506915526
 20
4.9315137265
 10
88.5931663153
 20
4.9350935252
 10
88.6354515868
 20
4.9407102069
 10
88.6774623015
 20
4.948353212
 10
88.7191163269
 20
4.9580067005
 10
88.7603297708
 20
4.9696524859
 10
88.8010210874
 20
4.9832659287
 10
88.8411099043
 20
4.9988218023
 10
88.8805164358
 20
5.0162878405
 10
88.919162656
 20
5.0356300171
 10
88.9569717125
 20
5.0568096124
 10
88.9938679263
 20
5.0797849737
 10
89.0297791381
 20
5.1045097547
 10
89.0646326022
 20
5.1309358494
 10
89.0983608525
 20
5.1590098718
 10
89.1308958367
 20
5.1886766757
 10
89.162173022
 20
5.2198770086
 10
89.192131396
 20
5.2525492712
 10
89.2207087725
 20
5.2866289309
 10
89.2478511789
 20
5.3220473484
 10
89.2735046426
 20
5.3587341246
 10
89.2976163641
 20
5.3966176869
 10
89.3201394105
 20
5.4356217697
 10
89.3410291959
 20
5.4756695204
 10
89.3602446539
 20
5.5166811533
 10
89.3777458917
 20
5.5585751226
 10
89.3935012297
 20
5.6012687094
 10
89.4074754683
 20
5.6446762613
 10
89.4196439677
 20
5.6887127126
 10
89.4299820883
 20
5.7332900643
 10
89.4384687103
 20
5.7783191441
 10
89.4450862338
 20
5.8237119531
 10
89.4498229258
 20
5.8693775589
 10
89.4526682262
 20
5.9152250293
 10
89.4536174419
 20
5.9611640186
  0
LINE
  5
30D
330
1F
100
AcDbEntity
  8
SLD-0
  6
Continuous
370
    15
100
AcDbLine
 10
94.095308034
 20
24.9611641556
 30
0.0
 11
94.095308034
 21
3.9611641894
 31
0.0
  0
LINE
  5
30E
330
1F
100
AcDbEntity
  8
SLD-0
  6
Continuous
370
    15
100
AcDbLine
 10
94.0555324935
 20
3.9611641894
 30
0.0
 11
94.095308034
 21
3.9611641894
 31
0.0
  0
LINE
  5
30F
330
1F
100
AcDbEntity
  8
SLD-0
  6
Continuous
370
    15
100
AcDbLine
 10
94.0555324935
 20
24.9611641556
 30
0.0
 11
94.095308034
 21
24.9611641556
 31
0.0
  0
LINE
  5
310
330
1F
100
AcDbEntity
  8
SLD-0
  6
Continuous
370
    15
100
AcDbLine
 10
79.1129709084
 20
7.1565639159
 30
0.0
 11
79.1129709084
 21
7.1253143035
 31
0.0
  0
LINE
  5
311
330
1F
100
AcDbEntity
  8
SLD-0
  6
Continuous
370
    15
100
AcDbLine
 10
79.1309459107
 20
3.9611641894
 30
0.0
 11
79.1077077121
 21
3.9611641894
 31
0.0
  0
LINE
  5
312
330
1F
100
AcDbEntity
  8
SLD-0
  6
Continuous
370
    15
100
AcDbLine
 10
79.1077077121
 20
4.4681638792
 30
0.0
 11
79.1309459107
 21
4.4681638792
 31
0.0
  0
DIMENSION
  5
313
330
1F
100
AcDbEntity
  8
DIM
100
AcDbDimension
  2
_D_8
 10
75.8225226295
 20
26.6437641725
 30
0.0
 11
75.8225226295
 21
28.492380535
 31
0.0
 70
   160
  1
<>
 71
     2
 42
-1.0
  3
SLDDIMSTYLE1
100
AcDbAlignedDimension
 13
79.1653077121
 23
25.0187641725
 33
0.0
 14
79.1353077121
 24
26.6437641725
 34
0.0
 50
90.0
100
AcDbRotatedDimension
  0
DIMENSION
  5
323
330
1F
100
AcDbEntity
  8
DIM
100
AcDbDimension
  2
_D_9
 10
94.1229077121
 20
29.1437641725
 30
0.0
 11
86.6153077121
 21
29.1437641725
 31
0.0
 70
   160
  1
<>
 71
     2
 42
-1.0
  3
SLDDIMSTYLE0
100
AcDbAlignedDimension
 13
79.1077077121
 23
26.6437641725
 33
0.0
 14
94.1229077121
 24
24.9611641725
 34
0.0
 50
0.0
100
AcDbRotatedDimension
  0
DIMENSION
  5
32E
330
1F
100
AcDbEntity
  8
DIM
100
AcDbDimension
  2
_D_10
 10
97.5123448074
 20
3.9035641725
 30
0.0
 11
97.5123448074
 21
14.9262437741
 31
0.0
 70
   160
  1
<>
 71
     2
 42
-1.0
  3
SLDDIMSTYLE0
100
AcDbAlignedDimension
 13
94.0653077121
 23
25.0187641725
 33
0.0
 14
94.0653077121
 24
3.9035641725
 34
0.0
 50
90.0
100
AcDbRotatedDimension
  0
LINE
  5
33D
330
1F
100
AcDbEntity
  8
SLD-0
  6
Continuous
370
    15
100
AcDbLine
 10
18.1592241265
 20
7.1797663145
 30
0.0
 11
18.1232241183
 21
7.1797663145
 31
0.0
  0
LINE
  5
33E
330
1F
100
AcDbEntity
  8
SLD-0
  6
Continuous
370
    15
100
AcDbLine
 10
18.1592241265
 20
7.8221418804
 30
0.0
 11
18.1592241265
 21
7.1797663145
 31
0.0
  0
LINE
  5
33F
330
1F
100
AcDbEntity
  8
SLD-0
  6
Continuous
370
    15
100
AcDbLine
 10
18.1232241183
 20
7.1797663145
 30
0.0
 11
18.1232241183
 21
7.8221418804
 31
0.0
  0
LINE
  5
340
330
1F
100
AcDbEntity
  8
SLD-0
  6
Continuous
370
    15
100
AcDbLine
 10
18.1592241265
 20
7.8221418804
 30
0.0
 11
18.1232241183
 21
7.8221418804
 31
0.0
  0
LINE
  5
341
330
1F
100
AcDbEntity
  8
SLD-0
  6
Continuous
370
    15
100
AcDbLine
 10
18.1592241265
 20
7.1769392005
 30
0.0
 11
18.1232241183
 21
7.1769392005
 31
0.0
  0
LINE
  5
342
330
1F
100
AcDbEntity
  8
SLD-0
  6
Continuous
370
    15
100
AcDbLine
 10
18.1592241265
 20
7.1797663145
 30
0.0
 11
18.1592241265
 21
7.1769392005
 31
0.0
  0
ARC
  5
343
330
1F
100
AcDbEntity
  8
SLD-0
  6
Continuous
370
    15
100
AcDbCircle
 10
18.1075991227
 20
7.1769391725
 30
0.0
 40
0.0516250000000005
100
AcDbArc
 50
270.0
 51
360.0
  0
LINE
  5
344
330
1F
100
AcDbEntity
  8
SLD-0
  6
Continuous
370
    15
100
AcDbLine
 10
18.1075991242
 20
7.1253143035
 30
0.0
 11
18.0896241218
 21
7.1253143035
 31
0.0
  0
SPLINE
  5
345
330
1F
100
AcDbEntity
  8
SLD-0
  6
Continuous
370
    15
100
AcDbSpline
210
0.0
220
0.0
230
1.0
 70
     8
 71
     3
 72
    11
 73
     7
 74
     0
 42
0.00000001
 43
0.00000001
 12
1.0
 22
0.0
 32
0.0
 13
1.0
 23
0.0
 33
0.0
 40
0.0
 40
0.0
 40
0.0
 40
0.0
 40
0.0651617716653897
 40
0.3767751076687808
 40
0.6883873911481875
 40
1.0
 40
1.0
 40
1.0
 40
1.0
 10
18.12322411825133
 20
7.870658653252666
 30
0.0
 10
18.12461474125156
 20
7.870425183770805
 30
0.0
 10
18.13265553138431
 20
7.869075228315058
 30
0.0
 10
18.1448523922776
 20
7.859186926825441
 30
0.0
 10
18.15692247668333
 20
7.84251426986062
 30
0.0
 10
18.15845690965596
 20
7.828932679243248
 30
0.0
 10
18.15922412654282
 20
7.822141880389233
 30
0.0
  0
LINE
  5
346
330
1F
100
AcDbEntity
  8
SLD-0
  6
Continuous
370
    15
100
AcDbLine
 10
18.0896241218
 20
22.6161643119
 30
0.0
 11
18.1232241183
 21
22.6161643119
 31
0.0
  0
LINE
  5
347
330
1F
100
AcDbEntity
  8
SLD-0
  6
Continuous
370
    15
100
AcDbLine
 10
18.1232241183
 20
23.2371643381
 30
0.0
 11
18.1232241183
 21
22.6161643119
 31
0.0
  0
LINE
  5
348
330
1F
100
AcDbEntity
  8
SLD-0
  6
Continuous
370
    15
100
AcDbLine
 10
18.0896241218
 20
23.2371643381
 30
0.0
 11
18.1232241183
 21
23.2371643381
 31
0.0
  0
LINE
  5
349
330
1F
100
AcDbEntity
  8
SLD-0
  6
Continuous
370
    15
100
AcDbLine
 10
18.1232241183
 20
23.2569641093
 30
0.0
 11
18.0896241218
 21
23.2569641093
 31
0.0
  0
LINE
  5
34A
330
1F
100
AcDbEntity
  8
SLD-0
  6
Continuous
370
    15
100
AcDbLine
 10
18.1232241183
 20
23.2569641093
 30
0.0
 11
18.1232241183
 21
23.2371643381
 31
0.0
  0
ARC
  5
34B
330
1F
100
AcDbEntity
  8
SLD-0
  6
Continuous
370
    15
100
AcDbCircle
 10
18.0686241227
 20
22.6161641725
 30
0.0
 40
0.0546000000000017
100
AcDbArc
 50
292.6198649483
 51
0.0
  0
SPLINE
  5
34C
330
1F
100
AcDbEntity
  8
SLD-0
  6
Continuous
370
    15
100
AcDbSpline
210
0.0
220
0.0
230
1.0
 70
     8
 71
     3
 72
    13
 73
     9
 74
     0
 42
0.00000001
 43
0.00000001
 12
1.0
 22
0.0
 32
0.0
 13
1.0
 23
0.0
 33
0.0
 40
0.0
 40
0.0
 40
0.0
 40
0.0
 40
0.1669737777464627
 40
0.3339543359686099
 40
0.5009390222825798
 40
0.6679102283103914
 40
0.8348902886567048
 40
0.9999999999999999
 40
0.9999999999999999
 40
0.9999999999999999
 40
0.9999999999999999
 10
18.12322411825133
 20
23.25696410933907
 30
0.0
 10
18.12302096796686
 20
23.26053785389713
 30
0.0
 10
18.12261465914839
 20
23.26768548813595
 30
0.0
 10
18.11936701289001
 20
23.27799157693932
 30
0.0
 10
18.11432480950204
 20
23.28750018701893
 30
0.0
 10
18.107468881809
 20
23.29579741642795
 30
0.0
 10
18.09922274386276
 20
23.30271811012184
 30
0.0
 10
18.09281162657051
 20
23.3058130073147
 30
0.0
 10
18.08962412181802
 20
23.30735174059019
 30
0.0
  0
LINE
  5
34D
330
1F
100
AcDbEntity
  8
SLD-0
  6
Continuous
370
    15
100
AcDbLine
 10
18.1232241183
 20
7.1565639159
 30
0.0
 11
18.0896241218
 21
7.1565639159
 31
0.0
  0
LINE
  5
34E
330
1F
100
AcDbEntity
  8
SLD-0
  6
Continuous
370
    15
100
AcDbLine
 10
18.1232241183
 20
8.4450180449
 30
0.0
 11
18.0896241218
 21
8.4450180449
 31
0.0
  0
LINE
  5
34F
330
1F
100
AcDbEntity
  8
SLD-0
  6
Continuous
370
    15
100
AcDbLine
 10
18.1232241183
 20
8.4450180449
 30
0.0
 11
18.1232241183
 21
7.8221418804
 31
0.0
  0
LINE
  5
350
330
1F
100
AcDbEntity
  8
SLD-0
  6
Continuous
370
    15
100
AcDbLine
 10
18.1232241183
 20
7.1797663145
 30
0.0
 11
18.1232241183
 21
7.1565639159
 31
0.0
  0
LINE
  5
351
330
1F
100
AcDbEntity
  8
SLD-0
  6
Continuous
370
    15
100
AcDbLine
 10
18.0896241218
 20
9.9611642636
 30
0.0
 11
18.0896241218
 21
9.9450179167
 31
0.0
  0
LINE
  5
352
330
1F
100
AcDbEntity
  8
SLD-0
  6
Continuous
370
    15
100
AcDbLine
 10
18.1232241183
 20
9.9450179167
 30
0.0
 11
18.0896241218
 21
9.9450179167
 31
0.0
  0
LINE
  5
353
330
1F
100
AcDbEntity
  8
SLD-0
  6
Continuous
370
    15
100
AcDbLine
 10
18.1232241183
 20
22.5315644359
 30
0.0
 11
18.0896241218
 21
22.5315644359
 31
0.0
  0
LINE
  5
354
330
1F
100
AcDbEntity
  8
SLD-0
  6
Continuous
370
    15
100
AcDbLine
 10
18.1232241183
 20
22.5315644359
 30
0.0
 11
18.1232241183
 21
9.9450179167
 31
0.0
  0
LINE
  5
355
330
1F
100
AcDbEntity
  8
SLD-0
  6
Continuous
370
    15
100
AcDbLine
 10
18.1232241183
 20
9.9450179167
 30
0.0
 11
18.1232241183
 21
8.4450180449
 31
0.0
  0
LINE
  5
356
330
1F
100
AcDbEntity
  8
SLD-0
  6
Continuous
370
    15
100
AcDbLine
 10
18.0852623193
 20
26.2687645168
 30
0.0
 11
18.1128623205
 21
26.2687645168
 31
0.0
  0
LINE
  5
357
330
1F
100
AcDbEntity
  8
SLD-0
  6
Continuous
370
    15
100
AcDbLine
 10
18.1128623205
 20
25.0487642103
 30
0.0
 11
18.1128623205
 21
26.2687645168
 31
0.0
  0
LINE
  5
358
330
1F
100
AcDbEntity
  8
SLD-0
  6
Continuous
370
    15
100
AcDbLine
 10
18.1128623205
 20
25.0487642103
 30
0.0
 11
18.0852623193
 21
25.0487642103
 31
0.0
  0
LINE
  5
359
330
1F
100
AcDbEntity
  8
SLD-0
  6
Continuous
370
    15
100
AcDbLine
 10
18.0852623193
 20
26.2687645168
 30
0.0
 11
18.0852623193
 21
25.0487642103
 31
0.0
  0
LINE
  5
35A
330
1F
100
AcDbEntity
  8
SLD-0
  6
Continuous
370
    15
100
AcDbLine
 10
18.0852623193
 20
26.6437645581
 30
0.0
 11
18.1128623205
 21
26.6437645581
 31
0.0
  0
LINE
  5
35B
330
1F
100
AcDbEntity
  8
SLD-0
  6
Continuous
370
    15
100
AcDbLine
 10
18.1128623205
 20
26.6437645581
 30
0.0
 11
18.1128623205
 21
26.2687645168
 31
0.0
  0
LINE
  5
35C
330
1F
100
AcDbEntity
  8
SLD-0
  6
Continuous
370
    15
100
AcDbLine
 10
18.0852623193
 20
26.6437645581
 30
0.0
 11
18.0852623193
 21
26.2687645168
 31
0.0
  0
SPLINE
  5
35D
330
1F
100
AcDbEntity
  8
SLD-0
  6
Continuous
370
    15
100
AcDbSpline
210
0.0
220
0.0
230
1.0
 70
     8
 71
     3
 72
    14
 73
    10
 74
     0
 42
0.00000001
 43
0.00000001
 12
1.0
 22
0.0
 32
0.0
 13
1.0
 23
0.0
 33
0.0
 40
0.0
 40
0.0
 40
0.0
 40
0.0
 40
0.1503095233419077
 40
0.3146785651852188
 40
0.4931538980197699
 40
0.6282603773941383
 40
0.7577063218242089
 40
0.881580242588503
 40
1.0
 40
1.0
 40
1.0
 40
1.0
 10
3.387057800868774
 20
25.01876359688106
 30
0.0
 10
3.392024908524453
 20
25.01843713222043
 30
0.0
 10
3.402423732733709
 20
25.01775366633814
 30
0.0
 10
3.419597771868953
 20
25.01225579595812
 30
0.0
 10
3.437277322977919
 20
25.00427624661825
 30
0.0
 10
3.454322741906962
 20
24.99462515379081
 30
0.0
 10
3.469535854384753
 20
24.98434624072589
 30
0.0
 10
3.484500254067958
 20
24.97317022349741
 30
0.0
 10
3.494686396586259
 20
24.9651056657007
 30
0.0
 10
3.499664820022882
 20
24.96116415560805
 30
0.0
  0
LINE
  5
35E
330
1F
100
AcDbEntity
  8
SLD-0
  6
Continuous
370
    15
100
AcDbLine
 10
3.3870578009
 20
25.0187635969
 30
0.0
 11
17.8442623267
 21
25.0187635969
 31
0.0
  0
SPLINE
  5
35F
330
1F
100
AcDbEntity
  8
SLD-0
  6
Continuous
370
    15
100
AcDbSpline
210
0.0
220
0.0
230
1.0
 70
     8
 71
     3
 72
    14
 73
    10
 74
     0
 42
0.00000001
 43
0.00000001
 12
1.0
 22
0.0
 32
0.0
 13
1.0
 23
0.0
 33
0.0
 40
0.0
 40
0.0
 40
0.0
 40
0.0
 40
0.1503709771778322
 40
0.3148963760718635
 40
0.4936251039114294
 40
0.6288447554834415
 40
0.7582504719167028
 40
0.8819341534602038
 40
1.0
 40
1.0
 40
1.0
 40
1.0
 10
17.68171009115904
 20
24.96116415560805
 30
0.0
 10
17.68886606401945
 20
24.96576529484638
 30
0.0
 10
17.70385160154341
 20
24.97540067860956
 30
0.0
 10
17.72933075524119
 20
24.9890416532936
 30
0.0
 10
17.75526171375293
 20
25.00015678442178
 30
0.0
 10
17.78007423747934
 20
25.00854312394542
 30
0.0
 10
17.80216538161323
 20
25.01429252410172
 30
0.0
 10
17.82353425062621
 20
25.01802674273916
 30
0.0
 10
17.83746084453048
 20
25.01852181369397
 30
0.0
 10
17.84426232667508
 20
25.01876359688105
 30
0.0
  0
LINE
  5
360
330
1F
100
AcDbEntity
  8
SLD-0
  6
Continuous
370
    15
100
AcDbLine
 10
3.49966482
 20
24.9611641556
 30
0.0
 11
17.6817100912
 21
24.9611641556
 31
0.0
  0
LINE
  5
361
330
1F
100
AcDbEntity
  8
SLD-0
  6
Continuous
370
    15
100
AcDbLine
 10
17.6920492384
 20
24.9611641556
 30
0.0
 11
17.6817100912
 21
24.9611641556
 31
0.0
  0
LINE
  5
362
330
1F
100
AcDbEntity
  8
SLD-0
  6
Continuous
370
    15
100
AcDbLine
 10
17.8442623267
 20
24.9911635957
 30
0.0
 11
17.8442623267
 21
25.0187635969
 31
0.0
  0
SPLINE
  5
363
330
1F
100
AcDbEntity
  8
SLD-0
  6
Continuous
370
    15
100
AcDbSpline
210
0.0
220
0.0
230
1.0
 70
     8
 71
     3
 72
    11
 73
     7
 74
     0
 42
0.00000001
 43
0.00000001
 12
1.0
 22
0.0
 32
0.0
 13
1.0
 23
0.0
 33
0.0
 40
0.0
 40
0.0
 40
0.0
 40
0.0
 40
0.2309783899669018
 40
0.4965310836499958
 40
0.7624889590744914
 40
1.0
 40
1.0
 40
1.0
 40
1.0
 10
17.692049238387
 20
24.96116415560805
 30
0.0
 10
17.70304612230674
 20
24.96483916089348
 30
0.0
 10
17.72668597316131
 20
24.97273926945801
 30
0.0
 10
17.7651582769952
 20
24.98215297295782
 30
0.0
 10
17.80498153005286
 20
24.98945649296837
 30
0.0
 10
17.83167140191049
 20
24.99061640716488
 30
0.0
 10
17.84426232667508
 20
24.99116359571862
 30
0.0
  0
SPLINE
  5
364
330
1F
100
AcDbEntity
  8
SLD-0
  6
Continuous
370
    15
100
AcDbSpline
210
0.0
220
0.0
230
1.0
 70
     8
 71
     3
 72
    11
 73
     7
 74
     0
 42
0.00000001
 43
0.00000001
 12
1.0
 22
0.0
 32
0.0
 13
1.0
 23
0.0
 33
0.0
 40
0.0
 40
0.0
 40
0.0
 40
0.0
 40
0.2741965327905685
 40
0.589420729439322
 40
0.905324351887744
 40
1.0
 40
1.0
 40
1.0
 40
1.0
 10
3.387057800868776
 20
24.99116359571862
 30
0.0
 10
3.395992559373773
 20
24.99075751106362
 30
0.0
 10
3.415198972459244
 20
24.9898845798448
 30
0.0
 10
3.446058109939044
 20
24.98335814462256
 30
0.0
 10
3.471245926023878
 20
24.97632076396557
 30
0.0
 10
3.486165612683362
 20
24.97041816139217
 30
0.0
 10
3.489605949557145
 20
24.96905707776167
 30
0.0
  0
LINE
  5
365
330
1F
100
AcDbEntity
  8
SLD-0
  6
Continuous
370
    15
100
AcDbLine
 10
18.05526232
 20
25.0187635969
 30
0.0
 11
18.05526232
 21
24.9911635957
 31
0.0
  0
LINE
  5
366
330
1F
100
AcDbEntity
  8
SLD-0
  6
Continuous
370
    15
100
AcDbLine
 10
18.05526232
 20
24.9911635957
 30
0.0
 11
17.8442623267
 21
24.9911635957
 31
0.0
  0
LINE
  5
367
330
1F
100
AcDbEntity
  8
SLD-0
  6
Continuous
370
    15
100
AcDbLine
 10
18.05526232
 20
25.0187635969
 30
0.0
 11
17.8442623267
 21
25.0187635969
 31
0.0
  0
ARC
  5
368
330
1F
100
AcDbEntity
  8
SLD-0
  6
Continuous
370
    15
100
AcDbCircle
 10
18.0552623205
 20
25.0487641725
 30
0.0
 40
0.0300000000000011
100
AcDbArc
 50
270.0
 51
0.0
  0
ARC
  5
369
330
1F
100
AcDbEntity
  8
SLD-0
  6
Continuous
370
    15
100
AcDbCircle
 10
18.0552623205
 20
25.0487641725
 30
0.0
 40
0.0576000000000043
100
AcDbArc
 50
270.0
 51
0.0
  0
LINE
  5
36A
330
1F
100
AcDbEntity
  8
SLD-0
  6
Continuous
370
    15
100
AcDbLine
 10
17.6817100912
 20
24.9611641556
 30
0.0
 11
16.6031255811
 21
24.4911639318
 31
0.0
  0
LINE
  5
36B
330
1F
100
AcDbEntity
  8
SLD-0
  6
Continuous
370
    15
100
AcDbLine
 10
4.5262891204
 20
24.4911639318
 30
0.0
 11
16.6031255811
 21
24.4911639318
 31
0.0
  0
LINE
  5
36C
330
1F
100
AcDbEntity
  8
SLD-0
  6
Continuous
370
    15
100
AcDbLine
 10
4.5262891204
 20
24.4911639318
 30
0.0
 11
3.49966482
 21
24.9611641556
 31
0.0
  0
LINE
  5
36D
330
1F
100
AcDbEntity
  8
SLD-0
  6
Continuous
370
    15
100
AcDbLine
 10
16.6134647283
 20
24.4911639318
 30
0.0
 11
16.6031255811
 21
24.4911639318
 31
0.0
  0
LINE
  5
36E
330
1F
100
AcDbEntity
  8
SLD-0
  6
Continuous
370
    15
100
AcDbLine
 10
17.6920492384
 20
24.9611641556
 30
0.0
 11
16.6134647283
 21
24.4911639318
 31
0.0
  0
LINE
  5
36F
330
1F
100
AcDbEntity
  8
SLD-0
  6
Continuous
370
    15
100
AcDbLine
 10
3.3870578009
 20
24.9911635957
 30
0.0
 11
3.3870578009
 21
25.0187635969
 31
0.0
  0
LINE
  5
370
330
1F
100
AcDbEntity
  8
SLD-0
  6
Continuous
370
    15
100
AcDbLine
 10
3.1552626119
 20
24.9911635957
 30
0.0
 11
3.1552626119
 21
25.0187635969
 31
0.0
  0
LINE
  5
371
330
1F
100
AcDbEntity
  8
SLD-0
  6
Continuous
370
    15
100
AcDbLine
 10
3.1552626119
 20
24.9911635957
 30
0.0
 11
3.3870578009
 21
24.9911635957
 31
0.0
  0
LINE
  5
372
330
1F
100
AcDbEntity
  8
SLD-0
  6
Continuous
370
    15
100
AcDbLine
 10
3.1552626119
 20
25.0187635969
 30
0.0
 11
3.3870578009
 21
25.0187635969
 31
0.0
  0
SPLINE
  5
373
330
1F
100
AcDbEntity
  8
SLD-0
  6
Continuous
370
    15
100
AcDbSpline
210
0.0
220
0.0
230
1.0
 70
     8
 71
     3
 72
    15
 73
    11
 74
     0
 42
0.00000001
 43
0.00000001
 12
1.0
 22
0.0
 32
0.0
 13
1.0
 23
0.0
 33
0.0
 40
0.0
 40
0.0
 40
0.0
 40
0.0
 40
0.1249976080453662
 40
0.2500020840979618
 40
0.3750012947428636
 40
0.499998755586148
 40
0.6249992364600095
 40
0.7499984471049115
 40
0.8749944239200326
 40
1.0
 40
1.0
 40
1.0
 40
1.0
 10
3.097661997327125
 20
24.96116415560805
 30
0.0
 10
3.097876843472387
 20
24.96493386204978
 30
0.0
 10
3.098306547567652
 20
24.97247348206018
 30
0.0
 10
3.101729692271149
 20
24.98334942033849
 30
0.0
 10
3.107054451339104
 20
24.99337184776879
 30
0.0
 10
3.114272551967425
 20
25.00215448704665
 30
0.0
 10
3.123054702943923
 20
25.00937222020786
 30
0.0
 10
3.133077327208243
 20
25.01469682972969
 30
0.0
 10
3.143952321293961
 20
25.01812071154916
 30
0.0
 10
3.15149241853934
 20
25.01854929628499
 30
0.0
 10
3.155262611919912
 20
25.01876359688105
 30
0.0
  0
LINE
  5
374
330
1F
100
AcDbEntity
  8
SLD-0
  6
Continuous
370
    15
100
AcDbLine
 10
3.1252619985
 20
24.9611641556
 30
0.0
 11
3.0976619973
 21
24.9611641556
 31
0.0
  0
SPLINE
  5
375
330
1F
100
AcDbEntity
  8
SLD-0
  6
Continuous
370
    15
100
AcDbSpline
210
0.0
220
0.0
230
1.0
 70
     8
 71
     3
 72
    11
 73
     7
 74
     0
 42
0.00000001
 43
0.00000001
 12
1.0
 22
0.0
 32
0.0
 13
1.0
 23
0.0
 33
0.0
 40
0.0
 40
0.0
 40
0.0
 40
0.0
 40
0.2500026875458091
 40
0.4999978779155401
 40
0.7499991090792273
 40
1.0
 40
1.0
 40
1.0
 40
1.0
 10
3.125261998489558
 20
24.96116415560805
 30
0.0
 10
3.125713344736903
 20
24.96509540335507
 30
0.0
 10
3.126616023696454
 20
24.97295778095735
 30
0.0
 10
3.133552385133223
 20
24.98287457873395
 30
0.0
 10
3.143468778909512
 20
24.98981094020652
 30
0.0
 10
3.151331336033225
 20
24.99071271075247
 30
0.0
 10
3.155262611919912
 20
24.99116359571862
 30
0.0
  0
LINE
  5
376
330
1F
100
AcDbEntity
  8
SLD-0
  6
Continuous
370
    15
100
AcDbLine
 10
3.1252619985
 20
24.4911639318
 30
0.0
 11
3.0976619973
 21
24.4911639318
 31
0.0
  0
LINE
  5
377
330
1F
100
AcDbEntity
  8
SLD-0
  6
Continuous
370
    15
100
AcDbLine
 10
3.0976619973
 20
24.9611641556
 30
0.0
 11
3.0976619973
 21
24.4911639318
 31
0.0
  0
SPLINE
  5
378
330
1F
100
AcDbEntity
  8
SLD-0
  6
Continuous
370
    15
100
AcDbSpline
210
0.0
220
0.0
230
1.0
 70
     8
 71
     3
 72
    15
 73
    11
 74
     0
 42
0.00000001
 43
0.00000001
 12
1.0
 22
0.0
 32
0.0
 13
1.0
 23
0.0
 33
0.0
 40
0.0
 40
0.0
 40
0.0
 40
0.0
 40
0.1250007128094275
 40
0.2499986993571641
 40
0.3749997256289511
 40
0.5000002192933347
 40
0.6249990635159006
 40
0.7499968500711092
 40
0.8750005643201266
 40
1.0
 40
1.0
 40
1.0
 40
1.0
 10
3.387057800868776
 20
3.90356474812665
 30
0.0
 10
3.391236790884471
 20
3.903779065844219
 30
0.0
 10
3.399594679772214
 20
3.904207696605097
 30
0.0
 10
3.412293195234211
 20
3.90763152179606
 30
0.0
 10
3.425311330483298
 20
3.912956056881481
 30
0.0
 10
3.438795305687431
 20
3.920173935694165
 30
0.0
 10
3.452863296183442
 20
3.928956358455998
 30
0.0
 10
3.467643072397617
 20
3.938978959121555
 30
0.0
 10
3.483132361918265
 20
3.949854993181681
 30
0.0
 10
3.494154063530032
 20
3.957394500337525
 30
0.0
 10
3.499664820022879
 20
3.961164189399653
 30
0.0
  0
LINE
  5
379
330
1F
100
AcDbEntity
  8
SLD-0
  6
Continuous
370
    15
100
AcDbLine
 10
17.8927100845
 20
3.9611641894
 30
0.0
 11
3.49966482
 21
3.9611641894
 31
0.0
  0
SPLINE
  5
37A
330
1F
100
AcDbEntity
  8
SLD-0
  6
Continuous
370
    15
100
AcDbSpline
210
0.0
220
0.0
230
1.0
 70
     8
 71
     3
 72
    13
 73
     9
 74
     0
 42
0.00000001
 43
0.00000001
 12
1.0
 22
0.0
 32
0.0
 13
1.0
 23
0.0
 33
0.0
 40
0.0
 40
0.0
 40
0.0
 40
0.0
 40
0.159358877914479
 40
0.3213666670177068
 40
0.5293772458573601
 40
0.7433585960977149
 40
0.8710022412761489
 40
1.0
 40
1.0
 40
1.0
 40
1.0
 10
17.89271008450245
 20
3.961164189399656
 30
0.0
 10
17.90032849348743
 20
3.956358500759456
 30
0.0
 10
17.91569194694243
 20
3.946667241877387
 30
0.0
 10
17.94286699947779
 20
3.931712486192764
 30
0.0
 10
17.9744346938074
 20
3.917673886927777
 30
0.0
 10
18.00559277998495
 20
3.908648352672346
 30
0.0
 10
18.03279135655444
 20
3.904247736613643
 30
0.0
 10
18.04774569773488
 20
3.903793210359209
 30
0.0
 10
18.05526232001849
 20
3.90356474812665
 30
0.0
  0
LINE
  5
37B
330
1F
100
AcDbEntity
  8
SLD-0
  6
Continuous
370
    15
100
AcDbLine
 10
18.05526232
 20
3.9035647481
 30
0.0
 11
3.3870578009
 21
3.9035647481
 31
0.0
  0
SPLINE
  5
37C
330
1F
100
AcDbEntity
  8
SLD-0
  6
Continuous
370
    15
100
AcDbSpline
210
0.0
220
0.0
230
1.0
 70
     8
 71
     3
 72
    12
 73
     8
 74
     0
 42
0.00000001
 43
0.00000001
 12
1.0
 22
0.0
 32
0.0
 13
1.0
 23
0.0
 33
0.0
 40
0.0
 40
0.0
 40
0.0
 40
0.0
 40
0.1750954736686167
 40
0.3513399753207285
 40
0.6720647185047415
 40
0.8355628133442737
 40
1.0
 40
1.0
 40
1.0
 40
1.0
 10
17.90304922256384
 20
3.961164189399656
 30
0.0
 10
17.91135852287933
 20
3.958414949931639
 30
0.0
 10
17.92803165158223
 20
3.952898429677823
 30
0.0
 10
17.96125922238562
 20
3.943126732356015
 30
0.0
 10
17.99519728860376
 20
3.935750495021656
 30
0.0
 10
18.02923336295804
 20
3.931745648439145
 30
0.0
 10
18.04656945283467
 20
3.93135875165141
 30
0.0
 10
18.05526232001849
 20
3.931164749289081
 30
0.0
  0
LINE
  5
37D
330
1F
100
AcDbEntity
  8
SLD-0
  6
Continuous
370
    15
100
AcDbLine
 10
18.05526232
 20
3.9035647481
 30
0.0
 11
18.05526232
 21
3.9311647493
 31
0.0
  0
LINE
  5
37E
330
1F
100
AcDbEntity
  8
SLD-0
  6
Continuous
370
    15
100
AcDbLine
 10
17.8927100845
 20
3.9611641894
 30
0.0
 11
17.9030492226
 21
3.9611641894
 31
0.0
  0
SPLINE
  5
37F
330
1F
100
AcDbEntity
  8
SLD-0
  6
Continuous
370
    15
100
AcDbSpline
210
0.0
220
0.0
230
1.0
 70
     8
 71
     3
 72
    11
 73
     7
 74
     0
 42
0.00000001
 43
0.00000001
 12
1.0
 22
0.0
 32
0.0
 13
1.0
 23
0.0
 33
0.0
 40
0.0
 40
0.0
 40
0.0
 40
0.0
 40
0.2982529451323161
 40
0.5964987513047391
 40
0.8947423514777306
 40
1.0
 40
1.0
 40
1.0
 40
1.0
 10
3.387057800868776
 20
3.931164749289081
 30
0.0
 10
3.396763393428555
 20
3.931611933325564
 30
0.0
 10
3.416174346235783
 20
3.932506290694768
 30
0.0
 10
3.446066910708975
 20
3.939498015455045
 30
0.0
 10
3.470154922635676
 20
3.947111175549073
 30
0.0
 10
3.484982419336123
 20
3.952364374903071
 30
0.0
 10
3.488850331619439
 20
3.953734728558752
 30
0.0
  0
ARC
  5
380
330
1F
100
AcDbEntity
  8
SLD-0
  6
Continuous
370
    15
100
AcDbCircle
 10
18.0552623205
 20
3.9611641725
 30
0.0
 40
0.0300000000000047
100
AcDbArc
 50
270.0
 51
0.0000000001
  0
ARC
  5
381
330
1F
100
AcDbEntity
  8
SLD-0
  6
Continuous
370
    15
100
AcDbCircle
 10
18.0552623205
 20
3.9611641725
 30
0.0
 40
0.0576000000000008
100
AcDbArc
 50
270.0
 51
0.0
  0
LINE
  5
382
330
1F
100
AcDbEntity
  8
SLD-0
  6
Continuous
370
    15
100
AcDbLine
 10
18.1128623205
 20
4.4681638792
 30
0.0
 11
18.1128623205
 21
3.9611641894
 31
0.0
  0
ARC
  5
383
330
1F
100
AcDbEntity
  8
SLD-0
  6
Continuous
370
    15
100
AcDbCircle
 10
18.1148308244
 20
4.4681641725
 30
0.0
 40
0.0295685039370106
100
AcDbArc
 50
0.0
 51
148.4829731332
  0
LINE
  5
384
330
1F
100
AcDbEntity
  8
SLD-0
  6
Continuous
370
    15
100
AcDbLine
 10
18.1167993308
 20
4.4681638792
 30
0.0
 11
18.144399332
 21
4.4681638792
 31
0.0
  0
ARC
  5
385
330
1F
100
AcDbEntity
  8
SLD-0
  6
Continuous
370
    15
100
AcDbCircle
 10
18.1148308244
 20
4.4681641725
 30
0.0
 40
0.0019685039370074
100
AcDbArc
 50
0.0
 51
180.0
  0
LINE
  5
386
330
1F
100
AcDbEntity
  8
SLD-0
  6
Continuous
370
    15
100
AcDbLine
 10
18.1167993308
 20
4.0117330986
 30
0.0
 11
18.144399332
 21
4.0117330986
 31
0.0
  0
LINE
  5
387
330
1F
100
AcDbEntity
  8
SLD-0
  6
Continuous
370
    15
100
AcDbLine
 10
18.144399332
 20
4.0117330986
 30
0.0
 11
18.144399332
 21
4.4681638792
 31
0.0
  0
LINE
  5
388
330
1F
100
AcDbEntity
  8
SLD-0
  6
Continuous
370
    15
100
AcDbLine
 10
18.1167993308
 20
4.0117330986
 30
0.0
 11
18.1167993308
 21
4.4681638792
 31
0.0
  0
LINE
  5
389
330
1F
100
AcDbEntity
  8
SLD-0
  6
Continuous
370
    15
100
AcDbLine
 10
4.5262891204
 20
4.4311644133
 30
0.0
 11
3.49966482
 21
3.9611641894
 31
0.0
  0
LINE
  5
38A
330
1F
100
AcDbEntity
  8
SLD-0
  6
Continuous
370
    15
100
AcDbLine
 10
16.8141255836
 20
4.4311644133
 30
0.0
 11
4.5262891204
 21
4.4311644133
 31
0.0
  0
LINE
  5
38B
330
1F
100
AcDbEntity
  8
SLD-0
  6
Continuous
370
    15
100
AcDbLine
 10
17.8927100845
 20
3.9611641894
 30
0.0
 11
16.8141255836
 21
4.4311644133
 31
0.0
  0
LINE
  5
38C
330
1F
100
AcDbEntity
  8
SLD-0
  6
Continuous
370
    15
100
AcDbLine
 10
16.8141255836
 20
4.4311644133
 30
0.0
 11
16.8244647308
 21
4.4311644133
 31
0.0
  0
LINE
  5
38D
330
1F
100
AcDbEntity
  8
SLD-0
  6
Continuous
370
    15
100
AcDbLine
 10
17.9030492226
 20
3.9611641894
 30
0.0
 11
16.8244647308
 21
4.4311644133
 31
0.0
  0
LINE
  5
38E
330
1F
100
AcDbEntity
  8
SLD-0
  6
Continuous
370
    15
100
AcDbLine
 10
3.3870578009
 20
3.9311647493
 30
0.0
 11
3.3870578009
 21
3.9035647481
 31
0.0
  0
LINE
  5
38F
330
1F
100
AcDbEntity
  8
SLD-0
  6
Continuous
370
    15
100
AcDbLine
 10
3.1552626119
 20
3.9311647493
 30
0.0
 11
3.1552626119
 21
3.9035647481
 31
0.0
  0
LINE
  5
390
330
1F
100
AcDbEntity
  8
SLD-0
  6
Continuous
370
    15
100
AcDbLine
 10
3.1552626119
 20
3.9035647481
 30
0.0
 11
3.3870578009
 21
3.9035647481
 31
0.0
  0
LINE
  5
391
330
1F
100
AcDbEntity
  8
SLD-0
  6
Continuous
370
    15
100
AcDbLine
 10
3.1552626119
 20
3.9311647493
 30
0.0
 11
3.3870578009
 21
3.9311647493
 31
0.0
  0
LINE
  5
392
330
1F
100
AcDbEntity
  8
SLD-0
  6
Continuous
370
    15
100
AcDbLine
 10
3.1252619985
 20
3.9611641894
 30
0.0
 11
3.0976619973
 21
3.9611641894
 31
0.0
  0
SPLINE
  5
393
330
1F
100
AcDbEntity
  8
SLD-0
  6
Continuous
370
    15
100
AcDbSpline
210
0.0
220
0.0
230
1.0
 70
     8
 71
     3
 72
    11
 73
     7
 74
     0
 42
0.00000001
 43
0.00000001
 12
1.0
 22
0.0
 32
0.0
 13
1.0
 23
0.0
 33
0.0
 40
0.0
 40
0.0
 40
0.0
 40
0.0
 40
0.2500026875458091
 40
0.4999978779155401
 40
0.7499991090792273
 40
1.0
 40
1.0
 40
1.0
 40
1.0
 10
3.125261998489558
 20
3.961164189399656
 30
0.0
 10
3.125713344736903
 20
3.957232941652635
 30
0.0
 10
3.126616023696454
 20
3.949370564050354
 30
0.0
 10
3.133552385133223
 20
3.939453766273751
 30
0.0
 10
3.143468778909512
 20
3.932517404801182
 30
0.0
 10
3.151331336033225
 20
3.931615634255236
 30
0.0
 10
3.155262611919912
 20
3.931164749289081
 30
0.0
  0
SPLINE
  5
394
330
1F
100
AcDbEntity
  8
SLD-0
  6
Continuous
370
    15
100
AcDbSpline
210
0.0
220
0.0
230
1.0
 70
     8
 71
     3
 72
    15
 73
    11
 74
     0
 42
0.00000001
 43
0.00000001
 12
1.0
 22
0.0
 32
0.0
 13
1.0
 23
0.0
 33
0.0
 40
0.0
 40
0.0
 40
0.0
 40
0.0
 40
0.1249976080453662
 40
0.2500020840979618
 40
0.3750012947428636
 40
0.499998755586148
 40
0.6249992364600095
 40
0.7499984471049115
 40
0.8749944239200326
 40
1.0
 40
1.0
 40
1.0
 40
1.0
 10
3.097661997327125
 20
3.961164189399653
 30
0.0
 10
3.097876843472387
 20
3.957394482957922
 30
0.0
 10
3.098306547567652
 20
3.949854862947524
 30
0.0
 10
3.101729692271149
 20
3.938978924669215
 30
0.0
 10
3.107054451339104
 20
3.928956497238909
 30
0.0
 10
3.114272551967425
 20
3.920173857961053
 30
0.0
 10
3.123054702943923
 20
3.912956124799842
 30
0.0
 10
3.133077327208243
 20
3.907631515278019
 30
0.0
 10
3.143952321293961
 20
3.904207633458549
 30
0.0
 10
3.15149241853934
 20
3.903779048722711
 30
0.0
 10
3.155262611919912
 20
3.90356474812665
 30
0.0
  0
LINE
  5
395
330
1F
100
AcDbEntity
  8
SLD-0
  6
Continuous
370
    15
100
AcDbLine
 10
3.0976619973
 20
4.4311644133
 30
0.0
 11
3.1252619985
 21
4.4311644133
 31
0.0
  0
LINE
  5
396
330
1F
100
AcDbEntity
  8
SLD-0
  6
Continuous
370
    15
100
AcDbLine
 10
3.0976619973
 20
3.9611641894
 30
0.0
 11
3.0976619973
 21
4.4311644133
 31
0.0
  0
LINE
  5
397
330
1F
100
AcDbEntity
  8
SLD-0
  6
Continuous
370
    15
100
AcDbLine
 10
18.0560241231
 20
8.4611640984
 30
0.0
 11
18.0896241218
 21
8.4611640984
 31
0.0
  0
LINE
  5
398
330
1F
100
AcDbEntity
  8
SLD-0
  6
Continuous
370
    15
100
AcDbLine
 10
18.0896241218
 20
8.4611640984
 30
0.0
 11
18.0896241218
 21
4.3361642307
 31
0.0
  0
LINE
  5
399
330
1F
100
AcDbEntity
  8
SLD-0
  6
Continuous
370
    15
100
AcDbLine
 10
18.0560241231
 20
4.3361642307
 30
0.0
 11
18.0896241218
 21
4.3361642307
 31
0.0
  0
LINE
  5
39A
330
1F
100
AcDbEntity
  8
SLD-0
  6
Continuous
370
    15
100
AcDbLine
 10
18.0560241231
 20
8.4611640984
 30
0.0
 11
18.0560241231
 21
4.3361642307
 31
0.0
  0
LINE
  5
39B
330
1F
100
AcDbEntity
  8
SLD-0
  6
Continuous
370
    15
100
AcDbLine
 10
18.0896241218
 20
3.9611641894
 30
0.0
 11
18.0560241231
 21
3.9611641894
 31
0.0
  0
LINE
  5
39C
330
1F
100
AcDbEntity
  8
SLD-0
  6
Continuous
370
    15
100
AcDbLine
 10
18.0560241231
 20
3.9611641894
 30
0.0
 11
18.0560241231
 21
4.3361642307
 31
0.0
  0
LINE
  5
39D
330
1F
100
AcDbEntity
  8
SLD-0
  6
Continuous
370
    15
100
AcDbLine
 10
18.0896241218
 20
4.3361642307
 30
0.0
 11
18.0896241218
 21
3.9611641894
 31
0.0
  0
LINE
  5
39E
330
1F
100
AcDbEntity
  8
SLD-0
  6
Continuous
370
    15
100
AcDbLine
 10
18.0896241218
 20
24.9611641556
 30
0.0
 11
18.0560241231
 21
24.9611641556
 31
0.0
  0
LINE
  5
39F
330
1F
100
AcDbEntity
  8
SLD-0
  6
Continuous
370
    15
100
AcDbLine
 10
18.0560241231
 20
9.9611642636
 30
0.0
 11
18.0896241218
 21
9.9611642636
 31
0.0
  0
LINE
  5
3A0
330
1F
100
AcDbEntity
  8
SLD-0
  6
Continuous
370
    15
100
AcDbLine
 10
18.0560241231
 20
24.9611641556
 30
0.0
 11
18.0560241231
 21
9.9611642636
 31
0.0
  0
LINE
  5
3A1
330
1F
100
AcDbEntity
  8
SLD-0
  6
Continuous
370
    15
100
AcDbLine
 10
18.0896241218
 20
24.9611641556
 30
0.0
 11
18.0896241218
 21
9.9611642636
 31
0.0
  0
LINE
  5
3A2
330
1F
100
AcDbEntity
  8
SLD-0
  6
Continuous
370
    15
100
AcDbLine
 10
18.0560241231
 20
9.9611642636
 30
0.0
 11
18.0560241231
 21
8.4611640984
 31
0.0
  0
LINE
  5
3A3
330
1F
100
AcDbEntity
  8
SLD-0
  6
Continuous
370
    15
100
AcDbLine
 10
18.0896241218
 20
9.9450179167
 30
0.0
 11
18.0896241218
 21
8.4611640984
 31
0.0
  0
LINE
  5
3A4
330
1F
100
AcDbEntity
  8
SLD-0
  6
Continuous
370
    15
100
AcDbLine
 10
18.0372623205
 20
24.9611641556
 30
0.0
 11
18.0372623205
 21
12.101314207
 31
0.0
  0
LINE
  5
3A5
330
1F
100
AcDbEntity
  8
SLD-0
  6
Continuous
370
    15
100
AcDbLine
 10
18.0372623205
 20
12.101314207
 30
0.0
 11
18.0560241231
 21
12.101314207
 31
0.0
  0
LINE
  5
3A6
330
1F
100
AcDbEntity
  8
SLD-0
  6
Continuous
370
    15
100
AcDbLine
 10
18.0560241231
 20
24.9611641556
 30
0.0
 11
18.0372623205
 21
24.9611641556
 31
0.0
  0
LINE
  5
3A7
330
1F
100
AcDbEntity
  8
SLD-0
  6
Continuous
370
    15
100
AcDbLine
 10
18.0372623205
 20
11.3513141244
 30
0.0
 11
18.0372623205
 21
3.9611641894
 31
0.0
  0
LINE
  5
3A8
330
1F
100
AcDbEntity
  8
SLD-0
  6
Continuous
370
    15
100
AcDbLine
 10
18.0372623205
 20
3.9611641894
 30
0.0
 11
18.0560241231
 21
3.9611641894
 31
0.0
  0
LINE
  5
3A9
330
1F
100
AcDbEntity
  8
SLD-0
  6
Continuous
370
    15
100
AcDbLine
 10
18.0560241231
 20
11.3513141244
 30
0.0
 11
18.0372623205
 21
11.3513141244
 31
0.0
  0
LINE
  5
3AA
330
1F
100
AcDbEntity
  8
SLD-0
  6
Continuous
370
    15
100
AcDbLine
 10
3.165037539
 20
24.9611641556
 30
0.0
 11
3.165037539
 21
3.9611641894
 31
0.0
  0
LINE
  5
3AB
330
1F
100
AcDbEntity
  8
SLD-0
  6
Continuous
370
    15
100
AcDbLine
 10
18.0372623205
 20
11.3513141244
 30
0.0
 11
18.0372623205
 21
12.101314207
 31
0.0
  0
LWPOLYLINE
  5
3AC
330
1F
100
AcDbEntity
  8
SLD-0
  6
Continuous
370
    15
100
AcDbPolyline
 90
      142
 70
   128
 43
0.0
 10
9.6666822714
 20
5.9611640186
 10
9.6657330557
 20
6.0071030079
 10
9.6628877553
 20
6.0529510649
 10
9.6581510633
 20
6.098616084
 10
9.6515329531
 20
6.144008893
 10
9.6430469178
 20
6.1890385595
 10
9.6327093839
 20
6.2336159112
 10
9.6205408845
 20
6.2776517758
 10
9.6065654726
 20
6.3210599143
 10
9.5908113079
 20
6.3637529145
 10
9.5733088968
 20
6.4056468839
 10
9.5540940254
 20
6.4466585168
 10
9.5332042401
 20
6.4867062675
 10
9.5106811936
 20
6.5257103502
 10
9.4865688855
 20
6.5635939126
 10
9.4609165951
 20
6.6002812754
 10
9.4337741887
 20
6.6356996929
 10
9.4051956388
 20
6.6697787659
 10
9.3752378516
 20
6.7024510285
 10
9.3439606662
 20
6.7336513614
 10
9.3114256821
 20
6.7633181653
 10
9.2776980184
 20
6.7913927744
 10
9.2428439677
 20
6.8178182824
 10
9.2069327558
 20
6.8425436501
 10
9.1700359554
 20
6.8655190114
 10
9.1322274855
 20
6.8866986067
 10
9.0935812653
 20
6.9060407833
 10
9.0541747339
 20
6.9235068215
 10
9.014085917
 20
6.9390621085
 10
8.9733940137
 20
6.9526761379
 10
8.9321805698
 20
6.9643213367
 10
8.890527131
 20
6.9739754118
 10
8.8485164163
 20
6.9816184169
 10
8.8062311448
 20
6.9872350986
 10
8.7637563821
 20
6.9908148973
 10
8.7211760207
 20
6.9923501862
 10
8.6785739528
 20
6.9918380321
 10
8.6360358309
 20
6.989280195
 10
8.5936449606
 20
6.9846807815
 10
8.5514869943
 20
6.9780491781
 10
8.5096440643
 20
6.969398878
 10
8.4682000631
 20
6.9587463077
 10
8.4272377096
 20
6.9461137603
 10
8.3868373763
 20
6.9315252889
 10
8.3470794356
 20
6.9150102263
 10
8.3080436732
 20
6.8966014256
 10
8.2698069416
 20
6.8763358464
 10
8.2324449199
 20
6.8542527949
 10
8.1960321139
 20
6.8303968571
 10
8.1606412694
 20
6.804814966
 10
8.1263416123
 20
6.7775581608
 10
8.0932011951
 20
6.7486804144
 10
8.0612868971
 20
6.7182392194
 10
8.0306620776
 20
6.6862950018
 10
8.0013865757
 20
6.6529111208
 10
7.973520231
 20
6.6181532823
 10
7.9471158427
 20
6.5820918856
 10
7.9222273835
 20
6.5447973297
 10
7.898904133
 20
6.5063435339
 10
7.8771918505
 20
6.4668079373
 10
7.8571351222
 20
6.4262685656
 10
7.8387714943
 20
6.3848052046
 10
7.8221396864
 20
6.34250116
 10
7.8072702049
 20
6.2994397374
 10
7.7941959026
 20
6.255707176
 10
7.7829402459
 20
6.2113891279
 10
7.773525528
 20
6.1665747656
 10
7.7659716953
 20
6.1213526747
 10
7.7602928276
 20
6.0758120275
 10
7.756500658
 20
6.0300443429
 10
7.7546033999
 20
5.9841393798
 10
7.7546033999
 20
5.938189244
 10
7.756500658
 20
5.8922842809
 10
7.7602928276
 20
5.8465160097
 10
7.7659716953
 20
5.8009759491
 10
7.773525528
 20
5.7557538581
 10
7.7829402459
 20
5.7109389092
 10
7.7941959026
 20
5.6666214478
 10
7.8072702049
 20
5.6228882997
 10
7.8221396864
 20
5.5798274638
 10
7.8387714943
 20
5.5375228325
 10
7.8571351222
 20
5.4960600582
 10
7.8771918505
 20
5.4555200998
 10
7.898904133
 20
5.4159845032
 10
7.9222273835
 20
5.3775312941
 10
7.9471158427
 20
5.3402367382
 10
7.973520231
 20
5.3041747548
 10
8.0013865757
 20
5.269417503
 10
8.0306620776
 20
5.236033622
 10
8.0612868971
 20
5.2040888177
 10
8.0932011951
 20
5.1736476227
 10
8.1263416123
 20
5.1447698763
 10
8.1606412694
 20
5.1175130712
 10
8.1960321139
 20
5.0919317667
 10
8.2324449199
 20
5.0680752423
 10
8.2698069416
 20
5.0459927774
 10
8.3080436732
 20
5.0257266115
 10
8.3470794356
 20
5.0073178108
 10
8.3868373763
 20
4.9908033349
 10
8.4272377096
 20
4.9762148634
 10
8.4682000631
 20
4.9635817294
 10
8.5096440643
 20
4.9529297458
 10
8.5514869943
 20
4.9442794457
 10
8.5936449606
 20
4.9376478423
 10
8.6360358309
 20
4.9330484288
 10
8.6785739528
 20
4.930490005
 10
8.7211760207
 20
4.9299784376
 10
8.7637563821
 20
4.9315137265
 10
8.8062311448
 20
4.9350935252
 10
8.8485164163
 20
4.9407102069
 10
8.890527131
 20
4.948353212
 10
8.9321805698
 20
4.9580067005
 10
8.9733940137
 20
4.9696524859
 10
9.014085917
 20
4.9832659287
 10
9.0541747339
 20
4.9988218023
 10
9.0935812653
 20
5.0162878405
 10
9.1322274855
 20
5.0356300171
 10
9.1700359554
 20
5.0568096124
 10
9.2069327558
 20
5.0797849737
 10
9.2428439677
 20
5.1045097547
 10
9.2776980184
 20
5.1309358494
 10
9.3114256821
 20
5.1590098718
 10
9.3439606662
 20
5.1886766757
 10
9.3752378516
 20
5.2198770086
 10
9.4051956388
 20
5.2525492712
 10
9.4337741887
 20
5.2866289309
 10
9.4609165951
 20
5.3220473484
 10
9.4865688855
 20
5.3587341246
 10
9.5106811936
 20
5.3966176869
 10
9.5332042401
 20
5.4356217697
 10
9.5540940254
 20
5.4756695204
 10
9.5733088968
 20
5.5166811533
 10
9.5908113079
 20
5.5585751226
 10
9.6065654726
 20
5.6012687094
 10
9.6205408845
 20
5.6446762613
 10
9.6327093839
 20
5.6887127126
 10
9.6430469178
 20
5.7332900643
 10
9.6515329531
 20
5.7783191441
 10
9.6581510633
 20
5.8237119531
 10
9.6628877553
 20
5.8693775589
 10
9.6657330557
 20
5.9152250293
 10
9.6666822714
 20
5.9611640186
  0
LWPOLYLINE
  5
3AD
330
1F
100
AcDbEntity
  8
SLD-0
  6
Continuous
370
    15
100
AcDbPolyline
 90
       86
 70
   128
 43
0.0
 10
11.3607231284
 20
23.961164241
 10
11.3597739127
 20
23.9888586944
 10
11.3569303722
 20
24.0164023762
 10
11.3522089334
 20
24.0436439282
 10
11.3456348227
 20
24.070435512
 10
11.337244413
 20
24.0966298761
 10
11.327082877
 20
24.1220844621
 10
11.3152059476
 20
24.1466602315
 10
11.3016793305
 20
24.1702228393
 10
11.2865757716
 20
24.1926432203
 10
11.26997799
 20
24.2137999359
 10
11.2519775046
 20
24.2335768274
 10
11.2326711143
 20
24.2518659495
 10
11.2121655912
 20
24.2685669832
 10
11.1905724007
 20
24.2835889963
 10
11.1680094613
 20
24.2968504432
 10
11.1446005584
 20
24.3082785778
 10
11.1204724105
 20
24.3178106277
 10
11.0957576026
 20
24.3253949667
 10
11.0705910667
 20
24.3309893554
 10
11.0451100811
 20
24.3345644608
 10
11.0194542708
 20
24.3361003364
 10
10.9937632609
 20
24.3355875957
 10
10.9681772631
 20
24.3330309319
 10
10.9428359025
 20
24.3284432515
 10
10.9178782175
 20
24.3218491944
 10
10.8934403132
 20
24.3132851333
 10
10.8696553613
 20
24.3027974145
 10
10.8466536003
 20
24.2904447038
 10
10.8245605755
 20
24.276293294
 10
10.8034965522
 20
24.260420624
 10
10.783577689
 20
24.2429135196
 10
10.7649113446
 20
24.2238676063
 10
10.7476001846
 20
24.2033873095
 10
10.7317386612
 20
24.1815835081
 10
10.7174136
 20
24.1585764672
 10
10.7047036135
 20
24.1344905587
 10
10.6936767542
 20
24.1094583679
 10
10.6843946214
 20
24.0836159998
 10
10.6769070812
 20
24.057105426
 10
10.6712551999
 20
24.0300703783
 10
10.6674706569
 20
24.002658695
 10
10.6655728122
 20
23.9750211476
 10
10.6655728122
 20
23.9473073344
 10
10.6674706569
 20
23.9196692004
 10
10.6712551999
 20
23.8922581037
 10
10.6769070812
 20
23.865223056
 10
10.6843946214
 20
23.8387118956
 10
10.6936767542
 20
23.8128701141
 10
10.7047036135
 20
23.7878379233
 10
10.7174136
 20
23.7637520149
 10
10.7317386612
 20
23.740744974
 10
10.7476001846
 20
23.7189411725
 10
10.7649113446
 20
23.6984602891
 10
10.783577689
 20
23.6794149625
 10
10.8034965522
 20
23.6619078581
 10
10.8245605755
 20
23.6460351881
 10
10.8466536003
 20
23.6318837782
 10
10.8696553613
 20
23.6195304809
 10
10.8934403132
 20
23.6090433488
 10
10.9178782175
 20
23.6004792877
 10
10.9428359025
 20
23.5938852305
 10
10.9681772631
 20
23.5892975502
 10
10.9937632609
 20
23.5867402997
 10
11.0194542708
 20
23.5862281457
 10
11.0451100811
 20
23.5877640212
 10
11.0705910667
 20
23.5913391266
 10
11.0957576026
 20
23.5969335153
 10
11.1204724105
 20
23.6045178544
 10
11.1446005584
 20
23.6140499043
 10
11.1680094613
 20
23.6254780389
 10
11.1905724007
 20
23.6387394857
 10
11.2121655912
 20
23.6537614988
 10
11.2326711143
 20
23.6704625326
 10
11.2519775046
 20
23.6887516546
 10
11.26997799
 20
23.7085285462
 10
11.2865757716
 20
23.7296846751
 10
11.3016793305
 20
23.7521056428
 10
11.3152059476
 20
23.7756682506
 10
11.327082877
 20
23.80024402
 10
11.337244413
 20
23.8256986059
 10
11.3456348227
 20
23.85189297
 10
11.3522089334
 20
23.8786845538
 10
11.3569303722
 20
23.9059261058
 10
11.3597739127
 20
23.933469201
 10
11.3607231284
 20
23.961164241
  0
LINE
  5
3AE
330
1F
100
AcDbEntity
  8
SLD-0
  6
Continuous
370
    15
100
AcDbLine
 10
15.9507520107
 20
6.9924141321
 30
0.0
 11
15.9507520107
 21
7.0081641902
 31
0.0
  0
LINE
  5
3AF
330
1F
100
AcDbEntity
  8
SLD-0
  6
Continuous
370
    15
100
AcDbLine
 10
15.9507520107
 20
7.0081641902
 30
0.0
 11
14.7964081857
 21
7.0081641902
 31
0.0
  0
LINE
  5
3B0
330
1F
100
AcDbEntity
  8
SLD-0
  6
Continuous
370
    15
100
AcDbLine
 10
14.7964081857
 20
7.0081641902
 30
0.0
 11
14.7964081857
 21
6.9924141321
 31
0.0
  0
LINE
  5
3B1
330
1F
100
AcDbEntity
  8
SLD-0
  6
Continuous
370
    15
100
AcDbLine
 10
14.7964081857
 20
6.9924141321
 30
0.0
 11
14.6805102979
 21
6.9924141321
 31
0.0
  0
LINE
  5
3B2
330
1F
100
AcDbEntity
  8
SLD-0
  6
Continuous
370
    15
100
AcDbLine
 10
14.6805102979
 20
6.9924141321
 30
0.0
 11
14.6805102979
 21
7.0081641902
 31
0.0
  0
LINE
  5
3B3
330
1F
100
AcDbEntity
  8
SLD-0
  6
Continuous
370
    15
100
AcDbLine
 10
14.6805102979
 20
7.0081641902
 30
0.0
 11
11.6583544635
 21
7.0081641902
 31
0.0
  0
LINE
  5
3B4
330
1F
100
AcDbEntity
  8
SLD-0
  6
Continuous
370
    15
100
AcDbLine
 10
11.6583544635
 20
7.0081641902
 30
0.0
 11
11.6583544635
 21
6.9924141321
 31
0.0
  0
LINE
  5
3B5
330
1F
100
AcDbEntity
  8
SLD-0
  6
Continuous
370
    15
100
AcDbLine
 10
11.6583544635
 20
6.9924141321
 30
0.0
 11
11.5424562823
 21
6.9924141321
 31
0.0
  0
LINE
  5
3B6
330
1F
100
AcDbEntity
  8
SLD-0
  6
Continuous
370
    15
100
AcDbLine
 10
11.5424562823
 20
6.9924141321
 30
0.0
 11
11.5424562823
 21
7.0081641902
 31
0.0
  0
LINE
  5
3B7
330
1F
100
AcDbEntity
  8
SLD-0
  6
Continuous
370
    15
100
AcDbLine
 10
11.5424562823
 20
7.0081641902
 30
0.0
 11
10.3881126041
 21
7.0081641902
 31
0.0
  0
LINE
  5
3B8
330
1F
100
AcDbEntity
  8
SLD-0
  6
Continuous
370
    15
100
AcDbLine
 10
10.3881126041
 20
7.0081641902
 30
0.0
 11
10.3881126041
 21
6.9924141321
 31
0.0
  0
LINE
  5
3B9
330
1F
100
AcDbEntity
  8
SLD-0
  6
Continuous
370
    15
100
AcDbLine
 10
10.3881126041
 20
6.9924141321
 30
0.0
 11
10.272214423
 21
6.9924141321
 31
0.0
  0
LINE
  5
3BA
330
1F
100
AcDbEntity
  8
SLD-0
  6
Continuous
370
    15
100
AcDbLine
 10
10.272214423
 20
6.9924141321
 30
0.0
 11
10.1850590564
 21
6.9924141321
 31
0.0
  0
LINE
  5
3BB
330
1F
100
AcDbEntity
  8
SLD-0
  6
Continuous
370
    15
100
AcDbLine
 10
10.1850590564
 20
6.9924141321
 30
0.0
 11
10.1850590564
 21
4.929913905
 31
0.0
  0
LINE
  5
3BC
330
1F
100
AcDbEntity
  8
SLD-0
  6
Continuous
370
    15
100
AcDbLine
 10
10.1850590564
 20
4.929913905
 30
0.0
 11
16.153805265
 21
4.929913905
 31
0.0
  0
LINE
  5
3BD
330
1F
100
AcDbEntity
  8
SLD-0
  6
Continuous
370
    15
100
AcDbLine
 10
16.153805265
 20
4.929913905
 30
0.0
 11
16.153805265
 21
6.9924141321
 31
0.0
  0
LINE
  5
3BE
330
1F
100
AcDbEntity
  8
SLD-0
  6
Continuous
370
    15
100
AcDbLine
 10
16.153805265
 20
6.9924141321
 30
0.0
 11
16.0666500451
 21
6.9924141321
 31
0.0
  0
LINE
  5
3BF
330
1F
100
AcDbEntity
  8
SLD-0
  6
Continuous
370
    15
100
AcDbLine
 10
16.0666500451
 20
6.9924141321
 30
0.0
 11
15.9507520107
 21
6.9924141321
 31
0.0
  0
LINE
  5
3C0
330
1F
100
AcDbEntity
  8
SLD-0
  6
Continuous
370
    15
100
AcDbLine
 10
18.0372623205
 20
3.9611641894
 30
0.0
 11
17.9040676275
 21
3.9611641894
 31
0.0
  0
LINE
  5
3C1
330
1F
100
AcDbEntity
  8
SLD-0
  6
Continuous
370
    15
100
AcDbLine
 10
3.49966482
 20
3.9611641894
 30
0.0
 11
3.165037539
 21
3.9611641894
 31
0.0
  0
LINE
  5
3C2
330
1F
100
AcDbEntity
  8
SLD-0
  6
Continuous
370
    15
100
AcDbLine
 10
18.0372623205
 20
24.9611641556
 30
0.0
 11
17.6930676433
 21
24.9611641556
 31
0.0
  0
LINE
  5
3C3
330
1F
100
AcDbEntity
  8
SLD-0
  6
Continuous
370
    15
100
AcDbLine
 10
3.49966482
 20
24.9611641556
 30
0.0
 11
3.165037539
 21
24.9611641556
 31
0.0
  0
LINE
  5
3C4
330
1F
100
AcDbEntity
  8
SLD-0
  6
Continuous
370
    15
100
AcDbLine
 10
18.0498491015
 20
11.3513141244
 30
0.0
 11
18.0498491015
 21
12.101314207
 31
0.0
  0
LWPOLYLINE
  5
3C5
330
1F
100
AcDbEntity
  8
SLD-0
  6
Continuous
370
    15
100
AcDbPolyline
 90
        9
 70
   128
 43
0.0
 10
16.0904750366
 20
6.9288143335
 10
16.0858269303
 20
6.9300363461
 10
16.0813576086
 20
6.9336554509
 10
16.0772385228
 20
6.9395326097
 10
16.0736282179
 20
6.9474419583
 10
16.0706652921
 20
6.9570801937
 10
16.0684635575
 20
6.9680753733
 10
16.0671077865
 20
6.9800062755
 10
16.0666500451
 20
6.9924141321
  0
LWPOLYLINE
  5
3C6
330
1F
100
AcDbEntity
  8
SLD-0
  6
Continuous
370
    15
100
AcDbPolyline
 90
        9
 70
   128
 43
0.0
 10
16.0904750366
 20
6.9624141054
 10
16.0882825419
 20
6.962990792
 10
16.0861743796
 20
6.9646979723
 10
16.084231362
 20
6.9674699403
 10
16.082528435
 20
6.9712010972
 10
16.0811308645
 20
6.9757471247
 10
16.0800923299
 20
6.9809337848
 10
16.0794527239
 20
6.9865616131
 10
16.0792368331
 20
6.9924141321
  0
LINE
  5
3C7
330
1F
100
AcDbEntity
  8
SLD-0
  6
Continuous
370
    15
100
AcDbLine
 10
16.0904750366
 20
6.9288143335
 30
0.0
 11
16.0904750366
 21
6.9624141054
 31
0.0
  0
LINE
  5
3C8
330
1F
100
AcDbEntity
  8
SLD-0
  6
Continuous
370
    15
100
AcDbLine
 10
16.0904750366
 20
6.9288143335
 30
0.0
 11
15.9745770021
 21
6.9288143335
 31
0.0
  0
LWPOLYLINE
  5
3C9
330
1F
100
AcDbEntity
  8
SLD-0
  6
Continuous
370
    15
100
AcDbPolyline
 90
        9
 70
   128
 43
0.0
 10
15.9507520107
 20
6.9924141321
 10
15.9512098987
 20
6.9800062755
 10
15.9525656697
 20
6.9680753733
 10
15.9547672576
 20
6.9570801937
 10
15.9577301834
 20
6.9474419583
 10
15.961340635
 20
6.9395326097
 10
15.9654595741
 20
6.9336554509
 10
15.9699290425
 20
6.9300363461
 10
15.9745770021
 20
6.9288143335
  0
LINE
  5
3CA
330
1F
100
AcDbEntity
  8
SLD-0
  6
Continuous
370
    15
100
AcDbLine
 10
16.0904750366
 20
6.9288143335
 30
0.0
 11
16.153805265
 21
6.9288143335
 31
0.0
  0
LINE
  5
3CB
330
1F
100
AcDbEntity
  8
SLD-0
  6
Continuous
370
    15
100
AcDbLine
 10
16.153805265
 20
6.9624141054
 30
0.0
 11
16.0904750366
 21
6.9624141054
 31
0.0
  0
LINE
  5
3CC
330
1F
100
AcDbEntity
  8
SLD-0
  6
Continuous
370
    15
100
AcDbLine
 10
14.8220076767
 20
6.9288143335
 30
0.0
 11
14.8220076767
 21
6.9624141054
 31
0.0
  0
LINE
  5
3CD
330
1F
100
AcDbEntity
  8
SLD-0
  6
Continuous
370
    15
100
AcDbLine
 10
14.8220076767
 20
6.9288143335
 30
0.0
 11
15.9745770021
 21
6.9288143335
 31
0.0
  0
LINE
  5
3CE
330
1F
100
AcDbEntity
  8
SLD-0
  6
Continuous
370
    15
100
AcDbLine
 10
15.9535691515
 20
6.9624141054
 30
0.0
 11
14.8220076767
 21
6.9624141054
 31
0.0
  0
LINE
  5
3CF
330
1F
100
AcDbEntity
  8
SLD-0
  6
Continuous
370
    15
100
AcDbLine
 10
14.7964081857
 20
6.9924141321
 30
0.0
 11
14.8089949737
 21
6.9924141321
 31
0.0
  0
LINE
  5
3D0
330
1F
100
AcDbEntity
  8
SLD-0
  6
Continuous
370
    15
100
AcDbLine
 10
14.8089949737
 20
6.9924141321
 30
0.0
 11
14.8089949737
 21
7.0081641902
 31
0.0
  0
LWPOLYLINE
  5
3D1
330
1F
100
AcDbEntity
  8
SLD-0
  6
Continuous
370
    15
100
AcDbPolyline
 90
        9
 70
   128
 43
0.0
 10
14.8202330305
 20
6.9288143335
 10
14.8155852175
 20
6.9300363461
 10
14.8111157492
 20
6.9336554509
 10
14.8069968101
 20
6.9395326097
 10
14.8033862118
 20
6.9474419583
 10
14.800423286
 20
6.9570801937
 10
14.7982218448
 20
6.9680753733
 10
14.7968660738
 20
6.9800062755
 10
14.7964081857
 20
6.9924141321
  0
LWPOLYLINE
  5
3D2
330
1F
100
AcDbEntity
  8
SLD-0
  6
Continuous
370
    15
100
AcDbPolyline
 90
        9
 70
   128
 43
0.0
 10
14.6805102979
 20
6.9924141321
 10
14.6809678927
 20
6.9800062755
 10
14.6823236637
 20
6.9680753733
 10
14.6845253982
 20
6.9570801937
 10
14.687488324
 20
6.9474419583
 10
14.691098629
 20
6.9395326097
 10
14.6952178614
 20
6.9336554509
 10
14.6996870364
 20
6.9300363461
 10
14.7043351427
 20
6.9288143335
  0
LINE
  5
3D3
330
1F
100
AcDbEntity
  8
SLD-0
  6
Continuous
370
    15
100
AcDbLine
 10
14.8202330305
 20
6.9288143335
 30
0.0
 11
14.7043351427
 21
6.9288143335
 31
0.0
  0
LWPOLYLINE
  5
3D4
330
1F
100
AcDbEntity
  8
SLD-0
  6
Continuous
370
    15
100
AcDbPolyline
 90
        9
 70
   128
 43
0.0
 10
14.8202330305
 20
6.9624141054
 10
14.8180406825
 20
6.962990792
 10
14.8159325202
 20
6.9646979723
 10
14.8139895026
 20
6.9674699403
 10
14.812286429
 20
6.9712010972
 10
14.8108890051
 20
6.9757471247
 10
14.8098503238
 20
6.9809337848
 10
14.8092108645
 20
6.9865616131
 10
14.8089949737
 20
6.9924141321
  0
LINE
  5
3D5
330
1F
100
AcDbEntity
  8
SLD-0
  6
Continuous
370
    15
100
AcDbLine
 10
14.8202330305
 20
6.9288143335
 30
0.0
 11
14.8202330305
 21
6.9624141054
 31
0.0
  0
LINE
  5
3D6
330
1F
100
AcDbEntity
  8
SLD-0
  6
Continuous
370
    15
100
AcDbLine
 10
14.8202330305
 20
6.9288143335
 30
0.0
 11
14.8220076767
 21
6.9288143335
 31
0.0
  0
LINE
  5
3D7
330
1F
100
AcDbEntity
  8
SLD-0
  6
Continuous
370
    15
100
AcDbLine
 10
14.8220076767
 20
6.9624141054
 30
0.0
 11
14.8202330305
 21
6.9624141054
 31
0.0
  0
LINE
  5
3D8
330
1F
100
AcDbEntity
  8
SLD-0
  6
Continuous
370
    15
100
AcDbLine
 10
11.6839539544
 20
6.9288143335
 30
0.0
 11
11.6839539544
 21
6.9624141054
 31
0.0
  0
LINE
  5
3D9
330
1F
100
AcDbEntity
  8
SLD-0
  6
Continuous
370
    15
100
AcDbLine
 10
11.6839539544
 20
6.9288143335
 30
0.0
 11
14.7043351427
 21
6.9288143335
 31
0.0
  0
LINE
  5
3DA
330
1F
100
AcDbEntity
  8
SLD-0
  6
Continuous
370
    15
100
AcDbLine
 10
14.6833271454
 20
6.9624141054
 30
0.0
 11
11.6839539544
 21
6.9624141054
 31
0.0
  0
LINE
  5
3DB
330
1F
100
AcDbEntity
  8
SLD-0
  6
Continuous
370
    15
100
AcDbLine
 10
11.6583544635
 20
6.9924141321
 30
0.0
 11
11.6709412514
 21
6.9924141321
 31
0.0
  0
LINE
  5
3DC
330
1F
100
AcDbEntity
  8
SLD-0
  6
Continuous
370
    15
100
AcDbLine
 10
11.6709412514
 20
6.9924141321
 30
0.0
 11
11.6709412514
 21
7.0081641902
 31
0.0
  0
LWPOLYLINE
  5
3DD
330
1F
100
AcDbEntity
  8
SLD-0
  6
Continuous
370
    15
100
AcDbPolyline
 90
        9
 70
   128
 43
0.0
 10
11.6821793083
 20
6.9288143335
 10
11.6775312019
 20
6.9300363461
 10
11.6730620269
 20
6.9336554509
 10
11.6689430878
 20
6.9395326097
 10
11.6653327829
 20
6.9474419583
 10
11.6623695638
 20
6.9570801937
 10
11.6601678292
 20
6.9680753733
 10
11.6588120582
 20
6.9800062755
 10
11.6583544635
 20
6.9924141321
  0
LWPOLYLINE
  5
3DE
330
1F
100
AcDbEntity
  8
SLD-0
  6
Continuous
370
    15
100
AcDbPolyline
 90
        9
 70
   128
 43
0.0
 10
11.5424562823
 20
6.9924141321
 10
11.5429144637
 20
6.9800062755
 10
11.5442702347
 20
6.9680753733
 10
11.5464713826
 20
6.9570801937
 10
11.5494346017
 20
6.9474419583
 10
11.5530449067
 20
6.9395326097
 10
11.5571638458
 20
6.9336554509
 10
11.5616336075
 20
6.9300363461
 10
11.5662811271
 20
6.9288143335
  0
LINE
  5
3DF
330
1F
100
AcDbEntity
  8
SLD-0
  6
Continuous
370
    15
100
AcDbLine
 10
11.6821793083
 20
6.9288143335
 30
0.0
 11
11.5662811271
 21
6.9288143335
 31
0.0
  0
LWPOLYLINE
  5
3E0
330
1F
100
AcDbEntity
  8
SLD-0
  6
Continuous
370
    15
100
AcDbPolyline
 90
        9
 70
   128
 43
0.0
 10
11.6821793083
 20
6.9624141054
 10
11.6799869602
 20
6.962990792
 10
11.6778785046
 20
6.9646979723
 10
11.675935487
 20
6.9674699403
 10
11.674233
 20
6.9712010972
 10
11.6728349895
 20
6.9757471247
 10
11.6717966015
 20
6.9809337848
 10
11.6711571422
 20
6.9865616131
 10
11.6709412514
 20
6.9924141321
  0
LINE
  5
3E1
330
1F
100
AcDbEntity
  8
SLD-0
  6
Continuous
370
    15
100
AcDbLine
 10
11.6821793083
 20
6.9288143335
 30
0.0
 11
11.6821793083
 21
6.9624141054
 31
0.0
  0
LINE
  5
3E2
330
1F
100
AcDbEntity
  8
SLD-0
  6
Continuous
370
    15
100
AcDbLine
 10
11.6821793083
 20
6.9288143335
 30
0.0
 11
11.6839539544
 21
6.9288143335
 31
0.0
  0
LINE
  5
3E3
330
1F
100
AcDbEntity
  8
SLD-0
  6
Continuous
370
    15
100
AcDbLine
 10
11.6839539544
 20
6.9624141054
 30
0.0
 11
11.6821793083
 21
6.9624141054
 31
0.0
  0
LINE
  5
3E4
330
1F
100
AcDbEntity
  8
SLD-0
  6
Continuous
370
    15
100
AcDbLine
 10
10.413712095
 20
6.9288143335
 30
0.0
 11
10.413712095
 21
6.9624141054
 31
0.0
  0
LINE
  5
3E5
330
1F
100
AcDbEntity
  8
SLD-0
  6
Continuous
370
    15
100
AcDbLine
 10
10.413712095
 20
6.9288143335
 30
0.0
 11
11.5662811271
 21
6.9288143335
 31
0.0
  0
LINE
  5
3E6
330
1F
100
AcDbEntity
  8
SLD-0
  6
Continuous
370
    15
100
AcDbLine
 10
11.5452734231
 20
6.9624141054
 30
0.0
 11
10.413712095
 21
6.9624141054
 31
0.0
  0
ARC
  5
3E7
330
1F
100
AcDbEntity
  8
SLD-0
  6
Continuous
370
    15
100
AcDbCircle
 10
11.0397083194
 20
23.974639871
 30
0.0
 40
0.3620371962270641
100
AcDbArc
 50
93.2278974163
 51
182.1331375052
  0
ARC
  5
3E8
330
1F
100
AcDbEntity
  8
SLD-0
  6
Continuous
370
    15
100
AcDbCircle
 10
11.0397083194
 20
23.947688611
 30
0.0
 40
0.3620371962270534
100
AcDbArc
 50
177.8668624948
 51
266.7721025837
  0
LWPOLYLINE
  5
3E9
330
1F
100
AcDbEntity
  8
SLD-0
  6
Continuous
370
    15
100
AcDbPolyline
 90
        9
 70
   128
 43
0.0
 10
10.4119374489
 20
6.9288143335
 10
10.4072893426
 20
6.9300363461
 10
10.4028201675
 20
6.9336554509
 10
10.3987012284
 20
6.9395326097
 10
10.3950909235
 20
6.9474419583
 10
10.3921277044
 20
6.9570801937
 10
10.3899259698
 20
6.9680753733
 10
10.3885701988
 20
6.9800062755
 10
10.3881126041
 20
6.9924141321
  0
LINE
  5
3EA
330
1F
100
AcDbEntity
  8
SLD-0
  6
Continuous
370
    15
100
AcDbLine
 10
10.3881126041
 20
6.9924141321
 30
0.0
 11
10.400699392
 21
6.9924141321
 31
0.0
  0
LWPOLYLINE
  5
3EB
330
1F
100
AcDbEntity
  8
SLD-0
  6
Continuous
370
    15
100
AcDbPolyline
 90
        9
 70
   128
 43
0.0
 10
10.4119374489
 20
6.9624141054
 10
10.4097451009
 20
6.962990792
 10
10.4076366452
 20
6.9646979723
 10
10.4056936277
 20
6.9674699403
 10
10.4039911407
 20
6.9712010972
 10
10.4025931301
 20
6.9757471247
 10
10.4015547421
 20
6.9809337848
 10
10.4009152829
 20
6.9865616131
 10
10.400699392
 20
6.9924141321
  0
LINE
  5
3EC
330
1F
100
AcDbEntity
  8
SLD-0
  6
Continuous
370
    15
100
AcDbLine
 10
10.4119374489
 20
6.9288143335
 30
0.0
 11
10.4119374489
 21
6.9624141054
 31
0.0
  0
LINE
  5
3ED
330
1F
100
AcDbEntity
  8
SLD-0
  6
Continuous
370
    15
100
AcDbLine
 10
10.400699392
 20
6.9924141321
 30
0.0
 11
10.400699392
 21
7.0081641902
 31
0.0
  0
LWPOLYLINE
  5
3EE
330
1F
100
AcDbEntity
  8
SLD-0
  6
Continuous
370
    15
100
AcDbPolyline
 90
        9
 70
   128
 43
0.0
 10
10.272214423
 20
6.9924141321
 10
10.2726726043
 20
6.9800062755
 10
10.2740283753
 20
6.9680753733
 10
10.2762295232
 20
6.9570801937
 10
10.2791927423
 20
6.9474419583
 10
10.2828030473
 20
6.9395326097
 10
10.2869219864
 20
6.9336554509
 10
10.2913917481
 20
6.9300363461
 10
10.2960392677
 20
6.9288143335
  0
LINE
  5
3EF
330
1F
100
AcDbEntity
  8
SLD-0
  6
Continuous
370
    15
100
AcDbLine
 10
10.4119374489
 20
6.9288143335
 30
0.0
 11
10.2960392677
 21
6.9288143335
 31
0.0
  0
LINE
  5
3F0
330
1F
100
AcDbEntity
  8
SLD-0
  6
Continuous
370
    15
100
AcDbLine
 10
10.4119374489
 20
6.9288143335
 30
0.0
 11
10.413712095
 21
6.9288143335
 31
0.0
  0
LINE
  5
3F1
330
1F
100
AcDbEntity
  8
SLD-0
  6
Continuous
370
    15
100
AcDbLine
 10
10.413712095
 20
6.9624141054
 30
0.0
 11
10.4119374489
 21
6.9624141054
 31
0.0
  0
LINE
  5
3F2
330
1F
100
AcDbEntity
  8
SLD-0
  6
Continuous
370
    15
100
AcDbLine
 10
10.1976458444
 20
4.929913905
 30
0.0
 11
10.1976458444
 21
6.9924141321
 31
0.0
  0
LWPOLYLINE
  5
3F3
330
1F
100
AcDbEntity
  8
SLD-0
  6
Continuous
370
    15
100
AcDbPolyline
 90
       37
 70
   128
 43
0.0
 10
7.7669525906
 20
5.9611640186
 10
7.7679018063
 20
6.0071030079
 10
7.7707471068
 20
6.0529510649
 10
7.7754837987
 20
6.098616084
 10
7.7821013223
 20
6.144008893
 10
7.7905879442
 20
6.1890385595
 10
7.8009260648
 20
6.2336159112
 10
7.8130945642
 20
6.2776517758
 10
7.8270688028
 20
6.3210599143
 10
7.8428241408
 20
6.3637529145
 10
7.8603253786
 20
6.4056468839
 10
7.8795408367
 20
6.4466585168
 10
7.900430622
 20
6.4867062675
 10
7.9229536685
 20
6.5257103502
 10
7.9470653899
 20
6.5635939126
 10
7.9727188536
 20
6.6002812754
 10
7.99986126
 20
6.6356996929
 10
8.0284386366
 20
6.6697787659
 10
8.0583970105
 20
6.7024510285
 10
8.0896741958
 20
6.7336513614
 10
8.12220918
 20
6.7633181653
 10
8.1559374304
 20
6.7913927744
 10
8.1907908944
 20
6.8178182824
 10
8.2267021062
 20
6.8425436501
 10
8.26359832
 20
6.8655190114
 10
8.3014073765
 20
6.8866986067
 10
8.3400535968
 20
6.9060407833
 10
8.3794601282
 20
6.9235068215
 10
8.4195489451
 20
6.9390621085
 10
8.4602402617
 20
6.9526761379
 10
8.5014537056
 20
6.9643213367
 10
8.5431077311
 20
6.9739754118
 10
8.5851184458
 20
6.9816184169
 10
8.6274037173
 20
6.9872350986
 10
8.6698784799
 20
6.9908148973
 10
8.7124588414
 20
6.9923501862
 10
8.7168171377
 20
6.9923918391
  0
LWPOLYLINE
  5
3F4
330
1F
100
AcDbEntity
  8
SLD-0
  6
Continuous
370
    15
100
AcDbPolyline
 90
       37
 70
   128
 43
0.0
 10
8.7168171377
 20
4.9299367847
 10
8.7124588414
 20
4.9299784376
 10
8.6698784799
 20
4.9315137265
 10
8.6274037173
 20
4.9350935252
 10
8.5851184458
 20
4.9407102069
 10
8.5431077311
 20
4.948353212
 10
8.5014537056
 20
4.9580067005
 10
8.4602402617
 20
4.9696524859
 10
8.4195489451
 20
4.9832659287
 10
8.3794601282
 20
4.9988218023
 10
8.3400535968
 20
5.0162878405
 10
8.3014073765
 20
5.0356300171
 10
8.26359832
 20
5.0568096124
 10
8.2267021062
 20
5.0797849737
 10
8.1907908944
 20
5.1045097547
 10
8.1559374304
 20
5.1309358494
 10
8.12220918
 20
5.1590098718
 10
8.0896741958
 20
5.1886766757
 10
8.0583970105
 20
5.2198770086
 10
8.0284386366
 20
5.2525492712
 10
7.99986126
 20
5.2866289309
 10
7.9727188536
 20
5.3220473484
 10
7.9470653899
 20
5.3587341246
 10
7.9229536685
 20
5.3966176869
 10
7.900430622
 20
5.4356217697
 10
7.8795408367
 20
5.4756695204
 10
7.8603253786
 20
5.5166811533
 10
7.8428241408
 20
5.5585751226
 10
7.8270688028
 20
5.6012687094
 10
7.8130945642
 20
5.6446762613
 10
7.8009260648
 20
5.6887127126
 10
7.7905879442
 20
5.7332900643
 10
7.7821013223
 20
5.7783191441
 10
7.7754837987
 20
5.8237119531
 10
7.7707471068
 20
5.8693775589
 10
7.7679018063
 20
5.9152250293
 10
7.7669525906
 20
5.9611640186
  0
LINE
  5
3F5
330
1F
100
AcDbEntity
  8
SLD-0
  6
Continuous
370
    15
100
AcDbLine
 10
3.1252619985
 20
24.9611641556
 30
0.0
 11
3.1252619985
 21
3.9611641894
 31
0.0
  0
LINE
  5
3F6
330
1F
100
AcDbEntity
  8
SLD-0
  6
Continuous
370
    15
100
AcDbLine
 10
3.165037539
 20
3.9611641894
 30
0.0
 11
3.1252619985
 21
3.9611641894
 31
0.0
  0
LINE
  5
3F7
330
1F
100
AcDbEntity
  8
SLD-0
  6
Continuous
370
    15
100
AcDbLine
 10
3.165037539
 20
24.9611641556
 30
0.0
 11
3.1252619985
 21
24.9611641556
 31
0.0
  0
LINE
  5
3F8
330
1F
100
AcDbEntity
  8
SLD-0
  6
Continuous
370
    15
100
AcDbLine
 10
18.1075991242
 20
7.1253143035
 30
0.0
 11
18.1075991242
 21
7.1565639159
 31
0.0
  0
LINE
  5
3F9
330
1F
100
AcDbEntity
  8
SLD-0
  6
Continuous
370
    15
100
AcDbLine
 10
18.0896241218
 20
3.9611641894
 30
0.0
 11
18.1128623205
 21
3.9611641894
 31
0.0
  0
LINE
  5
3FA
330
1F
100
AcDbEntity
  8
SLD-0
  6
Continuous
370
    15
100
AcDbLine
 10
18.1128623205
 20
4.4681638792
 30
0.0
 11
18.0896241218
 21
4.4681638792
 31
0.0
  0
ENDSEC
  0
SECTION
  2
OBJECTS
  0
DICTIONARY
  5
C
330
0
100
AcDbDictionary
281
     1
  3
ACAD_GROUP
350
D
  3
ACAD_LAYOUT
350
1A
  3
ACAD_MATERIAL
350
3B
  3
ACAD_MLEADERSTYLE
350
3FC
  3
ACAD_MLINESTYLE
350
17
  3
ACAD_PLOTSETTINGS
350
19
  3
ACAD_PLOTSTYLENAME
350
E
  3
ACAD_TABLESTYLE
350
3FB
  0
DICTIONARY
  5
D
102
{ACAD_REACTORS
330
C
102
}
330
C
100
AcDbDictionary
281
     1
  0
DICTIONARY
  5
1A
102
{ACAD_REACTORS
330
C
102
}
330
C
100
AcDbDictionary
281
     1
  3
Layout1
350
1E
  3
Layout2
350
26
  3
Model
350
22
  0
DICTIONARY
  5
3B
102
{ACAD_REACTORS
330
C
102
}
330
C
100
AcDbDictionary
281
     1
  3
ByBlock
350
3D
  3
ByLayer
350
3C
  3
Global
350
3E
  0
DICTIONARY
  5
3FC
102
{ACAD_REACTORS
330
C
102
}
330
C
100
AcDbDictionary
281
     1
  0
DICTIONARY
  5
17
102
{ACAD_REACTORS
330
C
102
}
330
C
100
AcDbDictionary
281
     1
  3
Standard
350
18
  0
DICTIONARY
  5
19
102
{ACAD_REACTORS
330
C
102
}
330
C
100
AcDbDictionary
281
     1
  0
ACDBDICTIONARYWDFLT
  5
E
102
{ACAD_REACTORS
330
C
102
}
330
C
100
AcDbDictionary
281
     1
  3
Normal
350
F
100
AcDbDictionaryWithDefault
340
F
  0
DICTIONARY
  5
3FB
102
{ACAD_REACTORS
330
C
102
}
330
C
100
AcDbDictionary
281
     1
  0
LAYOUT
  5
1E
102
{ACAD_REACTORS
330
1A
102
}
330
1A
100
AcDbPlotSettings
  1

  2
none_device
  4

  6

 40
0.0
 41
0.0
 42
0.0
 43
0.0
 44
0.0
 45
0.0
 46
0.0
 47
0.0
 48
0.0
 49
0.0
140
0.0
141
0.0
142
1.0
143
1.0
 70
   688
 72
     0
 73
     0
 74
     5
  7

 75
    16
 76
     0
 77
     2
 78
   300
147
1.0
148
0.0
149
0.0
100
AcDbLayout
  1
Layout1
 70
     1
 71
     1
 10
0.0
 20
0.0
 11
12.0
 21
9.0
 12
0.0
 22
0.0
 32
0.0
 14
1.0000000000E+20
 24
1.0000000000E+20
 34
1.0000000000E+20
 15
-1.0000000000E+20
 25
-1.0000000000E+20
 35
-1.0000000000E+20
146
0.0
 13
0.0
 23
0.0
 33
0.0
 16
1.0
 26
0.0
 36
0.0
 17
0.0
 27
1.0
 37
0.0
 76
     0
330
1B
  0
LAYOUT
  5
26
102
{ACAD_REACTORS
330
1A
102
}
330
1A
100
AcDbPlotSettings
  1

  2
none_device
  4

  6

 40
0.0
 41
0.0
 42
0.0
 43
0.0
 44
0.0
 45
0.0
 46
0.0
 47
0.0
 48
0.0
 49
0.0
140
0.0
141
0.0
142
1.0
143
1.0
 70
   688
 72
     0
 73
     0
 74
     5
  7

 75
    16
 76
     0
 77
     2
 78
   300
147
1.0
148
0.0
149
0.0
100
AcDbLayout
  1
Layout2
 70
     1
 71
     2
 10
0.0
 20
0.0
 11
0.0
 21
0.0
 12
0.0
 22
0.0
 32
0.0
 14
0.0
 24
0.0
 34
0.0
 15
0.0
 25
0.0
 35
0.0
146
0.0
 13
0.0
 23
0.0
 33
0.0
 16
1.0
 26
0.0
 36
0.0
 17
0.0
 27
1.0
 37
0.0
 76
     0
330
23
  0
LAYOUT
  5
22
102
{ACAD_REACTORS
330
1A
102
}
330
1A
100
AcDbPlotSettings
  1

  2
none_device
  4

  6

 40
0.0
 41
0.0
 42
0.0
 43
0.0
 44
0.0
 45
0.0
 46
0.0
 47
0.0
 48
0.0
 49
0.0
140
0.0
141
0.0
142
1.0
143
1.0
 70
  1712
 72
     0
 73
     0
 74
     0
  7

 75
     0
 76
     0
 77
     2
 78
   300
147
1.0
148
0.0
149
0.0
100
AcDbLayout
  1
Model
 70
     1
 71
     0
 10
0.0
 20
0.0
 11
100.0
 21
65.0
 12
0.0
 22
0.0
 32
0.0
 14
0.0
 24
0.0
 34
0.0
 15
100.0
 25
65.0
 35
0.0
146
0.0
 13
0.0
 23
0.0
 33
0.0
 16
1.0
 26
0.0
 36
0.0
 17
0.0
 27
1.0
 37
0.0
 76
     0
330
1F
331
29
  0
MATERIAL
  5
3D
102
{ACAD_REACTORS
330
3B
102
}
330
3B
100
AcDbMaterial
  1
ByBlock
  0
MATERIAL
  5
3C
102
{ACAD_REACTORS
330
3B
102
}
330
3B
100
AcDbMaterial
  1
ByLayer
  0
MATERIAL
  5
3E
102
{ACAD_REACTORS
330
3B
102
}
330
3B
100
AcDbMaterial
  1
Global
  0
MLINESTYLE
  5
18
102
{ACAD_REACTORS
330
17
102
}
330
17
100
AcDbMlineStyle
  2
Standard
 70
     0
  3

 62
   256
 51
90.0
 52
90.0
 71
     2
 49
0.5
 62
   256
  6
BYLAYER
 49
-0.5
 62
   256
  6
BYLAYER
  0
ACDBPLACEHOLDER
  5
F
102
{ACAD_REACTORS
330
E
102
}
330
E
  0
ENDSEC
  0
EOF
