  0
SECTION
  2
HEADER
  9
$ACADVER
  1
AC1018
  9
$ACADMAINTVER
 70
     0
  9
$DWGCODEPAGE
  3
ANSI_1252
  9
$INSBASE
 10
0.0
 20
0.0
 30
0.0
  9
$EXTMIN
 10
0.0
 20
0.0
 30
0.0
  9
$EXTMAX
 10
130.0
 20
90.0
 30
0.0
  9
$LIMMIN
 10
0.0
 20
0.0
  9
$LIMMAX
 10
130.0
 20
90.0
  9
$ORTHOMODE
 70
     0
  9
$REGENMODE
 70
     1
  9
$FILLMODE
 70
     1
  9
$QTEXTMODE
 70
     0
  9
$MIRRTEXT
 70
     1
  9
$LTSCALE
 40
1.0
  9
$ATTMODE
 70
     1
  9
$TEXTSIZE
 40
0.1388888889
  9
$TRACEWID
 40
0.05
  9
$TEXTSTYLE
  7
Standard
  9
$CLAYER
  8
0
  9
$CELTYPE
  6
ByLayer
  9
$CECOLOR
 62
   256
  9
$CELTSCALE
 40
1.0
  9
$DISPSILH
 70
     0
  9
$DIMSCALE
 40
1.0
  9
$DIMASZ
 40
1.0
  9
$DIMEXO
 40
0.0393700787
  9
$DIMDLI
 40
0.38
  9
$DIMRND
 40
0.0
  9
$DIMDLE
 40
0.0
  9
$DIMEXE
 40
0.0393700787
  9
$DIMTP
 40
0.0
  9
$DIMTM
 40
0.0
  9
$DIMTXT
 40
1.5
  9
$DIMCEN
 40
0.09
  9
$DIMTSZ
 40
0.0
  9
$DIMTOL
 70
     0
  9
$DIMLIM
 70
     0
  9
$DIMTIH
 70
     1
  9
$DIMTOH
 70
     1
  9
$DIMSE1
 70
     0
  9
$DIMSE2
 70
     0
  9
$DIMTAD
 70
     0
  9
$DIMZIN
 70
     0
  9
$DIMBLK
  1

  9
$DIMASO
 70
     1
  9
$DIMSHO
 70
     1
  9
$DIMPOST
  1

  9
$DIMAPOST
  1

  9
$DIMALT
 70
     0
  9
$DIMALTD
 70
     2
  9
$DIMALTF
 40
25.4
  9
$DIMLFAC
 40
1.0
  9
$DIMTOFL
 70
     0
  9
$DIMTVP
 40
0.0
  9
$DIMTIX
 70
     0
  9
$DIMSOXD
 70
     0
  9
$DIMSAH
 70
     0
  9
$DIMBLK1
  1

  9
$DIMBLK2
  1

  9
$DIMSTYLE
  2
Standard
  9
$DIMCLRD
 70
     0
  9
$DIMCLRE
 70
     0
  9
$DIMCLRT
 70
     0
  9
$DIMTFAC
 40
1.0
  9
$DIMGAP
 40
0.06
  9
$DIMJUST
 70
     0
  9
$DIMSD1
 70
     0
  9
$DIMSD2
 70
     0
  9
$DIMTOLJ
 70
     1
  9
$DIMTZIN
 70
     0
  9
$DIMALTZ
 70
     0
  9
$DIMALTTZ
 70
     0
  9
$DIMUPT
 70
     0
  9
$DIMDEC
 70
     3
  9
$DIMTDEC
 70
     2
  9
$DIMALTU
 70
     2
  9
$DIMALTTD
 70
     2
  9
$DIMTXSTY
  7
Standard
  9
$DIMAUNIT
 70
     0
  9
$DIMADEC
 70
     2
  9
$DIMALTRND
 40
0.0
  9
$DIMAZIN
 70
     0
  9
$DIMDSEP
 70
    46
  9
$DIMATFIT
 70
     3
  9
$DIMFRAC
 70
     0
  9
$DIMLDRBLK
  1

  9
$DIMLUNIT
 70
     2
  9
$DIMLWD
 70
    -2
  9
$DIMLWE
 70
    -2
  9
$DIMTMOVE
 70
     0
  9
$LUNITS
 70
     2
  9
$LUPREC
 70
     3
  9
$SKETCHINC
 40
0.1
  9
$FILLETRAD
 40
0.5
  9
$AUNITS
 70
     0
  9
$AUPREC
 70
     2
  9
$MENU
  1
.
  9
$ELEVATION
 40
0.0
  9
$PELEVATION
 40
0.0
  9
$THICKNESS
 40
0.0
  9
$LIMCHECK
 70
     0
  9
$CHAMFERA
 40
0.5
  9
$CHAMFERB
 40
0.5
  9
$CHAMFERC
 40
1.0
  9
$CHAMFERD
 40
0.0
  9
$SKPOLY
 70
     0
  9
$TDCREATE
 40
2456575.541133461
  9
$TDUCREATE
 40
2456575.749466794
  9
$TDUPDATE
 40
2456575.541134907
  9
$TDUUPDATE
 40
2456575.749468241
  9
$TDINDWG
 40
0.0000000116
  9
$TDUSRTIMER
 40
0.0000000116
  9
$USRTIMER
 70
     1
  9
$ANGBASE
 50
0.0
  9
$ANGDIR
 70
     0
  9
$PDMODE
 70
     0
  9
$PDSIZE
 40
-1.0
  9
$PLINEWID
 40
0.0
  9
$SPLFRAME
 70
     0
  9
$SPLINETYPE
 70
     6
  9
$SPLINESEGS
 70
     8
  9
$HANDSEED
  5
598
  9
$SURFTAB1
 70
     6
  9
$SURFTAB2
 70
     6
  9
$SURFTYPE
 70
     6
  9
$SURFU
 70
     6
  9
$SURFV
 70
     6
  9
$UCSBASE
  2

  9
$UCSNAME
  2

  9
$UCSORG
 10
0.0
 20
0.0
 30
0.0
  9
$UCSXDIR
 10
1.0
 20
0.0
 30
0.0
  9
$UCSYDIR
 10
0.0
 20
1.0
 30
0.0
  9
$UCSORTHOREF
  2

  9
$UCSORTHOVIEW
 70
     0
  9
$UCSORGTOP
 10
0.0
 20
0.0
 30
0.0
  9
$UCSORGBOTTOM
 10
0.0
 20
0.0
 30
0.0
  9
$UCSORGLEFT
 10
0.0
 20
0.0
 30
0.0
  9
$UCSORGRIGHT
 10
0.0
 20
0.0
 30
0.0
  9
$UCSORGFRONT
 10
0.0
 20
0.0
 30
0.0
  9
$UCSORGBACK
 10
0.0
 20
0.0
 30
0.0
  9
$PUCSBASE
  2

  9
$PUCSNAME
  2

  9
$PUCSORG
 10
0.0
 20
0.0
 30
0.0
  9
$PUCSXDIR
 10
1.0
 20
0.0
 30
0.0
  9
$PUCSYDIR
 10
0.0
 20
1.0
 30
0.0
  9
$PUCSORTHOREF
  2

  9
$PUCSORTHOVIEW
 70
     0
  9
$PUCSORGTOP
 10
0.0
 20
0.0
 30
0.0
  9
$PUCSORGBOTTOM
 10
0.0
 20
0.0
 30
0.0
  9
$PUCSORGLEFT
 10
0.0
 20
0.0
 30
0.0
  9
$PUCSORGRIGHT
 10
0.0
 20
0.0
 30
0.0
  9
$PUCSORGFRONT
 10
0.0
 20
0.0
 30
0.0
  9
$PUCSORGBACK
 10
0.0
 20
0.0
 30
0.0
  9
$USERI1
 70
     0
  9
$USERI2
 70
     0
  9
$USERI3
 70
     0
  9
$USERI4
 70
     0
  9
$USERI5
 70
     0
  9
$USERR1
 40
0.0
  9
$USERR2
 40
0.0
  9
$USERR3
 40
0.0
  9
$USERR4
 40
0.0
  9
$USERR5
 40
0.0
  9
$WORLDVIEW
 70
     1
  9
$SHADEDGE
 70
     3
  9
$SHADEDIF
 70
    70
  9
$TILEMODE
 70
     1
  9
$MAXACTVP
 70
    64
  9
$PINSBASE
 10
0.0
 20
0.0
 30
0.0
  9
$PLIMCHECK
 70
     0
  9
$PEXTMIN
 10
1.0000000000E+20
 20
1.0000000000E+20
 30
1.0000000000E+20
  9
$PEXTMAX
 10
-1.0000000000E+20
 20
-1.0000000000E+20
 30
-1.0000000000E+20
  9
$PLIMMIN
 10
0.0
 20
0.0
  9
$PLIMMAX
 10
12.0
 20
9.0
  9
$UNITMODE
 70
     0
  9
$VISRETAIN
 70
     1
  9
$PLINEGEN
 70
     0
  9
$PSLTSCALE
 70
     1
  9
$TREEDEPTH
 70
  3020
  9
$CMLSTYLE
  2
Standard
  9
$CMLJUST
 70
     0
  9
$CMLSCALE
 40
1.0
  9
$PROXYGRAPHICS
 70
     1
  9
$MEASUREMENT
 70
     0
  9
$CELWEIGHT
370
    -1
  9
$ENDCAPS
280
     0
  9
$JOINSTYLE
280
     0
  9
$LWDISPLAY
290
     1
  9
$INSUNITS
 70
     1
  9
$HYPERLINKBASE
  1

  9
$STYLESHEET
  1

  9
$XEDIT
290
     1
  9
$CEPSNTYPE
380
     0
  9
$PSTYLEMODE
290
     1
  9
$FINGERPRINTGUID
  2
{E04B7C54-B2E6-4486-98D3-3520D5A3B937}
  9
$VERSIONGUID
  2
{FAEB1C32-E019-11D5-929B-00C0DF256EC4}
  9
$EXTNAMES
290
     1
  9
$PSVPSCALE
 40
0.0
  9
$OLESTARTUP
290
     0
  9
$SORTENTS
280
   127
  9
$INDEXCTL
280
     0
  9
$HIDETEXT
280
     1
  9
$XCLIPFRAME
290
     0
  9
$HALOGAP
280
     0
  9
$OBSCOLOR
 70
   257
  9
$OBSLTYPE
280
     0
  9
$INTERSECTIONDISPLAY
280
     0
  9
$INTERSECTIONCOLOR
 70
   257
  9
$DIMASSOC
280
     2
  9
$PROJECTNAME
  1

  0
ENDSEC
  0
SECTION
  2
CLASSES
  0
CLASS
  1
ACDBDICTIONARYWDFLT
  2
AcDbDictionaryWithDefault
  3
ObjectDBX Classes
 90
        0
 91
        4
280
     0
281
     0
  0
CLASS
  1
VISUALSTYLE
  2
AcDbVisualStyle
  3
ObjectDBX Classes
 90
     4095
 91
        4
280
     0
281
     0
  0
CLASS
  1
MATERIAL
  2
AcDbMaterial
  3
ObjectDBX Classes
 90
     1153
 91
        4
280
     0
281
     0
  0
ENDSEC
  0
SECTION
  2
TABLES
  0
TABLE
  2
VPORT
  5
8
330
0
100
AcDbSymbolTable
 70
     1
  0
VPORT
  5
29
330
8
100
AcDbSymbolTableRecord
100
AcDbViewportTableRecord
  2
*Active
 70
     0
 10
0.0
 20
0.0
 11
1.0
 21
1.0
 12
65.0
 22
45.0
 13
0.0
 23
0.0
 14
0.5
 24
0.5
 15
0.5
 25
0.5
 16
0.0
 26
0.0
 36
1.0
 17
0.0
 27
0.0
 37
0.0
 40
90.0
 41
1.4444444444
 42
50.0
 43
0.0
 44
0.0
 50
0.0
 51
0.0
 71
     0
 72
  2000
 73
     1
 74
     3
 75
     0
 76
     0
 77
     0
 78
     0
281
     0
 65
     1
110
0.0
120
0.0
130
0.0
111
1.0
121
0.0
131
0.0
112
0.0
122
1.0
132
0.0
 79
     0
146
0.0
  0
ENDTAB
  0
TABLE
  2
LTYPE
  5
5
330
0
100
AcDbSymbolTable
 70
     6
  0
LTYPE
  5
14
330
5
100
AcDbSymbolTableRecord
100
AcDbLinetypeTableRecord
  2
ByBlock
 70
     0
  3

 72
    65
 73
     0
 40
0.0
  0
LTYPE
  5
15
330
5
100
AcDbSymbolTableRecord
100
AcDbLinetypeTableRecord
  2
ByLayer
 70
     0
  3

 72
    65
 73
     0
 40
0.0
  0
LTYPE
  5
16
330
5
100
AcDbSymbolTableRecord
100
AcDbLinetypeTableRecord
  2
Continuous
 70
     0
  3
Solid line
 72
    65
 73
     0
 40
0.0
  0
LTYPE
  5
3F
330
5
100
AcDbSymbolTableRecord
100
AcDbLinetypeTableRecord
  2
HIDDEN
 70
     0
  3
Hidden __ __ __ __ __ __ __ __ __ __ __ __ __ __
 72
    65
 73
     2
 40
0.075
 49
0.05
 74
     0
 49
-0.025
 74
     0
  0
LTYPE
  5
40
330
5
100
AcDbSymbolTableRecord
100
AcDbLinetypeTableRecord
  2
PHANTOM
 70
     0
  3
Phantom ______  __  __  ______  __  __  ______
 72
    65
 73
     6
 40
0.5
 49
0.25
 74
     0
 49
-0.05
 74
     0
 49
0.05
 74
     0
 49
-0.05
 74
     0
 49
0.05
 74
     0
 49
-0.05
 74
     0
  0
LTYPE
  5
41
330
5
100
AcDbSymbolTableRecord
100
AcDbLinetypeTableRecord
  2
CENTER
 70
     0
  3
Center ____ _ ____ _ ____ _ ____ _ ____ _ ____
 72
    65
 73
     4
 40
0.4
 49
0.25
 74
     0
 49
-0.05
 74
     0
 49
0.05
 74
     0
 49
-0.05
 74
     0
  0
LTYPE
  5
42
330
5
100
AcDbSymbolTableRecord
100
AcDbLinetypeTableRecord
  2
CENTERX2
 70
     0
  3
Center (2x) ________  __  ________  __  _____
 72
    65
 73
     4
 40
0.8
 49
0.5
 74
     0
 49
-0.1
 74
     0
 49
0.1
 74
     0
 49
-0.1
 74
     0
  0
LTYPE
  5
43
330
5
100
AcDbSymbolTableRecord
100
AcDbLinetypeTableRecord
  2
DOT2
 70
     0
  3
Dot (.5x) ........................................
 72
    65
 73
     2
 40
0.025
 49
0.0
 74
     0
 49
-0.025
 74
     0
  0
ENDTAB
  0
TABLE
  2
LAYER
  5
2
330
0
100
AcDbSymbolTable
 70
     4
  0
LAYER
  5
10
330
2
100
AcDbSymbolTableRecord
100
AcDbLayerTableRecord
  2
0
 70
     0
 62
     7
  6
Continuous
370
    -3
390
F
  0
LAYER
  5
44
330
2
100
AcDbSymbolTableRecord
100
AcDbLayerTableRecord
  2
SLD-0
 70
     0
 62
     7
  6
Continuous
370
    -3
390
F
  0
LAYER
  5
45
330
2
100
AcDbSymbolTableRecord
100
AcDbLayerTableRecord
  2
DIM
 70
     0
 62
   100
  6
Continuous
370
    -3
390
F
  0
LAYER
  5
46
330
2
100
AcDbSymbolTableRecord
100
AcDbLayerTableRecord
  2
NOTES
 70
     0
 62
     1
  6
Continuous
370
    -3
390
F
  0
ENDTAB
  0
TABLE
  2
STYLE
  5
3
330
0
100
AcDbSymbolTable
 70
     2
  0
STYLE
  5
11
330
3
100
AcDbSymbolTableRecord
100
AcDbTextStyleTableRecord
  2
Standard
 70
     0
 40
0.0
 41
1.0
 50
0.0
 71
     0
 42
0.1388888889
  3
txt
  4

  0
STYLE
  5
4A
330
3
100
AcDbSymbolTableRecord
100
AcDbTextStyleTableRecord
  2
SLDTEXTSTYLE0
 70
     0
 40
0.0
 41
0.75
 50
0.0
 71
     0
 42
0.2
  3
TXT
  4

  0
ENDTAB
  0
TABLE
  2
VIEW
  5
6
330
0
100
AcDbSymbolTable
 70
     0
  0
ENDTAB
  0
TABLE
  2
UCS
  5
7
330
0
100
AcDbSymbolTable
 70
     0
  0
ENDTAB
  0
TABLE
  2
APPID
  5
9
330
0
100
AcDbSymbolTable
 70
     1
  0
APPID
  5
12
330
9
100
AcDbSymbolTableRecord
100
AcDbRegAppTableRecord
  2
ACAD
 70
     0
  0
ENDTAB
  0
TABLE
  2
DIMSTYLE
  5
A
330
0
100
AcDbSymbolTable
 70
     3
100
AcDbDimStyleTable
  0
DIMSTYLE
105
27
330
A
100
AcDbSymbolTableRecord
100
AcDbDimStyleTableRecord
  2
Standard
 70
     0
178
     0
340
11
  0
DIMSTYLE
105
18C
102
{ACAD_REACTORS
330
18B
330
199
330
1A8
330
1B7
330
2DC
330
2EB
330
2FA
330
444
102
}
330
A
100
AcDbSymbolTableRecord
100
AcDbDimStyleTableRecord
  2
SLDDIMSTYLE0
 70
     0
 41
1.0
 44
0.0
 45
0.000000001
 78
    12
 79
     3
140
1.5
147
0.375
173
     1
178
     0
271
     3
272
     2
276
     2
277
     5
284
    12
340
4A
  0
DIMSTYLE
105
2CE
102
{ACAD_REACTORS
330
2CD
330
453
102
}
330
A
100
AcDbSymbolTableRecord
100
AcDbDimStyleTableRecord
  2
SLDDIMSTYLE1
 70
     0
 41
1.0
 44
0.0
 45
0.000000001
 78
    12
 79
     3
140
1.5
147
0.375
172
     1
173
     1
178
     0
271
     3
272
     2
276
     2
277
     5
284
    12
289
     0
340
4A
  0
ENDTAB
  0
TABLE
  2
BLOCK_RECORD
  5
1
330
0
100
AcDbSymbolTable
 70
    12
  0
BLOCK_RECORD
  5
1F
330
1
100
AcDbSymbolTableRecord
100
AcDbBlockTableRecord
  2
*Model_Space
340
22
  0
BLOCK_RECORD
  5
1B
330
1
100
AcDbSymbolTableRecord
100
AcDbBlockTableRecord
  2
*Paper_Space
340
1E
  0
BLOCK_RECORD
  5
23
330
1
100
AcDbSymbolTableRecord
100
AcDbBlockTableRecord
  2
*Paper_Space0
340
26
  0
BLOCK_RECORD
  5
47
330
1
100
AcDbSymbolTableRecord
100
AcDbBlockTableRecord
  2
SW_NOTE_0
340
0
102
{BLKREFS
331
4F
102
}
  0
BLOCK_RECORD
  5
18D
330
1
100
AcDbSymbolTableRecord
100
AcDbBlockTableRecord
  2
_D
340
0
  0
BLOCK_RECORD
  5
19A
330
1
100
AcDbSymbolTableRecord
100
AcDbBlockTableRecord
  2
_D_1
340
0
  0
BLOCK_RECORD
  5
1A9
330
1
100
AcDbSymbolTableRecord
100
AcDbBlockTableRecord
  2
_D_2
340
0
  0
BLOCK_RECORD
  5
1B8
330
1
100
AcDbSymbolTableRecord
100
AcDbBlockTableRecord
  2
_D_3
340
0
  0
BLOCK_RECORD
  5
2CF
330
1
100
AcDbSymbolTableRecord
100
AcDbBlockTableRecord
  2
_D_4
340
0
  0
BLOCK_RECORD
  5
2DD
330
1
100
AcDbSymbolTableRecord
100
AcDbBlockTableRecord
  2
_D_5
340
0
  0
BLOCK_RECORD
  5
2EC
330
1
100
AcDbSymbolTableRecord
100
AcDbBlockTableRecord
  2
_D_6
340
0
  0
BLOCK_RECORD
  5
2FB
330
1
100
AcDbSymbolTableRecord
100
AcDbBlockTableRecord
  2
_D_7
340
0
  0
BLOCK_RECORD
  5
445
330
1
100
AcDbSymbolTableRecord
100
AcDbBlockTableRecord
  2
_D_8
340
0
  0
BLOCK_RECORD
  5
454
330
1
100
AcDbSymbolTableRecord
100
AcDbBlockTableRecord
  2
_D_9
340
0
  0
ENDTAB
  0
ENDSEC
  0
SECTION
  2
BLOCKS
  0
BLOCK
  5
20
330
1F
100
AcDbEntity
  8
0
100
AcDbBlockBegin
  2
*Model_Space
 70
     0
 10
0.0
 20
0.0
 30
0.0
  3
*Model_Space
  1

  0
ENDBLK
  5
21
330
1F
100
AcDbEntity
  8
0
100
AcDbBlockEnd
  0
BLOCK
  5
1C
330
1B
100
AcDbEntity
 67
     1
  8
0
100
AcDbBlockBegin
  2
*Paper_Space
 70
     0
 10
0.0
 20
0.0
 30
0.0
  3
*Paper_Space
  1

  0
ENDBLK
  5
1D
330
1B
100
AcDbEntity
 67
     1
  8
0
100
AcDbBlockEnd
  0
BLOCK
  5
24
330
23
100
AcDbEntity
  8
0
100
AcDbBlockBegin
  2
*Paper_Space0
 70
     0
 10
0.0
 20
0.0
 30
0.0
  3
*Paper_Space0
  1

  0
ENDBLK
  5
25
330
23
100
AcDbEntity
  8
0
100
AcDbBlockEnd
  0
BLOCK
  5
48
330
47
100
AcDbEntity
  8
0
100
AcDbBlockBegin
  2
SW_NOTE_0
 70
     0
 10
0.0
 20
0.0
 30
0.0
  3
SW_NOTE_0
  1

  0
MTEXT
  5
4B
330
47
100
AcDbEntity
  8
NOTES
 62
     0
100
AcDbMText
 10
0.0
 20
2.5781354795
 30
0.0
 40
2.0
 41
0.0
 71
     1
 72
     1
  1
OP36FP32MN
  7
SLDTEXTSTYLE0
 73
     1
 44
1.0
  0
MTEXT
  5
4C
330
47
100
AcDbEntity
  8
NOTES
 62
     0
100
AcDbMText
 10
0.0
 20
-0.0079757121
 30
0.0
 40
2.0
 41
0.0
 71
     1
 72
     1
  1
OP36FP32MP
  7
SLDTEXTSTYLE0
 73
     1
 44
1.0
  0
MTEXT
  5
4D
330
47
100
AcDbEntity
  8
NOTES
 62
     0
100
AcDbMText
 10
0.0
 20
-2.5940869038
 30
0.0
 40
2.0
 41
0.0
 71
     1
 72
     1
  1
OP36FP72MN
  7
SLDTEXTSTYLE0
 73
     1
 44
1.0
  0
MTEXT
  5
4E
330
47
100
AcDbEntity
  8
NOTES
 62
     0
100
AcDbMText
 10
0.0
 20
-5.1801980955
 30
0.0
 40
2.0
 41
0.0
 71
     1
 72
     1
  1
OP36FP72MP
  7
SLDTEXTSTYLE0
 73
     1
 44
1.0
  0
ENDBLK
  5
49
330
47
100
AcDbEntity
  8
0
100
AcDbBlockEnd
  0
BLOCK
  5
18E
330
18D
100
AcDbEntity
  8
0
100
AcDbBlockBegin
  2
_D
 70
     0
 10
0.0
 20
0.0
 30
0.0
  3
_D
  1

  0
SOLID
  5
190
330
18D
100
AcDbEntity
  8
DIM
100
AcDbTrace
 10
47.4126564634
 20
27.2044935827
 30
0.0
 11
48.4126564634
 21
27.0169935827
 31
0.0
 12
48.4126564634
 22
27.3919935827
 32
0.0
 13
48.4126564634
 23
27.3919935827
 33
0.0
  0
SOLID
  5
191
330
18D
100
AcDbEntity
  8
DIM
100
AcDbTrace
 10
83.5418564634
 20
27.2044935827
 30
0.0
 11
82.5418564634
 21
27.3919935827
 31
0.0
 12
82.5418564634
 22
27.0169935827
 32
0.0
 13
82.5418564634
 23
27.0169935827
 33
0.0
  0
LINE
  5
192
330
18D
100
AcDbEntity
  8
DIM
100
AcDbLine
 10
66.5668397978
 20
28.7044936013
 30
0.0
 11
64.7668397755
 21
25.7044935642
 31
0.0
  0
LINE
  5
193
330
18D
100
AcDbEntity
  8
DIM
100
AcDbLine
 10
47.4126564634
 20
27.2044935827
 30
0.0
 11
62.3418397773
 21
27.2044935827
 31
0.0
  0
LINE
  5
194
330
18D
100
AcDbEntity
  8
DIM
100
AcDbLine
 10
83.5418564634
 20
27.2044935827
 30
0.0
 11
68.6126731495
 21
27.2044935827
 31
0.0
  0
MTEXT
  5
195
330
18D
100
AcDbEntity
  8
DIM
100
AcDbMText
 10
62.3418397773
 20
28.0641369722
 30
-10.575155905
 40
1.5
 41
0.0
 71
     1
 72
     1
  1
36
  7
SLDTEXTSTYLE0
 73
     1
 44
1.0
  0
MTEXT
  5
196
330
18D
100
AcDbEntity
  8
DIM
100
AcDbMText
 10
64.5585064502
 20
29.1380952291
 30
-10.575155905
 40
1.5
 41
0.0
 71
     1
 72
     1
  1
1
  7
SLDTEXTSTYLE0
 73
     1
 44
1.0
  0
MTEXT
  5
197
330
18D
100
AcDbEntity
  8
DIM
100
AcDbMText
 10
65.6668397867
 20
27.1985118353
 30
-10.575155905
 40
1.5
 41
0.0
 71
     1
 72
     1
  1
8
  7
SLDTEXTSTYLE0
 73
     1
 44
1.0
  0
MTEXT
  5
198
330
18D
100
AcDbEntity
  8
DIM
100
AcDbMText
 10
66.7751731231
 20
28.0641369722
 30
-10.575155905
 40
1.5
 41
0.0
 71
     1
 72
     1
  1
"
  7
SLDTEXTSTYLE0
 73
     1
 44
1.0
  0
ENDBLK
  5
18F
330
18D
100
AcDbEntity
  8
0
100
AcDbBlockEnd
  0
BLOCK
  5
19B
330
19A
100
AcDbEntity
  8
0
100
AcDbBlockBegin
  2
_D_1
 70
     0
 10
0.0
 20
0.0
 30
0.0
  3
_D_1
  1

  0
SOLID
  5
19D
330
19A
100
AcDbEntity
  8
DIM
100
AcDbTrace
 10
45.9102564634
 20
4.0790158787
 30
0.0
 11
46.9102564634
 21
3.8915158787
 31
0.0
 12
46.9102564634
 22
4.2665158787
 32
0.0
 13
46.9102564634
 23
4.2665158787
 33
0.0
  0
SOLID
  5
19E
330
19A
100
AcDbEntity
  8
DIM
100
AcDbTrace
 10
85.0442564634
 20
4.0790158787
 30
0.0
 11
84.0442564634
 21
4.2665158787
 31
0.0
 12
84.0442564634
 22
3.8915158787
 32
0.0
 13
84.0442564634
 23
3.8915158787
 33
0.0
  0
LINE
  5
19F
330
19A
100
AcDbEntity
  8
DIM
100
AcDbLine
 10
66.5668397978
 20
5.5790158973
 30
0.0
 11
64.7668397755
 21
2.5790158602
 31
0.0
  0
LINE
  5
1A0
330
19A
100
AcDbEntity
  8
DIM
100
AcDbLine
 10
45.9102564634
 20
8.1067452094
 30
0.0
 11
45.9102564634
 21
4.0396458
 31
0.0
  0
LINE
  5
1A1
330
19A
100
AcDbEntity
  8
DIM
100
AcDbLine
 10
85.0442564634
 20
8.1067452094
 30
0.0
 11
85.0442564634
 21
4.0396458
 31
0.0
  0
LINE
  5
1A2
330
19A
100
AcDbEntity
  8
DIM
100
AcDbLine
 10
45.9102564634
 20
4.0790158787
 30
0.0
 11
62.3418397773
 21
4.0790158787
 31
0.0
  0
LINE
  5
1A3
330
19A
100
AcDbEntity
  8
DIM
100
AcDbLine
 10
85.0442564634
 20
4.0790158787
 30
0.0
 11
68.6126731495
 21
4.0790158787
 31
0.0
  0
MTEXT
  5
1A4
330
19A
100
AcDbEntity
  8
DIM
100
AcDbMText
 10
62.3418397773
 20
4.9386592682
 30
-10.575155905
 40
1.5
 41
0.0
 71
     1
 72
     1
  1
39
  7
SLDTEXTSTYLE0
 73
     1
 44
1.0
  0
MTEXT
  5
1A5
330
19A
100
AcDbEntity
  8
DIM
100
AcDbMText
 10
64.5585064502
 20
6.012617525
 30
-10.575155905
 40
1.5
 41
0.0
 71
     1
 72
     1
  1
1
  7
SLDTEXTSTYLE0
 73
     1
 44
1.0
  0
MTEXT
  5
1A6
330
19A
100
AcDbEntity
  8
DIM
100
AcDbMText
 10
65.6668397867
 20
4.0730341313
 30
-10.575155905
 40
1.5
 41
0.0
 71
     1
 72
     1
  1
8
  7
SLDTEXTSTYLE0
 73
     1
 44
1.0
  0
MTEXT
  5
1A7
330
19A
100
AcDbEntity
  8
DIM
100
AcDbMText
 10
66.7751731231
 20
4.9386592682
 30
-10.575155905
 40
1.5
 41
0.0
 71
     1
 72
     1
  1
"
  7
SLDTEXTSTYLE0
 73
     1
 44
1.0
  0
ENDBLK
  5
19C
330
19A
100
AcDbEntity
  8
0
100
AcDbBlockEnd
  0
BLOCK
  5
1AA
330
1A9
100
AcDbEntity
  8
0
100
AcDbBlockBegin
  2
_D_2
 70
     0
 10
0.0
 20
0.0
 30
0.0
  3
_D_2
  1

  0
SOLID
  5
1AC
330
1A9
100
AcDbEntity
  8
DIM
100
AcDbTrace
 10
36.4749131334
 20
8.0791152882
 30
0.0
 11
36.6624131334
 21
9.0791152882
 31
0.0
 12
36.2874131334
 22
9.0791152882
 32
0.0
 13
36.2874131334
 23
9.0791152882
 33
0.0
  0
SOLID
  5
1AD
330
1A9
100
AcDbEntity
  8
DIM
100
AcDbTrace
 10
36.4749131334
 20
46.8073457653
 30
0.0
 11
36.2874131334
 21
45.8073457653
 31
0.0
 12
36.6624131334
 22
45.8073457653
 32
0.0
 13
36.6624131334
 23
45.8073457653
 33
0.0
  0
LINE
  5
1AE
330
1A9
100
AcDbEntity
  8
DIM
100
AcDbLine
 10
37.5644964678
 20
28.9432305453
 30
0.0
 11
35.7644964455
 21
25.9432305082
 31
0.0
  0
LINE
  5
1AF
330
1A9
100
AcDbEntity
  8
DIM
100
AcDbLine
 10
45.9378863847
 20
8.0791152882
 30
0.0
 11
36.4355430547
 21
8.0791152882
 31
0.0
  0
LINE
  5
1B0
330
1A9
100
AcDbEntity
  8
DIM
100
AcDbLine
 10
55.1178863847
 20
46.8073457653
 30
0.0
 11
36.4355430547
 21
46.8073457653
 31
0.0
  0
LINE
  5
1B1
330
1A9
100
AcDbEntity
  8
DIM
100
AcDbLine
 10
36.4749131334
 20
8.0791152882
 30
0.0
 11
36.4749131334
 21
25.503647133
 31
0.0
  0
LINE
  5
1B2
330
1A9
100
AcDbEntity
  8
DIM
100
AcDbLine
 10
36.4749131334
 20
46.8073457653
 30
0.0
 11
36.4749131334
 21
29.3828139205
 31
0.0
  0
MTEXT
  5
1B3
330
1A9
100
AcDbEntity
  8
DIM
100
AcDbMText
 10
33.3394964473
 20
28.3028739162
 30
-10.575155905
 40
1.5
 41
0.0
 71
     1
 72
     1
  1
38
  7
SLDTEXTSTYLE0
 73
     1
 44
1.0
  0
MTEXT
  5
1B4
330
1A9
100
AcDbEntity
  8
DIM
100
AcDbMText
 10
35.5561631202
 20
29.3768321731
 30
-10.575155905
 40
1.5
 41
0.0
 71
     1
 72
     1
  1
3
  7
SLDTEXTSTYLE0
 73
     1
 44
1.0
  0
MTEXT
  5
1B5
330
1A9
100
AcDbEntity
  8
DIM
100
AcDbMText
 10
36.6644964567
 20
27.4372487793
 30
-10.575155905
 40
1.5
 41
0.0
 71
     1
 72
     1
  1
4
  7
SLDTEXTSTYLE0
 73
     1
 44
1.0
  0
MTEXT
  5
1B6
330
1A9
100
AcDbEntity
  8
DIM
100
AcDbMText
 10
37.7728297931
 20
28.3028739162
 30
-10.575155905
 40
1.5
 41
0.0
 71
     1
 72
     1
  1
"
  7
SLDTEXTSTYLE0
 73
     1
 44
1.0
  0
ENDBLK
  5
1AB
330
1A9
100
AcDbEntity
  8
0
100
AcDbBlockEnd
  0
BLOCK
  5
1B9
330
1B8
100
AcDbEntity
  8
0
100
AcDbBlockBegin
  2
_D_3
 70
     0
 10
0.0
 20
0.0
 30
0.0
  3
_D_3
  1

  0
SOLID
  5
1BB
330
1B8
100
AcDbEntity
  8
DIM
100
AcDbTrace
 10
40.9749131334
 20
15.1761152882
 30
0.0
 11
41.1624131334
 21
16.1761152882
 31
0.0
 12
40.7874131334
 22
16.1761152882
 32
0.0
 13
40.7874131334
 23
16.1761152882
 33
0.0
  0
SOLID
  5
1BC
330
1B8
100
AcDbEntity
  8
DIM
100
AcDbTrace
 10
40.9749131334
 20
39.5545152882
 30
0.0
 11
40.7874131334
 21
38.5545152882
 31
0.0
 12
41.1624131334
 22
38.5545152882
 32
0.0
 13
41.1624131334
 23
38.5545152882
 33
0.0
  0
LINE
  5
1BD
330
1B8
100
AcDbEntity
  8
DIM
100
AcDbLine
 10
42.0644964678
 20
23.8797340202
 30
0.0
 11
40.2644964455
 21
20.8797339831
 31
0.0
  0
LINE
  5
1BE
330
1B8
100
AcDbEntity
  8
DIM
100
AcDbLine
 10
47.3732863847
 20
15.1761152882
 30
0.0
 11
40.9355430547
 21
15.1761152882
 31
0.0
  0
LINE
  5
1BF
330
1B8
100
AcDbEntity
  8
DIM
100
AcDbLine
 10
47.3732863847
 20
39.5545152882
 30
0.0
 11
40.9355430547
 21
39.5545152882
 31
0.0
  0
LINE
  5
1C0
330
1B8
100
AcDbEntity
  8
DIM
100
AcDbLine
 10
40.9749131334
 20
15.1761152882
 30
0.0
 11
40.9749131334
 21
20.4401506079
 31
0.0
  0
LINE
  5
1C1
330
1B8
100
AcDbEntity
  8
DIM
100
AcDbLine
 10
40.9749131334
 20
39.5545152882
 30
0.0
 11
40.9749131334
 21
24.3193173954
 31
0.0
  0
MTEXT
  5
1C2
330
1B8
100
AcDbEntity
  8
DIM
100
AcDbMText
 10
37.8394964473
 20
23.2393773911
 30
-10.575155905
 40
1.5
 41
0.0
 71
     1
 72
     1
  1
24
  7
SLDTEXTSTYLE0
 73
     1
 44
1.0
  0
MTEXT
  5
1C3
330
1B8
100
AcDbEntity
  8
DIM
100
AcDbMText
 10
40.0561631202
 20
24.313335648
 30
-10.575155905
 40
1.5
 41
0.0
 71
     1
 72
     1
  1
3
  7
SLDTEXTSTYLE0
 73
     1
 44
1.0
  0
MTEXT
  5
1C4
330
1B8
100
AcDbEntity
  8
DIM
100
AcDbMText
 10
41.1644964567
 20
22.3737522542
 30
-10.575155905
 40
1.5
 41
0.0
 71
     1
 72
     1
  1
8
  7
SLDTEXTSTYLE0
 73
     1
 44
1.0
  0
MTEXT
  5
1C5
330
1B8
100
AcDbEntity
  8
DIM
100
AcDbMText
 10
42.2728297931
 20
23.2393773911
 30
-10.575155905
 40
1.5
 41
0.0
 71
     1
 72
     1
  1
"
  7
SLDTEXTSTYLE0
 73
     1
 44
1.0
  0
ENDBLK
  5
1BA
330
1B8
100
AcDbEntity
  8
0
100
AcDbBlockEnd
  0
BLOCK
  5
2D0
330
2CF
100
AcDbEntity
  8
0
100
AcDbBlockBegin
  2
_D_4
 70
     0
 10
0.0
 20
0.0
 30
0.0
  3
_D_4
  1

  0
SOLID
  5
2D2
330
2CF
100
AcDbEntity
  8
DIM
100
AcDbTrace
 10
44.9749131334
 20
56.1098301427
 30
0.0
 11
43.9749131334
 21
56.2973301427
 31
0.0
 12
43.9749131334
 22
55.9223301427
 32
0.0
 13
43.9749131334
 23
55.9223301427
 33
0.0
  0
SOLID
  5
2D3
330
2CF
100
AcDbEntity
  8
DIM
100
AcDbTrace
 10
45.8997564634
 20
56.1098301427
 30
0.0
 11
46.8997564634
 21
55.9223301427
 31
0.0
 12
46.8997564634
 22
56.2973301427
 32
0.0
 13
46.8997564634
 23
56.2973301427
 33
0.0
  0
LINE
  5
2D4
330
2CF
100
AcDbEntity
  8
DIM
100
AcDbLine
 10
40.9561631313
 20
57.6098301613
 30
0.0
 11
39.1561631091
 21
54.6098301242
 31
0.0
  0
LINE
  5
2D5
330
2CF
100
AcDbEntity
  8
DIM
100
AcDbLine
 10
44.9749131334
 20
63.4809640485
 30
0.0
 11
44.9749131334
 21
56.070460064
 31
0.0
  0
LINE
  5
2D6
330
2CF
100
AcDbEntity
  8
DIM
100
AcDbLine
 10
45.8997564634
 20
62.7578890485
 30
0.0
 11
45.8997564634
 21
56.070460064
 31
0.0
  0
LINE
  5
2D7
330
2CF
100
AcDbEntity
  8
DIM
100
AcDbLine
 10
44.9749131334
 20
56.1098301427
 30
0.0
 11
44.1103298195
 21
56.1098301427
 31
0.0
  0
LINE
  5
2D8
330
2CF
100
AcDbEntity
  8
DIM
100
AcDbLine
 10
45.8997564634
 20
56.1098301427
 30
0.0
 11
47.8997564634
 21
56.1098301427
 31
0.0
  0
MTEXT
  5
2D9
330
2CF
100
AcDbEntity
  8
DIM
100
AcDbMText
 10
37.8394964473
 20
58.0434317891
 30
-18.268828526
 40
1.5
 41
0.0
 71
     1
 72
     1
  1
15
  7
SLDTEXTSTYLE0
 73
     1
 44
1.0
  0
MTEXT
  5
2DA
330
2CF
100
AcDbEntity
  8
DIM
100
AcDbMText
 10
40.0561631202
 20
56.1038483953
 30
-18.268828526
 40
1.5
 41
0.0
 71
     1
 72
     1
  1
16
  7
SLDTEXTSTYLE0
 73
     1
 44
1.0
  0
MTEXT
  5
2DB
330
2CF
100
AcDbEntity
  8
DIM
100
AcDbMText
 10
42.2728297931
 20
56.9694735322
 30
-18.268828526
 40
1.5
 41
0.0
 71
     1
 72
     1
  1
"
  7
SLDTEXTSTYLE0
 73
     1
 44
1.0
  0
ENDBLK
  5
2D1
330
2CF
100
AcDbEntity
  8
0
100
AcDbBlockEnd
  0
BLOCK
  5
2DE
330
2DD
100
AcDbEntity
  8
0
100
AcDbBlockBegin
  2
_D_5
 70
     0
 10
0.0
 20
0.0
 30
0.0
  3
_D_5
  1

  0
SOLID
  5
2E0
330
2DD
100
AcDbEntity
  8
DIM
100
AcDbTrace
 10
45.8997564634
 20
56.1098301427
 30
0.0
 11
46.8997564634
 21
55.9223301427
 31
0.0
 12
46.8997564634
 22
56.2973301427
 32
0.0
 13
46.8997564634
 23
56.2973301427
 33
0.0
  0
SOLID
  5
2E1
330
2DD
100
AcDbEntity
  8
DIM
100
AcDbTrace
 10
85.0547564634
 20
56.1098301427
 30
0.0
 11
84.0547564634
 21
56.2973301427
 31
0.0
 12
84.0547564634
 22
55.9223301427
 32
0.0
 13
84.0547564634
 23
55.9223301427
 33
0.0
  0
LINE
  5
2E2
330
2DD
100
AcDbEntity
  8
DIM
100
AcDbLine
 10
66.5668397978
 20
57.6098301613
 30
0.0
 11
64.7668397755
 21
54.6098301242
 31
0.0
  0
LINE
  5
2E3
330
2DD
100
AcDbEntity
  8
DIM
100
AcDbLine
 10
45.8997564634
 20
62.7578890485
 30
0.0
 11
45.8997564634
 21
56.070460064
 31
0.0
  0
LINE
  5
2E4
330
2DD
100
AcDbEntity
  8
DIM
100
AcDbLine
 10
85.0547564634
 20
62.7578890485
 30
0.0
 11
85.0547564634
 21
56.070460064
 31
0.0
  0
LINE
  5
2E5
330
2DD
100
AcDbEntity
  8
DIM
100
AcDbLine
 10
45.8997564634
 20
56.1098301427
 30
0.0
 11
62.3418397773
 21
56.1098301427
 31
0.0
  0
LINE
  5
2E6
330
2DD
100
AcDbEntity
  8
DIM
100
AcDbLine
 10
85.0547564634
 20
56.1098301427
 30
0.0
 11
68.6126731495
 21
56.1098301427
 31
0.0
  0
MTEXT
  5
2E7
330
2DD
100
AcDbEntity
  8
DIM
100
AcDbMText
 10
62.3418397773
 20
56.9694735322
 30
-18.268828526
 40
1.5
 41
0.0
 71
     1
 72
     1
  1
39
  7
SLDTEXTSTYLE0
 73
     1
 44
1.0
  0
MTEXT
  5
2E8
330
2DD
100
AcDbEntity
  8
DIM
100
AcDbMText
 10
64.5585064502
 20
58.0434317891
 30
-18.268828526
 40
1.5
 41
0.0
 71
     1
 72
     1
  1
1
  7
SLDTEXTSTYLE0
 73
     1
 44
1.0
  0
MTEXT
  5
2E9
330
2DD
100
AcDbEntity
  8
DIM
100
AcDbMText
 10
65.6668397867
 20
56.1038483953
 30
-18.268828526
 40
1.5
 41
0.0
 71
     1
 72
     1
  1
8
  7
SLDTEXTSTYLE0
 73
     1
 44
1.0
  0
MTEXT
  5
2EA
330
2DD
100
AcDbEntity
  8
DIM
100
AcDbMText
 10
66.7751731231
 20
56.9694735322
 30
-18.268828526
 40
1.5
 41
0.0
 71
     1
 72
     1
  1
"
  7
SLDTEXTSTYLE0
 73
     1
 44
1.0
  0
ENDBLK
  5
2DF
330
2DD
100
AcDbEntity
  8
0
100
AcDbBlockEnd
  0
BLOCK
  5
2ED
330
2EC
100
AcDbEntity
  8
0
100
AcDbBlockBegin
  2
_D_6
 70
     0
 10
0.0
 20
0.0
 30
0.0
  3
_D_6
  1

  0
SOLID
  5
2EF
330
2EC
100
AcDbEntity
  8
DIM
100
AcDbTrace
 10
40.9749131334
 20
62.7326591272
 30
0.0
 11
41.1624131334
 21
63.7326591272
 31
0.0
 12
40.7874131334
 22
63.7326591272
 32
0.0
 13
40.7874131334
 23
63.7326591272
 33
0.0
  0
SOLID
  5
2F0
330
2EC
100
AcDbEntity
  8
DIM
100
AcDbTrace
 10
40.9749131334
 20
82.0006591272
 30
0.0
 11
40.7874131334
 21
81.0006591272
 31
0.0
 12
41.1624131334
 22
81.0006591272
 32
0.0
 13
41.1624131334
 23
81.0006591272
 33
0.0
  0
LINE
  5
2F1
330
2EC
100
AcDbEntity
  8
DIM
100
AcDbLine
 10
42.0644964678
 20
73.8666591457
 30
0.0
 11
40.2644964455
 21
70.8666591087
 31
0.0
  0
LINE
  5
2F2
330
2EC
100
AcDbEntity
  8
DIM
100
AcDbLine
 10
45.925099083
 20
62.7326591272
 30
0.0
 11
40.9355430547
 21
62.7326591272
 31
0.0
  0
LINE
  5
2F3
330
2EC
100
AcDbEntity
  8
DIM
100
AcDbLine
 10
49.3678863847
 20
82.0006591272
 30
0.0
 11
40.9355430547
 21
82.0006591272
 31
0.0
  0
LINE
  5
2F4
330
2EC
100
AcDbEntity
  8
DIM
100
AcDbLine
 10
40.9749131334
 20
62.7326591272
 30
0.0
 11
40.9749131334
 21
70.4270757334
 31
0.0
  0
LINE
  5
2F5
330
2EC
100
AcDbEntity
  8
DIM
100
AcDbLine
 10
40.9749131334
 20
82.0006591272
 30
0.0
 11
40.9749131334
 21
74.306242521
 31
0.0
  0
MTEXT
  5
2F6
330
2EC
100
AcDbEntity
  8
DIM
100
AcDbMText
 10
37.8394964473
 20
73.2263025167
 30
-18.268828526
 40
1.5
 41
0.0
 71
     1
 72
     1
  1
19
  7
SLDTEXTSTYLE0
 73
     1
 44
1.0
  0
MTEXT
  5
2F7
330
2EC
100
AcDbEntity
  8
DIM
100
AcDbMText
 10
40.0561631202
 20
74.3002607735
 30
-18.268828526
 40
1.5
 41
0.0
 71
     1
 72
     1
  1
1
  7
SLDTEXTSTYLE0
 73
     1
 44
1.0
  0
MTEXT
  5
2F8
330
2EC
100
AcDbEntity
  8
DIM
100
AcDbMText
 10
41.1644964567
 20
72.3606773798
 30
-18.268828526
 40
1.5
 41
0.0
 71
     1
 72
     1
  1
4
  7
SLDTEXTSTYLE0
 73
     1
 44
1.0
  0
MTEXT
  5
2F9
330
2EC
100
AcDbEntity
  8
DIM
100
AcDbMText
 10
42.2728297931
 20
73.2263025167
 30
-18.268828526
 40
1.5
 41
0.0
 71
     1
 72
     1
  1
"
  7
SLDTEXTSTYLE0
 73
     1
 44
1.0
  0
ENDBLK
  5
2EE
330
2EC
100
AcDbEntity
  8
0
100
AcDbBlockEnd
  0
BLOCK
  5
2FC
330
2FB
100
AcDbEntity
  8
0
100
AcDbBlockBegin
  2
_D_7
 70
     0
 10
0.0
 20
0.0
 30
0.0
  3
_D_7
  1

  0
SOLID
  5
2FE
330
2FB
100
AcDbEntity
  8
DIM
100
AcDbTrace
 10
49.4072564634
 20
86.5759022858
 30
0.0
 11
50.4072564634
 21
86.3884022858
 31
0.0
 12
50.4072564634
 22
86.7634022858
 32
0.0
 13
50.4072564634
 23
86.7634022858
 33
0.0
  0
SOLID
  5
2FF
330
2FB
100
AcDbEntity
  8
DIM
100
AcDbTrace
 10
81.5472564634
 20
86.5759022858
 30
0.0
 11
80.5472564634
 21
86.7634022858
 31
0.0
 12
80.5472564634
 22
86.3884022858
 32
0.0
 13
80.5472564634
 23
86.3884022858
 33
0.0
  0
LINE
  5
300
330
2FB
100
AcDbEntity
  8
DIM
100
AcDbLine
 10
66.5668397978
 20
88.0759023044
 30
0.0
 11
64.7668397755
 21
85.0759022673
 31
0.0
  0
LINE
  5
301
330
2FB
100
AcDbEntity
  8
DIM
100
AcDbLine
 10
49.4072564634
 20
82.0400292059
 30
0.0
 11
49.4072564634
 21
86.6152723646
 31
0.0
  0
LINE
  5
302
330
2FB
100
AcDbEntity
  8
DIM
100
AcDbLine
 10
81.5472564634
 20
82.0400292059
 30
0.0
 11
81.5472564634
 21
86.6152723646
 31
0.0
  0
LINE
  5
303
330
2FB
100
AcDbEntity
  8
DIM
100
AcDbLine
 10
49.4072564634
 20
86.5759022858
 30
0.0
 11
62.3418397773
 21
86.5759022858
 31
0.0
  0
LINE
  5
304
330
2FB
100
AcDbEntity
  8
DIM
100
AcDbLine
 10
81.5472564634
 20
86.5759022858
 30
0.0
 11
68.6126731495
 21
86.5759022858
 31
0.0
  0
MTEXT
  5
305
330
2FB
100
AcDbEntity
  8
DIM
100
AcDbMText
 10
62.3418397773
 20
87.4355456753
 30
-18.268828526
 40
1.5
 41
0.0
 71
     1
 72
     1
  1
32
  7
SLDTEXTSTYLE0
 73
     1
 44
1.0
  0
MTEXT
  5
306
330
2FB
100
AcDbEntity
  8
DIM
100
AcDbMText
 10
64.5585064502
 20
88.5095039322
 30
-18.268828526
 40
1.5
 41
0.0
 71
     1
 72
     1
  1
1
  7
SLDTEXTSTYLE0
 73
     1
 44
1.0
  0
MTEXT
  5
307
330
2FB
100
AcDbEntity
  8
DIM
100
AcDbMText
 10
65.6668397867
 20
86.5699205384
 30
-18.268828526
 40
1.5
 41
0.0
 71
     1
 72
     1
  1
8
  7
SLDTEXTSTYLE0
 73
     1
 44
1.0
  0
MTEXT
  5
308
330
2FB
100
AcDbEntity
  8
DIM
100
AcDbMText
 10
66.7751731231
 20
87.4355456753
 30
-18.268828526
 40
1.5
 41
0.0
 71
     1
 72
     1
  1
"
  7
SLDTEXTSTYLE0
 73
     1
 44
1.0
  0
ENDBLK
  5
2FD
330
2FB
100
AcDbEntity
  8
0
100
AcDbBlockEnd
  0
BLOCK
  5
446
330
445
100
AcDbEntity
  8
0
100
AcDbBlockBegin
  2
_D_8
 70
     0
 10
0.0
 20
0.0
 30
0.0
  3
_D_8
  1

  0
SOLID
  5
448
330
445
100
AcDbEntity
  8
DIM
100
AcDbTrace
 10
97.7505672689
 20
43.8851152882
 30
0.0
 11
97.5630672689
 21
42.8851152882
 31
0.0
 12
97.9380672689
 22
42.8851152882
 32
0.0
 13
97.9380672689
 23
42.8851152882
 33
0.0
  0
SOLID
  5
449
330
445
100
AcDbEntity
  8
DIM
100
AcDbTrace
 10
97.7505672689
 20
8.0791152882
 30
0.0
 11
97.9380672689
 21
9.0791152882
 31
0.0
 12
97.5630672689
 22
9.0791152882
 32
0.0
 13
97.5630672689
 23
9.0791152882
 33
0.0
  0
LINE
  5
44A
330
445
100
AcDbEntity
  8
DIM
100
AcDbLine
 10
98.8401505299
 20
27.4821153067
 30
0.0
 11
97.0401505077
 21
24.4821152696
 31
0.0
  0
LINE
  5
44B
330
445
100
AcDbEntity
  8
DIM
100
AcDbLine
 10
104.3986261746
 20
43.8851152882
 30
0.0
 11
97.7111971902
 21
43.8851152882
 31
0.0
  0
LINE
  5
44C
330
445
100
AcDbEntity
  8
DIM
100
AcDbLine
 10
104.4010261746
 20
8.0791152882
 30
0.0
 11
97.7111971902
 21
8.0791152882
 31
0.0
  0
LINE
  5
44D
330
445
100
AcDbEntity
  8
DIM
100
AcDbLine
 10
97.7505672689
 20
43.8851152882
 30
0.0
 11
97.7505672689
 21
27.9216986819
 31
0.0
  0
LINE
  5
44E
330
445
100
AcDbEntity
  8
DIM
100
AcDbLine
 10
97.7505672689
 20
8.0791152882
 30
0.0
 11
97.7505672689
 21
24.0425318944
 31
0.0
  0
MTEXT
  5
44F
330
445
100
AcDbEntity
  8
DIM
100
AcDbMText
 10
93.5068171731
 20
26.8417586776
 30
0.0039370079
 40
1.5
 41
0.0
 71
     1
 72
     1
  1
35
  7
SLDTEXTSTYLE0
 73
     1
 44
1.0
  0
MTEXT
  5
450
330
445
100
AcDbEntity
  8
DIM
100
AcDbMText
 10
95.7234838459
 20
27.9157169345
 30
0.0039370079
 40
1.5
 41
0.0
 71
     1
 72
     1
  1
13
  7
SLDTEXTSTYLE0
 73
     1
 44
1.0
  0
MTEXT
  5
451
330
445
100
AcDbEntity
  8
DIM
100
AcDbMText
 10
97.9401505188
 20
25.9761335407
 30
0.0039370079
 40
1.5
 41
0.0
 71
     1
 72
     1
  1
16
  7
SLDTEXTSTYLE0
 73
     1
 44
1.0
  0
MTEXT
  5
452
330
445
100
AcDbEntity
  8
DIM
100
AcDbMText
 10
100.156817045
 20
26.8417586776
 30
0.0039370079
 40
1.5
 41
0.0
 71
     1
 72
     1
  1
"
  7
SLDTEXTSTYLE0
 73
     1
 44
1.0
  0
ENDBLK
  5
447
330
445
100
AcDbEntity
  8
0
100
AcDbBlockEnd
  0
BLOCK
  5
455
330
454
100
AcDbEntity
  8
0
100
AcDbBlockBegin
  2
_D_9
 70
     0
 10
0.0
 20
0.0
 30
0.0
  3
_D_9
  1

  0
SOLID
  5
457
330
454
100
AcDbEntity
  8
DIM
100
AcDbTrace
 10
128.216639412
 20
43.7921152882
 30
0.0
 11
128.029139412
 21
42.7921152882
 31
0.0
 12
128.404139412
 22
42.7921152882
 32
0.0
 13
128.404139412
 23
42.7921152882
 33
0.0
  0
SOLID
  5
458
330
454
100
AcDbEntity
  8
DIM
100
AcDbTrace
 10
128.216639412
 20
46.8073457653
 30
0.0
 11
128.404139412
 21
47.8073457653
 31
0.0
 12
128.029139412
 22
47.8073457653
 32
0.0
 13
128.029139412
 23
47.8073457653
 33
0.0
  0
LINE
  5
459
330
454
100
AcDbEntity
  8
DIM
100
AcDbLine
 10
123.6020663321
 20
43.7921152882
 30
0.0
 11
128.2560094907
 21
43.7921152882
 31
0.0
  0
LINE
  5
45A
330
454
100
AcDbEntity
  8
DIM
100
AcDbLine
 10
122.0174663321
 20
46.8073457653
 30
0.0
 11
128.2560094907
 21
46.8073457653
 31
0.0
  0
LINE
  5
45B
330
454
100
AcDbEntity
  8
DIM
100
AcDbLine
 10
128.216639412
 20
43.7921152882
 30
0.0
 11
128.216639412
 21
41.7921152882
 31
0.0
  0
LINE
  5
45C
330
454
100
AcDbEntity
  8
DIM
100
AcDbLine
 10
128.216639412
 20
46.8073457653
 30
0.0
 11
128.216639412
 21
48.8073457653
 31
0.0
  0
MTEXT
  5
45D
330
454
100
AcDbEntity
  8
DIM
100
AcDbMText
 10
126.7437226939
 20
46.0427071373
 30
0.0039370079
 40
1.5
 41
0.0
 71
     1
 72
     1
  1
3"
  7
SLDTEXTSTYLE0
 73
     1
 44
1.0
  0
ENDBLK
  5
456
330
454
100
AcDbEntity
  8
0
100
AcDbBlockEnd
  0
ENDSEC
  0
SECTION
  2
ENTITIES
  0
INSERT
  5
4F
330
1F
100
AcDbEntity
  8
NOTES
100
AcDbBlockReference
  2
SW_NOTE_0
 10
2.7822246456
 20
84.6098539852
 30
0.0
  0
LINE
  5
50
330
1F
100
AcDbEntity
  8
SLD-0
  6
Continuous
370
    15
100
AcDbLine
 10
83.3615714623
 20
38.4109990984
 30
0.0
 11
83.3615820221
 21
38.4110272581
 31
0.0
  0
LINE
  5
51
330
1F
100
AcDbEntity
  8
SLD-0
  6
Continuous
370
    15
100
AcDbLine
 10
47.6194948645
 20
38.3791598929
 30
0.0
 11
83.3350180624
 21
38.3791598929
 31
0.0
  0
SPLINE
  5
52
330
1F
100
AcDbEntity
  8
SLD-0
  6
Continuous
370
    15
100
AcDbSpline
210
0.0
220
0.0
230
1.0
 70
     8
 71
     3
 72
    11
 73
     7
 74
     0
 42
0.00000001
 43
0.00000001
 12
1.0
 22
0.0
 32
0.0
 13
1.0
 23
0.0
 33
0.0
 40
0.0
 40
0.0
 40
0.0
 40
0.0
 40
0.2499974289475732
 40
0.5000000000017707
 40
0.7500027378201387
 40
1.0
 40
1.0
 40
1.0
 40
1.0
 10
85.0547563824542
 20
9.68355235702881
 30
0.0
 10
85.05378531620268
 20
9.678043013928352
 30
0.0
 10
85.05184316372615
 20
9.667024214407752
 30
0.0
 10
85.03690452650129
 20
9.650496536206772
 30
0.0
 10
85.0155513216844
 20
9.63396879574625
 30
0.0
 10
84.9986216556806
 20
9.622950025529754
 30
0.0
 10
84.99015691537943
 20
9.617440700756305
 30
0.0
  0
LINE
  5
53
330
1F
100
AcDbEntity
  8
SLD-0
  6
Continuous
370
    15
100
AcDbLine
 10
84.9901569154
 20
43.3827891306
 30
0.0
 11
84.9901569154
 21
9.6174407008
 31
0.0
  0
SPLINE
  5
54
330
1F
100
AcDbEntity
  8
SLD-0
  6
Continuous
370
    15
100
AcDbSpline
210
0.0
220
0.0
230
1.0
 70
     8
 71
     3
 72
    11
 73
     7
 74
     0
 42
0.00000001
 43
0.00000001
 12
1.0
 22
0.0
 32
0.0
 13
1.0
 23
0.0
 33
0.0
 40
0.0
 40
0.0
 40
0.0
 40
0.0
 40
0.2499946771875426
 40
0.4999946632936856
 40
0.7499946493998286
 40
0.9999999999999999
 40
0.9999999999999999
 40
0.9999999999999999
 40
0.9999999999999999
 10
84.99015691537943
 20
43.38278913056993
 30
0.0
 10
84.99862165442691
 20
43.37727998362079
 30
0.0
 10
85.01555131228018
 20
43.36626157272954
 30
0.0
 10
85.03690453250756
 20
43.34973424854401
 30
0.0
 10
85.0518433818765
 20
43.33320739242218
 30
0.0
 10
85.0537853753165
 20
43.32218733975163
 30
0.0
 10
85.0547563824542
 20
43.31667725429997
 30
0.0
  0
LINE
  5
55
330
1F
100
AcDbEntity
  8
SLD-0
  6
Continuous
370
    15
100
AcDbLine
 10
85.0547563825
 20
9.683552357
 30
0.0
 11
85.0547563825
 21
43.3166772543
 31
0.0
  0
LINE
  5
56
330
1F
100
AcDbEntity
  8
SLD-0
  6
Continuous
370
    15
100
AcDbLine
 10
45.9644686501
 20
43.8205148473
 30
0.0
 11
45.9644686501
 21
43.3829017693
 31
0.0
  0
LINE
  5
57
330
1F
100
AcDbEntity
  8
SLD-0
  6
Continuous
370
    15
100
AcDbLine
 10
45.9644686501
 20
43.8205148473
 30
0.0
 11
84.9900442767
 21
43.8205148473
 31
0.0
  0
LINE
  5
58
330
1F
100
AcDbEntity
  8
SLD-0
  6
Continuous
370
    15
100
AcDbLine
 10
84.9900442767
 20
43.3829017693
 30
0.0
 11
84.9900442767
 21
43.8205148473
 31
0.0
  0
LINE
  5
59
330
1F
100
AcDbEntity
  8
SLD-0
  6
Continuous
370
    15
100
AcDbLine
 10
84.9901569154
 20
43.3827891306
 30
0.0
 11
84.9900442767
 21
43.3829017693
 31
0.0
  0
LINE
  5
5A
330
1F
100
AcDbEntity
  8
SLD-0
  6
Continuous
370
    15
100
AcDbLine
 10
84.9900442767
 20
9.1797152883
 30
0.0
 11
84.9900442767
 21
9.6173279887
 31
0.0
  0
LINE
  5
5B
330
1F
100
AcDbEntity
  8
SLD-0
  6
Continuous
370
    15
100
AcDbLine
 10
84.9900442767
 20
9.1797152883
 30
0.0
 11
45.9644686501
 21
9.1797152883
 31
0.0
  0
LINE
  5
5C
330
1F
100
AcDbEntity
  8
SLD-0
  6
Continuous
370
    15
100
AcDbLine
 10
45.9644686501
 20
9.6173279887
 30
0.0
 11
45.9644686501
 21
9.1797152883
 31
0.0
  0
LINE
  5
5D
330
1F
100
AcDbEntity
  8
SLD-0
  6
Continuous
370
    15
100
AcDbLine
 10
45.9643560114
 20
9.6174407008
 30
0.0
 11
45.9644686501
 21
9.6173279887
 31
0.0
  0
LINE
  5
5E
330
1F
100
AcDbEntity
  8
SLD-0
  6
Continuous
370
    15
100
AcDbLine
 10
45.9643560114
 20
9.6174407008
 30
0.0
 11
45.9643560114
 21
43.3827891306
 31
0.0
  0
LINE
  5
5F
330
1F
100
AcDbEntity
  8
SLD-0
  6
Continuous
370
    15
100
AcDbLine
 10
45.9644686501
 20
43.3829017693
 30
0.0
 11
45.9643560114
 21
43.3827891306
 31
0.0
  0
LINE
  5
60
330
1F
100
AcDbEntity
  8
SLD-0
  6
Continuous
370
    15
100
AcDbLine
 10
83.5418567396
 20
38.9287663438
 30
0.0
 11
83.5418567396
 21
15.8016150573
 31
0.0
  0
LINE
  5
61
330
1F
100
AcDbEntity
  8
SLD-0
  6
Continuous
370
    15
100
AcDbLine
 10
83.5418567396
 20
38.9287663438
 30
0.0
 11
83.5418567396
 21
39.5545142085
 31
0.0
  0
LINE
  5
62
330
1F
100
AcDbEntity
  8
SLD-0
  6
Continuous
370
    15
100
AcDbLine
 10
83.5418567396
 20
39.5545142085
 30
0.0
 11
82.9161077016
 21
39.5545142085
 31
0.0
  0
LINE
  5
63
330
1F
100
AcDbEntity
  8
SLD-0
  6
Continuous
370
    15
100
AcDbLine
 10
48.0384052252
 20
39.5545142085
 30
0.0
 11
82.9161077016
 21
39.5545142085
 31
0.0
  0
LINE
  5
64
330
1F
100
AcDbEntity
  8
SLD-0
  6
Continuous
370
    15
100
AcDbLine
 10
48.0384052252
 20
39.5545142085
 30
0.0
 11
47.4126561872
 21
39.5545142085
 31
0.0
  0
LINE
  5
65
330
1F
100
AcDbEntity
  8
SLD-0
  6
Continuous
370
    15
100
AcDbLine
 10
47.4126561872
 20
39.5545142085
 30
0.0
 11
47.4126561872
 21
38.9287663438
 31
0.0
  0
LINE
  5
66
330
1F
100
AcDbEntity
  8
SLD-0
  6
Continuous
370
    15
100
AcDbLine
 10
47.4126561872
 20
15.8016150573
 30
0.0
 11
47.4126561872
 21
38.9287663438
 31
0.0
  0
LINE
  5
67
330
1F
100
AcDbEntity
  8
SLD-0
  6
Continuous
370
    15
100
AcDbLine
 10
47.4126561872
 20
15.8016150573
 30
0.0
 11
47.4126561872
 21
15.1761153498
 31
0.0
  0
LINE
  5
68
330
1F
100
AcDbEntity
  8
SLD-0
  6
Continuous
370
    15
100
AcDbLine
 10
47.4126561872
 20
15.1761153498
 30
0.0
 11
48.4131565227
 21
15.1761153498
 31
0.0
  0
LINE
  5
69
330
1F
100
AcDbEntity
  8
SLD-0
  6
Continuous
370
    15
100
AcDbLine
 10
82.5413564041
 20
15.1761153498
 30
0.0
 11
48.4131565227
 21
15.1761153498
 31
0.0
  0
LINE
  5
6A
330
1F
100
AcDbEntity
  8
SLD-0
  6
Continuous
370
    15
100
AcDbLine
 10
82.5413564041
 20
15.1761153498
 30
0.0
 11
83.5418567396
 21
15.1761153498
 31
0.0
  0
LINE
  5
6B
330
1F
100
AcDbEntity
  8
SLD-0
  6
Continuous
370
    15
100
AcDbLine
 10
83.5418567396
 20
15.1761153498
 30
0.0
 11
83.5418567396
 21
15.8016150573
 31
0.0
  0
LINE
  5
6C
330
1F
100
AcDbEntity
  8
SLD-0
  6
Continuous
370
    15
100
AcDbLine
 10
84.9900442767
 20
9.6173279887
 30
0.0
 11
84.9901569154
 21
9.6174407008
 31
0.0
  0
SPLINE
  5
6D
330
1F
100
AcDbEntity
  8
SLD-0
  6
Continuous
370
    15
100
AcDbSpline
210
0.0
220
0.0
230
1.0
 70
     8
 71
     3
 72
    11
 73
     7
 74
     0
 42
0.00000001
 43
0.00000001
 12
1.0
 22
0.0
 32
0.0
 13
1.0
 23
0.0
 33
0.0
 40
0.0
 40
0.0
 40
0.0
 40
0.0
 40
0.2499972621798613
 40
0.4999999999982294
 40
0.7500025710524268
 40
1.0
 40
1.0
 40
1.0
 40
1.0
 10
45.96435601142834
 20
9.617440700756305
 30
0.0
 10
45.95589127112716
 20
9.622950025529754
 30
0.0
 10
45.93896160512335
 20
9.63396879574625
 30
0.0
 10
45.91760840030646
 20
9.650496536206772
 30
0.0
 10
45.90266976308161
 20
9.667024214407752
 30
0.0
 10
45.90072761060506
 20
9.678043013928352
 30
0.0
 10
45.89975654435356
 20
9.68355235702881
 30
0.0
  0
LINE
  5
6E
330
1F
100
AcDbEntity
  8
SLD-0
  6
Continuous
370
    15
100
AcDbLine
 10
45.8997565444
 20
43.3166772543
 30
0.0
 11
45.8997565444
 21
9.683552357
 31
0.0
  0
SPLINE
  5
6F
330
1F
100
AcDbEntity
  8
SLD-0
  6
Continuous
370
    15
100
AcDbSpline
210
0.0
220
0.0
230
1.0
 70
     8
 71
     3
 72
    11
 73
     7
 74
     0
 42
0.00000001
 43
0.00000001
 12
1.0
 22
0.0
 32
0.0
 13
1.0
 23
0.0
 33
0.0
 40
0.0
 40
0.0
 40
0.0
 40
0.0
 40
0.2500053506001714
 40
0.5000053367063144
 40
0.7500053228124574
 40
0.9999999999999999
 40
0.9999999999999999
 40
0.9999999999999999
 40
0.9999999999999999
 10
45.89975654435356
 20
43.31667725429997
 30
0.0
 10
45.90072755149126
 20
43.32218733975163
 30
0.0
 10
45.90266954493126
 20
43.33320739242218
 30
0.0
 10
45.9176083943002
 20
43.34973424854403
 30
0.0
 10
45.93896161452757
 20
43.36626157272953
 30
0.0
 10
45.95589127238083
 20
43.37727998362079
 30
0.0
 10
45.96435601142834
 20
43.38278913056993
 30
0.0
  0
LINE
  5
70
330
1F
100
AcDbEntity
  8
SLD-0
  6
Continuous
370
    15
100
AcDbLine
 10
82.5413564041
 20
15.2407154035
 30
0.0
 11
82.5413564041
 21
15.1761153498
 31
0.0
  0
LINE
  5
71
330
1F
100
AcDbEntity
  8
SLD-0
  6
Continuous
370
    15
100
AcDbLine
 10
82.5413564041
 20
15.2407154035
 30
0.0
 11
48.4131565227
 21
15.2407154035
 31
0.0
  0
LINE
  5
72
330
1F
100
AcDbEntity
  8
SLD-0
  6
Continuous
370
    15
100
AcDbLine
 10
48.4131565227
 20
15.1761153498
 30
0.0
 11
48.4131565227
 21
15.2407154035
 31
0.0
  0
LINE
  5
73
330
1F
100
AcDbEntity
  8
SLD-0
  6
Continuous
370
    15
100
AcDbLine
 10
83.5418567396
 20
15.8016150573
 30
0.0
 11
83.4772560992
 21
15.8016150573
 31
0.0
  0
LINE
  5
74
330
1F
100
AcDbEntity
  8
SLD-0
  6
Continuous
370
    15
100
AcDbLine
 10
83.4772560992
 20
15.8016150573
 30
0.0
 11
83.4772560992
 21
38.9287663438
 31
0.0
  0
LINE
  5
75
330
1F
100
AcDbEntity
  8
SLD-0
  6
Continuous
370
    15
100
AcDbLine
 10
83.4772560992
 20
38.9287663438
 30
0.0
 11
83.5418567396
 21
38.9287663438
 31
0.0
  0
LINE
  5
76
330
1F
100
AcDbEntity
  8
SLD-0
  6
Continuous
370
    15
100
AcDbLine
 10
82.9161077016
 20
39.5545142085
 30
0.0
 11
82.9161077016
 21
39.4902162846
 31
0.0
  0
LINE
  5
77
330
1F
100
AcDbEntity
  8
SLD-0
  6
Continuous
370
    15
100
AcDbLine
 10
48.0384052252
 20
39.4902162846
 30
0.0
 11
48.0384052252
 21
39.5545142085
 31
0.0
  0
SPLINE
  5
78
330
1F
100
AcDbEntity
  8
SLD-0
  6
Continuous
370
    15
100
AcDbSpline
210
0.0
220
0.0
230
1.0
 70
    24
 71
     3
 72
    11
 73
     7
 74
     0
 42
0.00000001
 43
0.00000001
 12
1.0
 22
0.0
 32
0.0
 13
1.0
 23
0.0
 33
0.0
 40
0.0
 40
0.0
 40
0.0
 40
0.0
 40
0.2499933507891737
 40
0.4999942930784833
 40
0.7499952353677929
 40
1.0
 40
1.0
 40
1.0
 40
1.0
 10
47.47725682760233
 20
15.80161505731309
 30
0.0
 10
47.47628574832985
 20
15.80161505731309
 30
0.0
 10
47.4743435602963
 20
15.80161505731309
 30
0.0
 10
47.45940496522242
 20
15.80161505731309
 30
0.0
 10
47.43805155585176
 20
15.80161505731309
 30
0.0
 10
47.42112135323063
 20
15.80161505731309
 30
0.0
 10
47.41265618720778
 20
15.80161505731309
 30
0.0
  0
LINE
  5
79
330
1F
100
AcDbEntity
  8
SLD-0
  6
Continuous
370
    15
100
AcDbLine
 10
47.4126561872
 20
38.9287663438
 30
0.0
 11
47.4772568276
 21
38.9287663438
 31
0.0
  0
LINE
  5
7A
330
1F
100
AcDbEntity
  8
SLD-0
  6
Continuous
370
    15
100
AcDbLine
 10
47.4772568276
 20
38.9287663438
 30
0.0
 11
47.4772568276
 21
15.8016150573
 31
0.0
  0
LINE
  5
7B
330
1F
100
AcDbEntity
  8
SLD-0
  6
Continuous
370
    15
100
AcDbLine
 10
84.9900442767
 20
43.8851154877
 30
0.0
 11
45.9644686501
 21
43.8851154877
 31
0.0
  0
LINE
  5
7C
330
1F
100
AcDbEntity
  8
SLD-0
  6
Continuous
370
    15
100
AcDbLine
 10
84.9900442767
 20
43.8851154877
 30
0.0
 11
84.9900442767
 21
43.8205148473
 31
0.0
  0
LINE
  5
7D
330
1F
100
AcDbEntity
  8
SLD-0
  6
Continuous
370
    15
100
AcDbLine
 10
45.9644686501
 20
43.8205148473
 30
0.0
 11
45.9644686501
 21
43.8851154877
 31
0.0
  0
LINE
  5
7E
330
1F
100
AcDbEntity
  8
SLD-0
  6
Continuous
370
    15
100
AcDbLine
 10
45.9644686501
 20
9.1151152878
 30
0.0
 11
84.9900442767
 21
9.1151152878
 31
0.0
  0
LINE
  5
7F
330
1F
100
AcDbEntity
  8
SLD-0
  6
Continuous
370
    15
100
AcDbLine
 10
84.9900442767
 20
9.1797152883
 30
0.0
 11
84.9900442767
 21
9.1151152878
 31
0.0
  0
LINE
  5
80
330
1F
100
AcDbEntity
  8
SLD-0
  6
Continuous
370
    15
100
AcDbLine
 10
45.9644686501
 20
9.1151152878
 30
0.0
 11
45.9644686501
 21
9.1797152883
 31
0.0
  0
LINE
  5
81
330
1F
100
AcDbEntity
  8
SLD-0
  6
Continuous
370
    15
100
AcDbLine
 10
47.5862382886
 20
39.4938441893
 30
0.0
 11
47.5862382886
 21
39.4902162846
 31
0.0
  0
LINE
  5
82
330
1F
100
AcDbEntity
  8
SLD-0
  6
Continuous
370
    15
100
AcDbLine
 10
47.5862382886
 20
39.4938441893
 30
0.0
 11
48.0384052252
 21
39.4938441893
 31
0.0
  0
SPLINE
  5
83
330
1F
100
AcDbEntity
  8
SLD-0
  6
Continuous
370
    15
100
AcDbSpline
210
0.0
220
0.0
230
1.0
 70
     8
 71
     3
 72
     9
 73
     5
 74
     0
 42
0.00000001
 43
0.00000001
 12
1.0
 22
0.0
 32
0.0
 13
1.0
 23
0.0
 33
0.0
 40
0.0
 40
0.0
 40
0.0
 40
0.0
 40
0.1901649382921316
 40
0.9999999999999999
 40
0.9999999999999999
 40
0.9999999999999999
 40
0.9999999999999999
 10
47.56140966879487
 20
39.4856074844782
 30
0.0
 10
47.56272169929203
 20
39.48677510154481
 30
0.0
 10
47.5696211335881
 20
39.49291512439594
 30
0.0
 10
47.57880271891743
 20
39.49342846671691
 30
0.0
 10
47.5862382886392
 20
39.49384418932708
 30
0.0
  0
LINE
  5
84
330
1F
100
AcDbEntity
  8
SLD-0
  6
Continuous
370
    15
100
AcDbLine
 10
83.3682746382
 20
39.4938441893
 30
0.0
 11
83.3682746382
 21
39.4902162846
 31
0.0
  0
LINE
  5
85
330
1F
100
AcDbEntity
  8
SLD-0
  6
Continuous
370
    15
100
AcDbLine
 10
82.9161077016
 20
39.4938441893
 30
0.0
 11
83.3682746382
 21
39.4938441893
 31
0.0
  0
SPLINE
  5
86
330
1F
100
AcDbEntity
  8
SLD-0
  6
Continuous
370
    15
100
AcDbSpline
210
0.0
220
0.0
230
1.0
 70
     8
 71
     3
 72
     9
 73
     5
 74
     0
 42
0.00000001
 43
0.00000001
 12
1.0
 22
0.0
 32
0.0
 13
1.0
 23
0.0
 33
0.0
 40
0.0
 40
0.0
 40
0.0
 40
0.0
 40
0.7997110891776555
 40
0.9999999999999999
 40
0.9999999999999999
 40
0.9999999999999999
 40
0.9999999999999999
 10
83.36827463816856
 20
39.49384418932708
 30
0.0
 10
83.3757039752649
 20
39.49341358984892
 30
0.0
 10
83.38499400162176
 20
39.49287514604841
 30
0.0
 10
83.39197296579049
 20
39.4866364433318
 30
0.0
 10
83.39337077492252
 20
39.48538690035974
 30
0.0
  0
LINE
  5
87
330
1F
100
AcDbEntity
  8
SLD-0
  6
Continuous
370
    15
100
AcDbLine
 10
47.4902924103
 20
39.4326438297
 30
0.0
 11
47.5273564088
 21
39.4326438297
 31
0.0
  0
LINE
  5
88
330
1F
100
AcDbEntity
  8
SLD-0
  6
Continuous
370
    15
100
AcDbLine
 10
47.4902924103
 20
39.4602450041
 30
0.0
 11
47.5302615486
 21
39.4602450041
 31
0.0
  0
LINE
  5
89
330
1F
100
AcDbEntity
  8
SLD-0
  6
Continuous
370
    15
100
AcDbLine
 10
47.4902924103
 20
39.4602450041
 30
0.0
 11
47.4902924103
 21
39.4326438297
 31
0.0
  0
LINE
  5
8A
330
1F
100
AcDbEntity
  8
SLD-0
  6
Continuous
370
    15
100
AcDbLine
 10
83.4242513782
 20
39.4602450041
 30
0.0
 11
83.4642205165
 21
39.4602450041
 31
0.0
  0
LINE
  5
8B
330
1F
100
AcDbEntity
  8
SLD-0
  6
Continuous
370
    15
100
AcDbLine
 10
83.427156518
 20
39.4326438297
 30
0.0
 11
83.4642205165
 21
39.4326438297
 31
0.0
  0
LINE
  5
8C
330
1F
100
AcDbEntity
  8
SLD-0
  6
Continuous
370
    15
100
AcDbLine
 10
83.4642205165
 20
39.4602450041
 30
0.0
 11
83.4642205165
 21
39.4326438297
 31
0.0
  0
LINE
  5
8D
330
1F
100
AcDbEntity
  8
SLD-0
  6
Continuous
370
    15
100
AcDbLine
 10
83.1267127354
 20
38.3791598929
 30
0.0
 11
83.0919519636
 21
38.1076255364
 31
0.0
  0
LINE
  5
8E
330
1F
100
AcDbEntity
  8
SLD-0
  6
Continuous
370
    15
100
AcDbLine
 10
83.0919519636
 20
38.1076255364
 30
0.0
 11
47.8625609632
 21
38.1076255364
 31
0.0
  0
LINE
  5
8F
330
1F
100
AcDbEntity
  8
SLD-0
  6
Continuous
370
    15
100
AcDbLine
 10
47.8625609632
 20
38.1076255364
 30
0.0
 11
47.8278001914
 21
38.3791598929
 31
0.0
  0
LINE
  5
90
330
1F
100
AcDbEntity
  8
SLD-0
  6
Continuous
370
    15
100
AcDbLine
 10
64.9772564694
 20
38.3791598929
 30
0.0
 11
64.9772564694
 21
38.3333722619
 31
0.0
  0
LINE
  5
91
330
1F
100
AcDbEntity
  8
SLD-0
  6
Continuous
370
    15
100
AcDbLine
 10
64.9772564694
 20
38.3333722619
 30
0.0
 11
65.9772564574
 21
38.3333722619
 31
0.0
  0
LINE
  5
92
330
1F
100
AcDbEntity
  8
SLD-0
  6
Continuous
370
    15
100
AcDbLine
 10
65.9772564574
 20
38.3333722619
 30
0.0
 11
65.9772564574
 21
38.3791598929
 31
0.0
  0
LINE
  5
93
330
1F
100
AcDbEntity
  8
SLD-0
  6
Continuous
370
    15
100
AcDbLine
 10
66.7272565033
 20
38.3791598929
 30
0.0
 11
66.7272565033
 21
38.3333722619
 31
0.0
  0
LINE
  5
94
330
1F
100
AcDbEntity
  8
SLD-0
  6
Continuous
370
    15
100
AcDbLine
 10
66.7272565033
 20
38.3333722619
 30
0.0
 11
67.7272564179
 21
38.3333722619
 31
0.0
  0
LINE
  5
95
330
1F
100
AcDbEntity
  8
SLD-0
  6
Continuous
370
    15
100
AcDbLine
 10
67.7272564179
 20
38.3333722619
 30
0.0
 11
67.7272564179
 21
38.3791598929
 31
0.0
  0
LINE
  5
96
330
1F
100
AcDbEntity
  8
SLD-0
  6
Continuous
370
    15
100
AcDbLine
 10
68.4772565005
 20
38.3791598929
 30
0.0
 11
68.4772565005
 21
38.3333722619
 31
0.0
  0
LINE
  5
97
330
1F
100
AcDbEntity
  8
SLD-0
  6
Continuous
370
    15
100
AcDbLine
 10
68.4772565005
 20
38.3333722619
 30
0.0
 11
69.4772564151
 21
38.3333722619
 31
0.0
  0
LINE
  5
98
330
1F
100
AcDbEntity
  8
SLD-0
  6
Continuous
370
    15
100
AcDbLine
 10
69.4772564151
 20
38.3333722619
 30
0.0
 11
69.4772564151
 21
38.3791598929
 31
0.0
  0
LINE
  5
99
330
1F
100
AcDbEntity
  8
SLD-0
  6
Continuous
370
    15
100
AcDbLine
 10
70.2272564977
 20
38.3791598929
 30
0.0
 11
70.2272564977
 21
38.3333722619
 31
0.0
  0
LINE
  5
9A
330
1F
100
AcDbEntity
  8
SLD-0
  6
Continuous
370
    15
100
AcDbLine
 10
70.2272564977
 20
38.3333722619
 30
0.0
 11
71.2272567056
 21
38.3333722619
 31
0.0
  0
LINE
  5
9B
330
1F
100
AcDbEntity
  8
SLD-0
  6
Continuous
370
    15
100
AcDbLine
 10
71.2272567056
 20
38.3333722619
 30
0.0
 11
71.2272567056
 21
38.3791598929
 31
0.0
  0
LINE
  5
9C
330
1F
100
AcDbEntity
  8
SLD-0
  6
Continuous
370
    15
100
AcDbLine
 10
71.9772562015
 20
38.3791598929
 30
0.0
 11
71.9772562015
 21
38.3333722619
 31
0.0
  0
LINE
  5
9D
330
1F
100
AcDbEntity
  8
SLD-0
  6
Continuous
370
    15
100
AcDbLine
 10
71.9772562015
 20
38.3333722619
 30
0.0
 11
72.9772567028
 21
38.3333722619
 31
0.0
  0
LINE
  5
9E
330
1F
100
AcDbEntity
  8
SLD-0
  6
Continuous
370
    15
100
AcDbLine
 10
72.9772567028
 20
38.3333722619
 30
0.0
 11
72.9772567028
 21
38.3791598929
 31
0.0
  0
LINE
  5
9F
330
1F
100
AcDbEntity
  8
SLD-0
  6
Continuous
370
    15
100
AcDbLine
 10
73.7272561987
 20
38.3791598929
 30
0.0
 11
73.7272561987
 21
38.3333722619
 31
0.0
  0
LINE
  5
A0
330
1F
100
AcDbEntity
  8
SLD-0
  6
Continuous
370
    15
100
AcDbLine
 10
73.7272561987
 20
38.3333722619
 30
0.0
 11
74.7272566999
 21
38.3333722619
 31
0.0
  0
LINE
  5
A1
330
1F
100
AcDbEntity
  8
SLD-0
  6
Continuous
370
    15
100
AcDbLine
 10
74.7272566999
 20
38.3333722619
 30
0.0
 11
74.7272566999
 21
38.3791598929
 31
0.0
  0
LINE
  5
A2
330
1F
100
AcDbEntity
  8
SLD-0
  6
Continuous
370
    15
100
AcDbLine
 10
75.4772567825
 20
38.3791598929
 30
0.0
 11
75.4772567825
 21
38.3333722619
 31
0.0
  0
LINE
  5
A3
330
1F
100
AcDbEntity
  8
SLD-0
  6
Continuous
370
    15
100
AcDbLine
 10
75.4772567825
 20
38.3333722619
 30
0.0
 11
76.4772561105
 21
38.3333722619
 31
0.0
  0
LINE
  5
A4
330
1F
100
AcDbEntity
  8
SLD-0
  6
Continuous
370
    15
100
AcDbLine
 10
76.4772561105
 20
38.3333722619
 30
0.0
 11
76.4772561105
 21
38.3791598929
 31
0.0
  0
LINE
  5
A5
330
1F
100
AcDbEntity
  8
SLD-0
  6
Continuous
370
    15
100
AcDbLine
 10
77.2272561931
 20
38.3791598929
 30
0.0
 11
77.2272561931
 21
38.3333722619
 31
0.0
  0
LINE
  5
A6
330
1F
100
AcDbEntity
  8
SLD-0
  6
Continuous
370
    15
100
AcDbLine
 10
77.2272561931
 20
38.3333722619
 30
0.0
 11
78.2272566943
 21
38.3333722619
 31
0.0
  0
LINE
  5
A7
330
1F
100
AcDbEntity
  8
SLD-0
  6
Continuous
370
    15
100
AcDbLine
 10
78.2272566943
 20
38.3333722619
 30
0.0
 11
78.2272566943
 21
38.3791598929
 31
0.0
  0
LINE
  5
A8
330
1F
100
AcDbEntity
  8
SLD-0
  6
Continuous
370
    15
100
AcDbLine
 10
78.9772567769
 20
38.3791598929
 30
0.0
 11
78.9772567769
 21
38.3333722619
 31
0.0
  0
LINE
  5
A9
330
1F
100
AcDbEntity
  8
SLD-0
  6
Continuous
370
    15
100
AcDbLine
 10
78.9772567769
 20
38.3333722619
 30
0.0
 11
79.9772561048
 21
38.3333722619
 31
0.0
  0
LINE
  5
AA
330
1F
100
AcDbEntity
  8
SLD-0
  6
Continuous
370
    15
100
AcDbLine
 10
79.9772561048
 20
38.3333722619
 30
0.0
 11
79.9772561048
 21
38.3791598929
 31
0.0
  0
LINE
  5
AB
330
1F
100
AcDbEntity
  8
SLD-0
  6
Continuous
370
    15
100
AcDbLine
 10
63.2272565089
 20
38.3791598929
 30
0.0
 11
63.2272565089
 21
38.3333722619
 31
0.0
  0
LINE
  5
AC
330
1F
100
AcDbEntity
  8
SLD-0
  6
Continuous
370
    15
100
AcDbLine
 10
63.2272565089
 20
38.3333722619
 30
0.0
 11
64.2272564235
 21
38.3333722619
 31
0.0
  0
LINE
  5
AD
330
1F
100
AcDbEntity
  8
SLD-0
  6
Continuous
370
    15
100
AcDbLine
 10
64.2272564235
 20
38.3333722619
 30
0.0
 11
64.2272564235
 21
38.3791598929
 31
0.0
  0
LINE
  5
AE
330
1F
100
AcDbEntity
  8
SLD-0
  6
Continuous
370
    15
100
AcDbLine
 10
61.4772565117
 20
38.3791598929
 30
0.0
 11
61.4772565117
 21
38.3333722619
 31
0.0
  0
LINE
  5
AF
330
1F
100
AcDbEntity
  8
SLD-0
  6
Continuous
370
    15
100
AcDbLine
 10
61.4772565117
 20
38.3333722619
 30
0.0
 11
62.4772564263
 21
38.3333722619
 31
0.0
  0
LINE
  5
B0
330
1F
100
AcDbEntity
  8
SLD-0
  6
Continuous
370
    15
100
AcDbLine
 10
62.4772564263
 20
38.3333722619
 30
0.0
 11
62.4772564263
 21
38.3791598929
 31
0.0
  0
LINE
  5
B1
330
1F
100
AcDbEntity
  8
SLD-0
  6
Continuous
370
    15
100
AcDbLine
 10
59.7272562212
 20
38.3791598929
 30
0.0
 11
59.7272562212
 21
38.3333722619
 31
0.0
  0
LINE
  5
B2
330
1F
100
AcDbEntity
  8
SLD-0
  6
Continuous
370
    15
100
AcDbLine
 10
59.7272562212
 20
38.3333722619
 30
0.0
 11
60.7272564291
 21
38.3333722619
 31
0.0
  0
LINE
  5
B3
330
1F
100
AcDbEntity
  8
SLD-0
  6
Continuous
370
    15
100
AcDbLine
 10
60.7272564291
 20
38.3333722619
 30
0.0
 11
60.7272564291
 21
38.3791598929
 31
0.0
  0
LINE
  5
B4
330
1F
100
AcDbEntity
  8
SLD-0
  6
Continuous
370
    15
100
AcDbLine
 10
57.977256224
 20
38.3791598929
 30
0.0
 11
57.977256224
 21
38.3333722619
 31
0.0
  0
LINE
  5
B5
330
1F
100
AcDbEntity
  8
SLD-0
  6
Continuous
370
    15
100
AcDbLine
 10
57.977256224
 20
38.3333722619
 30
0.0
 11
58.9772567253
 21
38.3333722619
 31
0.0
  0
LINE
  5
B6
330
1F
100
AcDbEntity
  8
SLD-0
  6
Continuous
370
    15
100
AcDbLine
 10
58.9772567253
 20
38.3333722619
 30
0.0
 11
58.9772567253
 21
38.3791598929
 31
0.0
  0
LINE
  5
B7
330
1F
100
AcDbEntity
  8
SLD-0
  6
Continuous
370
    15
100
AcDbLine
 10
56.2272562269
 20
38.3791598929
 30
0.0
 11
56.2272562269
 21
38.3333722619
 31
0.0
  0
LINE
  5
B8
330
1F
100
AcDbEntity
  8
SLD-0
  6
Continuous
370
    15
100
AcDbLine
 10
56.2272562269
 20
38.3333722619
 30
0.0
 11
57.2272567281
 21
38.3333722619
 31
0.0
  0
LINE
  5
B9
330
1F
100
AcDbEntity
  8
SLD-0
  6
Continuous
370
    15
100
AcDbLine
 10
57.2272567281
 20
38.3333722619
 30
0.0
 11
57.2272567281
 21
38.3791598929
 31
0.0
  0
LINE
  5
BA
330
1F
100
AcDbEntity
  8
SLD-0
  6
Continuous
370
    15
100
AcDbLine
 10
54.4772568163
 20
38.3791598929
 30
0.0
 11
54.4772568163
 21
38.3333722619
 31
0.0
  0
LINE
  5
BB
330
1F
100
AcDbEntity
  8
SLD-0
  6
Continuous
370
    15
100
AcDbLine
 10
54.4772568163
 20
38.3333722619
 30
0.0
 11
55.4772561443
 21
38.3333722619
 31
0.0
  0
LINE
  5
BC
330
1F
100
AcDbEntity
  8
SLD-0
  6
Continuous
370
    15
100
AcDbLine
 10
55.4772561443
 20
38.3333722619
 30
0.0
 11
55.4772561443
 21
38.3791598929
 31
0.0
  0
LINE
  5
BD
330
1F
100
AcDbEntity
  8
SLD-0
  6
Continuous
370
    15
100
AcDbLine
 10
52.7272562325
 20
38.3791598929
 30
0.0
 11
52.7272562325
 21
38.3333722619
 31
0.0
  0
LINE
  5
BE
330
1F
100
AcDbEntity
  8
SLD-0
  6
Continuous
370
    15
100
AcDbLine
 10
52.7272562325
 20
38.3333722619
 30
0.0
 11
53.7272567337
 21
38.3333722619
 31
0.0
  0
LINE
  5
BF
330
1F
100
AcDbEntity
  8
SLD-0
  6
Continuous
370
    15
100
AcDbLine
 10
53.7272567337
 20
38.3333722619
 30
0.0
 11
53.7272567337
 21
38.3791598929
 31
0.0
  0
LINE
  5
C0
330
1F
100
AcDbEntity
  8
SLD-0
  6
Continuous
370
    15
100
AcDbLine
 10
50.977256822
 20
38.3791598929
 30
0.0
 11
50.977256822
 21
38.3333722619
 31
0.0
  0
LINE
  5
C1
330
1F
100
AcDbEntity
  8
SLD-0
  6
Continuous
370
    15
100
AcDbLine
 10
50.977256822
 20
38.3333722619
 30
0.0
 11
51.9772561499
 21
38.3333722619
 31
0.0
  0
LINE
  5
C2
330
1F
100
AcDbEntity
  8
SLD-0
  6
Continuous
370
    15
100
AcDbLine
 10
51.9772561499
 20
38.3333722619
 30
0.0
 11
51.9772561499
 21
38.3791598929
 31
0.0
  0
LINE
  5
C3
330
1F
100
AcDbEntity
  8
SLD-0
  6
Continuous
370
    15
100
AcDbLine
 10
78.9772567769
 20
38.3471728491
 30
0.0
 11
79.9772561048
 21
38.3471728491
 31
0.0
  0
LINE
  5
C4
330
1F
100
AcDbEntity
  8
SLD-0
  6
Continuous
370
    15
100
AcDbLine
 10
75.4772567825
 20
38.3471728491
 30
0.0
 11
76.4772561105
 21
38.3471728491
 31
0.0
  0
LINE
  5
C5
330
1F
100
AcDbEntity
  8
SLD-0
  6
Continuous
370
    15
100
AcDbLine
 10
77.2272561931
 20
38.3471728491
 30
0.0
 11
78.2272566943
 21
38.3471728491
 31
0.0
  0
LINE
  5
C6
330
1F
100
AcDbEntity
  8
SLD-0
  6
Continuous
370
    15
100
AcDbLine
 10
73.7272561987
 20
38.3471728491
 30
0.0
 11
74.7272566999
 21
38.3471728491
 31
0.0
  0
LINE
  5
C7
330
1F
100
AcDbEntity
  8
SLD-0
  6
Continuous
370
    15
100
AcDbLine
 10
52.7272562325
 20
38.3471728491
 30
0.0
 11
53.7272567337
 21
38.3471728491
 31
0.0
  0
LINE
  5
C8
330
1F
100
AcDbEntity
  8
SLD-0
  6
Continuous
370
    15
100
AcDbLine
 10
54.4772568163
 20
38.3471728491
 30
0.0
 11
55.4772561443
 21
38.3471728491
 31
0.0
  0
LINE
  5
C9
330
1F
100
AcDbEntity
  8
SLD-0
  6
Continuous
370
    15
100
AcDbLine
 10
56.2272562269
 20
38.3471728491
 30
0.0
 11
57.2272567281
 21
38.3471728491
 31
0.0
  0
LINE
  5
CA
330
1F
100
AcDbEntity
  8
SLD-0
  6
Continuous
370
    15
100
AcDbLine
 10
57.977256224
 20
38.3471728491
 30
0.0
 11
58.9772567253
 21
38.3471728491
 31
0.0
  0
LINE
  5
CB
330
1F
100
AcDbEntity
  8
SLD-0
  6
Continuous
370
    15
100
AcDbLine
 10
70.2272564977
 20
38.3471728491
 30
0.0
 11
71.2272567056
 21
38.3471728491
 31
0.0
  0
LINE
  5
CC
330
1F
100
AcDbEntity
  8
SLD-0
  6
Continuous
370
    15
100
AcDbLine
 10
59.7272562212
 20
38.3471728491
 30
0.0
 11
60.7272564291
 21
38.3471728491
 31
0.0
  0
LINE
  5
CD
330
1F
100
AcDbEntity
  8
SLD-0
  6
Continuous
370
    15
100
AcDbLine
 10
63.2272565089
 20
38.3471728491
 30
0.0
 11
64.2272564235
 21
38.3471728491
 31
0.0
  0
LINE
  5
CE
330
1F
100
AcDbEntity
  8
SLD-0
  6
Continuous
370
    15
100
AcDbLine
 10
68.4772565005
 20
38.3471728491
 30
0.0
 11
69.4772564151
 21
38.3471728491
 31
0.0
  0
LINE
  5
CF
330
1F
100
AcDbEntity
  8
SLD-0
  6
Continuous
370
    15
100
AcDbLine
 10
71.9772562015
 20
38.3471728491
 30
0.0
 11
72.9772567028
 21
38.3471728491
 31
0.0
  0
LINE
  5
D0
330
1F
100
AcDbEntity
  8
SLD-0
  6
Continuous
370
    15
100
AcDbLine
 10
66.7272565033
 20
38.3471728491
 30
0.0
 11
67.7272564179
 21
38.3471728491
 31
0.0
  0
LINE
  5
D1
330
1F
100
AcDbEntity
  8
SLD-0
  6
Continuous
370
    15
100
AcDbLine
 10
64.9772564694
 20
38.3471728491
 30
0.0
 11
65.9772564574
 21
38.3471728491
 31
0.0
  0
LINE
  5
D2
330
1F
100
AcDbEntity
  8
SLD-0
  6
Continuous
370
    15
100
AcDbLine
 10
61.4772565117
 20
38.3471728491
 30
0.0
 11
62.4772564263
 21
38.3471728491
 31
0.0
  0
LINE
  5
D3
330
1F
100
AcDbEntity
  8
SLD-0
  6
Continuous
370
    15
100
AcDbLine
 10
50.977256822
 20
38.3471728491
 30
0.0
 11
51.9772561499
 21
38.3471728491
 31
0.0
  0
SPLINE
  5
D4
330
1F
100
AcDbEntity
  8
SLD-0
  6
Continuous
370
    15
100
AcDbSpline
210
0.0
220
0.0
230
1.0
 70
     8
 71
     3
 72
    11
 73
     7
 74
     0
 42
0.00000001
 43
0.00000001
 12
1.0
 22
0.0
 32
0.0
 13
1.0
 23
0.0
 33
0.0
 40
0.0
 40
0.0
 40
0.0
 40
0.0
 40
0.25001110620237
 40
0.5000016304569065
 40
0.7499985379105094
 40
1.0
 40
1.0
 40
1.0
 40
1.0
 10
47.86256096320275
 20
38.10762553637659
 30
0.0
 10
47.86304005749511
 20
38.10454435142219
 30
0.0
 10
47.86399820663882
 20
38.0983822351693
 30
0.0
 10
47.86543562596156
 20
38.09166002901734
 30
0.0
 10
47.86687292439894
 20
38.08717017105787
 30
0.0
 10
47.86783112530351
 20
38.08660678480187
 30
0.0
 10
47.86831023012007
 20
38.08632508910784
 30
0.0
  0
ARC
  5
D5
330
1F
100
AcDbEntity
  8
SLD-0
  6
Continuous
370
    15
100
AcDbCircle
 10
45.9772564634
 20
43.7394152882
 30
0.0
 40
0.0527000000000029
100
AcDbArc
 50
104.0426024304
 51
179.9999999996
  0
ARC
  5
D6
330
1F
100
AcDbEntity
  8
SLD-0
  6
Continuous
370
    15
100
AcDbCircle
 10
45.9772564634
 20
43.7394152882
 30
0.0
 40
0.0309999999999966
100
AcDbArc
 50
114.3615754613
 51
180.0000000001
  0
LINE
  5
D7
330
1F
100
AcDbEntity
  8
SLD-0
  6
Continuous
370
    15
100
AcDbLine
 10
45.9462563805
 20
43.7394149841
 30
0.0
 11
45.9245570045
 21
43.7394149841
 31
0.0
  0
LINE
  5
D8
330
1F
100
AcDbEntity
  8
SLD-0
  6
Continuous
370
    15
100
AcDbLine
 10
45.9462563805
 20
43.370689857
 30
0.0
 11
45.9462563805
 21
43.7394149841
 31
0.0
  0
LINE
  5
D9
330
1F
100
AcDbEntity
  8
SLD-0
  6
Continuous
370
    15
100
AcDbLine
 10
45.9245570045
 20
43.3543713255
 30
0.0
 11
45.9245570045
 21
43.7394149841
 31
0.0
  0
LINE
  5
DA
330
1F
100
AcDbEntity
  8
SLD-0
  6
Continuous
370
    15
100
AcDbLine
 10
85.0082565463
 20
43.7394149841
 30
0.0
 11
85.0299559223
 21
43.7394149841
 31
0.0
  0
LINE
  5
DB
330
1F
100
AcDbEntity
  8
SLD-0
  6
Continuous
370
    15
100
AcDbLine
 10
85.0082565463
 20
43.370689857
 30
0.0
 11
85.0082565463
 21
43.7394149841
 31
0.0
  0
LINE
  5
DC
330
1F
100
AcDbEntity
  8
SLD-0
  6
Continuous
370
    15
100
AcDbLine
 10
85.0299559223
 20
43.3543713255
 30
0.0
 11
85.0299559223
 21
43.7394149841
 31
0.0
  0
ARC
  5
DD
330
1F
100
AcDbEntity
  8
SLD-0
  6
Continuous
370
    15
100
AcDbCircle
 10
84.9772564634
 20
43.7394152882
 30
0.0
 40
0.0527000000000157
100
AcDbArc
 50
359.9999999999
 51
75.9573975695
  0
ARC
  5
DE
330
1F
100
AcDbEntity
  8
SLD-0
  6
Continuous
370
    15
100
AcDbCircle
 10
84.9772564634
 20
43.7394152882
 30
0.0
 40
0.0310000000000082
100
AcDbArc
 50
0.0000000001
 51
65.6384245385
  0
LINE
  5
DF
330
1F
100
AcDbEntity
  8
SLD-0
  6
Continuous
370
    15
100
AcDbLine
 10
45.9462563805
 20
43.7394149841
 30
0.0
 11
45.9550069994
 21
43.7394149841
 31
0.0
  0
SPLINE
  5
E0
330
1F
100
AcDbEntity
  8
SLD-0
  6
Continuous
370
    15
100
AcDbSpline
210
0.0
220
0.0
230
1.0
 70
     8
 71
     3
 72
    10
 73
     6
 74
     0
 42
0.00000001
 43
0.00000001
 12
1.0
 22
0.0
 32
0.0
 13
1.0
 23
0.0
 33
0.0
 40
0.0
 40
0.0
 40
0.0
 40
0.0
 40
0.4253451241187751
 40
0.851169246282286
 40
1.0
 40
1.0
 40
1.0
 40
1.0
 10
45.95500699942892
 20
43.73941498413097
 30
0.0
 10
45.95485420630959
 20
43.74381868822903
 30
0.0
 10
45.95454844800456
 20
43.7526310556113
 30
0.0
 10
45.95902303279403
 20
43.76197080452126
 30
0.0
 10
45.96334841318117
 20
43.76454119111949
 30
0.0
 10
45.96446865012712
 20
43.7652068995139
 30
0.0
  0
LINE
  5
E1
330
1F
100
AcDbEntity
  8
SLD-0
  6
Continuous
370
    15
100
AcDbLine
 10
85.0082565463
 20
43.7394149841
 30
0.0
 11
84.9995059274
 21
43.7394149841
 31
0.0
  0
SPLINE
  5
E2
330
1F
100
AcDbEntity
  8
SLD-0
  6
Continuous
370
    15
100
AcDbSpline
210
0.0
220
0.0
230
1.0
 70
     8
 71
     3
 72
    10
 73
     6
 74
     0
 42
0.00000001
 43
0.00000001
 12
1.0
 22
0.0
 32
0.0
 13
1.0
 23
0.0
 33
0.0
 40
0.0
 40
0.0
 40
0.0
 40
0.0
 40
0.3057598272672972
 40
0.7316720261310348
 40
1.0
 40
1.0
 40
1.0
 40
1.0
 10
84.99004427668063
 20
43.76528903189843
 30
0.0
 10
84.99215705072949
 20
43.76354169960806
 30
0.0
 10
84.99721284135737
 20
43.75936039767361
 30
0.0
 10
85.00033908769174
 20
43.74943688555648
 30
0.0
 10
84.99973818129193
 20
43.74220871516531
 30
0.0
 10
84.99950592737885
 20
43.73941498413097
 30
0.0
  0
LINE
  5
E3
330
1F
100
AcDbEntity
  8
SLD-0
  6
Continuous
370
    15
100
AcDbLine
 10
45.9550069994
 20
43.7394149841
 30
0.0
 11
45.9644686501
 21
43.6692082218
 31
0.0
  0
LINE
  5
E4
330
1F
100
AcDbEntity
  8
SLD-0
  6
Continuous
370
    15
100
AcDbLine
 10
45.9462563805
 20
43.6468236271
 30
0.0
 11
45.9644686501
 21
43.5116806549
 31
0.0
  0
LINE
  5
E5
330
1F
100
AcDbEntity
  8
SLD-0
  6
Continuous
370
    15
100
AcDbLine
 10
84.9900442767
 20
43.6692082218
 30
0.0
 11
84.9995059274
 21
43.7394149841
 31
0.0
  0
LINE
  5
E6
330
1F
100
AcDbEntity
  8
SLD-0
  6
Continuous
370
    15
100
AcDbLine
 10
84.9900442767
 20
43.5116806549
 30
0.0
 11
85.0082565463
 21
43.6468236271
 31
0.0
  0
LINE
  5
E7
330
1F
100
AcDbEntity
  8
SLD-0
  6
Continuous
370
    15
100
AcDbLine
 10
65.2272564664
 20
38.3791598929
 30
0.0
 11
65.2272564664
 21
38.3471728491
 31
0.0
  0
ARC
  5
E8
330
1F
100
AcDbEntity
  8
SLD-0
  6
Continuous
370
    15
100
AcDbCircle
 10
84.9772564634
 20
9.2014152882
 30
0.0
 40
0.0527000000000015
100
AcDbArc
 50
284.0426024304
 51
359.9999999996
  0
ARC
  5
E9
330
1F
100
AcDbEntity
  8
SLD-0
  6
Continuous
370
    15
100
AcDbCircle
 10
84.9772564634
 20
9.2014152882
 30
0.0
 40
0.0310000000000028
100
AcDbArc
 50
294.3615754613
 51
0.0000000001
  0
LINE
  5
EA
330
1F
100
AcDbEntity
  8
SLD-0
  6
Continuous
370
    15
100
AcDbLine
 10
85.0082565463
 20
9.2014152882
 30
0.0
 11
85.0299559223
 21
9.2014152882
 31
0.0
  0
LINE
  5
EB
330
1F
100
AcDbEntity
  8
SLD-0
  6
Continuous
370
    15
100
AcDbLine
 10
85.0299559223
 20
9.6458600825
 30
0.0
 11
85.0299559223
 21
9.2014152882
 31
0.0
  0
LINE
  5
EC
330
1F
100
AcDbEntity
  8
SLD-0
  6
Continuous
370
    15
100
AcDbLine
 10
85.0082565463
 20
9.629541771
 30
0.0
 11
85.0082565463
 21
9.2014152882
 31
0.0
  0
LINE
  5
ED
330
1F
100
AcDbEntity
  8
SLD-0
  6
Continuous
370
    15
100
AcDbLine
 10
45.9462563805
 20
9.2014152882
 30
0.0
 11
45.9245570045
 21
9.2014152882
 31
0.0
  0
LINE
  5
EE
330
1F
100
AcDbEntity
  8
SLD-0
  6
Continuous
370
    15
100
AcDbLine
 10
45.9245570045
 20
9.6458600825
 30
0.0
 11
45.9245570045
 21
9.2014152882
 31
0.0
  0
LINE
  5
EF
330
1F
100
AcDbEntity
  8
SLD-0
  6
Continuous
370
    15
100
AcDbLine
 10
45.9462563805
 20
9.629541771
 30
0.0
 11
45.9462563805
 21
9.2014152882
 31
0.0
  0
ARC
  5
F0
330
1F
100
AcDbEntity
  8
SLD-0
  6
Continuous
370
    15
100
AcDbCircle
 10
45.9772564634
 20
9.2014152882
 30
0.0
 40
0.0527000000000015
100
AcDbArc
 50
179.9999999999
 51
255.9573975695
  0
ARC
  5
F1
330
1F
100
AcDbEntity
  8
SLD-0
  6
Continuous
370
    15
100
AcDbCircle
 10
45.9772564634
 20
9.2014152882
 30
0.0
 40
0.0309999999999998
100
AcDbArc
 50
180.0000000001
 51
245.6384245385
  0
LINE
  5
F2
330
1F
100
AcDbEntity
  8
SLD-0
  6
Continuous
370
    15
100
AcDbLine
 10
85.0082565463
 20
9.2014152882
 30
0.0
 11
84.9995059274
 21
9.2014152882
 31
0.0
  0
SPLINE
  5
F3
330
1F
100
AcDbEntity
  8
SLD-0
  6
Continuous
370
    15
100
AcDbSpline
210
0.0
220
0.0
230
1.0
 70
     8
 71
     3
 72
    10
 73
     6
 74
     0
 42
0.00000001
 43
0.00000001
 12
1.0
 22
0.0
 32
0.0
 13
1.0
 23
0.0
 33
0.0
 40
0.0
 40
0.0
 40
0.0
 40
0.0
 40
0.4253287815277744
 40
0.8511615612029415
 40
1.0
 40
1.0
 40
1.0
 40
1.0
 10
84.99950592737885
 20
9.201415288175706
 30
0.0
 10
84.99965869885126
 20
9.197011936852439
 30
0.0
 10
84.99996442282439
 20
9.188200016404984
 30
0.0
 10
84.99548977866797
 20
9.178860618832488
 30
0.0
 10
84.99116451053807
 20
9.176289280187202
 30
0.0
 10
84.99004427668063
 20
9.175623309772675
 30
0.0
  0
LINE
  5
F4
330
1F
100
AcDbEntity
  8
SLD-0
  6
Continuous
370
    15
100
AcDbLine
 10
45.9462563805
 20
9.2014152882
 30
0.0
 11
45.9550069994
 21
9.2014152882
 31
0.0
  0
SPLINE
  5
F5
330
1F
100
AcDbEntity
  8
SLD-0
  6
Continuous
370
    15
100
AcDbSpline
210
0.0
220
0.0
230
1.0
 70
     8
 71
     3
 72
    10
 73
     6
 74
     0
 42
0.00000001
 43
0.00000001
 12
1.0
 22
0.0
 32
0.0
 13
1.0
 23
0.0
 33
0.0
 40
0.0
 40
0.0
 40
0.0
 40
0.0
 40
0.3057782700027715
 40
0.731660924639478
 40
1.0
 40
1.0
 40
1.0
 40
1.0
 10
45.96446865012712
 20
9.17554058098878
 30
0.0
 10
45.96235589865361
 20
9.177288613919423
 30
0.0
 10
45.95730054368472
 20
9.181471276704197
 30
0.0
 10
45.95417374416851
 20
9.19139278432382
 30
0.0
 10
45.95477470766628
 20
9.198621252306552
 30
0.0
 10
45.95500699942892
 20
9.201415288175706
 30
0.0
  0
LINE
  5
F6
330
1F
100
AcDbEntity
  8
SLD-0
  6
Continuous
370
    15
100
AcDbLine
 10
84.9995059274
 20
9.2014152882
 30
0.0
 11
84.9900442767
 21
9.271623469
 31
0.0
  0
LINE
  5
F7
330
1F
100
AcDbEntity
  8
SLD-0
  6
Continuous
370
    15
100
AcDbLine
 10
85.0082565463
 20
9.2940062304
 30
0.0
 11
84.9900442767
 21
9.4291487809
 31
0.0
  0
LINE
  5
F8
330
1F
100
AcDbEntity
  8
SLD-0
  6
Continuous
370
    15
100
AcDbLine
 10
45.9644686501
 20
9.271623469
 30
0.0
 11
45.9550069994
 21
9.2014152882
 31
0.0
  0
LINE
  5
F9
330
1F
100
AcDbEntity
  8
SLD-0
  6
Continuous
370
    15
100
AcDbLine
 10
45.9644686501
 20
9.4291487809
 30
0.0
 11
45.9462563805
 21
9.2940062304
 31
0.0
  0
LINE
  5
FA
330
1F
100
AcDbEntity
  8
SLD-0
  6
Continuous
370
    15
100
AcDbLine
 10
84.9772562644
 20
8.146115261
 30
0.0
 11
84.9772562644
 21
9.048115291
 31
0.0
  0
LINE
  5
FB
330
1F
100
AcDbEntity
  8
SLD-0
  6
Continuous
370
    15
100
AcDbLine
 10
84.9772562644
 20
8.146115261
 30
0.0
 11
45.9772566624
 21
8.146115261
 31
0.0
  0
LINE
  5
FC
330
1F
100
AcDbEntity
  8
SLD-0
  6
Continuous
370
    15
100
AcDbLine
 10
45.9772566624
 20
9.048115291
 30
0.0
 11
45.9772566624
 21
8.146115261
 31
0.0
  0
LINE
  5
FD
330
1F
100
AcDbEntity
  8
SLD-0
  6
Continuous
370
    15
100
AcDbLine
 10
84.9772562644
 20
9.048115291
 30
0.0
 11
45.9772566624
 21
9.048115291
 31
0.0
  0
LINE
  5
FE
330
1F
100
AcDbEntity
  8
SLD-0
  6
Continuous
370
    15
100
AcDbLine
 10
84.9772562644
 20
9.1151152878
 30
0.0
 11
84.9772562644
 21
9.048115291
 31
0.0
  0
LINE
  5
FF
330
1F
100
AcDbEntity
  8
SLD-0
  6
Continuous
370
    15
100
AcDbLine
 10
45.9772566624
 20
9.048115291
 30
0.0
 11
45.9772566624
 21
9.1151152878
 31
0.0
  0
LINE
  5
100
330
1F
100
AcDbEntity
  8
SLD-0
  6
Continuous
370
    15
100
AcDbLine
 10
45.9772566624
 20
8.079115255
 30
0.0
 11
45.9772566624
 21
8.146115261
 31
0.0
  0
LINE
  5
101
330
1F
100
AcDbEntity
  8
SLD-0
  6
Continuous
370
    15
100
AcDbLine
 10
84.9772562644
 20
8.146115261
 30
0.0
 11
84.9772562644
 21
8.079115255
 31
0.0
  0
LINE
  5
102
330
1F
100
AcDbEntity
  8
SLD-0
  6
Continuous
370
    15
100
AcDbLine
 10
45.9772566624
 20
8.079115255
 30
0.0
 11
84.9772562644
 21
8.079115255
 31
0.0
  0
LINE
  5
103
330
1F
100
AcDbEntity
  8
SLD-0
  6
Continuous
370
    15
100
AcDbLine
 10
85.0442563438
 20
9.1151152878
 30
0.0
 11
85.0082565463
 21
9.1151152878
 31
0.0
  0
LINE
  5
104
330
1F
100
AcDbEntity
  8
SLD-0
  6
Continuous
370
    15
100
AcDbLine
 10
85.0082565463
 20
8.146115261
 30
0.0
 11
85.0442563438
 21
8.146115261
 31
0.0
  0
LINE
  5
105
330
1F
100
AcDbEntity
  8
SLD-0
  6
Continuous
370
    15
100
AcDbLine
 10
85.0442563438
 20
8.146115261
 30
0.0
 11
85.0442563438
 21
9.1151152878
 31
0.0
  0
LINE
  5
106
330
1F
100
AcDbEntity
  8
SLD-0
  6
Continuous
370
    15
100
AcDbLine
 10
85.0082565463
 20
8.146115261
 30
0.0
 11
85.0082565463
 21
9.1151152878
 31
0.0
  0
ARC
  5
107
330
1F
100
AcDbEntity
  8
SLD-0
  6
Continuous
370
    15
100
AcDbCircle
 10
84.9772564634
 20
8.1461152882
 30
0.0
 40
0.0310000000000059
100
AcDbArc
 50
270.0
 51
360.0
  0
ARC
  5
108
330
1F
100
AcDbEntity
  8
SLD-0
  6
Continuous
370
    15
100
AcDbCircle
 10
84.9772564634
 20
8.1461152882
 30
0.0
 40
0.0670000000000073
100
AcDbArc
 50
270.0
 51
0.0
  0
LINE
  5
109
330
1F
100
AcDbEntity
  8
SLD-0
  6
Continuous
370
    15
100
AcDbLine
 10
45.9462563805
 20
8.146115261
 30
0.0
 11
45.9102565831
 21
8.146115261
 31
0.0
  0
LINE
  5
10A
330
1F
100
AcDbEntity
  8
SLD-0
  6
Continuous
370
    15
100
AcDbLine
 10
45.9102565831
 20
9.1151152878
 30
0.0
 11
45.9462563805
 21
9.1151152878
 31
0.0
  0
LINE
  5
10B
330
1F
100
AcDbEntity
  8
SLD-0
  6
Continuous
370
    15
100
AcDbLine
 10
45.9462563805
 20
8.146115261
 30
0.0
 11
45.9462563805
 21
9.1151152878
 31
0.0
  0
LINE
  5
10C
330
1F
100
AcDbEntity
  8
SLD-0
  6
Continuous
370
    15
100
AcDbLine
 10
45.9102565831
 20
8.146115261
 30
0.0
 11
45.9102565831
 21
9.1151152878
 31
0.0
  0
ARC
  5
10D
330
1F
100
AcDbEntity
  8
SLD-0
  6
Continuous
370
    15
100
AcDbCircle
 10
45.9772564634
 20
8.1461152882
 30
0.0
 40
0.0309999999999988
100
AcDbArc
 50
180.0
 51
270.0
  0
ARC
  5
10E
330
1F
100
AcDbEntity
  8
SLD-0
  6
Continuous
370
    15
100
AcDbCircle
 10
45.9772564634
 20
8.1461152882
 30
0.0
 40
0.0670000000000002
100
AcDbArc
 50
180.0
 51
270.0
  0
ARC
  5
10F
330
1F
100
AcDbEntity
  8
SLD-0
  6
Continuous
370
    15
100
AcDbCircle
 10
84.9664542431
 20
8.1459305787
 30
0.0
 40
0.0309684189984714
100
AcDbArc
 50
290.414402629
 51
0.3416893617
  0
ARC
  5
110
330
1F
100
AcDbEntity
  8
SLD-0
  6
Continuous
370
    15
100
AcDbCircle
 10
45.9879604113
 20
8.1458627295
 30
0.0
 40
0.0308706288297212
100
AcDbArc
 50
179.5312972327
 51
249.7126107767
  0
LINE
  5
111
330
1F
100
AcDbEntity
  8
SLD-0
  6
Continuous
370
    15
100
AcDbLine
 10
45.9462563805
 20
9.1151152878
 30
0.0
 11
45.9570908154
 21
9.1151152878
 31
0.0
  0
LINE
  5
112
330
1F
100
AcDbEntity
  8
SLD-0
  6
Continuous
370
    15
100
AcDbLine
 10
45.9570908154
 20
8.146115261
 30
0.0
 11
45.9570908154
 21
9.1151152878
 31
0.0
  0
LINE
  5
113
330
1F
100
AcDbEntity
  8
SLD-0
  6
Continuous
370
    15
100
AcDbLine
 10
45.9570908154
 20
9.1151152878
 30
0.0
 11
45.9644686501
 21
9.1151152878
 31
0.0
  0
LINE
  5
114
330
1F
100
AcDbEntity
  8
SLD-0
  6
Continuous
370
    15
100
AcDbLine
 10
84.9974221115
 20
9.1151152878
 30
0.0
 11
84.9974221115
 21
8.146115261
 31
0.0
  0
LINE
  5
115
330
1F
100
AcDbEntity
  8
SLD-0
  6
Continuous
370
    15
100
AcDbLine
 10
85.0082565463
 20
9.1151152878
 30
0.0
 11
84.9974221115
 21
9.1151152878
 31
0.0
  0
LINE
  5
116
330
1F
100
AcDbEntity
  8
SLD-0
  6
Continuous
370
    15
100
AcDbLine
 10
84.9974221115
 20
9.1151152878
 30
0.0
 11
84.9900442767
 21
9.1151152878
 31
0.0
  0
LINE
  5
117
330
1F
100
AcDbEntity
  8
SLD-0
  6
Continuous
370
    15
100
AcDbLine
 10
83.3822559167
 20
38.4128787567
 30
0.0
 11
83.3822559167
 21
38.4409750722
 31
0.0
  0
LINE
  5
118
330
1F
100
AcDbEntity
  8
SLD-0
  6
Continuous
370
    15
100
AcDbLine
 10
83.3822559167
 20
38.4128787567
 30
0.0
 11
83.3615515158
 21
38.4109122728
 31
0.0
  0
SPLINE
  5
119
330
1F
100
AcDbEntity
  8
SLD-0
  6
Continuous
370
    15
100
AcDbSpline
210
0.0
220
0.0
230
1.0
 70
     8
 71
     3
 72
    15
 73
    11
 74
     0
 42
0.00000001
 43
0.00000001
 12
1.0
 22
0.0
 32
0.0
 13
1.0
 23
0.0
 33
0.0
 40
0.0
 40
0.0
 40
0.0
 40
0.0
 40
0.140659488589467
 40
0.2812941482714895
 40
0.4219391407131955
 40
0.5625768925578998
 40
0.7032242443843946
 40
0.8438589040664171
 40
0.9845088042178184
 40
1.0
 40
1.0
 40
1.0
 40
1.0
 10
83.38225591665564
 20
38.44097507216097
 30
0.0
 10
83.38004155214438
 20
38.43909828259987
 30
0.0
 10
83.37561321399664
 20
38.43534503476449
 30
0.0
 10
83.36896928148037
 20
38.42479282330587
 30
0.0
 10
83.36232448692726
 20
38.4124643584612
 30
0.0
 10
83.35568165644962
 20
38.39986354382847
 30
0.0
 10
83.3490365248631
 20
38.38885691766506
 30
0.0
 10
83.34239457434887
 20
38.38170530943383
 30
0.0
 10
83.33771746780282
 20
38.37853892890673
 30
0.0
 10
83.33526170542065
 20
38.37932159923931
 30
0.0
 10
83.33501806235137
 20
38.37939925015679
 30
0.0
  0
LINE
  5
11A
330
1F
100
AcDbEntity
  8
SLD-0
  6
Continuous
370
    15
100
AcDbLine
 10
47.592961411
 20
38.4109122728
 30
0.0
 11
47.5722570102
 21
38.4128787567
 31
0.0
  0
LINE
  5
11B
330
1F
100
AcDbEntity
  8
SLD-0
  6
Continuous
370
    15
100
AcDbLine
 10
47.5722570102
 20
38.4128787567
 30
0.0
 11
47.5722570102
 21
38.4409750722
 31
0.0
  0
SPLINE
  5
11C
330
1F
100
AcDbEntity
  8
SLD-0
  6
Continuous
370
    15
100
AcDbSpline
210
0.0
220
0.0
230
1.0
 70
     8
 71
     3
 72
    15
 73
    11
 74
     0
 42
0.00000001
 43
0.00000001
 12
1.0
 22
0.0
 32
0.0
 13
1.0
 23
0.0
 33
0.0
 40
0.0
 40
0.0
 40
0.0
 40
0.0
 40
0.0154911957821816
 40
0.156141095933583
 40
0.2967757556156054
 40
0.4374231074421002
 40
0.5780608592868045
 40
0.7187058517285105
 40
0.859340511410533
 40
1.0
 40
1.0
 40
1.0
 40
1.0
 10
47.61949486445639
 20
38.37939925015679
 30
0.0
 10
47.6192512213871
 20
38.37932159923931
 30
0.0
 10
47.61679545900497
 20
38.37853892890672
 30
0.0
 10
47.61211835245886
 20
38.38170530943384
 30
0.0
 10
47.60547640194467
 20
38.38885691766504
 30
0.0
 10
47.59883127035812
 20
38.39986354382849
 30
0.0
 10
47.59218843988049
 20
38.4124643584612
 30
0.0
 10
47.58554364532738
 20
38.42479282330587
 30
0.0
 10
47.57889971281111
 20
38.43534503476449
 30
0.0
 10
47.57447137466339
 20
38.43909828259987
 30
0.0
 10
47.57225701015212
 20
38.44097507216097
 30
0.0
  0
LINE
  5
11D
330
1F
100
AcDbEntity
  8
SLD-0
  6
Continuous
370
    15
100
AcDbLine
 10
83.3822559167
 20
38.4409750722
 30
0.0
 11
47.5722570102
 21
38.4409750722
 31
0.0
  0
LINE
  5
11E
330
1F
100
AcDbEntity
  8
SLD-0
  6
Continuous
370
    15
100
AcDbLine
 10
83.3822559167
 20
39.4875082625
 30
0.0
 11
47.5722570102
 21
39.4875082625
 31
0.0
  0
LINE
  5
11F
330
1F
100
AcDbEntity
  8
SLD-0
  6
Continuous
370
    15
100
AcDbLine
 10
83.3822559167
 20
39.4875082625
 30
0.0
 11
83.3822559167
 21
38.4409750722
 31
0.0
  0
LINE
  5
120
330
1F
100
AcDbEntity
  8
SLD-0
  6
Continuous
370
    15
100
AcDbLine
 10
47.5722570102
 20
39.4875082625
 30
0.0
 11
47.5722570102
 21
38.4409750722
 31
0.0
  0
ARC
  5
121
330
1F
100
AcDbEntity
  8
SLD-0
  6
Continuous
370
    15
100
AcDbCircle
 10
83.3835671033
 20
39.4439160993
 30
0.0
 40
0.0436118780424464
100
AcDbArc
 50
1.839040874
 51
91.7228513436
  0
LINE
  5
122
330
1F
100
AcDbEntity
  8
SLD-0
  6
Continuous
370
    15
100
AcDbLine
 10
83.427156518
 20
39.4453156833
 30
0.0
 11
83.427156518
 21
38.4148734004
 31
0.0
  0
SPLINE
  5
123
330
1F
100
AcDbEntity
  8
SLD-0
  6
Continuous
370
    15
100
AcDbSpline
210
0.0
220
0.0
230
1.0
 70
     8
 71
     3
 72
    11
 73
     7
 74
     0
 42
0.00000001
 43
0.00000001
 12
1.0
 22
0.0
 32
0.0
 13
1.0
 23
0.0
 33
0.0
 40
0.0
 40
0.0
 40
0.0
 40
0.0
 40
0.258286999334593
 40
0.516739440987599
 40
0.7752247953323453
 40
1.0
 40
1.0
 40
1.0
 40
1.0
 10
83.42715651796006
 20
38.41487340035638
 30
0.0
 10
83.4264351066155
 20
38.41920021486967
 30
0.0
 10
83.42499182183589
 20
38.42785661538001
 30
0.0
 10
83.4139248825944
 20
38.4379474201298
 30
0.0
 10
83.39890272937096
 20
38.44314878444558
 30
0.0
 10
83.38754066486625
 20
38.44166514552835
 30
0.0
 10
83.38225591665564
 20
38.44097507216097
 30
0.0
  0
SPLINE
  5
124
330
1F
100
AcDbEntity
  8
SLD-0
  6
Continuous
370
    15
100
AcDbSpline
210
0.0
220
0.0
230
1.0
 70
     8
 71
     3
 72
     9
 73
     5
 74
     0
 42
0.00000001
 43
0.00000001
 12
1.0
 22
0.0
 32
0.0
 13
1.0
 23
0.0
 33
0.0
 40
0.0
 40
0.0
 40
0.0
 40
0.0
 40
0.5000106613033332
 40
1.0
 40
1.0
 40
1.0
 40
1.0
 10
83.3972568100307
 20
38.41487340035638
 30
0.0
 10
83.3963098919274
 20
38.41600059385075
 30
0.0
 10
83.3944160961015
 20
38.4182549327711
 30
0.0
 10
83.38630925218457
 20
38.41467078993728
 30
0.0
 10
83.38225591665564
 20
38.41287875673201
 30
0.0
  0
LINE
  5
125
330
1F
100
AcDbEntity
  8
SLD-0
  6
Continuous
370
    15
100
AcDbLine
 10
83.427156518
 20
38.4148734004
 30
0.0
 11
83.39725681
 21
38.4148734004
 31
0.0
  0
SPLINE
  5
126
330
1F
100
AcDbEntity
  8
SLD-0
  6
Continuous
370
    15
100
AcDbSpline
210
0.0
220
0.0
230
1.0
 70
     8
 71
     3
 72
     9
 73
     5
 74
     0
 42
0.00000001
 43
0.00000001
 12
1.0
 22
0.0
 32
0.0
 13
1.0
 23
0.0
 33
0.0
 40
0.0
 40
0.0
 40
0.0
 40
0.0
 40
0.4999893386966669
 40
1.0
 40
1.0
 40
1.0
 40
1.0
 10
47.57225701015212
 20
38.41287875673201
 30
0.0
 10
47.56820367462317
 20
38.41467078993729
 30
0.0
 10
47.56009683070626
 20
38.41825493277111
 30
0.0
 10
47.55820303488034
 20
38.41600059385075
 30
0.0
 10
47.55725611677705
 20
38.41487340035638
 30
0.0
  0
LINE
  5
127
330
1F
100
AcDbEntity
  8
SLD-0
  6
Continuous
370
    15
100
AcDbLine
 10
47.5572561168
 20
38.4148734004
 30
0.0
 11
47.5273564088
 21
38.4148734004
 31
0.0
  0
SPLINE
  5
128
330
1F
100
AcDbEntity
  8
SLD-0
  6
Continuous
370
    15
100
AcDbSpline
210
0.0
220
0.0
230
1.0
 70
     8
 71
     3
 72
    11
 73
     7
 74
     0
 42
0.00000001
 43
0.00000001
 12
1.0
 22
0.0
 32
0.0
 13
1.0
 23
0.0
 33
0.0
 40
0.0
 40
0.0
 40
0.0
 40
0.0
 40
0.2582751752183826
 40
0.516737379264115
 40
0.7752159117431701
 40
1.0
 40
1.0
 40
1.0
 40
1.0
 10
47.57225701015212
 20
38.44097507216097
 30
0.0
 10
47.56617733934278
 20
38.44168235589056
 30
0.0
 10
47.55401359515733
 20
38.44309743552611
 30
0.0
 10
47.53885008570616
 20
38.43686084421959
 30
0.0
 10
47.52908187432006
 20
38.42672080356164
 30
0.0
 10
47.5279041935886
 20
38.41863460381072
 30
0.0
 10
47.5273564088477
 20
38.41487340035638
 30
0.0
  0
ARC
  5
129
330
1F
100
AcDbEntity
  8
SLD-0
  6
Continuous
370
    15
100
AcDbCircle
 10
47.5709458235
 20
39.4439160993
 30
0.0
 40
0.0436118780424376
100
AcDbArc
 50
88.2771486564
 51
178.1609591261
  0
LINE
  5
12A
330
1F
100
AcDbEntity
  8
SLD-0
  6
Continuous
370
    15
100
AcDbLine
 10
47.5273564088
 20
38.4148734004
 30
0.0
 11
47.5273564088
 21
39.4453156833
 31
0.0
  0
LINE
  5
12B
330
1F
100
AcDbEntity
  8
SLD-0
  6
Continuous
370
    15
100
AcDbLine
 10
47.5572561168
 20
36.9938564294
 30
0.0
 11
47.5273564088
 21
36.9938564294
 31
0.0
  0
LINE
  5
12C
330
1F
100
AcDbEntity
  8
SLD-0
  6
Continuous
370
    15
100
AcDbLine
 10
47.5572561168
 20
36.9938564294
 30
0.0
 11
47.5572561168
 21
38.4148734004
 31
0.0
  0
LINE
  5
12D
330
1F
100
AcDbEntity
  8
SLD-0
  6
Continuous
370
    15
100
AcDbLine
 10
47.5273564088
 20
36.9938564294
 30
0.0
 11
47.5273564088
 21
38.4148734004
 31
0.0
  0
LINE
  5
12E
330
1F
100
AcDbEntity
  8
SLD-0
  6
Continuous
370
    15
100
AcDbLine
 10
83.39725681
 20
36.9938564294
 30
0.0
 11
83.427156518
 21
36.9938564294
 31
0.0
  0
LINE
  5
12F
330
1F
100
AcDbEntity
  8
SLD-0
  6
Continuous
370
    15
100
AcDbLine
 10
83.39725681
 20
36.9938564294
 30
0.0
 11
83.39725681
 21
38.4148734004
 31
0.0
  0
LINE
  5
130
330
1F
100
AcDbEntity
  8
SLD-0
  6
Continuous
370
    15
100
AcDbLine
 10
83.427156518
 20
36.9938564294
 30
0.0
 11
83.427156518
 21
38.4148734004
 31
0.0
  0
LINE
  5
131
330
1F
100
AcDbEntity
  8
SLD-0
  6
Continuous
370
    15
100
AcDbLine
 10
83.3822559167
 20
39.4902162846
 30
0.0
 11
47.5722570102
 21
39.4902162846
 31
0.0
  0
LINE
  5
132
330
1F
100
AcDbEntity
  8
SLD-0
  6
Continuous
370
    15
100
AcDbLine
 10
83.3822559167
 20
39.4902162846
 30
0.0
 11
83.3822559167
 21
39.4875082625
 31
0.0
  0
LINE
  5
133
330
1F
100
AcDbEntity
  8
SLD-0
  6
Continuous
370
    15
100
AcDbLine
 10
47.5722570102
 20
39.4875082625
 30
0.0
 11
47.5722570102
 21
39.4902162846
 31
0.0
  0
LINE
  5
134
330
1F
100
AcDbEntity
  8
SLD-0
  6
Continuous
370
    15
100
AcDbLine
 10
85.9795998852
 20
37.7394143233
 30
0.0
 11
85.0547563825
 21
37.7394143233
 31
0.0
  0
LINE
  5
135
330
1F
100
AcDbEntity
  8
SLD-0
  6
Continuous
370
    15
100
AcDbLine
 10
85.9795998852
 20
37.7394143233
 30
0.0
 11
85.9795998852
 21
34.6144155436
 31
0.0
  0
LINE
  5
136
330
1F
100
AcDbEntity
  8
SLD-0
  6
Continuous
370
    15
100
AcDbLine
 10
85.9795998852
 20
34.6144155436
 30
0.0
 11
85.0547563825
 21
34.6144155436
 31
0.0
  0
CIRCLE
  5
137
330
1F
100
AcDbEntity
  8
SLD-0
  6
Continuous
370
    15
100
AcDbCircle
 10
85.7925997934
 20
36.1769152882
 30
0.0
 40
0.09375
  0
CIRCLE
  5
138
330
1F
100
AcDbEntity
  8
SLD-0
  6
Continuous
370
    15
100
AcDbCircle
 10
85.7925997934
 20
16.2639152882
 30
0.0
 40
0.09375
  0
LINE
  5
139
330
1F
100
AcDbEntity
  8
SLD-0
  6
Continuous
370
    15
100
AcDbLine
 10
85.9795998852
 20
17.8264153466
 30
0.0
 11
85.9795998852
 21
14.7014153936
 31
0.0
  0
LINE
  5
13A
330
1F
100
AcDbEntity
  8
SLD-0
  6
Continuous
370
    15
100
AcDbLine
 10
85.9795998852
 20
14.7014153936
 30
0.0
 11
85.0547563825
 21
14.7014153936
 31
0.0
  0
LINE
  5
13B
330
1F
100
AcDbEntity
  8
SLD-0
  6
Continuous
370
    15
100
AcDbLine
 10
85.9795998852
 20
17.8264153466
 30
0.0
 11
85.0547563825
 21
17.8264153466
 31
0.0
  0
LINE
  5
13C
330
1F
100
AcDbEntity
  8
SLD-0
  6
Continuous
370
    15
100
AcDbLine
 10
44.9749130416
 20
15.2014150575
 30
0.0
 11
44.9749130416
 21
18.3264150106
 31
0.0
  0
LINE
  5
13D
330
1F
100
AcDbEntity
  8
SLD-0
  6
Continuous
370
    15
100
AcDbLine
 10
44.9749130416
 20
18.3264150106
 30
0.0
 11
45.8997565444
 21
18.3264150106
 31
0.0
  0
CIRCLE
  5
13E
330
1F
100
AcDbEntity
  8
SLD-0
  6
Continuous
370
    15
100
AcDbCircle
 10
45.1619131334
 20
16.7639152882
 30
0.0
 40
0.09375
  0
LINE
  5
13F
330
1F
100
AcDbEntity
  8
SLD-0
  6
Continuous
370
    15
100
AcDbLine
 10
44.9749130416
 20
15.2014150575
 30
0.0
 11
45.8997565444
 21
15.2014150575
 31
0.0
  0
LINE
  5
140
330
1F
100
AcDbEntity
  8
SLD-0
  6
Continuous
370
    15
100
AcDbLine
 10
44.9749130416
 20
38.2394151606
 30
0.0
 11
45.8997565444
 21
38.2394151606
 31
0.0
  0
LINE
  5
141
330
1F
100
AcDbEntity
  8
SLD-0
  6
Continuous
370
    15
100
AcDbLine
 10
44.9749130416
 20
35.1144163809
 30
0.0
 11
45.8997565444
 21
35.1144163809
 31
0.0
  0
LINE
  5
142
330
1F
100
AcDbEntity
  8
SLD-0
  6
Continuous
370
    15
100
AcDbLine
 10
44.9749130416
 20
35.1144163809
 30
0.0
 11
44.9749130416
 21
38.2394151606
 31
0.0
  0
CIRCLE
  5
143
330
1F
100
AcDbEntity
  8
SLD-0
  6
Continuous
370
    15
100
AcDbCircle
 10
45.1619131334
 20
36.6769152882
 30
0.0
 40
0.09375
  0
ARC
  5
144
330
1F
100
AcDbEntity
  8
SLD-0
  6
Continuous
370
    15
100
AcDbCircle
 10
48.0795120645
 20
38.6744152554
 30
0.0
 40
0.5554756168124158
100
AcDbArc
 50
173.7325889768
 51
186.2674110232
  0
LINE
  5
145
330
1F
100
AcDbEntity
  8
SLD-0
  6
Continuous
370
    15
100
AcDbLine
 10
47.4772568276
 20
16.5878155751
 30
0.0
 11
47.5241250862
 21
16.5878155751
 31
0.0
  0
LINE
  5
146
330
1F
100
AcDbEntity
  8
SLD-0
  6
Continuous
370
    15
100
AcDbLine
 10
47.5241250862
 20
16.5878155751
 30
0.0
 11
47.5241250862
 21
17.6728154677
 31
0.0
  0
LINE
  5
147
330
1F
100
AcDbEntity
  8
SLD-0
  6
Continuous
370
    15
100
AcDbLine
 10
47.5241250862
 20
17.6728154677
 30
0.0
 11
47.4772568276
 21
17.6728154677
 31
0.0
  0
LINE
  5
148
330
1F
100
AcDbEntity
  8
SLD-0
  6
Continuous
370
    15
100
AcDbLine
 10
47.4947815318
 20
16.5878155751
 30
0.0
 11
47.4947815318
 21
17.6728154677
 31
0.0
  0
ARC
  5
149
330
1F
100
AcDbEntity
  8
SLD-0
  6
Continuous
370
    15
100
AcDbCircle
 10
82.8750008623
 20
38.6744152554
 30
0.0
 40
0.5554756168118931
100
AcDbArc
 50
353.7325889768
 51
6.2674110232
  0
LINE
  5
14A
330
1F
100
AcDbEntity
  8
SLD-0
  6
Continuous
370
    15
100
AcDbLine
 10
47.5372568811
 20
15.1761153498
 30
0.0
 11
47.5372568811
 21
15.2068152618
 31
0.0
  0
LINE
  5
14B
330
1F
100
AcDbEntity
  8
SLD-0
  6
Continuous
370
    15
100
AcDbLine
 10
47.5372568811
 20
15.2068152618
 30
0.0
 11
48.4131565227
 21
15.2068152618
 31
0.0
  0
LINE
  5
14C
330
1F
100
AcDbEntity
  8
SLD-0
  6
Continuous
370
    15
100
AcDbLine
 10
82.5413564041
 20
15.2068152618
 30
0.0
 11
83.4172560457
 21
15.2068152618
 31
0.0
  0
LINE
  5
14D
330
1F
100
AcDbEntity
  8
SLD-0
  6
Continuous
370
    15
100
AcDbLine
 10
83.4172560457
 20
15.2068152618
 30
0.0
 11
83.4172560457
 21
15.1761153498
 31
0.0
  0
LINE
  5
14E
330
1F
100
AcDbEntity
  8
SLD-0
  6
Continuous
370
    15
100
AcDbLine
 10
75.0482241921
 20
45.5080607926
 30
0.0
 11
75.0223108381
 21
45.523175498
 31
0.0
  0
LINE
  5
14F
330
1F
100
AcDbEntity
  8
SLD-0
  6
Continuous
370
    15
100
AcDbLine
 10
75.0482241921
 20
45.5080607926
 30
0.0
 11
74.9222565806
 21
45.2921159805
 31
0.0
  0
LINE
  5
150
330
1F
100
AcDbEntity
  8
SLD-0
  6
Continuous
370
    15
100
AcDbLine
 10
74.9222565806
 20
45.2921159805
 30
0.0
 11
74.8963432266
 21
45.3072306859
 31
0.0
  0
LINE
  5
151
330
1F
100
AcDbEntity
  8
SLD-0
  6
Continuous
370
    15
100
AcDbLine
 10
75.0223108381
 20
45.523175498
 30
0.0
 11
74.8963432266
 21
45.3072306859
 31
0.0
  0
LINE
  5
152
330
1F
100
AcDbEntity
  8
SLD-0
  6
Continuous
370
    15
100
AcDbLine
 10
75.8361260235
 20
46.7850199077
 30
0.0
 11
75.8102132562
 21
46.7699028557
 31
0.0
  0
LINE
  5
153
330
1F
100
AcDbEntity
  8
SLD-0
  6
Continuous
370
    15
100
AcDbLine
 10
76.5722023203
 20
45.523175498
 30
0.0
 11
75.8361260235
 21
46.7850199077
 31
0.0
  0
LINE
  5
154
330
1F
100
AcDbEntity
  8
SLD-0
  6
Continuous
370
    15
100
AcDbLine
 10
76.5462883797
 20
45.5080607926
 30
0.0
 11
76.5722023203
 21
45.523175498
 31
0.0
  0
LINE
  5
155
330
1F
100
AcDbEntity
  8
SLD-0
  6
Continuous
370
    15
100
AcDbLine
 10
76.5462883797
 20
45.5080607926
 30
0.0
 11
75.8102132562
 21
46.7699028557
 31
0.0
  0
ARC
  5
156
330
1F
100
AcDbEntity
  8
SLD-0
  6
Continuous
370
    15
100
AcDbCircle
 10
75.7972564634
 20
46.7623457653
 30
0.0
 40
0.0150000000000053
100
AcDbArc
 50
30.2564371635
 51
149.7435628365
  0
LINE
  5
157
330
1F
100
AcDbEntity
  8
SLD-0
  6
Continuous
370
    15
100
AcDbLine
 10
75.7842993156
 20
46.7699028557
 30
0.0
 11
75.7583865482
 21
46.7850199077
 31
0.0
  0
ARC
  5
158
330
1F
100
AcDbEntity
  8
SLD-0
  6
Continuous
370
    15
100
AcDbCircle
 10
75.7972564634
 20
46.7623457653
 30
0.0
 40
0.0449999999999966
100
AcDbArc
 50
30.2564371635
 51
149.7435628365
  0
LINE
  5
159
330
1F
100
AcDbEntity
  8
SLD-0
  6
Continuous
370
    15
100
AcDbLine
 10
76.6722559911
 20
45.2921159805
 30
0.0
 11
76.6981699318
 21
45.3072306859
 31
0.0
  0
LINE
  5
15A
330
1F
100
AcDbEntity
  8
SLD-0
  6
Continuous
370
    15
100
AcDbLine
 10
76.5462883797
 20
45.5080607926
 30
0.0
 11
76.6722559911
 21
45.2921159805
 31
0.0
  0
LINE
  5
15B
330
1F
100
AcDbEntity
  8
SLD-0
  6
Continuous
370
    15
100
AcDbLine
 10
76.5722023203
 20
45.523175498
 30
0.0
 11
76.6981699318
 21
45.3072306859
 31
0.0
  0
LINE
  5
15C
330
1F
100
AcDbEntity
  8
SLD-0
  6
Continuous
370
    15
100
AcDbLine
 10
75.7842993156
 20
46.7699028557
 30
0.0
 11
75.0482241921
 21
45.5080607926
 31
0.0
  0
LINE
  5
15D
330
1F
100
AcDbEntity
  8
SLD-0
  6
Continuous
370
    15
100
AcDbLine
 10
75.7583865482
 20
46.7850199077
 30
0.0
 11
75.0223108381
 21
45.523175498
 31
0.0
  0
LINE
  5
15E
330
1F
100
AcDbEntity
  8
SLD-0
  6
Continuous
370
    15
100
AcDbLine
 10
74.9134384958
 20
45.2769989285
 30
0.0
 11
74.8875251418
 21
45.2921159805
 31
0.0
  0
LINE
  5
15F
330
1F
100
AcDbEntity
  8
SLD-0
  6
Continuous
370
    15
100
AcDbLine
 10
74.1015064887
 20
43.8851154877
 30
0.0
 11
74.9134384958
 21
45.2769989285
 31
0.0
  0
LINE
  5
160
330
1F
100
AcDbEntity
  8
SLD-0
  6
Continuous
370
    15
100
AcDbLine
 10
74.8875251418
 20
45.2921159805
 30
0.0
 11
74.0667756365
 21
43.8851154877
 31
0.0
  0
LINE
  5
161
330
1F
100
AcDbEntity
  8
SLD-0
  6
Continuous
370
    15
100
AcDbLine
 10
76.7069874299
 20
45.2921159805
 30
0.0
 11
76.6810746626
 21
45.2769989285
 31
0.0
  0
LINE
  5
162
330
1F
100
AcDbEntity
  8
SLD-0
  6
Continuous
370
    15
100
AcDbLine
 10
77.4930060831
 20
43.8851154877
 30
0.0
 11
76.6810746626
 21
45.2769989285
 31
0.0
  0
LINE
  5
163
330
1F
100
AcDbEntity
  8
SLD-0
  6
Continuous
370
    15
100
AcDbLine
 10
77.5277375219
 20
43.8851154877
 30
0.0
 11
76.7069874299
 21
45.2921159805
 31
0.0
  0
LINE
  5
164
330
1F
100
AcDbEntity
  8
SLD-0
  6
Continuous
370
    15
100
AcDbLine
 10
74.9222565806
 20
45.2921159805
 30
0.0
 11
74.9134384958
 21
45.2769989285
 31
0.0
  0
LINE
  5
165
330
1F
100
AcDbEntity
  8
SLD-0
  6
Continuous
370
    15
100
AcDbLine
 10
74.8875251418
 20
45.2921159805
 30
0.0
 11
74.8963432266
 21
45.3072306859
 31
0.0
  0
LINE
  5
166
330
1F
100
AcDbEntity
  8
SLD-0
  6
Continuous
370
    15
100
AcDbLine
 10
76.6810746626
 20
45.2769989285
 30
0.0
 11
76.6722559911
 21
45.2921159805
 31
0.0
  0
LINE
  5
167
330
1F
100
AcDbEntity
  8
SLD-0
  6
Continuous
370
    15
100
AcDbLine
 10
76.7069874299
 20
45.2921159805
 30
0.0
 11
76.6981699318
 21
45.3072306859
 31
0.0
  0
LINE
  5
168
330
1F
100
AcDbEntity
  8
SLD-0
  6
Continuous
370
    15
100
AcDbLine
 10
56.0322563462
 20
45.2921159805
 30
0.0
 11
56.0581697002
 21
45.3072306859
 31
0.0
  0
LINE
  5
169
330
1F
100
AcDbEntity
  8
SLD-0
  6
Continuous
370
    15
100
AcDbLine
 10
55.9062887347
 20
45.5080607926
 30
0.0
 11
56.0322563462
 21
45.2921159805
 31
0.0
  0
LINE
  5
16A
330
1F
100
AcDbEntity
  8
SLD-0
  6
Continuous
370
    15
100
AcDbLine
 10
55.9062887347
 20
45.5080607926
 30
0.0
 11
55.9322020887
 21
45.523175498
 31
0.0
  0
LINE
  5
16B
330
1F
100
AcDbEntity
  8
SLD-0
  6
Continuous
370
    15
100
AcDbLine
 10
55.9322020887
 20
45.523175498
 30
0.0
 11
56.0581697002
 21
45.3072306859
 31
0.0
  0
LINE
  5
16C
330
1F
100
AcDbEntity
  8
SLD-0
  6
Continuous
370
    15
100
AcDbLine
 10
55.1442996706
 20
46.7699028557
 30
0.0
 11
55.1183869033
 21
46.7850199077
 31
0.0
  0
LINE
  5
16D
330
1F
100
AcDbEntity
  8
SLD-0
  6
Continuous
370
    15
100
AcDbLine
 10
55.1442996706
 20
46.7699028557
 30
0.0
 11
54.4082245471
 21
45.5080607926
 31
0.0
  0
LINE
  5
16E
330
1F
100
AcDbEntity
  8
SLD-0
  6
Continuous
370
    15
100
AcDbLine
 10
54.4082245471
 20
45.5080607926
 30
0.0
 11
54.3823106065
 21
45.523175498
 31
0.0
  0
LINE
  5
16F
330
1F
100
AcDbEntity
  8
SLD-0
  6
Continuous
370
    15
100
AcDbLine
 10
55.1183869033
 20
46.7850199077
 30
0.0
 11
54.3823106065
 21
45.523175498
 31
0.0
  0
LINE
  5
170
330
1F
100
AcDbEntity
  8
SLD-0
  6
Continuous
370
    15
100
AcDbLine
 10
54.4082245471
 20
45.5080607926
 30
0.0
 11
54.2822569357
 21
45.2921159805
 31
0.0
  0
LINE
  5
171
330
1F
100
AcDbEntity
  8
SLD-0
  6
Continuous
370
    15
100
AcDbLine
 10
54.2822569357
 20
45.2921159805
 30
0.0
 11
54.256342995
 21
45.3072306859
 31
0.0
  0
LINE
  5
172
330
1F
100
AcDbEntity
  8
SLD-0
  6
Continuous
370
    15
100
AcDbLine
 10
54.3823106065
 20
45.523175498
 30
0.0
 11
54.256342995
 21
45.3072306859
 31
0.0
  0
LINE
  5
173
330
1F
100
AcDbEntity
  8
SLD-0
  6
Continuous
370
    15
100
AcDbLine
 10
55.1961263786
 20
46.7850199077
 30
0.0
 11
55.1702136112
 21
46.7699028557
 31
0.0
  0
ARC
  5
174
330
1F
100
AcDbEntity
  8
SLD-0
  6
Continuous
370
    15
100
AcDbCircle
 10
55.1572564634
 20
46.7623457653
 30
0.0
 40
0.0149999999999956
100
AcDbArc
 50
30.2564371635
 51
149.7435628365
  0
ARC
  5
175
330
1F
100
AcDbEntity
  8
SLD-0
  6
Continuous
370
    15
100
AcDbCircle
 10
55.1572564634
 20
46.7623457653
 30
0.0
 40
0.0450000000000053
100
AcDbArc
 50
30.2564371635
 51
149.7435628365
  0
LINE
  5
176
330
1F
100
AcDbEntity
  8
SLD-0
  6
Continuous
370
    15
100
AcDbLine
 10
55.9322020887
 20
45.523175498
 30
0.0
 11
55.1961263786
 21
46.7850199077
 31
0.0
  0
LINE
  5
177
330
1F
100
AcDbEntity
  8
SLD-0
  6
Continuous
370
    15
100
AcDbLine
 10
55.9062887347
 20
45.5080607926
 30
0.0
 11
55.1702136112
 21
46.7699028557
 31
0.0
  0
LINE
  5
178
330
1F
100
AcDbEntity
  8
SLD-0
  6
Continuous
370
    15
100
AcDbLine
 10
56.066987785
 20
45.2921159805
 30
0.0
 11
56.041074431
 21
45.2769989285
 31
0.0
  0
LINE
  5
179
330
1F
100
AcDbEntity
  8
SLD-0
  6
Continuous
370
    15
100
AcDbLine
 10
56.066987785
 20
45.2921159805
 30
0.0
 11
56.0581697002
 21
45.3072306859
 31
0.0
  0
LINE
  5
17A
330
1F
100
AcDbEntity
  8
SLD-0
  6
Continuous
370
    15
100
AcDbLine
 10
56.041074431
 20
45.2769989285
 30
0.0
 11
56.0322563462
 21
45.2921159805
 31
0.0
  0
LINE
  5
17B
330
1F
100
AcDbEntity
  8
SLD-0
  6
Continuous
370
    15
100
AcDbLine
 10
56.8877372903
 20
43.8851154877
 30
0.0
 11
56.066987785
 21
45.2921159805
 31
0.0
  0
LINE
  5
17C
330
1F
100
AcDbEntity
  8
SLD-0
  6
Continuous
370
    15
100
AcDbLine
 10
56.8530064381
 20
43.8851154877
 30
0.0
 11
56.041074431
 21
45.2769989285
 31
0.0
  0
LINE
  5
17D
330
1F
100
AcDbEntity
  8
SLD-0
  6
Continuous
370
    15
100
AcDbLine
 10
54.2734382642
 20
45.2769989285
 30
0.0
 11
54.2475254969
 21
45.2921159805
 31
0.0
  0
LINE
  5
17E
330
1F
100
AcDbEntity
  8
SLD-0
  6
Continuous
370
    15
100
AcDbLine
 10
54.2475254969
 20
45.2921159805
 30
0.0
 11
54.256342995
 21
45.3072306859
 31
0.0
  0
LINE
  5
17F
330
1F
100
AcDbEntity
  8
SLD-0
  6
Continuous
370
    15
100
AcDbLine
 10
54.2822569357
 20
45.2921159805
 30
0.0
 11
54.2734382642
 21
45.2769989285
 31
0.0
  0
LINE
  5
180
330
1F
100
AcDbEntity
  8
SLD-0
  6
Continuous
370
    15
100
AcDbLine
 10
54.2475254969
 20
45.2921159805
 30
0.0
 11
53.4267754049
 21
43.8851154877
 31
0.0
  0
LINE
  5
181
330
1F
100
AcDbEntity
  8
SLD-0
  6
Continuous
370
    15
100
AcDbLine
 10
53.4615068437
 20
43.8851154877
 30
0.0
 11
54.2734382642
 21
45.2769989285
 31
0.0
  0
LINE
  5
182
330
1F
100
AcDbEntity
  8
SLD-0
  6
Continuous
370
    15
100
AcDbLine
 10
65.7272564604
 20
38.3791598929
 30
0.0
 11
65.7272564604
 21
38.3471728491
 31
0.0
  0
LINE
  5
183
330
1F
100
AcDbEntity
  8
SLD-0
  6
Continuous
370
    15
100
AcDbLine
 10
45.9550069994
 20
43.7394149841
 30
0.0
 11
45.9644686501
 21
43.7394149841
 31
0.0
  0
LINE
  5
184
330
1F
100
AcDbEntity
  8
SLD-0
  6
Continuous
370
    15
100
AcDbLine
 10
84.9900442767
 20
43.7394149841
 30
0.0
 11
84.9995059274
 21
43.7394149841
 31
0.0
  0
LINE
  5
185
330
1F
100
AcDbEntity
  8
SLD-0
  6
Continuous
370
    15
100
AcDbLine
 10
84.9995059274
 20
9.2014152882
 30
0.0
 11
84.9900442767
 21
9.2014152882
 31
0.0
  0
LINE
  5
186
330
1F
100
AcDbEntity
  8
SLD-0
  6
Continuous
370
    15
100
AcDbLine
 10
45.9644686501
 20
9.2014152882
 30
0.0
 11
45.9550069994
 21
9.2014152882
 31
0.0
  0
LINE
  5
187
330
1F
100
AcDbEntity
  8
SLD-0
  6
Continuous
370
    15
100
AcDbLine
 10
84.9974221115
 20
8.146115261
 30
0.0
 11
84.9772562644
 21
8.146115261
 31
0.0
  0
LINE
  5
188
330
1F
100
AcDbEntity
  8
SLD-0
  6
Continuous
370
    15
100
AcDbLine
 10
45.9772566624
 20
8.146115261
 30
0.0
 11
45.9570908154
 21
8.146115261
 31
0.0
  0
LINE
  5
189
330
1F
100
AcDbEntity
  8
SLD-0
  6
Continuous
370
    15
100
AcDbLine
 10
85.0082565463
 20
8.146115261
 30
0.0
 11
84.9974221115
 21
8.146115261
 31
0.0
  0
LINE
  5
18A
330
1F
100
AcDbEntity
  8
SLD-0
  6
Continuous
370
    15
100
AcDbLine
 10
45.9570908154
 20
8.146115261
 30
0.0
 11
45.9462563805
 21
8.146115261
 31
0.0
  0
DIMENSION
  5
18B
330
1F
100
AcDbEntity
  8
DIM
100
AcDbDimension
  2
_D
 10
83.5418564634
 20
27.2044935827
 30
0.0
 11
65.4772564634
 21
27.2044935827
 31
0.0
 70
   160
  1
<>
 71
     2
 42
-1.0
  3
SLDDIMSTYLE0
100
AcDbAlignedDimension
 13
47.4126564634
 23
15.1761152882
 33
0.0
 14
83.5418564634
 24
15.1761152882
 34
0.0
 50
0.0
100
AcDbRotatedDimension
  0
DIMENSION
  5
199
330
1F
100
AcDbEntity
  8
DIM
100
AcDbDimension
  2
_D_1
 10
85.0442564634
 20
4.0790158787
 30
0.0
 11
65.4772564634
 21
4.0790158787
 31
0.0
 70
   160
  1
<>
 71
     2
 42
-1.0
  3
SLDDIMSTYLE0
100
AcDbAlignedDimension
 13
45.9102564634
 23
8.1461152882
 33
0.0
 14
85.0442564634
 24
8.1461152882
 34
0.0
 50
0.0
100
AcDbRotatedDimension
  0
DIMENSION
  5
1A8
330
1F
100
AcDbEntity
  8
DIM
100
AcDbDimension
  2
_D_2
 10
36.4749131334
 20
46.8073457653
 30
0.0
 11
36.4749131334
 21
27.4432305267
 31
0.0
 70
   160
  1
<>
 71
     2
 42
-1.0
  3
SLDDIMSTYLE0
100
AcDbAlignedDimension
 13
45.9772564634
 23
8.0791152882
 33
0.0
 14
55.1572564634
 24
46.8073457653
 34
0.0
 50
90.0
100
AcDbRotatedDimension
  0
DIMENSION
  5
1B7
330
1F
100
AcDbEntity
  8
DIM
100
AcDbDimension
  2
_D_3
 10
40.9749131334
 20
39.5545152882
 30
0.0
 11
40.9749131334
 21
22.3797340017
 31
0.0
 70
   160
  1
<>
 71
     2
 42
-1.0
  3
SLDDIMSTYLE0
100
AcDbAlignedDimension
 13
47.4126564634
 23
15.1761152882
 33
0.0
 14
47.4126564634
 24
39.5545152882
 34
0.0
 50
90.0
100
AcDbRotatedDimension
  0
LINE
  5
1C6
330
1F
100
AcDbEntity
  8
SLD-0
  6
Continuous
370
    15
100
AcDbLine
 10
47.5929191715
 20
59.3510106954
 30
0.0
 11
83.3615937553
 21
59.3510106954
 31
0.0
  0
LINE
  5
1C7
330
1F
100
AcDbEntity
  8
SLD-0
  6
Continuous
370
    15
100
AcDbLine
 10
84.9900442767
 20
62.797258564
 30
0.0
 11
45.9644686501
 21
62.797258564
 31
0.0
  0
LINE
  5
1C8
330
1F
100
AcDbEntity
  8
SLD-0
  6
Continuous
370
    15
100
AcDbLine
 10
84.9900442767
 20
62.797258564
 30
0.0
 11
84.9900442767
 21
62.732659097
 31
0.0
  0
LINE
  5
1C9
330
1F
100
AcDbEntity
  8
SLD-0
  6
Continuous
370
    15
100
AcDbLine
 10
45.9644686501
 20
62.732659097
 30
0.0
 11
84.9900442767
 21
62.732659097
 31
0.0
  0
LINE
  5
1CA
330
1F
100
AcDbEntity
  8
SLD-0
  6
Continuous
370
    15
100
AcDbLine
 10
45.9644686501
 20
62.732659097
 30
0.0
 11
45.9644686501
 21
62.797258564
 31
0.0
  0
LINE
  5
1CB
330
1F
100
AcDbEntity
  8
SLD-0
  6
Continuous
370
    15
100
AcDbLine
 10
45.9644686501
 20
63.4826591796
 30
0.0
 11
45.9644686501
 21
62.797258564
 31
0.0
  0
LINE
  5
1CC
330
1F
100
AcDbEntity
  8
SLD-0
  6
Continuous
370
    15
100
AcDbLine
 10
84.9900442767
 20
63.4826591796
 30
0.0
 11
76.5824301488
 21
63.4826591796
 31
0.0
  0
LINE
  5
1CD
330
1F
100
AcDbEntity
  8
SLD-0
  6
Continuous
370
    15
100
AcDbLine
 10
75.0120824229
 20
63.4826591796
 30
0.0
 11
55.9424305039
 21
63.4826591796
 31
0.0
  0
LINE
  5
1CE
330
1F
100
AcDbEntity
  8
SLD-0
  6
Continuous
370
    15
100
AcDbLine
 10
54.372082778
 20
63.4826591796
 30
0.0
 11
45.9644686501
 21
63.4826591796
 31
0.0
  0
LINE
  5
1CF
330
1F
100
AcDbEntity
  8
SLD-0
  6
Continuous
370
    15
100
AcDbLine
 10
84.9900442767
 20
63.4826591796
 30
0.0
 11
84.9900442767
 21
62.797258564
 31
0.0
  0
LINE
  5
1D0
330
1F
100
AcDbEntity
  8
SLD-0
  6
Continuous
370
    15
100
AcDbLine
 10
45.9644686501
 20
62.732659097
 30
0.0
 11
45.9643560114
 21
62.732659097
 31
0.0
  0
LINE
  5
1D1
330
1F
100
AcDbEntity
  8
SLD-0
  6
Continuous
370
    15
100
AcDbLine
 10
45.9644686501
 20
62.7662594555
 30
0.0
 11
45.9643560114
 21
62.7662594555
 31
0.0
  0
LINE
  5
1D2
330
1F
100
AcDbEntity
  8
SLD-0
  6
Continuous
370
    15
100
AcDbLine
 10
84.9901569154
 20
62.732659097
 30
0.0
 11
84.9900442767
 21
62.732659097
 31
0.0
  0
LINE
  5
1D3
330
1F
100
AcDbEntity
  8
SLD-0
  6
Continuous
370
    15
100
AcDbLine
 10
84.9901569154
 20
62.7662594555
 30
0.0
 11
84.9900442767
 21
62.7662594555
 31
0.0
  0
SPLINE
  5
1D4
330
1F
100
AcDbEntity
  8
SLD-0
  6
Continuous
370
    15
100
AcDbSpline
210
0.0
220
0.0
230
1.0
 70
     8
 71
     3
 72
    11
 73
     7
 74
     0
 42
0.00000001
 43
0.00000001
 12
1.0
 22
0.0
 32
0.0
 13
1.0
 23
0.0
 33
0.0
 40
0.0
 40
0.0
 40
0.0
 40
0.0
 40
0.2500129286540541
 40
0.5000115581612382
 40
0.7500101876684224
 40
1.0
 40
1.0
 40
1.0
 40
1.0
 10
45.93335690286602
 20
62.79725856404271
 30
0.0
 10
45.93382282294349
 20
62.79319693183066
 30
0.0
 10
45.93475463645078
 20
62.78507389970602
 30
0.0
 10
45.94192267339737
 20
62.77482514052316
 30
0.0
 10
45.95217072071615
 20
62.76765744144711
 30
0.0
 10
45.96029429561003
 20
62.76672544532413
 30
0.0
 10
45.96435601142834
 20
62.76625945548039
 30
0.0
  0
LINE
  5
1D5
330
1F
100
AcDbEntity
  8
SLD-0
  6
Continuous
370
    15
100
AcDbLine
 10
45.8997565444
 20
62.797258564
 30
0.0
 11
45.9333569029
 21
62.797258564
 31
0.0
  0
SPLINE
  5
1D6
330
1F
100
AcDbEntity
  8
SLD-0
  6
Continuous
370
    15
100
AcDbSpline
210
0.0
220
0.0
230
1.0
 70
     8
 71
     3
 72
    11
 73
     7
 74
     0
 42
0.00000001
 43
0.00000001
 12
1.0
 22
0.0
 32
0.0
 13
1.0
 23
0.0
 33
0.0
 40
0.0
 40
0.0
 40
0.0
 40
0.0
 40
0.2500053506001714
 40
0.5000053367063144
 40
0.7500053228124574
 40
0.9999999999999999
 40
0.9999999999999999
 40
0.9999999999999999
 40
0.9999999999999999
 10
45.89975654435356
 20
62.79725856404271
 30
0.0
 10
45.90072755149126
 20
62.78879390542659
 30
0.0
 10
45.90266954493126
 20
62.77186476982491
 30
0.0
 10
45.9176083943002
 20
62.75051086464887
 30
0.0
 10
45.93896161452757
 20
62.73557234040842
 30
0.0
 10
45.95589127238083
 20
62.73363017124081
 30
0.0
 10
45.96435601142834
 20
62.73265909696794
 30
0.0
  0
SPLINE
  5
1D7
330
1F
100
AcDbEntity
  8
SLD-0
  6
Continuous
370
    15
100
AcDbSpline
210
0.0
220
0.0
230
1.0
 70
     8
 71
     3
 72
    11
 73
     7
 74
     0
 42
0.00000001
 43
0.00000001
 12
1.0
 22
0.0
 32
0.0
 13
1.0
 23
0.0
 33
0.0
 40
0.0
 40
0.0
 40
0.0
 40
0.0
 40
0.2499898123315775
 40
0.4999884418387616
 40
0.7499870713459458
 40
1.0
 40
1.0
 40
1.0
 40
1.0
 10
84.99015691537943
 20
62.76625945548039
 30
0.0
 10
84.99421863119773
 20
62.76672544532413
 30
0.0
 10
85.0023422060916
 20
62.76765744144711
 30
0.0
 10
85.01259025341041
 20
62.77482514052316
 30
0.0
 10
85.01975829035696
 20
62.78507389970603
 30
0.0
 10
85.02069010386427
 20
62.79319693183066
 30
0.0
 10
85.02115602394174
 20
62.79725856404271
 30
0.0
  0
LINE
  5
1D8
330
1F
100
AcDbEntity
  8
SLD-0
  6
Continuous
370
    15
100
AcDbLine
 10
85.0211560239
 20
62.797258564
 30
0.0
 11
85.0547563825
 21
62.797258564
 31
0.0
  0
SPLINE
  5
1D9
330
1F
100
AcDbEntity
  8
SLD-0
  6
Continuous
370
    15
100
AcDbSpline
210
0.0
220
0.0
230
1.0
 70
     8
 71
     3
 72
    11
 73
     7
 74
     0
 42
0.00000001
 43
0.00000001
 12
1.0
 22
0.0
 32
0.0
 13
1.0
 23
0.0
 33
0.0
 40
0.0
 40
0.0
 40
0.0
 40
0.0
 40
0.2499946771875426
 40
0.4999946632936856
 40
0.7499946493998286
 40
0.9999999999999999
 40
0.9999999999999999
 40
0.9999999999999999
 40
0.9999999999999999
 10
84.99015691537943
 20
62.73265909696794
 30
0.0
 10
84.99862165442691
 20
62.73363017124081
 30
0.0
 10
85.01555131228018
 20
62.73557234040841
 30
0.0
 10
85.03690453250756
 20
62.75051086464888
 30
0.0
 10
85.0518433818765
 20
62.77186476982491
 30
0.0
 10
85.0537853753165
 20
62.78879390542659
 30
0.0
 10
85.0547563824542
 20
62.79725856404271
 30
0.0
  0
LINE
  5
1DA
330
1F
100
AcDbEntity
  8
SLD-0
  6
Continuous
370
    15
100
AcDbLine
 10
45.8997565444
 20
63.4826591796
 30
0.0
 11
45.9333569029
 21
63.4826591796
 31
0.0
  0
LINE
  5
1DB
330
1F
100
AcDbEntity
  8
SLD-0
  6
Continuous
370
    15
100
AcDbLine
 10
45.9333569029
 20
63.4826591796
 30
0.0
 11
45.9333569029
 21
62.797258564
 31
0.0
  0
LINE
  5
1DC
330
1F
100
AcDbEntity
  8
SLD-0
  6
Continuous
370
    15
100
AcDbLine
 10
45.8997565444
 20
63.4826591796
 30
0.0
 11
45.8997565444
 21
62.797258564
 31
0.0
  0
LINE
  5
1DD
330
1F
100
AcDbEntity
  8
SLD-0
  6
Continuous
370
    15
100
AcDbLine
 10
85.0547563825
 20
62.797258564
 30
0.0
 11
85.0547563825
 21
63.4826591796
 31
0.0
  0
LINE
  5
1DE
330
1F
100
AcDbEntity
  8
SLD-0
  6
Continuous
370
    15
100
AcDbLine
 10
85.0211560239
 20
63.4826591796
 30
0.0
 11
85.0547563825
 21
63.4826591796
 31
0.0
  0
LINE
  5
1DF
330
1F
100
AcDbEntity
  8
SLD-0
  6
Continuous
370
    15
100
AcDbLine
 10
85.0211560239
 20
62.797258564
 30
0.0
 11
85.0211560239
 21
63.4826591796
 31
0.0
  0
SPLINE
  5
1E0
330
1F
100
AcDbEntity
  8
SLD-0
  6
Continuous
370
    15
100
AcDbSpline
210
0.0
220
0.0
230
1.0
 70
     8
 71
     3
 72
    11
 73
     7
 74
     0
 42
0.00000001
 43
0.00000001
 12
1.0
 22
0.0
 32
0.0
 13
1.0
 23
0.0
 33
0.0
 40
0.0
 40
0.0
 40
0.0
 40
0.0
 40
0.2500065976048202
 40
0.4999948725725369
 40
0.7500043402451054
 40
1.0
 40
1.0
 40
1.0
 40
1.0
 10
49.19780356503294
 20
80.93295138563833
 30
0.0
 10
49.19082848572575
 20
80.9333472014684
 30
0.0
 10
49.17687883830528
 20
80.93413880411973
 30
0.0
 10
49.1591796474838
 20
80.93464310689932
 30
0.0
 10
49.1465996093094
 20
80.93406316825848
 30
0.0
 10
49.14461139213267
 20
80.93232151314787
 30
0.0
 10
49.14361731099717
 20
80.93145070964094
 30
0.0
  0
LINE
  5
1E1
330
1F
100
AcDbEntity
  8
SLD-0
  6
Continuous
370
    15
100
AcDbLine
 10
49.197803565
 20
80.9329513856
 30
0.0
 11
45.9772566624
 21
65.7259585981
 31
0.0
  0
SPLINE
  5
1E2
330
1F
100
AcDbEntity
  8
SLD-0
  6
Continuous
370
    15
100
AcDbSpline
210
0.0
220
0.0
230
1.0
 70
     8
 71
     3
 72
    12
 73
     8
 74
     0
 42
0.00000001
 43
0.00000001
 12
1.0
 22
0.0
 32
0.0
 13
1.0
 23
0.0
 33
0.0
 40
0.0
 40
0.0
 40
0.0
 40
0.0
 40
0.2373815731797834
 40
0.4749137301542748
 40
0.7124365315249235
 40
0.949949448482094
 40
1.0
 40
1.0
 40
1.0
 40
1.0
 10
45.93377812466669
 20
65.77502213799714
 30
0.0
 10
45.93383656296891
 20
65.77185529055154
 30
0.0
 10
45.9339534766439
 20
65.76551958676009
 30
0.0
 10
45.94284063070797
 20
65.75417038495317
 30
0.0
 10
45.95652391634619
 20
65.74181042059733
 30
0.0
 10
45.96909185357241
 20
65.73215212300236
 30
0.0
 10
45.97604624707073
 20
65.72687677484517
 30
0.0
 10
45.97725666239891
 20
65.72595859811668
 30
0.0
  0
LINE
  5
1E3
330
1F
100
AcDbEntity
  8
SLD-0
  6
Continuous
370
    15
100
AcDbLine
 10
45.9337781247
 20
65.775022138
 30
0.0
 11
49.143617311
 21
80.9314507096
 31
0.0
  0
SPLINE
  5
1E4
330
1F
100
AcDbEntity
  8
SLD-0
  6
Continuous
370
    15
100
AcDbSpline
210
0.0
220
0.0
230
1.0
 70
     8
 71
     3
 72
    11
 73
     7
 74
     0
 42
0.00000001
 43
0.00000001
 12
1.0
 22
0.0
 32
0.0
 13
1.0
 23
0.0
 33
0.0
 40
0.0
 40
0.0
 40
0.0
 40
0.0
 40
0.2499956597548946
 40
0.5000051274274631
 40
0.7499934023951799
 40
1.0
 40
1.0
 40
1.0
 40
1.0
 10
81.8108956158106
 20
80.93145070964094
 30
0.0
 10
81.80990153467508
 20
80.93232151314787
 30
0.0
 10
81.80791331749835
 20
80.93406316825848
 30
0.0
 10
81.79533327932396
 20
80.93464310689932
 30
0.0
 10
81.77763408850248
 20
80.93413880411973
 30
0.0
 10
81.763684441082
 20
80.9333472014684
 30
0.0
 10
81.75670936177482
 20
80.93295138563833
 30
0.0
  0
LINE
  5
1E5
330
1F
100
AcDbEntity
  8
SLD-0
  6
Continuous
370
    15
100
AcDbLine
 10
81.8108956158
 20
80.9314507096
 30
0.0
 11
85.0207348021
 21
65.775022138
 31
0.0
  0
SPLINE
  5
1E6
330
1F
100
AcDbEntity
  8
SLD-0
  6
Continuous
370
    15
100
AcDbSpline
210
0.0
220
0.0
230
1.0
 70
     8
 71
     3
 72
    12
 73
     8
 74
     0
 42
0.00000001
 43
0.00000001
 12
1.0
 22
0.0
 32
0.0
 13
1.0
 23
0.0
 33
0.0
 40
0.0
 40
0.0
 40
0.0
 40
0.0
 40
0.2373975330684039
 40
0.4749143624456583
 40
0.7124356465792836
 40
0.9499587384365472
 40
1.0
 40
1.0
 40
1.0
 40
1.0
 10
84.97725626440885
 20
65.72595859811668
 30
0.0
 10
84.98302534282826
 20
65.73033517014996
 30
0.0
 10
84.99456639872739
 20
65.7390905135186
 30
0.0
 10
85.00924748073034
 20
65.75166661960485
 30
0.0
 10
85.01895044150442
 20
65.76318588947098
 30
0.0
 10
85.02141500671893
 20
65.77070356492827
 30
0.0
 10
85.0208356247983
 20
65.77438202173447
 30
0.0
 10
85.02073480214106
 20
65.77502213799714
 30
0.0
  0
LINE
  5
1E7
330
1F
100
AcDbEntity
  8
SLD-0
  6
Continuous
370
    15
100
AcDbLine
 10
84.9772562644
 20
65.7259585981
 30
0.0
 11
81.7567093618
 21
80.9329513856
 31
0.0
  0
LINE
  5
1E8
330
1F
100
AcDbEntity
  8
SLD-0
  6
Continuous
370
    15
100
AcDbLine
 10
45.9772566624
 20
63.9729590089
 30
0.0
 11
45.9772566624
 21
63.5979589676
 31
0.0
  0
LINE
  5
1E9
330
1F
100
AcDbEntity
  8
SLD-0
  6
Continuous
370
    15
100
AcDbLine
 10
45.9772566624
 20
63.9729590089
 30
0.0
 11
45.9942850524
 21
63.9729590089
 31
0.0
  0
LINE
  5
1EA
330
1F
100
AcDbEntity
  8
SLD-0
  6
Continuous
370
    15
100
AcDbLine
 10
45.9942850524
 20
63.9729590089
 30
0.0
 11
45.9942850524
 21
65.2859589877
 31
0.0
  0
LINE
  5
1EB
330
1F
100
AcDbEntity
  8
SLD-0
  6
Continuous
370
    15
100
AcDbLine
 10
45.9942850524
 20
65.2859589877
 30
0.0
 11
45.9772566624
 21
65.2859589877
 31
0.0
  0
LINE
  5
1EC
330
1F
100
AcDbEntity
  8
SLD-0
  6
Continuous
370
    15
100
AcDbLine
 10
45.9772566624
 20
65.7259585981
 30
0.0
 11
45.9772566624
 21
65.2859589877
 31
0.0
  0
LINE
  5
1ED
330
1F
100
AcDbEntity
  8
SLD-0
  6
Continuous
370
    15
100
AcDbLine
 10
81.5472565281
 20
81.9219591272
 30
0.0
 11
49.4072563987
 21
81.9219591272
 31
0.0
  0
LINE
  5
1EE
330
1F
100
AcDbEntity
  8
SLD-0
  6
Continuous
370
    15
100
AcDbLine
 10
81.7567093618
 20
80.9329513856
 30
0.0
 11
81.5472565281
 21
81.9219591272
 31
0.0
  0
LINE
  5
1EF
330
1F
100
AcDbEntity
  8
SLD-0
  6
Continuous
370
    15
100
AcDbLine
 10
84.9772562644
 20
65.2859589877
 30
0.0
 11
84.9772562644
 21
65.7259585981
 31
0.0
  0
LINE
  5
1F0
330
1F
100
AcDbEntity
  8
SLD-0
  6
Continuous
370
    15
100
AcDbLine
 10
84.9772562644
 20
65.2859589877
 30
0.0
 11
84.9602278745
 21
65.2859589877
 31
0.0
  0
LINE
  5
1F1
330
1F
100
AcDbEntity
  8
SLD-0
  6
Continuous
370
    15
100
AcDbLine
 10
84.9602278745
 20
65.2859589877
 30
0.0
 11
84.9602278745
 21
63.9729590089
 31
0.0
  0
LINE
  5
1F2
330
1F
100
AcDbEntity
  8
SLD-0
  6
Continuous
370
    15
100
AcDbLine
 10
84.9602278745
 20
63.9729590089
 30
0.0
 11
84.9772562644
 21
63.9729590089
 31
0.0
  0
LINE
  5
1F3
330
1F
100
AcDbEntity
  8
SLD-0
  6
Continuous
370
    15
100
AcDbLine
 10
84.9772562644
 20
63.5979589676
 30
0.0
 11
84.9772562644
 21
63.9729590089
 31
0.0
  0
LINE
  5
1F4
330
1F
100
AcDbEntity
  8
SLD-0
  6
Continuous
370
    15
100
AcDbLine
 10
84.9772562644
 20
63.4826591796
 30
0.0
 11
84.9772562644
 21
63.5979589676
 31
0.0
  0
LINE
  5
1F5
330
1F
100
AcDbEntity
  8
SLD-0
  6
Continuous
370
    15
100
AcDbLine
 10
45.9772566624
 20
63.5979589676
 30
0.0
 11
45.9772566624
 21
63.4826591796
 31
0.0
  0
LINE
  5
1F6
330
1F
100
AcDbEntity
  8
SLD-0
  6
Continuous
370
    15
100
AcDbLine
 10
49.4072563987
 20
81.9219591272
 30
0.0
 11
49.197803565
 21
80.9329513856
 31
0.0
  0
LINE
  5
1F7
330
1F
100
AcDbEntity
  8
SLD-0
  6
Continuous
370
    15
100
AcDbLine
 10
45.9245570045
 20
65.2859589877
 30
0.0
 11
45.9772566624
 21
65.2859589877
 31
0.0
  0
LINE
  5
1F8
330
1F
100
AcDbEntity
  8
SLD-0
  6
Continuous
370
    15
100
AcDbLine
 10
45.9245570045
 20
65.6660160372
 30
0.0
 11
45.9245570045
 21
65.2859589877
 31
0.0
  0
SPLINE
  5
1F9
330
1F
100
AcDbEntity
  8
SLD-0
  6
Continuous
370
    15
100
AcDbSpline
210
0.0
220
0.0
230
1.0
 70
     8
 71
     3
 72
    11
 73
     7
 74
     0
 42
0.00000001
 43
0.00000001
 12
1.0
 22
0.0
 32
0.0
 13
1.0
 23
0.0
 33
0.0
 40
0.0
 40
0.0
 40
0.0
 40
0.0
 40
0.2500080302662009
 40
0.5000016044966806
 40
0.7500029254523414
 40
1.0
 40
1.0
 40
1.0
 40
1.0
 10
45.97725666239891
 20
65.72595859811668
 30
0.0
 10
45.97035071826251
 20
65.72096347465568
 30
0.0
 10
45.95653922930718
 20
65.71097351656313
 30
0.0
 10
45.93911962550462
 20
65.69598695014346
 30
0.0
 10
45.9269337604433
 20
65.68100187913313
 30
0.0
 10
45.9253492520109
 20
65.67101128959149
 30
0.0
 10
45.92455700452319
 20
65.66601603724492
 30
0.0
  0
LINE
  5
1FA
330
1F
100
AcDbEntity
  8
SLD-0
  6
Continuous
370
    15
100
AcDbLine
 10
49.4199517188
 20
81.9746591288
 30
0.0
 11
81.534561208
 21
81.9746591288
 31
0.0
  0
SPLINE
  5
1FB
330
1F
100
AcDbEntity
  8
SLD-0
  6
Continuous
370
    15
100
AcDbSpline
210
0.0
220
0.0
230
1.0
 70
     8
 71
     3
 72
    11
 73
     7
 74
     0
 42
0.00000001
 43
0.00000001
 12
1.0
 22
0.0
 32
0.0
 13
1.0
 23
0.0
 33
0.0
 40
0.0
 40
0.0
 40
0.0
 40
0.0
 40
0.2499953819880843
 40
0.5000003788107971
 40
0.749997207554466
 40
1.0
 40
1.0
 40
1.0
 40
1.0
 10
49.41995171875851
 20
81.97465912882492
 30
0.0
 10
49.41889376160675
 20
81.97386690379723
 30
0.0
 10
49.41677780661414
 20
81.97228242327286
 30
0.0
 10
49.41360413707351
 20
81.96009614087316
 30
0.0
 10
49.41043017364819
 20
81.94267578109672
 30
0.0
 10
49.40831433212775
 20
81.92886473341137
 30
0.0
 10
49.40725639874927
 20
81.92195912720366
 30
0.0
  0
SPLINE
  5
1FC
330
1F
100
AcDbEntity
  8
SLD-0
  6
Continuous
370
    15
100
AcDbSpline
210
0.0
220
0.0
230
1.0
 70
     8
 71
     3
 72
    11
 73
     7
 74
     0
 42
0.00000001
 43
0.00000001
 12
1.0
 22
0.0
 32
0.0
 13
1.0
 23
0.0
 33
0.0
 40
0.0
 40
0.0
 40
0.0
 40
0.0
 40
0.2500027924455341
 40
0.4999996211892029
 40
0.7500046180119156
 40
1.0
 40
1.0
 40
1.0
 40
1.0
 10
81.5472565280585
 20
81.92195912720366
 30
0.0
 10
81.54619859468
 20
81.92886473341137
 30
0.0
 10
81.54408275315956
 20
81.94267578109672
 30
0.0
 10
81.54090878973426
 20
81.96009614087316
 30
0.0
 10
81.5377351201936
 20
81.97228242327286
 30
0.0
 10
81.535619165201
 20
81.97386690379723
 30
0.0
 10
81.53456120804925
 20
81.97465912882492
 30
0.0
  0
LINE
  5
1FD
330
1F
100
AcDbEntity
  8
SLD-0
  6
Continuous
370
    15
100
AcDbLine
 10
85.0299559223
 20
65.2859589877
 30
0.0
 11
85.0299559223
 21
65.6660160372
 31
0.0
  0
LINE
  5
1FE
330
1F
100
AcDbEntity
  8
SLD-0
  6
Continuous
370
    15
100
AcDbLine
 10
84.9772562644
 20
65.2859589877
 30
0.0
 11
85.0299559223
 21
65.2859589877
 31
0.0
  0
SPLINE
  5
1FF
330
1F
100
AcDbEntity
  8
SLD-0
  6
Continuous
370
    15
100
AcDbSpline
210
0.0
220
0.0
230
1.0
 70
     8
 71
     3
 72
    11
 73
     7
 74
     0
 42
0.00000001
 43
0.00000001
 12
1.0
 22
0.0
 32
0.0
 13
1.0
 23
0.0
 33
0.0
 40
0.0
 40
0.0
 40
0.0
 40
0.0
 40
0.2499970745476586
 40
0.4999983955033193
 40
0.749991969733799
 40
0.9999999999999999
 40
0.9999999999999999
 40
0.9999999999999999
 40
0.9999999999999999
 10
85.02995592228457
 20
65.66601603724492
 30
0.0
 10
85.02916367479685
 20
65.67101128959149
 30
0.0
 10
85.02757916636445
 20
65.68100187913313
 30
0.0
 10
85.01539330130312
 20
65.69598695014346
 30
0.0
 10
84.99797369750057
 20
65.71097351656314
 30
0.0
 10
84.98416220854524
 20
65.72096347465568
 30
0.0
 10
84.97725626440885
 20
65.72595859811668
 30
0.0
  0
LINE
  5
200
330
1F
100
AcDbEntity
  8
SLD-0
  6
Continuous
370
    15
100
AcDbLine
 10
45.9245570045
 20
63.9729590089
 30
0.0
 11
45.9245570045
 21
63.5979589676
 31
0.0
  0
LINE
  5
201
330
1F
100
AcDbEntity
  8
SLD-0
  6
Continuous
370
    15
100
AcDbLine
 10
45.9772566624
 20
63.9729590089
 30
0.0
 11
45.9245570045
 21
63.9729590089
 31
0.0
  0
LINE
  5
202
330
1F
100
AcDbEntity
  8
SLD-0
  6
Continuous
370
    15
100
AcDbLine
 10
45.9245570045
 20
63.5979589676
 30
0.0
 11
45.9772566624
 21
63.5979589676
 31
0.0
  0
LINE
  5
203
330
1F
100
AcDbEntity
  8
SLD-0
  6
Continuous
370
    15
100
AcDbLine
 10
85.0299559223
 20
63.9729590089
 30
0.0
 11
84.9772562644
 21
63.9729590089
 31
0.0
  0
LINE
  5
204
330
1F
100
AcDbEntity
  8
SLD-0
  6
Continuous
370
    15
100
AcDbLine
 10
85.0299559223
 20
63.5979589676
 30
0.0
 11
85.0299559223
 21
63.9729590089
 31
0.0
  0
LINE
  5
205
330
1F
100
AcDbEntity
  8
SLD-0
  6
Continuous
370
    15
100
AcDbLine
 10
84.9772562644
 20
63.5979589676
 30
0.0
 11
85.0299559223
 21
63.5979589676
 31
0.0
  0
LINE
  5
206
330
1F
100
AcDbEntity
  8
SLD-0
  6
Continuous
370
    15
100
AcDbLine
 10
85.0299559223
 20
63.9729590089
 30
0.0
 11
85.0299559223
 21
65.2859589877
 31
0.0
  0
LINE
  5
207
330
1F
100
AcDbEntity
  8
SLD-0
  6
Continuous
370
    15
100
AcDbLine
 10
85.0082565463
 20
63.9729590089
 30
0.0
 11
85.0082565463
 21
65.2859589877
 31
0.0
  0
LINE
  5
208
330
1F
100
AcDbEntity
  8
SLD-0
  6
Continuous
370
    15
100
AcDbLine
 10
45.9462563805
 20
65.2859589877
 30
0.0
 11
45.9462563805
 21
63.9729590089
 31
0.0
  0
LINE
  5
209
330
1F
100
AcDbEntity
  8
SLD-0
  6
Continuous
370
    15
100
AcDbLine
 10
45.9245570045
 20
65.2859589877
 30
0.0
 11
45.9245570045
 21
63.9729590089
 31
0.0
  0
LINE
  5
20A
330
1F
100
AcDbEntity
  8
SLD-0
  6
Continuous
370
    15
100
AcDbLine
 10
81.7617065307
 20
80.9332145026
 30
0.0
 11
81.5541204488
 21
81.9112013741
 31
0.0
  0
ARC
  5
20B
330
1F
100
AcDbEntity
  8
SLD-0
  6
Continuous
370
    15
100
AcDbCircle
 10
81.5025684027
 20
81.9002591272
 30
0.0
 40
0.0527000000000114
100
AcDbArc
 50
11.9836622663
 51
34.2829699132
  0
LINE
  5
20C
330
1F
100
AcDbEntity
  8
SLD-0
  6
Continuous
370
    15
100
AcDbLine
 10
84.979599384
 20
63.4826591796
 30
0.0
 11
84.979599384
 21
63.5979589676
 31
0.0
  0
LINE
  5
20D
330
1F
100
AcDbEntity
  8
SLD-0
  6
Continuous
370
    15
100
AcDbLine
 10
84.979599384
 20
63.9729590089
 30
0.0
 11
84.979599384
 21
65.2859589877
 31
0.0
  0
LINE
  5
20E
330
1F
100
AcDbEntity
  8
SLD-0
  6
Continuous
370
    15
100
AcDbLine
 10
81.7905748906
 20
80.934364136
 30
0.0
 11
81.5802878265
 21
81.9273124153
 31
0.0
  0
LINE
  5
20F
330
1F
100
AcDbEntity
  8
SLD-0
  6
Continuous
370
    15
100
AcDbLine
 10
81.6155073663
 20
81.9347710894
 30
0.0
 11
81.5802878265
 21
81.9273124153
 31
0.0
  0
LINE
  5
210
330
1F
100
AcDbEntity
  8
SLD-0
  6
Continuous
370
    15
100
AcDbLine
 10
85.0326416513
 20
65.799521055
 30
0.0
 11
81.6155073663
 21
81.9347710894
 31
0.0
  0
LINE
  5
211
330
1F
100
AcDbEntity
  8
SLD-0
  6
Continuous
370
    15
100
AcDbLine
 10
85.0326416513
 20
65.799521055
 30
0.0
 11
85.0162797069
 21
65.7960562417
 31
0.0
  0
LINE
  5
212
330
1F
100
AcDbEntity
  8
SLD-0
  6
Continuous
370
    15
100
AcDbLine
 10
45.9218712755
 20
65.799521055
 30
0.0
 11
45.9382332199
 21
65.7960562417
 31
0.0
  0
LINE
  5
213
330
1F
100
AcDbEntity
  8
SLD-0
  6
Continuous
370
    15
100
AcDbLine
 10
49.3390055605
 20
81.9347710894
 30
0.0
 11
49.3742251003
 21
81.9273124153
 31
0.0
  0
LINE
  5
214
330
1F
100
AcDbEntity
  8
SLD-0
  6
Continuous
370
    15
100
AcDbLine
 10
49.1639380363
 20
80.934364136
 30
0.0
 11
49.3742251003
 21
81.9273124153
 31
0.0
  0
LINE
  5
215
330
1F
100
AcDbEntity
  8
SLD-0
  6
Continuous
370
    15
100
AcDbLine
 10
45.9218712755
 20
65.799521055
 30
0.0
 11
49.3390055605
 21
81.9347710894
 31
0.0
  0
LINE
  5
216
330
1F
100
AcDbEntity
  8
SLD-0
  6
Continuous
370
    15
100
AcDbLine
 10
85.0211560239
 20
62.7996591763
 30
0.0
 11
85.0082565463
 21
62.7996591763
 31
0.0
  0
LINE
  5
217
330
1F
100
AcDbEntity
  8
SLD-0
  6
Continuous
370
    15
100
AcDbLine
 10
85.0442563438
 20
63.4826591796
 30
0.0
 11
85.0442563438
 21
63.5203344777
 31
0.0
  0
LINE
  5
218
330
1F
100
AcDbEntity
  8
SLD-0
  6
Continuous
370
    15
100
AcDbLine
 10
85.0442563438
 20
63.5683338165
 30
0.0
 11
85.0442563438
 21
65.737658943
 31
0.0
  0
LINE
  5
219
330
1F
100
AcDbEntity
  8
SLD-0
  6
Continuous
370
    15
100
AcDbLine
 10
85.0082565463
 20
62.7996591763
 30
0.0
 11
85.0082565463
 21
63.53051772
 31
0.0
  0
LINE
  5
21A
330
1F
100
AcDbEntity
  8
SLD-0
  6
Continuous
370
    15
100
AcDbLine
 10
85.0082565463
 20
65.7014784542
 30
0.0
 11
85.0082565463
 21
65.737658943
 31
0.0
  0
LINE
  5
21B
330
1F
100
AcDbEntity
  8
SLD-0
  6
Continuous
370
    15
100
AcDbLine
 10
85.0442563438
 20
65.737658943
 30
0.0
 11
85.0082565463
 21
65.737658943
 31
0.0
  0
LINE
  5
21C
330
1F
100
AcDbEntity
  8
SLD-0
  6
Continuous
370
    15
100
AcDbLine
 10
49.4072563987
 20
82.0006591297
 30
0.0
 11
49.4072563987
 21
81.964659126
 31
0.0
  0
LINE
  5
21D
330
1F
100
AcDbEntity
  8
SLD-0
  6
Continuous
370
    15
100
AcDbLine
 10
49.4072563987
 20
82.0006591297
 30
0.0
 11
81.5472565281
 21
82.0006591297
 31
0.0
  0
LINE
  5
21E
330
1F
100
AcDbEntity
  8
SLD-0
  6
Continuous
370
    15
100
AcDbLine
 10
81.5472565281
 20
82.0006591297
 30
0.0
 11
81.5472565281
 21
81.964659126
 31
0.0
  0
LINE
  5
21F
330
1F
100
AcDbEntity
  8
SLD-0
  6
Continuous
370
    15
100
AcDbLine
 10
49.4072563987
 20
81.964659126
 30
0.0
 11
49.4151141213
 21
81.964659126
 31
0.0
  0
LINE
  5
220
330
1F
100
AcDbEntity
  8
SLD-0
  6
Continuous
370
    15
100
AcDbLine
 10
81.5393988055
 20
81.964659126
 30
0.0
 11
81.5472565281
 21
81.964659126
 31
0.0
  0
LINE
  5
221
330
1F
100
AcDbEntity
  8
SLD-0
  6
Continuous
370
    15
100
AcDbLine
 10
45.9333569029
 20
62.7996591763
 30
0.0
 11
45.9462563805
 21
62.7996591763
 31
0.0
  0
LINE
  5
222
330
1F
100
AcDbEntity
  8
SLD-0
  6
Continuous
370
    15
100
AcDbLine
 10
45.9462563805
 20
62.7996591763
 30
0.0
 11
45.9462563805
 21
63.53051772
 31
0.0
  0
LINE
  5
223
330
1F
100
AcDbEntity
  8
SLD-0
  6
Continuous
370
    15
100
AcDbLine
 10
45.9462563805
 20
65.7014784542
 30
0.0
 11
45.9462563805
 21
65.737658943
 31
0.0
  0
LINE
  5
224
330
1F
100
AcDbEntity
  8
SLD-0
  6
Continuous
370
    15
100
AcDbLine
 10
45.9102565831
 20
65.737658943
 30
0.0
 11
45.9462563805
 21
65.737658943
 31
0.0
  0
LINE
  5
225
330
1F
100
AcDbEntity
  8
SLD-0
  6
Continuous
370
    15
100
AcDbLine
 10
45.9102565831
 20
63.4826591796
 30
0.0
 11
45.9102565831
 21
63.5203344777
 31
0.0
  0
LINE
  5
226
330
1F
100
AcDbEntity
  8
SLD-0
  6
Continuous
370
    15
100
AcDbLine
 10
45.9102565831
 20
63.5683338165
 30
0.0
 11
45.9102565831
 21
65.737658943
 31
0.0
  0
LINE
  5
227
330
1F
100
AcDbEntity
  8
SLD-0
  6
Continuous
370
    15
100
AcDbLine
 10
84.9900442767
 20
62.7996591763
 30
0.0
 11
85.0082565463
 21
62.7996591763
 31
0.0
  0
SPLINE
  5
228
330
1F
100
AcDbEntity
  8
SLD-0
  6
Continuous
370
    15
100
AcDbSpline
210
0.0
220
0.0
230
1.0
 70
     8
 71
     3
 72
    11
 73
     7
 74
     0
 42
0.00000001
 43
0.00000001
 12
1.0
 22
0.0
 32
0.0
 13
1.0
 23
0.0
 33
0.0
 40
0.0
 40
0.0
 40
0.0
 40
0.0
 40
0.2629812217849518
 40
0.5259798473112351
 40
0.7889528304177307
 40
1.0
 40
1.0
 40
1.0
 40
1.0
 10
85.00825654629095
 20
65.73765894295329
 30
0.0
 10
85.00779153548226
 20
65.73647047425088
 30
0.0
 10
85.0068614830911
 20
65.73409345819482
 30
0.0
 10
84.99967909384087
 20
65.73052613437711
 30
0.0
 10
84.99015249309834
 20
65.72719539269029
 30
0.0
 10
84.98285045690434
 20
65.72505282012858
 30
0.0
 10
84.9795993840076
 20
65.72409888626689
 30
0.0
  0
LINE
  5
229
330
1F
100
AcDbEntity
  8
SLD-0
  6
Continuous
370
    15
100
AcDbLine
 10
45.9462563805
 20
62.7996591763
 30
0.0
 11
45.9644686501
 21
62.7996591763
 31
0.0
  0
SPLINE
  5
22A
330
1F
100
AcDbEntity
  8
SLD-0
  6
Continuous
370
    15
100
AcDbSpline
210
0.0
220
0.0
230
1.0
 70
     8
 71
     3
 72
    11
 73
     7
 74
     0
 42
0.00000001
 43
0.00000001
 12
1.0
 22
0.0
 32
0.0
 13
1.0
 23
0.0
 33
0.0
 40
0.0
 40
0.0
 40
0.0
 40
0.0
 40
0.2110471695822694
 40
0.4740201526887649
 40
0.7370187782150482
 40
1.0
 40
1.0
 40
1.0
 40
1.0
 10
45.97491354280017
 20
65.72409888626689
 30
0.0
 10
45.9716624699034
 20
65.7250528201286
 30
0.0
 10
45.96436043370942
 20
65.72719539269029
 30
0.0
 10
45.95483383296688
 20
65.7305261343771
 30
0.0
 10
45.94765144371667
 20
65.73409345819482
 30
0.0
 10
45.9467213913255
 20
65.73647047425088
 30
0.0
 10
45.94625638051681
 20
65.73765894295329
 30
0.0
  0
LINE
  5
22B
330
1F
100
AcDbEntity
  8
SLD-0
  6
Continuous
370
    15
100
AcDbLine
 10
81.5472565281
 20
81.9336591271
 30
0.0
 11
81.5472565281
 21
81.964659126
 31
0.0
  0
LINE
  5
22C
330
1F
100
AcDbEntity
  8
SLD-0
  6
Continuous
370
    15
100
AcDbLine
 10
49.4072563987
 20
81.964659126
 30
0.0
 11
49.4072563987
 21
81.9336591271
 31
0.0
  0
SPLINE
  5
22D
330
1F
100
AcDbEntity
  8
SLD-0
  6
Continuous
370
    15
100
AcDbSpline
210
0.0
220
0.0
230
1.0
 70
     8
 71
     3
 72
    11
 73
     7
 74
     0
 42
0.00000001
 43
0.00000001
 12
1.0
 22
0.0
 32
0.0
 13
1.0
 23
0.0
 33
0.0
 40
0.0
 40
0.0
 40
0.0
 40
0.0
 40
0.2499883301978297
 40
0.5000006270731807
 40
0.7500061394827634
 40
1.0
 40
1.0
 40
1.0
 40
1.0
 10
49.40725639874926
 20
81.93365912714795
 30
0.0
 10
49.40339515092393
 20
81.93336505108583
 30
0.0
 10
49.39567228509087
 20
81.93277687076821
 30
0.0
 10
49.38554970317622
 20
81.9315851393323
 30
0.0
 10
49.37775233740889
 20
81.92990080369022
 30
0.0
 10
49.37558073818666
 20
81.9281371213705
 30
0.0
 10
49.37449496387882
 20
81.92725530076092
 30
0.0
  0
ARC
  5
22E
330
1F
100
AcDbEntity
  8
SLD-0
  6
Continuous
370
    15
100
AcDbCircle
 10
49.385303158
 20
81.9789896118
 30
0.0
 40
0.0528512630155109
100
AcDbArc
 50
257.900607759
 51
258.1996461866
  0
SPLINE
  5
22F
330
1F
100
AcDbEntity
  8
SLD-0
  6
Continuous
370
    15
100
AcDbSpline
210
0.0
220
0.0
230
1.0
 70
     8
 71
     3
 72
    11
 73
     7
 74
     0
 42
0.00000001
 43
0.00000001
 12
1.0
 22
0.0
 32
0.0
 13
1.0
 23
0.0
 33
0.0
 40
0.0
 40
0.0
 40
0.0
 40
0.0
 40
0.2500029435471393
 40
0.4999989105359022
 40
0.7499972079258017
 40
1.0
 40
1.0
 40
1.0
 40
1.0
 10
49.40725639874927
 20
81.93365912714795
 30
0.0
 10
49.39917228039091
 20
81.9342593178047
 30
0.0
 10
49.38300426926887
 20
81.93545968236933
 30
0.0
 10
49.36191213190651
 20
81.93659112787275
 30
0.0
 10
49.34584709627986
 20
81.93665794975874
 30
0.0
 10
49.34167484489675
 20
81.93531775330993
 30
0.0
 10
49.33958870045229
 20
81.93464764906179
 30
0.0
  0
SPLINE
  5
230
330
1F
100
AcDbEntity
  8
SLD-0
  6
Continuous
370
    15
100
AcDbSpline
210
0.0
220
0.0
230
1.0
 70
     8
 71
     3
 72
    11
 73
     7
 74
     0
 42
0.00000001
 43
0.00000001
 12
1.0
 22
0.0
 32
0.0
 13
1.0
 23
0.0
 33
0.0
 40
0.0
 40
0.0
 40
0.0
 40
0.0
 40
0.2500027920741983
 40
0.5000010894640978
 40
0.7499970564528607
 40
1.0
 40
1.0
 40
1.0
 40
1.0
 10
81.61492422635547
 20
81.93464764906179
 30
0.0
 10
81.612838081911
 20
81.93531775330993
 30
0.0
 10
81.6086658305279
 20
81.93665794975874
 30
0.0
 10
81.59260079490126
 20
81.93659112787275
 30
0.0
 10
81.57150865753887
 20
81.93545968236933
 30
0.0
 10
81.55534064641682
 20
81.9342593178047
 30
0.0
 10
81.5472565280585
 20
81.93365912714795
 30
0.0
  0
SPLINE
  5
231
330
1F
100
AcDbEntity
  8
SLD-0
  6
Continuous
370
    15
100
AcDbSpline
210
0.0
220
0.0
230
1.0
 70
     8
 71
     3
 72
    11
 73
     7
 74
     0
 42
0.00000001
 43
0.00000001
 12
1.0
 22
0.0
 32
0.0
 13
1.0
 23
0.0
 33
0.0
 40
0.0
 40
0.0
 40
0.0
 40
0.0
 40
0.2499938605172366
 40
0.4999993729268193
 40
0.7500116698021704
 40
1.0
 40
1.0
 40
1.0
 40
1.0
 10
81.58001796292893
 20
81.92725530076092
 30
0.0
 10
81.5789321886211
 20
81.9281371213705
 30
0.0
 10
81.57676058939887
 20
81.92990080369022
 30
0.0
 10
81.56896322363153
 20
81.9315851393323
 30
0.0
 10
81.55884064171688
 20
81.93277687076821
 30
0.0
 10
81.55111777588382
 20
81.93336505108583
 30
0.0
 10
81.5472565280585
 20
81.93365912714795
 30
0.0
  0
ARC
  5
232
330
1F
100
AcDbEntity
  8
SLD-0
  6
Continuous
370
    15
100
AcDbCircle
 10
81.5692097689
 20
81.9789896115
 30
0.0
 40
0.0528512626481045
100
AcDbArc
 50
281.8003538124
 51
282.0993922421
  0
LINE
  5
233
330
1F
100
AcDbEntity
  8
SLD-0
  6
Continuous
370
    15
100
AcDbLine
 10
83.3822559167
 20
62.2626588731
 30
0.0
 11
47.5722570102
 21
62.2626588731
 31
0.0
  0
LINE
  5
234
330
1F
100
AcDbEntity
  8
SLD-0
  6
Continuous
370
    15
100
AcDbLine
 10
47.5722570102
 20
62.732659097
 30
0.0
 11
47.5722570102
 21
62.2626588731
 31
0.0
  0
LINE
  5
235
330
1F
100
AcDbEntity
  8
SLD-0
  6
Continuous
370
    15
100
AcDbLine
 10
83.3822559167
 20
62.732659097
 30
0.0
 11
83.3822559167
 21
62.2626588731
 31
0.0
  0
LINE
  5
236
330
1F
100
AcDbEntity
  8
SLD-0
  6
Continuous
370
    15
100
AcDbLine
 10
83.3822559167
 20
62.2473024638
 30
0.0
 11
47.5722570102
 21
62.2473024638
 31
0.0
  0
LINE
  5
237
330
1F
100
AcDbEntity
  8
SLD-0
  6
Continuous
370
    15
100
AcDbLine
 10
47.5722570102
 20
62.2473024638
 30
0.0
 11
47.5722570102
 21
62.2626588731
 31
0.0
  0
LINE
  5
238
330
1F
100
AcDbEntity
  8
SLD-0
  6
Continuous
370
    15
100
AcDbLine
 10
83.3822559167
 20
62.2626588731
 30
0.0
 11
83.3822559167
 21
62.2473024638
 31
0.0
  0
LINE
  5
239
330
1F
100
AcDbEntity
  8
SLD-0
  6
Continuous
370
    15
100
AcDbLine
 10
83.3822559167
 20
62.2473024638
 30
0.0
 11
83.3822559167
 21
59.3719802665
 31
0.0
  0
LINE
  5
23A
330
1F
100
AcDbEntity
  8
SLD-0
  6
Continuous
370
    15
100
AcDbLine
 10
83.3822559167
 20
59.3719802665
 30
0.0
 11
47.5722570102
 21
59.3719802665
 31
0.0
  0
LINE
  5
23B
330
1F
100
AcDbEntity
  8
SLD-0
  6
Continuous
370
    15
100
AcDbLine
 10
47.5722570102
 20
62.2473024638
 30
0.0
 11
47.5722570102
 21
59.3719802665
 31
0.0
  0
LWPOLYLINE
  5
23C
330
1F
100
AcDbEntity
  8
SLD-0
  6
Continuous
370
    15
100
AcDbPolyline
 90
        9
 70
   128
 43
0.0
 10
83.3822559167
 20
62.2473024638
 10
83.3910159221
 20
62.2475969671
 10
83.3994391848
 20
62.2484710903
 10
83.4072018685
 20
62.2498908073
 10
83.4140059499
 20
62.2517997986
 10
83.4195897787
 20
62.254127665
 10
83.4237386374
 20
62.2567828877
 10
83.4262941279
 20
62.2596633877
 10
83.427156518
 20
62.2626588731
  0
LINE
  5
23D
330
1F
100
AcDbEntity
  8
SLD-0
  6
Continuous
370
    15
100
AcDbLine
 10
83.427156518
 20
62.2626588731
 30
0.0
 11
83.427156518
 21
59.4315450184
 31
0.0
  0
SPLINE
  5
23E
330
1F
100
AcDbEntity
  8
SLD-0
  6
Continuous
370
    15
100
AcDbSpline
210
0.0
220
0.0
230
1.0
 70
     8
 71
     3
 72
    11
 73
     7
 74
     0
 42
0.00000001
 43
0.00000001
 12
1.0
 22
0.0
 32
0.0
 13
1.0
 23
0.0
 33
0.0
 40
0.0
 40
0.0
 40
0.0
 40
0.0
 40
0.258286999334593
 40
0.516739440987599
 40
0.7752247953323453
 40
1.0
 40
1.0
 40
1.0
 40
1.0
 10
83.42715651796006
 20
59.43154501838614
 30
0.0
 10
83.4264351066155
 20
59.4256578924357
 30
0.0
 10
83.42499182183589
 20
59.41387986961424
 30
0.0
 10
83.4139248825944
 20
59.39727043560726
 30
0.0
 10
83.39890272937096
 20
59.38298882906881
 30
0.0
 10
83.38754066486625
 20
59.37547507851845
 30
0.0
 10
83.38225591665564
 20
59.37198026648323
 30
0.0
  0
LWPOLYLINE
  5
23F
330
1F
100
AcDbEntity
  8
SLD-0
  6
Continuous
370
    15
100
AcDbPolyline
 90
        9
 70
   128
 43
0.0
 10
47.5273564088
 20
62.2626588731
 10
47.5282187989
 20
62.2596633877
 10
47.5307742894
 20
62.2567828877
 10
47.5349231481
 20
62.254127665
 10
47.5405069769
 20
62.2517997986
 10
47.5473110583
 20
62.2498908073
 10
47.555073742
 20
62.2484710903
 10
47.5634970047
 20
62.2475969671
 10
47.5722570102
 20
62.2473024638
  0
SPLINE
  5
240
330
1F
100
AcDbEntity
  8
SLD-0
  6
Continuous
370
    15
100
AcDbSpline
210
0.0
220
0.0
230
1.0
 70
     8
 71
     3
 72
    11
 73
     7
 74
     0
 42
0.00000001
 43
0.00000001
 12
1.0
 22
0.0
 32
0.0
 13
1.0
 23
0.0
 33
0.0
 40
0.0
 40
0.0
 40
0.0
 40
0.0
 40
0.2582751752183826
 40
0.516737379264115
 40
0.7752159117431701
 40
1.0
 40
1.0
 40
1.0
 40
1.0
 10
47.57225701015212
 20
59.37198026648323
 30
0.0
 10
47.56617733934278
 20
59.37603367904322
 30
0.0
 10
47.55401359515733
 20
59.38414343942397
 30
0.0
 10
47.53885008570616
 20
59.39935397406612
 30
0.0
 10
47.52908187432006
 20
59.4154303148734
 30
0.0
 10
47.5279041935886
 20
59.42642907209244
 30
0.0
 10
47.5273564088477
 20
59.43154501838614
 30
0.0
  0
LINE
  5
241
330
1F
100
AcDbEntity
  8
SLD-0
  6
Continuous
370
    15
100
AcDbLine
 10
47.5273564088
 20
59.4315450184
 30
0.0
 11
47.5273564088
 21
62.2626588731
 31
0.0
  0
LINE
  5
242
330
1F
100
AcDbEntity
  8
SLD-0
  6
Continuous
370
    15
100
AcDbLine
 10
47.5572561168
 20
62.2626588731
 30
0.0
 11
47.5273564088
 21
62.2626588731
 31
0.0
  0
LWPOLYLINE
  5
243
330
1F
100
AcDbEntity
  8
SLD-0
  6
Continuous
370
    15
100
AcDbPolyline
 90
        9
 70
   128
 43
0.0
 10
47.5572561168
 20
62.2626588731
 10
47.5575447534
 20
62.2616580313
 10
47.5583977569
 20
62.2606959091
 10
47.5597846209
 20
62.2598088794
 10
47.5616501993
 20
62.2590309684
 10
47.5639229198
 20
62.2583938557
 10
47.5665159565
 20
62.2579198345
 10
47.5693295773
 20
62.2576276779
 10
47.5722570102
 20
62.257529119
  0
LWPOLYLINE
  5
244
330
1F
100
AcDbEntity
  8
SLD-0
  6
Continuous
370
    15
100
AcDbPolyline
 90
        9
 70
   128
 43
0.0
 10
83.3822559167
 20
62.257529119
 10
83.3851833495
 20
62.2576276779
 10
83.3879969703
 20
62.2579198345
 10
83.390590007
 20
62.2583938557
 10
83.3928627275
 20
62.2590309684
 10
83.3947283059
 20
62.2598088794
 10
83.3961151699
 20
62.2606959091
 10
83.3969681734
 20
62.2616580313
 10
83.39725681
 20
62.2626588731
  0
LINE
  5
245
330
1F
100
AcDbEntity
  8
SLD-0
  6
Continuous
370
    15
100
AcDbLine
 10
83.39725681
 20
62.2626588731
 30
0.0
 11
83.427156518
 21
62.2626588731
 31
0.0
  0
LINE
  5
246
330
1F
100
AcDbEntity
  8
SLD-0
  6
Continuous
370
    15
100
AcDbLine
 10
83.427156518
 20
62.732659097
 30
0.0
 11
83.427156518
 21
62.2626588731
 31
0.0
  0
LINE
  5
247
330
1F
100
AcDbEntity
  8
SLD-0
  6
Continuous
370
    15
100
AcDbLine
 10
83.39725681
 20
62.732659097
 30
0.0
 11
83.39725681
 21
62.2626588731
 31
0.0
  0
LINE
  5
248
330
1F
100
AcDbEntity
  8
SLD-0
  6
Continuous
370
    15
100
AcDbLine
 10
47.5273564088
 20
62.732659097
 30
0.0
 11
47.5273564088
 21
62.2626588731
 31
0.0
  0
LINE
  5
249
330
1F
100
AcDbEntity
  8
SLD-0
  6
Continuous
370
    15
100
AcDbLine
 10
47.5572561168
 20
62.732659097
 30
0.0
 11
47.5572561168
 21
62.2626588731
 31
0.0
  0
SPLINE
  5
24A
330
1F
100
AcDbEntity
  8
SLD-0
  6
Continuous
370
    15
100
AcDbSpline
210
0.0
220
0.0
230
1.0
 70
     8
 71
     3
 72
    11
 73
     7
 74
     0
 42
0.00000001
 43
0.00000001
 12
1.0
 22
0.0
 32
0.0
 13
1.0
 23
0.0
 33
0.0
 40
0.0
 40
0.0
 40
0.0
 40
0.0
 40
0.0354140865178548
 40
0.3569395517348571
 40
0.6784413954541684
 40
1.0
 40
1.0
 40
1.0
 40
1.0
 10
47.59291917146108
 20
59.3512500526271
 30
0.0
 10
47.59267552870246
 20
59.35117237048753
 30
0.0
 10
47.59021984663936
 20
59.35038941006692
 30
0.0
 10
47.5855426437213
 20
59.35357307964023
 30
0.0
 10
47.57889996325654
 20
59.36063403195126
 30
0.0
 10
47.57447145815011
 20
59.36819796575807
 30
0.0
 10
47.57225701015212
 20
59.37198026648323
 30
0.0
  0
SPLINE
  5
24B
330
1F
100
AcDbEntity
  8
SLD-0
  6
Continuous
370
    15
100
AcDbSpline
210
0.0
220
0.0
230
1.0
 70
     8
 71
     3
 72
    11
 73
     7
 74
     0
 42
0.00000001
 43
0.00000001
 12
1.0
 22
0.0
 32
0.0
 13
1.0
 23
0.0
 33
0.0
 40
0.0
 40
0.0
 40
0.0
 40
0.0
 40
0.3215586045458315
 40
0.6430604482651427
 40
0.9645859134821451
 40
1.0
 40
1.0
 40
1.0
 40
1.0
 10
83.38225591665564
 20
59.37198026648323
 30
0.0
 10
83.38004146865765
 20
59.36819796575808
 30
0.0
 10
83.37561296355122
 20
59.36063403195124
 30
0.0
 10
83.36897028308645
 20
59.35357307964025
 30
0.0
 10
83.3642930801684
 20
59.3503894100669
 30
0.0
 10
83.36183739810531
 20
59.35117237048753
 30
0.0
 10
83.36159375534669
 20
59.3512500526271
 30
0.0
  0
LINE
  5
24C
330
1F
100
AcDbEntity
  8
SLD-0
  6
Continuous
370
    15
100
AcDbLine
 10
85.0275998962
 20
63.5833347099
 30
0.0
 11
85.0275998962
 21
63.5979589676
 31
0.0
  0
LINE
  5
24D
330
1F
100
AcDbEntity
  8
SLD-0
  6
Continuous
370
    15
100
AcDbLine
 10
85.0275998962
 20
63.5833347099
 30
0.0
 11
84.979599384
 21
63.5833347099
 31
0.0
  0
LINE
  5
24E
330
1F
100
AcDbEntity
  8
SLD-0
  6
Continuous
370
    15
100
AcDbLine
 10
85.0082565463
 20
65.160959365
 30
0.0
 11
84.979599384
 21
65.160959365
 31
0.0
  0
LINE
  5
24F
330
1F
100
AcDbEntity
  8
SLD-0
  6
Continuous
370
    15
100
AcDbLine
 10
85.9795998852
 20
63.5683338165
 30
0.0
 11
85.9795998852
 21
63.5203344777
 31
0.0
  0
LINE
  5
250
330
1F
100
AcDbEntity
  8
SLD-0
  6
Continuous
370
    15
100
AcDbLine
 10
85.0425996162
 20
63.5683338165
 30
0.0
 11
85.0425996162
 21
63.5203344777
 31
0.0
  0
LINE
  5
251
330
1F
100
AcDbEntity
  8
SLD-0
  6
Continuous
370
    15
100
AcDbLine
 10
85.9795998852
 20
63.5683338165
 30
0.0
 11
85.0425996162
 21
63.5683338165
 31
0.0
  0
LINE
  5
252
330
1F
100
AcDbEntity
  8
SLD-0
  6
Continuous
370
    15
100
AcDbLine
 10
85.9795998852
 20
63.5203344777
 30
0.0
 11
85.0425996162
 21
63.5203344777
 31
0.0
  0
ARC
  5
253
330
1F
100
AcDbEntity
  8
SLD-0
  6
Continuous
370
    15
100
AcDbCircle
 10
85.0425997934
 20
63.5833341272
 30
0.0
 40
0.0629999999999953
100
AcDbArc
 50
180.0
 51
270.0
  0
ARC
  5
254
330
1F
100
AcDbEntity
  8
SLD-0
  6
Continuous
370
    15
100
AcDbCircle
 10
85.0425997934
 20
63.5833341272
 30
0.0
 40
0.0150000000000006
100
AcDbArc
 50
180.0
 51
270.0
  0
LINE
  5
255
330
1F
100
AcDbEntity
  8
SLD-0
  6
Continuous
370
    15
100
AcDbLine
 10
45.9269130306
 20
63.5833347099
 30
0.0
 11
45.9749135428
 21
63.5833347099
 31
0.0
  0
LINE
  5
256
330
1F
100
AcDbEntity
  8
SLD-0
  6
Continuous
370
    15
100
AcDbLine
 10
45.9462563805
 20
65.160959365
 30
0.0
 11
45.9749135428
 21
65.160959365
 31
0.0
  0
LINE
  5
257
330
1F
100
AcDbEntity
  8
SLD-0
  6
Continuous
370
    15
100
AcDbLine
 10
45.9269130306
 20
63.5833347099
 30
0.0
 11
45.9269130306
 21
63.5979589676
 31
0.0
  0
ARC
  5
258
330
1F
100
AcDbEntity
  8
SLD-0
  6
Continuous
370
    15
100
AcDbCircle
 10
45.9119131334
 20
63.5833341272
 30
0.0
 40
0.0630000000000024
100
AcDbArc
 50
270.0
 51
0.0
  0
LINE
  5
259
330
1F
100
AcDbEntity
  8
SLD-0
  6
Continuous
370
    15
100
AcDbLine
 10
45.9119133106
 20
63.5683338165
 30
0.0
 11
45.9119133106
 21
63.5203344777
 31
0.0
  0
ARC
  5
25A
330
1F
100
AcDbEntity
  8
SLD-0
  6
Continuous
370
    15
100
AcDbCircle
 10
45.9119131334
 20
63.5833341272
 30
0.0
 40
0.0150000000000006
100
AcDbArc
 50
270.0
 51
0.0
  0
LINE
  5
25B
330
1F
100
AcDbEntity
  8
SLD-0
  6
Continuous
370
    15
100
AcDbLine
 10
44.9749130416
 20
63.5683338165
 30
0.0
 11
44.9749130416
 21
63.5203344777
 31
0.0
  0
LINE
  5
25C
330
1F
100
AcDbEntity
  8
SLD-0
  6
Continuous
370
    15
100
AcDbLine
 10
44.9749130416
 20
63.5203344777
 30
0.0
 11
45.9119133106
 21
63.5203344777
 31
0.0
  0
LINE
  5
25D
330
1F
100
AcDbEntity
  8
SLD-0
  6
Continuous
370
    15
100
AcDbLine
 10
44.9749130416
 20
63.5683338165
 30
0.0
 11
45.9119133106
 21
63.5683338165
 31
0.0
  0
LINE
  5
25E
330
1F
100
AcDbEntity
  8
SLD-0
  6
Continuous
370
    15
100
AcDbLine
 10
75.8361260235
 20
63.4623595741
 30
0.0
 11
75.8361260235
 21
80.337359086
 31
0.0
  0
LINE
  5
25F
330
1F
100
AcDbEntity
  8
SLD-0
  6
Continuous
370
    15
100
AcDbLine
 10
75.8361260235
 20
63.4623595741
 30
0.0
 11
75.7583865482
 21
63.4623595741
 31
0.0
  0
LINE
  5
260
330
1F
100
AcDbEntity
  8
SLD-0
  6
Continuous
370
    15
100
AcDbLine
 10
75.7583865482
 20
80.337359086
 30
0.0
 11
75.7583865482
 21
63.4623595741
 31
0.0
  0
LINE
  5
261
330
1F
100
AcDbEntity
  8
SLD-0
  6
Continuous
370
    15
100
AcDbLine
 10
75.7583865482
 20
80.337359086
 30
0.0
 11
75.8361260235
 21
80.337359086
 31
0.0
  0
LWPOLYLINE
  5
262
330
1F
100
AcDbEntity
  8
SLD-0
  6
Continuous
370
    15
100
AcDbPolyline
 90
       21
 70
   128
 43
0.0
 10
75.2933852533
 20
69.0873590203
 10
75.3032382062
 20
69.0858196247
 10
75.3128482818
 20
69.0812413309
 10
75.321979643
 20
69.073734431
 10
75.3304064256
 20
69.063486656
 10
75.3379215388
 20
69.0507479232
 10
75.3443407713
 20
69.0358326822
 10
75.3495045517
 20
69.019108182
 10
75.3532861613
 20
69.0009862581
 10
75.3555940813
 20
68.981913945
 10
75.3563696457
 20
68.9623593976
 10
75.3555940813
 20
68.9428048502
 10
75.3532861613
 20
68.9237325372
 10
75.3495045517
 20
68.9056106132
 10
75.3443407713
 20
68.888886113
 10
75.3379215388
 20
68.873970872
 10
75.3304064256
 20
68.8612321392
 10
75.321979643
 20
68.8509831909
 10
75.3128482818
 20
68.8434774643
 10
75.3032382062
 20
68.8388979972
 10
75.2933852533
 20
68.8373586016
  0
LINE
  5
263
330
1F
100
AcDbEntity
  8
SLD-0
  6
Continuous
370
    15
100
AcDbLine
 10
75.2933852533
 20
69.0873590203
 30
0.0
 11
74.7895142207
 21
69.0873590203
 31
0.0
  0
LWPOLYLINE
  5
264
330
1F
100
AcDbEntity
  8
SLD-0
  6
Continuous
370
    15
100
AcDbPolyline
 90
       21
 70
   128
 43
0.0
 10
74.7895142207
 20
68.8373586016
 10
74.7796618546
 20
68.8388979972
 10
74.7700511922
 20
68.8434774643
 10
74.7609204177
 20
68.8509831909
 10
74.7524936351
 20
68.8612321392
 10
74.7449779352
 20
68.873970872
 10
74.7385592894
 20
68.888886113
 10
74.733395509
 20
68.9056106132
 10
74.7296133127
 20
68.9237325372
 10
74.7273059794
 20
68.9428048502
 10
74.726530415
 20
68.9623593976
 10
74.7273059794
 20
68.981913945
 10
74.7296133127
 20
69.0009862581
 10
74.733395509
 20
69.019108182
 10
74.7385592894
 20
69.0358326822
 10
74.7449779352
 20
69.0507479232
 10
74.7524936351
 20
69.063486656
 10
74.7609204177
 20
69.073734431
 10
74.7700511922
 20
69.0812413309
 10
74.7796618546
 20
69.0858196247
 10
74.7895142207
 20
69.0873590203
  0
LINE
  5
265
330
1F
100
AcDbEntity
  8
SLD-0
  6
Continuous
370
    15
100
AcDbLine
 10
75.2933852533
 20
68.8373586016
 30
0.0
 11
74.7895142207
 21
68.8373586016
 31
0.0
  0
LINE
  5
266
330
1F
100
AcDbEntity
  8
SLD-0
  6
Continuous
370
    15
100
AcDbLine
 10
74.8963432266
 20
63.7123588194
 30
0.0
 11
74.8963432266
 21
65.8373594445
 31
0.0
  0
LINE
  5
267
330
1F
100
AcDbEntity
  8
SLD-0
  6
Continuous
370
    15
100
AcDbLine
 10
74.8875251418
 20
65.8373594445
 30
0.0
 11
74.8963432266
 21
65.8373594445
 31
0.0
  0
LINE
  5
268
330
1F
100
AcDbEntity
  8
SLD-0
  6
Continuous
370
    15
100
AcDbLine
 10
74.8875251418
 20
65.8373594445
 30
0.0
 11
74.0343661976
 21
65.8373594445
 31
0.0
  0
LINE
  5
269
330
1F
100
AcDbEntity
  8
SLD-0
  6
Continuous
370
    15
100
AcDbLine
 10
74.0343661976
 20
65.8373594445
 30
0.0
 11
74.0343661976
 21
80.337359086
 31
0.0
  0
LINE
  5
26A
330
1F
100
AcDbEntity
  8
SLD-0
  6
Continuous
370
    15
100
AcDbLine
 10
75.7583865482
 20
63.4623595741
 30
0.0
 11
75.0223108381
 21
63.4623595741
 31
0.0
  0
LINE
  5
26B
330
1F
100
AcDbEntity
  8
SLD-0
  6
Continuous
370
    15
100
AcDbLine
 10
75.0223108381
 20
63.4623595741
 30
0.0
 11
74.8963432266
 21
63.7123588194
 31
0.0
  0
LWPOLYLINE
  5
26C
330
1F
100
AcDbEntity
  8
SLD-0
  6
Continuous
370
    15
100
AcDbPolyline
 90
       21
 70
   128
 43
0.0
 10
75.2933852533
 20
72.0873593507
 10
75.3032382062
 20
72.0858199551
 10
75.3128482818
 20
72.0812410747
 10
75.321979643
 20
72.0737347614
 10
75.3304064256
 20
72.0634858131
 10
75.3379215388
 20
72.0507470803
 10
75.3443407713
 20
72.0358318393
 10
75.3495045517
 20
72.0191085124
 10
75.3532861613
 20
72.0009865885
 10
75.3555940813
 20
71.9819131021
 10
75.3563696457
 20
71.9623585547
 10
75.3555940813
 20
71.9428051806
 10
75.3532861613
 20
71.9237316942
 10
75.3495045517
 20
71.9056097703
 10
75.3443407713
 20
71.8888864434
 10
75.3379215388
 20
71.8739712024
 10
75.3304064256
 20
71.8612324696
 10
75.321979643
 20
71.8509835213
 10
75.3128482818
 20
71.8434766214
 10
75.3032382062
 20
71.8388983276
 10
75.2933852533
 20
71.837358932
  0
LINE
  5
26D
330
1F
100
AcDbEntity
  8
SLD-0
  6
Continuous
370
    15
100
AcDbLine
 10
74.7895142207
 20
72.0873593507
 30
0.0
 11
75.2933852533
 21
72.0873593507
 31
0.0
  0
LWPOLYLINE
  5
26E
330
1F
100
AcDbEntity
  8
SLD-0
  6
Continuous
370
    15
100
AcDbPolyline
 90
       21
 70
   128
 43
0.0
 10
74.7895142207
 20
71.837358932
 10
74.7796618546
 20
71.8388983276
 10
74.7700511922
 20
71.8434766214
 10
74.7609204177
 20
71.8509835213
 10
74.7524936351
 20
71.8612324696
 10
74.7449779352
 20
71.8739712024
 10
74.7385592894
 20
71.8888864434
 10
74.733395509
 20
71.9056097703
 10
74.7296133127
 20
71.9237316942
 10
74.7273059794
 20
71.9428051806
 10
74.726530415
 20
71.9623585547
 10
74.7273059794
 20
71.9819131021
 10
74.7296133127
 20
72.0009865885
 10
74.733395509
 20
72.0191085124
 10
74.7385592894
 20
72.0358318393
 10
74.7449779352
 20
72.0507470803
 10
74.7524936351
 20
72.0634858131
 10
74.7609204177
 20
72.0737347614
 10
74.7700511922
 20
72.0812410747
 10
74.7796618546
 20
72.0858199551
 10
74.7895142207
 20
72.0873593507
  0
LINE
  5
26F
330
1F
100
AcDbEntity
  8
SLD-0
  6
Continuous
370
    15
100
AcDbLine
 10
75.2933852533
 20
71.837358932
 30
0.0
 11
74.7895142207
 21
71.837358932
 31
0.0
  0
LINE
  5
270
330
1F
100
AcDbEntity
  8
SLD-0
  6
Continuous
370
    15
100
AcDbLine
 10
75.7583865482
 20
80.337359086
 30
0.0
 11
74.0343661976
 21
80.337359086
 31
0.0
  0
LINE
  5
271
330
1F
100
AcDbEntity
  8
SLD-0
  6
Continuous
370
    15
100
AcDbLine
 10
77.5601469608
 20
80.337359086
 30
0.0
 11
77.5601469608
 21
65.8373594445
 31
0.0
  0
LINE
  5
272
330
1F
100
AcDbEntity
  8
SLD-0
  6
Continuous
370
    15
100
AcDbLine
 10
77.5601469608
 20
65.8373594445
 30
0.0
 11
76.7069874299
 21
65.8373594445
 31
0.0
  0
LINE
  5
273
330
1F
100
AcDbEntity
  8
SLD-0
  6
Continuous
370
    15
100
AcDbLine
 10
76.7069874299
 20
65.8373594445
 30
0.0
 11
76.6981699318
 21
65.8373594445
 31
0.0
  0
LINE
  5
274
330
1F
100
AcDbEntity
  8
SLD-0
  6
Continuous
370
    15
100
AcDbLine
 10
76.6981699318
 20
63.7123588194
 30
0.0
 11
76.6981699318
 21
65.8373594445
 31
0.0
  0
LINE
  5
275
330
1F
100
AcDbEntity
  8
SLD-0
  6
Continuous
370
    15
100
AcDbLine
 10
76.5722023203
 20
63.4623595741
 30
0.0
 11
76.6981699318
 21
63.7123588194
 31
0.0
  0
LINE
  5
276
330
1F
100
AcDbEntity
  8
SLD-0
  6
Continuous
370
    15
100
AcDbLine
 10
76.5722023203
 20
63.4623595741
 30
0.0
 11
75.8361260235
 21
63.4623595741
 31
0.0
  0
LINE
  5
277
330
1F
100
AcDbEntity
  8
SLD-0
  6
Continuous
370
    15
100
AcDbLine
 10
76.3011279051
 20
71.837358932
 30
0.0
 11
76.804998351
 21
71.837358932
 31
0.0
  0
LWPOLYLINE
  5
278
330
1F
100
AcDbEntity
  8
SLD-0
  6
Continuous
370
    15
100
AcDbPolyline
 90
       21
 70
   128
 43
0.0
 10
76.804998351
 20
71.837358932
 10
76.8148518905
 20
71.8388983276
 10
76.8244613795
 20
71.8434766214
 10
76.833592154
 20
71.8509835213
 10
76.8420189367
 20
71.8612324696
 10
76.8495352232
 20
71.8739712024
 10
76.8559532824
 20
71.8888864434
 10
76.8611170627
 20
71.9056097703
 10
76.8648998457
 20
71.9237316942
 10
76.8672065924
 20
71.9428051806
 10
76.8679821568
 20
71.9623585547
 10
76.8672065924
 20
71.9819131021
 10
76.8648998457
 20
72.0009865885
 10
76.8611170627
 20
72.0191085124
 10
76.8559532824
 20
72.0358318393
 10
76.8495352232
 20
72.0507470803
 10
76.8420189367
 20
72.0634858131
 10
76.833592154
 20
72.0737347614
 10
76.8244613795
 20
72.0812410747
 10
76.8148518905
 20
72.0858199551
 10
76.804998351
 20
72.0873593507
  0
LINE
  5
279
330
1F
100
AcDbEntity
  8
SLD-0
  6
Continuous
370
    15
100
AcDbLine
 10
76.804998351
 20
72.0873593507
 30
0.0
 11
76.3011279051
 21
72.0873593507
 31
0.0
  0
LWPOLYLINE
  5
27A
330
1F
100
AcDbEntity
  8
SLD-0
  6
Continuous
370
    15
100
AcDbPolyline
 90
       21
 70
   128
 43
0.0
 10
76.3011279051
 20
72.0873593507
 10
76.2912743656
 20
72.0858199551
 10
76.2816648766
 20
72.0812410747
 10
76.2725329288
 20
72.0737347614
 10
76.2641061461
 20
72.0634858131
 10
76.2565910329
 20
72.0507470803
 10
76.2501729738
 20
72.0358318393
 10
76.2450080201
 20
72.0191085124
 10
76.2412264104
 20
72.0009865885
 10
76.2389184904
 20
71.9819131021
 10
76.2381440994
 20
71.9623585547
 10
76.2389184904
 20
71.9428051806
 10
76.2412264104
 20
71.9237316942
 10
76.2450080201
 20
71.9056097703
 10
76.2501729738
 20
71.8888864434
 10
76.2565910329
 20
71.8739712024
 10
76.2641061461
 20
71.8612324696
 10
76.2725329288
 20
71.8509835213
 10
76.2816648766
 20
71.8434766214
 10
76.2912743656
 20
71.8388983276
 10
76.3011279051
 20
71.837358932
  0
LINE
  5
27B
330
1F
100
AcDbEntity
  8
SLD-0
  6
Continuous
370
    15
100
AcDbLine
 10
76.3011279051
 20
68.8373586016
 30
0.0
 11
76.804998351
 21
68.8373586016
 31
0.0
  0
LWPOLYLINE
  5
27C
330
1F
100
AcDbEntity
  8
SLD-0
  6
Continuous
370
    15
100
AcDbPolyline
 90
       21
 70
   128
 43
0.0
 10
76.804998351
 20
68.8373586016
 10
76.8148518905
 20
68.8388979972
 10
76.8244613795
 20
68.8434774643
 10
76.833592154
 20
68.8509831909
 10
76.8420189367
 20
68.8612321392
 10
76.8495352232
 20
68.873970872
 10
76.8559532824
 20
68.888886113
 10
76.8611170627
 20
68.9056106132
 10
76.8648998457
 20
68.9237325372
 10
76.8672065924
 20
68.9428048502
 10
76.8679821568
 20
68.9623593976
 10
76.8672065924
 20
68.981913945
 10
76.8648998457
 20
69.0009862581
 10
76.8611170627
 20
69.019108182
 10
76.8559532824
 20
69.0358326822
 10
76.8495352232
 20
69.0507479232
 10
76.8420189367
 20
69.063486656
 10
76.833592154
 20
69.073734431
 10
76.8244613795
 20
69.0812413309
 10
76.8148518905
 20
69.0858196247
 10
76.804998351
 20
69.0873590203
  0
LINE
  5
27D
330
1F
100
AcDbEntity
  8
SLD-0
  6
Continuous
370
    15
100
AcDbLine
 10
76.804998351
 20
69.0873590203
 30
0.0
 11
76.3011279051
 21
69.0873590203
 31
0.0
  0
LWPOLYLINE
  5
27E
330
1F
100
AcDbEntity
  8
SLD-0
  6
Continuous
370
    15
100
AcDbPolyline
 90
       21
 70
   128
 43
0.0
 10
76.3011279051
 20
69.0873590203
 10
76.2912743656
 20
69.0858196247
 10
76.2816648766
 20
69.0812413309
 10
76.2725329288
 20
69.073734431
 10
76.2641061461
 20
69.063486656
 10
76.2565910329
 20
69.0507479232
 10
76.2501729738
 20
69.0358326822
 10
76.2450080201
 20
69.019108182
 10
76.2412264104
 20
69.0009862581
 10
76.2389184904
 20
68.981913945
 10
76.2381440994
 20
68.9623593976
 10
76.2389184904
 20
68.9428048502
 10
76.2412264104
 20
68.9237325372
 10
76.2450080201
 20
68.9056106132
 10
76.2501729738
 20
68.888886113
 10
76.2565910329
 20
68.873970872
 10
76.2641061461
 20
68.8612321392
 10
76.2725329288
 20
68.8509831909
 10
76.2816648766
 20
68.8434774643
 10
76.2912743656
 20
68.8388979972
 10
76.3011279051
 20
68.8373586016
  0
LINE
  5
27F
330
1F
100
AcDbEntity
  8
SLD-0
  6
Continuous
370
    15
100
AcDbLine
 10
77.5601469608
 20
80.337359086
 30
0.0
 11
75.8361260235
 21
80.337359086
 31
0.0
  0
LWPOLYLINE
  5
280
330
1F
100
AcDbEntity
  8
SLD-0
  6
Continuous
370
    15
100
AcDbPolyline
 90
       21
 70
   128
 43
0.0
 10
76.7790855837
 20
71.837358932
 10
76.7889379499
 20
71.8388983276
 10
76.7985486122
 20
71.8434766214
 10
76.8076793867
 20
71.8509835213
 10
76.8161061694
 20
71.8612324696
 10
76.8236212826
 20
71.8739712024
 10
76.8300405151
 20
71.8888864434
 10
76.8352042954
 20
71.9056097703
 10
76.8389859051
 20
71.9237316942
 10
76.8412938251
 20
71.9428051806
 10
76.8420693894
 20
71.9623585547
 10
76.8412938251
 20
71.9819131021
 10
76.8389859051
 20
72.0009865885
 10
76.8352042954
 20
72.0191085124
 10
76.8300405151
 20
72.0358318393
 10
76.8236212826
 20
72.0507470803
 10
76.8161061694
 20
72.0634858131
 10
76.8076793867
 20
72.0737347614
 10
76.7985486122
 20
72.0812410747
 10
76.7889379499
 20
72.0858199551
 10
76.7790855837
 20
72.0873593507
  0
LWPOLYLINE
  5
281
330
1F
100
AcDbEntity
  8
SLD-0
  6
Continuous
370
    15
100
AcDbPolyline
 90
       21
 70
   128
 43
0.0
 10
74.8154275747
 20
71.837358932
 10
74.8055752085
 20
71.8388983276
 10
74.7959645462
 20
71.8434766214
 10
74.7868337717
 20
71.8509835213
 10
74.7784069891
 20
71.8612324696
 10
74.7708912892
 20
71.8739712024
 10
74.7644726434
 20
71.8888864434
 10
74.759308863
 20
71.9056097703
 10
74.7555266667
 20
71.9237316942
 10
74.7532193334
 20
71.9428051806
 10
74.752443769
 20
71.9623585547
 10
74.7532193334
 20
71.9819131021
 10
74.7555266667
 20
72.0009865885
 10
74.759308863
 20
72.0191085124
 10
74.7644726434
 20
72.0358318393
 10
74.7708912892
 20
72.0507470803
 10
74.7784069891
 20
72.0634858131
 10
74.7868337717
 20
72.0737347614
 10
74.7959645462
 20
72.0812410747
 10
74.8055752085
 20
72.0858199551
 10
74.8154275747
 20
72.0873593507
  0
LWPOLYLINE
  5
282
330
1F
100
AcDbEntity
  8
SLD-0
  6
Continuous
370
    15
100
AcDbPolyline
 90
       21
 70
   128
 43
0.0
 10
76.7790855837
 20
68.8373586016
 10
76.7889379499
 20
68.8388979972
 10
76.7985486122
 20
68.8434774643
 10
76.8076793867
 20
68.8509831909
 10
76.8161061694
 20
68.8612321392
 10
76.8236212826
 20
68.873970872
 10
76.8300405151
 20
68.888886113
 10
76.8352042954
 20
68.9056106132
 10
76.8389859051
 20
68.9237325372
 10
76.8412938251
 20
68.9428048502
 10
76.8420693894
 20
68.9623593976
 10
76.8412938251
 20
68.981913945
 10
76.8389859051
 20
69.0009862581
 10
76.8352042954
 20
69.019108182
 10
76.8300405151
 20
69.0358326822
 10
76.8236212826
 20
69.0507479232
 10
76.8161061694
 20
69.063486656
 10
76.8076793867
 20
69.073734431
 10
76.7985486122
 20
69.0812413309
 10
76.7889379499
 20
69.0858196247
 10
76.7790855837
 20
69.0873590203
  0
LWPOLYLINE
  5
283
330
1F
100
AcDbEntity
  8
SLD-0
  6
Continuous
370
    15
100
AcDbPolyline
 90
       21
 70
   128
 43
0.0
 10
74.8154275747
 20
68.8373586016
 10
74.8055752085
 20
68.8388979972
 10
74.7959645462
 20
68.8434774643
 10
74.7868337717
 20
68.8509831909
 10
74.7784069891
 20
68.8612321392
 10
74.7708912892
 20
68.873970872
 10
74.7644726434
 20
68.888886113
 10
74.759308863
 20
68.9056106132
 10
74.7555266667
 20
68.9237325372
 10
74.7532193334
 20
68.9428048502
 10
74.752443769
 20
68.9623593976
 10
74.7532193334
 20
68.981913945
 10
74.7555266667
 20
69.0009862581
 10
74.759308863
 20
69.019108182
 10
74.7644726434
 20
69.0358326822
 10
74.7708912892
 20
69.0507479232
 10
74.7784069891
 20
69.063486656
 10
74.7868337717
 20
69.073734431
 10
74.7959645462
 20
69.0812413309
 10
74.8055752085
 20
69.0858196247
 10
74.8154275747
 20
69.0873590203
  0
LINE
  5
284
330
1F
100
AcDbEntity
  8
SLD-0
  6
Continuous
370
    15
100
AcDbLine
 10
77.5731027578
 20
80.337359086
 30
0.0
 11
77.5731027578
 21
65.8373594445
 31
0.0
  0
LINE
  5
285
330
1F
100
AcDbEntity
  8
SLD-0
  6
Continuous
370
    15
100
AcDbLine
 10
77.5731027578
 20
65.8373594445
 30
0.0
 11
77.5601469608
 21
65.8373594445
 31
0.0
  0
LINE
  5
286
330
1F
100
AcDbEntity
  8
SLD-0
  6
Continuous
370
    15
100
AcDbLine
 10
77.5601469608
 20
80.337359086
 30
0.0
 11
77.5731027578
 21
80.337359086
 31
0.0
  0
LINE
  5
287
330
1F
100
AcDbEntity
  8
SLD-0
  6
Continuous
370
    15
100
AcDbLine
 10
74.0214098139
 20
65.8373594445
 30
0.0
 11
74.0343661976
 21
65.8373594445
 31
0.0
  0
LINE
  5
288
330
1F
100
AcDbEntity
  8
SLD-0
  6
Continuous
370
    15
100
AcDbLine
 10
74.0214098139
 20
80.337359086
 30
0.0
 11
74.0214098139
 21
65.8373594445
 31
0.0
  0
LINE
  5
289
330
1F
100
AcDbEntity
  8
SLD-0
  6
Continuous
370
    15
100
AcDbLine
 10
74.0343661976
 20
80.337359086
 30
0.0
 11
74.0214098139
 21
80.337359086
 31
0.0
  0
LINE
  5
28A
330
1F
100
AcDbEntity
  8
SLD-0
  6
Continuous
370
    15
100
AcDbLine
 10
78.0472565337
 20
65.8373594445
 30
0.0
 11
77.5731027578
 21
65.8373594445
 31
0.0
  0
LINE
  5
28B
330
1F
100
AcDbEntity
  8
SLD-0
  6
Continuous
370
    15
100
AcDbLine
 10
78.0472565337
 20
80.337359086
 30
0.0
 11
78.0472565337
 21
65.8373594445
 31
0.0
  0
LINE
  5
28C
330
1F
100
AcDbEntity
  8
SLD-0
  6
Continuous
370
    15
100
AcDbLine
 10
78.0472565337
 20
80.337359086
 30
0.0
 11
77.5731027578
 21
80.337359086
 31
0.0
  0
LINE
  5
28D
330
1F
100
AcDbEntity
  8
SLD-0
  6
Continuous
370
    15
100
AcDbLine
 10
74.0214098139
 20
65.8373594445
 30
0.0
 11
73.5472566247
 21
65.8373594445
 31
0.0
  0
LINE
  5
28E
330
1F
100
AcDbEntity
  8
SLD-0
  6
Continuous
370
    15
100
AcDbLine
 10
73.5472566247
 20
80.337359086
 30
0.0
 11
73.5472566247
 21
65.8373594445
 31
0.0
  0
LINE
  5
28F
330
1F
100
AcDbEntity
  8
SLD-0
  6
Continuous
370
    15
100
AcDbLine
 10
74.0214098139
 20
80.337359086
 30
0.0
 11
73.5472566247
 21
80.337359086
 31
0.0
  0
LINE
  5
290
330
1F
100
AcDbEntity
  8
SLD-0
  6
Continuous
370
    15
100
AcDbLine
 10
55.1961263786
 20
63.4623595741
 30
0.0
 11
55.1961263786
 21
80.337359086
 31
0.0
  0
LINE
  5
291
330
1F
100
AcDbEntity
  8
SLD-0
  6
Continuous
370
    15
100
AcDbLine
 10
55.1961263786
 20
63.4623595741
 30
0.0
 11
55.1183869033
 21
63.4623595741
 31
0.0
  0
LINE
  5
292
330
1F
100
AcDbEntity
  8
SLD-0
  6
Continuous
370
    15
100
AcDbLine
 10
55.1183869033
 20
80.337359086
 30
0.0
 11
55.1183869033
 21
63.4623595741
 31
0.0
  0
LINE
  5
293
330
1F
100
AcDbEntity
  8
SLD-0
  6
Continuous
370
    15
100
AcDbLine
 10
55.1183869033
 20
80.337359086
 30
0.0
 11
55.1961263786
 21
80.337359086
 31
0.0
  0
LWPOLYLINE
  5
294
330
1F
100
AcDbEntity
  8
SLD-0
  6
Continuous
370
    15
100
AcDbPolyline
 90
       21
 70
   128
 43
0.0
 10
54.6533850217
 20
69.0873590203
 10
54.6632385612
 20
69.0858196247
 10
54.6728480502
 20
69.0812413309
 10
54.681979998
 20
69.073734431
 10
54.6904067807
 20
69.063486656
 10
54.6979218939
 20
69.0507479232
 10
54.7043399531
 20
69.0358326822
 10
54.7095049067
 20
69.019108182
 10
54.7132865164
 20
69.0009862581
 10
54.7155944364
 20
68.981913945
 10
54.7163688274
 20
68.9623593976
 10
54.7155944364
 20
68.9428048502
 10
54.7132865164
 20
68.9237325372
 10
54.7095049067
 20
68.9056106132
 10
54.7043399531
 20
68.888886113
 10
54.6979218939
 20
68.873970872
 10
54.6904067807
 20
68.8612321392
 10
54.681979998
 20
68.8509831909
 10
54.6728480502
 20
68.8434774643
 10
54.6632385612
 20
68.8388979972
 10
54.6533850217
 20
68.8373586016
  0
LINE
  5
295
330
1F
100
AcDbEntity
  8
SLD-0
  6
Continuous
370
    15
100
AcDbLine
 10
54.6533850217
 20
69.0873590203
 30
0.0
 11
54.1495145758
 21
69.0873590203
 31
0.0
  0
LWPOLYLINE
  5
296
330
1F
100
AcDbEntity
  8
SLD-0
  6
Continuous
370
    15
100
AcDbPolyline
 90
       21
 70
   128
 43
0.0
 10
54.1495145758
 20
68.8373586016
 10
54.1396610363
 20
68.8388979972
 10
54.1300515473
 20
68.8434774643
 10
54.1209207728
 20
68.8509831909
 10
54.1124939901
 20
68.8612321392
 10
54.1049777036
 20
68.873970872
 10
54.0985596444
 20
68.888886113
 10
54.0933958641
 20
68.9056106132
 10
54.0896130811
 20
68.9237325372
 10
54.0873063344
 20
68.9428048502
 10
54.08653077
 20
68.9623593976
 10
54.0873063344
 20
68.981913945
 10
54.0896130811
 20
69.0009862581
 10
54.0933958641
 20
69.019108182
 10
54.0985596444
 20
69.0358326822
 10
54.1049777036
 20
69.0507479232
 10
54.1124939901
 20
69.063486656
 10
54.1209207728
 20
69.073734431
 10
54.1300515473
 20
69.0812413309
 10
54.1396610363
 20
69.0858196247
 10
54.1495145758
 20
69.0873590203
  0
LINE
  5
297
330
1F
100
AcDbEntity
  8
SLD-0
  6
Continuous
370
    15
100
AcDbLine
 10
54.6533850217
 20
68.8373586016
 30
0.0
 11
54.1495145758
 21
68.8373586016
 31
0.0
  0
LINE
  5
298
330
1F
100
AcDbEntity
  8
SLD-0
  6
Continuous
370
    15
100
AcDbLine
 10
54.256342995
 20
63.7123588194
 30
0.0
 11
54.256342995
 21
65.8373594445
 31
0.0
  0
LINE
  5
299
330
1F
100
AcDbEntity
  8
SLD-0
  6
Continuous
370
    15
100
AcDbLine
 10
54.2475254969
 20
65.8373594445
 30
0.0
 11
54.256342995
 21
65.8373594445
 31
0.0
  0
LINE
  5
29A
330
1F
100
AcDbEntity
  8
SLD-0
  6
Continuous
370
    15
100
AcDbLine
 10
54.2475254969
 20
65.8373594445
 30
0.0
 11
53.394365966
 21
65.8373594445
 31
0.0
  0
LINE
  5
29B
330
1F
100
AcDbEntity
  8
SLD-0
  6
Continuous
370
    15
100
AcDbLine
 10
53.394365966
 20
65.8373594445
 30
0.0
 11
53.394365966
 21
80.337359086
 31
0.0
  0
LINE
  5
29C
330
1F
100
AcDbEntity
  8
SLD-0
  6
Continuous
370
    15
100
AcDbLine
 10
55.1183869033
 20
63.4623595741
 30
0.0
 11
54.3823106065
 21
63.4623595741
 31
0.0
  0
LINE
  5
29D
330
1F
100
AcDbEntity
  8
SLD-0
  6
Continuous
370
    15
100
AcDbLine
 10
54.3823106065
 20
63.4623595741
 30
0.0
 11
54.256342995
 21
63.7123588194
 31
0.0
  0
LWPOLYLINE
  5
29E
330
1F
100
AcDbEntity
  8
SLD-0
  6
Continuous
370
    15
100
AcDbPolyline
 90
       21
 70
   128
 43
0.0
 10
54.6533850217
 20
72.0873593507
 10
54.6632385612
 20
72.0858199551
 10
54.6728480502
 20
72.0812410747
 10
54.681979998
 20
72.0737347614
 10
54.6904067807
 20
72.0634858131
 10
54.6979218939
 20
72.0507470803
 10
54.7043399531
 20
72.0358318393
 10
54.7095049067
 20
72.0191085124
 10
54.7132865164
 20
72.0009865885
 10
54.7155944364
 20
71.9819131021
 10
54.7163688274
 20
71.9623585547
 10
54.7155944364
 20
71.9428051806
 10
54.7132865164
 20
71.9237316942
 10
54.7095049067
 20
71.9056097703
 10
54.7043399531
 20
71.8888864434
 10
54.6979218939
 20
71.8739712024
 10
54.6904067807
 20
71.8612324696
 10
54.681979998
 20
71.8509835213
 10
54.6728480502
 20
71.8434766214
 10
54.6632385612
 20
71.8388983276
 10
54.6533850217
 20
71.837358932
  0
LINE
  5
29F
330
1F
100
AcDbEntity
  8
SLD-0
  6
Continuous
370
    15
100
AcDbLine
 10
54.1495145758
 20
72.0873593507
 30
0.0
 11
54.6533850217
 21
72.0873593507
 31
0.0
  0
LWPOLYLINE
  5
2A0
330
1F
100
AcDbEntity
  8
SLD-0
  6
Continuous
370
    15
100
AcDbPolyline
 90
       21
 70
   128
 43
0.0
 10
54.1495145758
 20
71.837358932
 10
54.1396610363
 20
71.8388983276
 10
54.1300515473
 20
71.8434766214
 10
54.1209207728
 20
71.8509835213
 10
54.1124939901
 20
71.8612324696
 10
54.1049777036
 20
71.8739712024
 10
54.0985596444
 20
71.8888864434
 10
54.0933958641
 20
71.9056097703
 10
54.0896130811
 20
71.9237316942
 10
54.0873063344
 20
71.9428051806
 10
54.08653077
 20
71.9623585547
 10
54.0873063344
 20
71.9819131021
 10
54.0896130811
 20
72.0009865885
 10
54.0933958641
 20
72.0191085124
 10
54.0985596444
 20
72.0358318393
 10
54.1049777036
 20
72.0507470803
 10
54.1124939901
 20
72.0634858131
 10
54.1209207728
 20
72.0737347614
 10
54.1300515473
 20
72.0812410747
 10
54.1396610363
 20
72.0858199551
 10
54.1495145758
 20
72.0873593507
  0
LINE
  5
2A1
330
1F
100
AcDbEntity
  8
SLD-0
  6
Continuous
370
    15
100
AcDbLine
 10
54.6533850217
 20
71.837358932
 30
0.0
 11
54.1495145758
 21
71.837358932
 31
0.0
  0
LINE
  5
2A2
330
1F
100
AcDbEntity
  8
SLD-0
  6
Continuous
370
    15
100
AcDbLine
 10
55.1183869033
 20
80.337359086
 30
0.0
 11
53.394365966
 21
80.337359086
 31
0.0
  0
LINE
  5
2A3
330
1F
100
AcDbEntity
  8
SLD-0
  6
Continuous
370
    15
100
AcDbLine
 10
56.9201467292
 20
80.337359086
 30
0.0
 11
56.9201467292
 21
65.8373594445
 31
0.0
  0
LINE
  5
2A4
330
1F
100
AcDbEntity
  8
SLD-0
  6
Continuous
370
    15
100
AcDbLine
 10
56.9201467292
 20
65.8373594445
 30
0.0
 11
56.066987785
 21
65.8373594445
 31
0.0
  0
LINE
  5
2A5
330
1F
100
AcDbEntity
  8
SLD-0
  6
Continuous
370
    15
100
AcDbLine
 10
56.066987785
 20
65.8373594445
 30
0.0
 11
56.0581697002
 21
65.8373594445
 31
0.0
  0
LINE
  5
2A6
330
1F
100
AcDbEntity
  8
SLD-0
  6
Continuous
370
    15
100
AcDbLine
 10
56.0581697002
 20
63.7123588194
 30
0.0
 11
56.0581697002
 21
65.8373594445
 31
0.0
  0
LINE
  5
2A7
330
1F
100
AcDbEntity
  8
SLD-0
  6
Continuous
370
    15
100
AcDbLine
 10
55.9322020887
 20
63.4623595741
 30
0.0
 11
56.0581697002
 21
63.7123588194
 31
0.0
  0
LINE
  5
2A8
330
1F
100
AcDbEntity
  8
SLD-0
  6
Continuous
370
    15
100
AcDbLine
 10
55.9322020887
 20
63.4623595741
 30
0.0
 11
55.1961263786
 21
63.4623595741
 31
0.0
  0
LINE
  5
2A9
330
1F
100
AcDbEntity
  8
SLD-0
  6
Continuous
370
    15
100
AcDbLine
 10
55.6611276735
 20
71.837358932
 30
0.0
 11
56.1649987061
 21
71.837358932
 31
0.0
  0
LWPOLYLINE
  5
2AA
330
1F
100
AcDbEntity
  8
SLD-0
  6
Continuous
370
    15
100
AcDbPolyline
 90
       21
 70
   128
 43
0.0
 10
56.1649987061
 20
71.837358932
 10
56.1748510723
 20
71.8388983276
 10
56.1844617346
 20
71.8434766214
 10
56.1935925091
 20
71.8509835213
 10
56.2020192917
 20
71.8612324696
 10
56.2095349916
 20
71.8739712024
 10
56.2159536374
 20
71.8888864434
 10
56.2211174178
 20
71.9056097703
 10
56.2248996141
 20
71.9237316942
 10
56.2272069474
 20
71.9428051806
 10
56.2279825118
 20
71.9623585547
 10
56.2272069474
 20
71.9819131021
 10
56.2248996141
 20
72.0009865885
 10
56.2211174178
 20
72.0191085124
 10
56.2159536374
 20
72.0358318393
 10
56.2095349916
 20
72.0507470803
 10
56.2020192917
 20
72.0634858131
 10
56.1935925091
 20
72.0737347614
 10
56.1844617346
 20
72.0812410747
 10
56.1748510723
 20
72.0858199551
 10
56.1649987061
 20
72.0873593507
  0
LINE
  5
2AB
330
1F
100
AcDbEntity
  8
SLD-0
  6
Continuous
370
    15
100
AcDbLine
 10
56.1649987061
 20
72.0873593507
 30
0.0
 11
55.6611276735
 21
72.0873593507
 31
0.0
  0
LWPOLYLINE
  5
2AC
330
1F
100
AcDbEntity
  8
SLD-0
  6
Continuous
370
    15
100
AcDbPolyline
 90
       21
 70
   128
 43
0.0
 10
55.6611276735
 20
72.0873593507
 10
55.6512747207
 20
72.0858199551
 10
55.641664645
 20
72.0812410747
 10
55.6325332838
 20
72.0737347614
 10
55.6241065012
 20
72.0634858131
 10
55.616591388
 20
72.0507470803
 10
55.6101721555
 20
72.0358318393
 10
55.6050083751
 20
72.0191085124
 10
55.6012267655
 20
72.0009865885
 10
55.5989188455
 20
71.9819131021
 10
55.5981432811
 20
71.9623585547
 10
55.5989188455
 20
71.9428051806
 10
55.6012267655
 20
71.9237316942
 10
55.6050083751
 20
71.9056097703
 10
55.6101721555
 20
71.8888864434
 10
55.616591388
 20
71.8739712024
 10
55.6241065012
 20
71.8612324696
 10
55.6325332838
 20
71.8509835213
 10
55.641664645
 20
71.8434766214
 10
55.6512747207
 20
71.8388983276
 10
55.6611276735
 20
71.837358932
  0
LINE
  5
2AD
330
1F
100
AcDbEntity
  8
SLD-0
  6
Continuous
370
    15
100
AcDbLine
 10
55.6611276735
 20
68.8373586016
 30
0.0
 11
56.1649987061
 21
68.8373586016
 31
0.0
  0
LWPOLYLINE
  5
2AE
330
1F
100
AcDbEntity
  8
SLD-0
  6
Continuous
370
    15
100
AcDbPolyline
 90
       21
 70
   128
 43
0.0
 10
56.1649987061
 20
68.8373586016
 10
56.1748510723
 20
68.8388979972
 10
56.1844617346
 20
68.8434774643
 10
56.1935925091
 20
68.8509831909
 10
56.2020192917
 20
68.8612321392
 10
56.2095349916
 20
68.873970872
 10
56.2159536374
 20
68.888886113
 10
56.2211174178
 20
68.9056106132
 10
56.2248996141
 20
68.9237325372
 10
56.2272069474
 20
68.9428048502
 10
56.2279825118
 20
68.9623593976
 10
56.2272069474
 20
68.981913945
 10
56.2248996141
 20
69.0009862581
 10
56.2211174178
 20
69.019108182
 10
56.2159536374
 20
69.0358326822
 10
56.2095349916
 20
69.0507479232
 10
56.2020192917
 20
69.063486656
 10
56.1935925091
 20
69.073734431
 10
56.1844617346
 20
69.0812413309
 10
56.1748510723
 20
69.0858196247
 10
56.1649987061
 20
69.0873590203
  0
LINE
  5
2AF
330
1F
100
AcDbEntity
  8
SLD-0
  6
Continuous
370
    15
100
AcDbLine
 10
56.1649987061
 20
69.0873590203
 30
0.0
 11
55.6611276735
 21
69.0873590203
 31
0.0
  0
LWPOLYLINE
  5
2B0
330
1F
100
AcDbEntity
  8
SLD-0
  6
Continuous
370
    15
100
AcDbPolyline
 90
       21
 70
   128
 43
0.0
 10
55.6611276735
 20
69.0873590203
 10
55.6512747207
 20
69.0858196247
 10
55.641664645
 20
69.0812413309
 10
55.6325332838
 20
69.073734431
 10
55.6241065012
 20
69.063486656
 10
55.616591388
 20
69.0507479232
 10
55.6101721555
 20
69.0358326822
 10
55.6050083751
 20
69.019108182
 10
55.6012267655
 20
69.0009862581
 10
55.5989188455
 20
68.981913945
 10
55.5981432811
 20
68.9623593976
 10
55.5989188455
 20
68.9428048502
 10
55.6012267655
 20
68.9237325372
 10
55.6050083751
 20
68.9056106132
 10
55.6101721555
 20
68.888886113
 10
55.616591388
 20
68.873970872
 10
55.6241065012
 20
68.8612321392
 10
55.6325332838
 20
68.8509831909
 10
55.641664645
 20
68.8434774643
 10
55.6512747207
 20
68.8388979972
 10
55.6611276735
 20
68.8373586016
  0
LINE
  5
2B1
330
1F
100
AcDbEntity
  8
SLD-0
  6
Continuous
370
    15
100
AcDbLine
 10
56.9201467292
 20
80.337359086
 30
0.0
 11
55.1961263786
 21
80.337359086
 31
0.0
  0
LWPOLYLINE
  5
2B2
330
1F
100
AcDbEntity
  8
SLD-0
  6
Continuous
370
    15
100
AcDbPolyline
 90
       21
 70
   128
 43
0.0
 10
56.1390853521
 20
71.837358932
 10
56.1489377183
 20
71.8388983276
 10
56.1585483806
 20
71.8434766214
 10
56.1676791551
 20
71.8509835213
 10
56.1761059378
 20
71.8612324696
 10
56.1836216376
 20
71.8739712024
 10
56.1900402835
 20
71.8888864434
 10
56.1952040638
 20
71.9056097703
 10
56.1989862601
 20
71.9237316942
 10
56.2012935935
 20
71.9428051806
 10
56.2020691578
 20
71.9623585547
 10
56.2012935935
 20
71.9819131021
 10
56.1989862601
 20
72.0009865885
 10
56.1952040638
 20
72.0191085124
 10
56.1900402835
 20
72.0358318393
 10
56.1836216376
 20
72.0507470803
 10
56.1761059378
 20
72.0634858131
 10
56.1676791551
 20
72.0737347614
 10
56.1585483806
 20
72.0812410747
 10
56.1489377183
 20
72.0858199551
 10
56.1390853521
 20
72.0873593507
  0
LWPOLYLINE
  5
2B3
330
1F
100
AcDbEntity
  8
SLD-0
  6
Continuous
370
    15
100
AcDbPolyline
 90
       21
 70
   128
 43
0.0
 10
54.1754273431
 20
71.837358932
 10
54.1655749769
 20
71.8388983276
 10
54.1559643146
 20
71.8434766214
 10
54.1468335401
 20
71.8509835213
 10
54.1384067574
 20
71.8612324696
 10
54.1308916442
 20
71.8739712024
 10
54.1244724117
 20
71.8888864434
 10
54.1193086314
 20
71.9056097703
 10
54.1155270217
 20
71.9237316942
 10
54.1132191017
 20
71.9428051806
 10
54.1124435374
 20
71.9623585547
 10
54.1132191017
 20
71.9819131021
 10
54.1155270217
 20
72.0009865885
 10
54.1193086314
 20
72.0191085124
 10
54.1244724117
 20
72.0358318393
 10
54.1308916442
 20
72.0507470803
 10
54.1384067574
 20
72.0634858131
 10
54.1468335401
 20
72.0737347614
 10
54.1559643146
 20
72.0812410747
 10
54.1655749769
 20
72.0858199551
 10
54.1754273431
 20
72.0873593507
  0
LWPOLYLINE
  5
2B4
330
1F
100
AcDbEntity
  8
SLD-0
  6
Continuous
370
    15
100
AcDbPolyline
 90
       21
 70
   128
 43
0.0
 10
54.1754273431
 20
68.8373586016
 10
54.1655749769
 20
68.8388979972
 10
54.1559643146
 20
68.8434774643
 10
54.1468335401
 20
68.8509831909
 10
54.1384067574
 20
68.8612321392
 10
54.1308916442
 20
68.873970872
 10
54.1244724117
 20
68.888886113
 10
54.1193086314
 20
68.9056106132
 10
54.1155270217
 20
68.9237325372
 10
54.1132191017
 20
68.9428048502
 10
54.1124435374
 20
68.9623593976
 10
54.1132191017
 20
68.981913945
 10
54.1155270217
 20
69.0009862581
 10
54.1193086314
 20
69.019108182
 10
54.1244724117
 20
69.0358326822
 10
54.1308916442
 20
69.0507479232
 10
54.1384067574
 20
69.063486656
 10
54.1468335401
 20
69.073734431
 10
54.1559643146
 20
69.0812413309
 10
54.1655749769
 20
69.0858196247
 10
54.1754273431
 20
69.0873590203
  0
LWPOLYLINE
  5
2B5
330
1F
100
AcDbEntity
  8
SLD-0
  6
Continuous
370
    15
100
AcDbPolyline
 90
       21
 70
   128
 43
0.0
 10
56.1390853521
 20
68.8373586016
 10
56.1489377183
 20
68.8388979972
 10
56.1585483806
 20
68.8434774643
 10
56.1676791551
 20
68.8509831909
 10
56.1761059378
 20
68.8612321392
 10
56.1836216376
 20
68.873970872
 10
56.1900402835
 20
68.888886113
 10
56.1952040638
 20
68.9056106132
 10
56.1989862601
 20
68.9237325372
 10
56.2012935935
 20
68.9428048502
 10
56.2020691578
 20
68.9623593976
 10
56.2012935935
 20
68.981913945
 10
56.1989862601
 20
69.0009862581
 10
56.1952040638
 20
69.019108182
 10
56.1900402835
 20
69.0358326822
 10
56.1836216376
 20
69.0507479232
 10
56.1761059378
 20
69.063486656
 10
56.1676791551
 20
69.073734431
 10
56.1585483806
 20
69.0812413309
 10
56.1489377183
 20
69.0858196247
 10
56.1390853521
 20
69.0873590203
  0
LINE
  5
2B6
330
1F
100
AcDbEntity
  8
SLD-0
  6
Continuous
370
    15
100
AcDbLine
 10
53.394365966
 20
80.337359086
 30
0.0
 11
53.381410169
 21
80.337359086
 31
0.0
  0
LINE
  5
2B7
330
1F
100
AcDbEntity
  8
SLD-0
  6
Continuous
370
    15
100
AcDbLine
 10
53.381410169
 20
65.8373594445
 30
0.0
 11
53.394365966
 21
65.8373594445
 31
0.0
  0
LINE
  5
2B8
330
1F
100
AcDbEntity
  8
SLD-0
  6
Continuous
370
    15
100
AcDbLine
 10
53.381410169
 20
80.337359086
 30
0.0
 11
53.381410169
 21
65.8373594445
 31
0.0
  0
LINE
  5
2B9
330
1F
100
AcDbEntity
  8
SLD-0
  6
Continuous
370
    15
100
AcDbLine
 10
56.9331031129
 20
80.337359086
 30
0.0
 11
56.9331031129
 21
65.8373594445
 31
0.0
  0
LINE
  5
2BA
330
1F
100
AcDbEntity
  8
SLD-0
  6
Continuous
370
    15
100
AcDbLine
 10
56.9331031129
 20
65.8373594445
 30
0.0
 11
56.9201467292
 21
65.8373594445
 31
0.0
  0
LINE
  5
2BB
330
1F
100
AcDbEntity
  8
SLD-0
  6
Continuous
370
    15
100
AcDbLine
 10
56.9201467292
 20
80.337359086
 30
0.0
 11
56.9331031129
 21
80.337359086
 31
0.0
  0
LINE
  5
2BC
330
1F
100
AcDbEntity
  8
SLD-0
  6
Continuous
370
    15
100
AcDbLine
 10
57.4072563021
 20
65.8373594445
 30
0.0
 11
56.9331031129
 21
65.8373594445
 31
0.0
  0
LINE
  5
2BD
330
1F
100
AcDbEntity
  8
SLD-0
  6
Continuous
370
    15
100
AcDbLine
 10
57.4072563021
 20
80.337359086
 30
0.0
 11
56.9331031129
 21
80.337359086
 31
0.0
  0
LINE
  5
2BE
330
1F
100
AcDbEntity
  8
SLD-0
  6
Continuous
370
    15
100
AcDbLine
 10
57.4072563021
 20
80.337359086
 30
0.0
 11
57.4072563021
 21
65.8373594445
 31
0.0
  0
LINE
  5
2BF
330
1F
100
AcDbEntity
  8
SLD-0
  6
Continuous
370
    15
100
AcDbLine
 10
53.381410169
 20
65.8373594445
 30
0.0
 11
52.9072563931
 21
65.8373594445
 31
0.0
  0
LINE
  5
2C0
330
1F
100
AcDbEntity
  8
SLD-0
  6
Continuous
370
    15
100
AcDbLine
 10
52.9072563931
 20
80.337359086
 30
0.0
 11
52.9072563931
 21
65.8373594445
 31
0.0
  0
LINE
  5
2C1
330
1F
100
AcDbEntity
  8
SLD-0
  6
Continuous
370
    15
100
AcDbLine
 10
53.381410169
 20
80.337359086
 30
0.0
 11
52.9072563931
 21
80.337359086
 31
0.0
  0
ARC
  5
2C2
330
1F
100
AcDbEntity
  8
SLD-0
  6
Continuous
370
    15
100
AcDbCircle
 10
49.4519445241
 20
81.9002591272
 30
0.0
 40
0.0527000000000014
100
AcDbArc
 50
145.7170300868
 51
168.0163377337
  0
LINE
  5
2C3
330
1F
100
AcDbEntity
  8
SLD-0
  6
Continuous
370
    15
100
AcDbLine
 10
49.1928063961
 20
80.9332145026
 30
0.0
 11
49.400392478
 21
81.9112013741
 31
0.0
  0
LINE
  5
2C4
330
1F
100
AcDbEntity
  8
SLD-0
  6
Continuous
370
    15
100
AcDbLine
 10
45.9749135428
 20
63.4826591796
 30
0.0
 11
45.9749135428
 21
63.5979589676
 31
0.0
  0
LINE
  5
2C5
330
1F
100
AcDbEntity
  8
SLD-0
  6
Continuous
370
    15
100
AcDbLine
 10
45.9749135428
 20
63.9729590089
 30
0.0
 11
45.9749135428
 21
65.2859589877
 31
0.0
  0
LINE
  5
2C6
330
1F
100
AcDbEntity
  8
SLD-0
  6
Continuous
370
    15
100
AcDbLine
 10
45.9749135428
 20
65.7242173916
 30
0.0
 11
45.9749135428
 21
65.7277373509
 31
0.0
  0
LINE
  5
2C7
330
1F
100
AcDbEntity
  8
SLD-0
  6
Continuous
370
    15
100
AcDbLine
 10
81.5497322328
 20
81.9102700022
 30
0.0
 11
81.5541204488
 21
81.9112013741
 31
0.0
  0
LINE
  5
2C8
330
1F
100
AcDbEntity
  8
SLD-0
  6
Continuous
370
    15
100
AcDbLine
 10
81.5472565281
 20
81.9336591271
 30
0.0
 11
81.5454155893
 21
81.9336591271
 31
0.0
  0
LINE
  5
2C9
330
1F
100
AcDbEntity
  8
SLD-0
  6
Continuous
370
    15
100
AcDbLine
 10
49.4090973375
 20
81.9336591271
 30
0.0
 11
49.4072563987
 21
81.9336591271
 31
0.0
  0
LINE
  5
2CA
330
1F
100
AcDbEntity
  8
SLD-0
  6
Continuous
370
    15
100
AcDbLine
 10
49.4072563987
 20
81.9336591271
 30
0.0
 11
49.4054295399
 21
81.9250299365
 31
0.0
  0
LINE
  5
2CB
330
1F
100
AcDbEntity
  8
SLD-0
  6
Continuous
370
    15
100
AcDbLine
 10
81.549083387
 20
81.9250299365
 30
0.0
 11
81.5472565281
 21
81.9336591271
 31
0.0
  0
LINE
  5
2CC
330
1F
100
AcDbEntity
  8
SLD-0
  6
Continuous
370
    15
100
AcDbLine
 10
49.404780694
 20
81.9102700022
 30
0.0
 11
49.400392478
 21
81.9112013741
 31
0.0
  0
DIMENSION
  5
2CD
330
1F
100
AcDbEntity
  8
DIM
100
AcDbDimension
  2
_D_4
 10
45.8997564634
 20
56.1098301427
 30
0.0
 11
40.9749131334
 21
56.1098301427
 31
0.0
 70
   160
  1
<>
 71
     2
 42
-1.0
  3
SLDDIMSTYLE1
100
AcDbAlignedDimension
 13
44.9749131334
 23
63.5203341272
 33
0.0
 14
45.8997564634
 24
62.7972591272
 34
0.0
100
AcDbRotatedDimension
  0
DIMENSION
  5
2DC
330
1F
100
AcDbEntity
  8
DIM
100
AcDbDimension
  2
_D_5
 10
85.0547564634
 20
56.1098301427
 30
0.0
 11
65.4772564634
 21
56.1098301427
 31
0.0
 70
   160
  1
<>
 71
     2
 42
-1.0
  3
SLDDIMSTYLE0
100
AcDbAlignedDimension
 13
45.8997564634
 23
62.7972591272
 33
0.0
 14
85.0547564634
 24
62.7972591272
 34
0.0
100
AcDbRotatedDimension
  0
DIMENSION
  5
2EB
330
1F
100
AcDbEntity
  8
DIM
100
AcDbDimension
  2
_D_6
 10
40.9749131334
 20
82.0006591272
 30
0.0
 11
40.9749131334
 21
72.3666591272
 31
0.0
 70
   160
  1
<>
 71
     2
 42
-1.0
  3
SLDDIMSTYLE0
100
AcDbAlignedDimension
 13
45.9644691618
 23
62.7326591272
 33
0.0
 14
49.4072564634
 24
82.0006591272
 34
0.0
 50
90.0
100
AcDbRotatedDimension
  0
DIMENSION
  5
2FA
330
1F
100
AcDbEntity
  8
DIM
100
AcDbDimension
  2
_D_7
 10
81.5472564634
 20
86.5759022858
 30
0.0
 11
65.4772564634
 21
86.5759022858
 31
0.0
 70
   160
  1
<>
 71
     2
 42
-1.0
  3
SLDDIMSTYLE0
100
AcDbAlignedDimension
 13
49.4072564634
 23
82.0006591272
 33
0.0
 14
81.5472564634
 24
82.0006591272
 34
0.0
100
AcDbRotatedDimension
  0
LINE
  5
309
330
1F
100
AcDbEntity
  8
SLD-0
  6
Continuous
370
    15
100
AcDbLine
 10
121.9780962121
 20
46.8073458365
 30
0.0
 11
105.1030967002
 21
46.8073458365
 31
0.0
  0
LINE
  5
30A
330
1F
100
AcDbEntity
  8
SLD-0
  6
Continuous
370
    15
100
AcDbLine
 10
104.6853960322
 20
38.3295143864
 30
0.0
 11
105.1233963057
 21
38.3295143864
 31
0.0
  0
LINE
  5
30B
330
1F
100
AcDbEntity
  8
SLD-0
  6
Continuous
370
    15
100
AcDbLine
 10
104.6853960322
 20
34.4545155241
 30
0.0
 11
104.6853960322
 21
38.3295143864
 31
0.0
  0
LINE
  5
30C
330
1F
100
AcDbEntity
  8
SLD-0
  6
Continuous
370
    15
100
AcDbLine
 10
105.1233963057
 20
34.4545155241
 30
0.0
 11
104.6853960322
 21
34.4545155241
 31
0.0
  0
LINE
  5
30D
330
1F
100
AcDbEntity
  8
SLD-0
  6
Continuous
370
    15
100
AcDbLine
 10
105.1233963057
 20
18.4655150037
 30
0.0
 11
105.1233963057
 21
34.4545155241
 31
0.0
  0
LINE
  5
30E
330
1F
100
AcDbEntity
  8
SLD-0
  6
Continuous
370
    15
100
AcDbLine
 10
104.6853960322
 20
18.4655150037
 30
0.0
 11
105.1233963057
 21
18.4655150037
 31
0.0
  0
LINE
  5
30F
330
1F
100
AcDbEntity
  8
SLD-0
  6
Continuous
370
    15
100
AcDbLine
 10
104.6853960322
 20
14.5905155547
 30
0.0
 11
104.6853960322
 21
18.4655150037
 31
0.0
  0
LINE
  5
310
330
1F
100
AcDbEntity
  8
SLD-0
  6
Continuous
370
    15
100
AcDbLine
 10
105.1233963057
 20
14.5905155547
 30
0.0
 11
104.6853960322
 21
14.5905155547
 31
0.0
  0
LINE
  5
311
330
1F
100
AcDbEntity
  8
SLD-0
  6
Continuous
370
    15
100
AcDbLine
 10
105.1233963057
 20
10.3689523492
 30
0.0
 11
105.1233963057
 21
14.5905155547
 31
0.0
  0
LINE
  5
312
330
1F
100
AcDbEntity
  8
SLD-0
  6
Continuous
370
    15
100
AcDbLine
 10
105.1233963057
 20
10.3689523492
 30
0.0
 11
104.4379956902
 21
9.683552357
 31
0.0
  0
LINE
  5
313
330
1F
100
AcDbEntity
  8
SLD-0
  6
Continuous
370
    15
100
AcDbLine
 10
104.4379956902
 20
9.683552357
 30
0.0
 11
104.4379956902
 21
43.3166772543
 31
0.0
  0
LINE
  5
314
330
1F
100
AcDbEntity
  8
SLD-0
  6
Continuous
370
    15
100
AcDbLine
 10
104.4379956902
 20
43.3166772543
 30
0.0
 11
105.1233963057
 21
42.6312778121
 31
0.0
  0
LINE
  5
315
330
1F
100
AcDbEntity
  8
SLD-0
  6
Continuous
370
    15
100
AcDbLine
 10
105.1233963057
 20
38.3295143864
 30
0.0
 11
105.1233963057
 21
42.6312778121
 31
0.0
  0
SPLINE
  5
316
330
1F
100
AcDbEntity
  8
SLD-0
  6
Continuous
370
    15
100
AcDbSpline
210
0.0
220
0.0
230
1.0
 70
     8
 71
     3
 72
    11
 73
     7
 74
     0
 42
0.00000001
 43
0.00000001
 12
1.0
 22
0.0
 32
0.0
 13
1.0
 23
0.0
 33
0.0
 40
0.0
 40
0.0
 40
0.0
 40
0.0
 40
0.2499974289475732
 40
0.5000000000017707
 40
0.7500027378201387
 40
1.0
 40
1.0
 40
1.0
 40
1.0
 10
104.4379956902076
 20
9.68355235702881
 30
0.0
 10
104.4295309528772
 20
9.678043013928352
 30
0.0
 10
104.4126013041083
 20
9.667024214407752
 30
0.0
 10
104.3912480615286
 20
9.650496536206772
 30
0.0
 10
104.3763094515357
 20
9.63396879574625
 30
0.0
 10
104.3743672921774
 20
9.622950025529754
 30
0.0
 10
104.3733962231328
 20
9.617440700756305
 30
0.0
  0
LINE
  5
317
330
1F
100
AcDbEntity
  8
SLD-0
  6
Continuous
370
    15
100
AcDbLine
 10
104.3733962231
 20
43.3827891306
 30
0.0
 11
104.3733962231
 21
9.6174407008
 31
0.0
  0
SPLINE
  5
318
330
1F
100
AcDbEntity
  8
SLD-0
  6
Continuous
370
    15
100
AcDbSpline
210
0.0
220
0.0
230
1.0
 70
     8
 71
     3
 72
    11
 73
     7
 74
     0
 42
0.00000001
 43
0.00000001
 12
1.0
 22
0.0
 32
0.0
 13
1.0
 23
0.0
 33
0.0
 40
0.0
 40
0.0
 40
0.0
 40
0.0
 40
0.2499946771875426
 40
0.4999946632936856
 40
0.7499946493998286
 40
0.9999999999999999
 40
0.9999999999999999
 40
0.9999999999999999
 40
0.9999999999999999
 10
104.3733962231328
 20
43.38278913056993
 30
0.0
 10
104.3743672974057
 20
43.37727998362079
 30
0.0
 10
104.3763094665733
 20
43.36626157272954
 30
0.0
 10
104.3912479908137
 20
43.34973424854401
 30
0.0
 10
104.4126018959898
 20
43.33320739242218
 30
0.0
 10
104.4295310315914
 20
43.32218733975163
 30
0.0
 10
104.4379956902076
 20
43.31667725429997
 30
0.0
  0
SPLINE
  5
319
330
1F
100
AcDbEntity
  8
SLD-0
  6
Continuous
370
    15
100
AcDbSpline
210
0.0
220
0.0
230
1.0
 70
     8
 71
     3
 72
    11
 73
     7
 74
     0
 42
0.00000001
 43
0.00000001
 12
1.0
 22
0.0
 32
0.0
 13
1.0
 23
0.0
 33
0.0
 40
0.0
 40
0.0
 40
0.0
 40
0.0
 40
0.2499957720892083
 40
0.500000000006369
 40
0.7500045890992235
 40
1.0
 40
1.0
 40
1.0
 40
1.0
 10
104.4379956902076
 20
9.68355235702881
 30
0.0
 10
104.4339339761745
 20
9.678042996132113
 30
0.0
 10
104.4258104107256
 20
9.667024087990733
 30
0.0
 10
104.415562340171
 20
9.650496526414248
 30
0.0
 10
104.4083945519847
 20
9.633968939912807
 30
0.0
 10
104.4074625660558
 20
9.622950046386125
 30
0.0
 10
104.4069965816452
 20
9.617440700756305
 30
0.0
  0
LINE
  5
31A
330
1F
100
AcDbEntity
  8
SLD-0
  6
Continuous
370
    15
100
AcDbLine
 10
104.4069965816
 20
9.6174407008
 30
0.0
 11
104.3733962231
 21
9.6174407008
 31
0.0
  0
SPLINE
  5
31B
330
1F
100
AcDbEntity
  8
SLD-0
  6
Continuous
370
    15
100
AcDbSpline
210
0.0
220
0.0
230
1.0
 70
     8
 71
     3
 72
    11
 73
     7
 74
     0
 42
0.00000001
 43
0.00000001
 12
1.0
 22
0.0
 32
0.0
 13
1.0
 23
0.0
 33
0.0
 40
0.0
 40
0.0
 40
0.0
 40
0.0
 40
0.2499898123315775
 40
0.4999884418387616
 40
0.7499870713459458
 40
1.0
 40
1.0
 40
1.0
 40
1.0
 10
104.4069965816452
 20
43.38278913056993
 30
0.0
 10
104.407462571489
 20
43.37727995939679
 30
0.0
 10
104.4083945676119
 20
43.36626142274122
 30
0.0
 10
104.415562266688
 20
43.34973430730687
 30
0.0
 10
104.4258110258709
 20
43.33320703316279
 30
0.0
 10
104.4339340579955
 20
43.32218728563382
 30
0.0
 10
104.4379956902076
 20
43.31667725429997
 30
0.0
  0
LINE
  5
31C
330
1F
100
AcDbEntity
  8
SLD-0
  6
Continuous
370
    15
100
AcDbLine
 10
104.4069965816
 20
43.3827891306
 30
0.0
 11
104.3733962231
 21
43.3827891306
 31
0.0
  0
LINE
  5
31D
330
1F
100
AcDbEntity
  8
SLD-0
  6
Continuous
370
    15
100
AcDbLine
 10
104.4069965816
 20
43.3829017693
 30
0.0
 11
104.3733962231
 21
43.3829017693
 31
0.0
  0
LINE
  5
31E
330
1F
100
AcDbEntity
  8
SLD-0
  6
Continuous
370
    15
100
AcDbLine
 10
104.4069965816
 20
43.3827891306
 30
0.0
 11
104.4069965816
 21
43.3829017693
 31
0.0
  0
LINE
  5
31F
330
1F
100
AcDbEntity
  8
SLD-0
  6
Continuous
370
    15
100
AcDbLine
 10
104.3733962231
 20
43.3827891306
 30
0.0
 11
104.3733962231
 21
43.3829017693
 31
0.0
  0
LINE
  5
320
330
1F
100
AcDbEntity
  8
SLD-0
  6
Continuous
370
    15
100
AcDbLine
 10
104.4069965816
 20
9.6173279887
 30
0.0
 11
104.3733962231
 21
9.6173279887
 31
0.0
  0
LINE
  5
321
330
1F
100
AcDbEntity
  8
SLD-0
  6
Continuous
370
    15
100
AcDbLine
 10
104.4069965816
 20
9.6173279887
 30
0.0
 11
104.4069965816
 21
9.6174407008
 31
0.0
  0
LINE
  5
322
330
1F
100
AcDbEntity
  8
SLD-0
  6
Continuous
370
    15
100
AcDbLine
 10
104.3733962231
 20
9.6173279887
 30
0.0
 11
104.3733962231
 21
9.6174407008
 31
0.0
  0
LINE
  5
323
330
1F
100
AcDbEntity
  8
SLD-0
  6
Continuous
370
    15
100
AcDbLine
 10
105.1233963057
 20
9.1487152888
 30
0.0
 11
104.4379956902
 21
9.1487152888
 31
0.0
  0
LINE
  5
324
330
1F
100
AcDbEntity
  8
SLD-0
  6
Continuous
370
    15
100
AcDbLine
 10
105.1233963057
 20
9.1487152888
 30
0.0
 11
105.1233963057
 21
9.1151152878
 31
0.0
  0
LINE
  5
325
330
1F
100
AcDbEntity
  8
SLD-0
  6
Continuous
370
    15
100
AcDbLine
 10
104.4403963025
 20
9.1151152878
 30
0.0
 11
104.4379956902
 21
9.1151152878
 31
0.0
  0
LINE
  5
326
330
1F
100
AcDbEntity
  8
SLD-0
  6
Continuous
370
    15
100
AcDbLine
 10
104.4379956902
 20
9.1487152888
 30
0.0
 11
104.4379956902
 21
9.1151152878
 31
0.0
  0
LINE
  5
327
330
1F
100
AcDbEntity
  8
SLD-0
  6
Continuous
370
    15
100
AcDbLine
 10
104.4069965816
 20
9.1797152883
 30
0.0
 11
104.3733962231
 21
9.1797152883
 31
0.0
  0
LINE
  5
328
330
1F
100
AcDbEntity
  8
SLD-0
  6
Continuous
370
    15
100
AcDbLine
 10
104.4069965816
 20
9.6173279887
 30
0.0
 11
104.4069965816
 21
9.1797152883
 31
0.0
  0
LINE
  5
329
330
1F
100
AcDbEntity
  8
SLD-0
  6
Continuous
370
    15
100
AcDbLine
 10
104.3733962231
 20
9.1797152883
 30
0.0
 11
104.3733962231
 21
9.6173279887
 31
0.0
  0
ARC
  5
32A
330
1F
100
AcDbEntity
  8
SLD-0
  6
Continuous
370
    15
100
AcDbCircle
 10
104.4379962534
 20
9.1797152882
 30
0.0
 40
0.0310000000000059
100
AcDbArc
 50
180.0
 51
270.0
  0
ARC
  5
32B
330
1F
100
AcDbEntity
  8
SLD-0
  6
Continuous
370
    15
100
AcDbCircle
 10
104.4379962534
 20
9.1797152882
 30
0.0
 40
0.0645999999999987
100
AcDbArc
 50
180.0
 51
270.0
  0
LINE
  5
32C
330
1F
100
AcDbEntity
  8
SLD-0
  6
Continuous
370
    15
100
AcDbLine
 10
104.4379956902
 20
43.8515163025
 30
0.0
 11
104.4379956902
 21
43.8851154877
 31
0.0
  0
LINE
  5
32D
330
1F
100
AcDbEntity
  8
SLD-0
  6
Continuous
370
    15
100
AcDbLine
 10
105.1233963057
 20
43.8851154877
 30
0.0
 11
104.4379956902
 21
43.8851154877
 31
0.0
  0
LINE
  5
32E
330
1F
100
AcDbEntity
  8
SLD-0
  6
Continuous
370
    15
100
AcDbLine
 10
105.1233963057
 20
43.8515163025
 30
0.0
 11
105.1233963057
 21
43.8851154877
 31
0.0
  0
LINE
  5
32F
330
1F
100
AcDbEntity
  8
SLD-0
  6
Continuous
370
    15
100
AcDbLine
 10
105.1233963057
 20
43.8515163025
 30
0.0
 11
104.4379956902
 21
43.8515163025
 31
0.0
  0
LINE
  5
330
330
1F
100
AcDbEntity
  8
SLD-0
  6
Continuous
370
    15
100
AcDbLine
 10
104.4069965816
 20
43.8205148473
 30
0.0
 11
104.3733962231
 21
43.8205148473
 31
0.0
  0
LINE
  5
331
330
1F
100
AcDbEntity
  8
SLD-0
  6
Continuous
370
    15
100
AcDbLine
 10
104.4069965816
 20
43.8205148473
 30
0.0
 11
104.4069965816
 21
43.3829017693
 31
0.0
  0
LINE
  5
332
330
1F
100
AcDbEntity
  8
SLD-0
  6
Continuous
370
    15
100
AcDbLine
 10
104.3733962231
 20
43.3829017693
 30
0.0
 11
104.3733962231
 21
43.8205148473
 31
0.0
  0
ARC
  5
333
330
1F
100
AcDbEntity
  8
SLD-0
  6
Continuous
370
    15
100
AcDbCircle
 10
104.4379962534
 20
43.8205152882
 30
0.0
 40
0.0646000000000129
100
AcDbArc
 50
90.0
 51
180.0
  0
ARC
  5
334
330
1F
100
AcDbEntity
  8
SLD-0
  6
Continuous
370
    15
100
AcDbCircle
 10
104.4379962534
 20
43.8205152882
 30
0.0
 40
0.0310000000000059
100
AcDbArc
 50
90.0
 51
180.0
  0
LINE
  5
335
330
1F
100
AcDbEntity
  8
SLD-0
  6
Continuous
370
    15
100
AcDbLine
 10
106.9266961139
 20
43.7223877675
 30
0.0
 11
106.9266961139
 21
43.7394149841
 31
0.0
  0
LINE
  5
336
330
1F
100
AcDbEntity
  8
SLD-0
  6
Continuous
370
    15
100
AcDbLine
 10
106.9266961139
 20
43.7394149841
 30
0.0
 11
107.3067531634
 21
43.7394149841
 31
0.0
  0
LINE
  5
337
330
1F
100
AcDbEntity
  8
SLD-0
  6
Continuous
370
    15
100
AcDbLine
 10
106.7127529854
 20
43.1454148061
 30
0.0
 11
105.2386960938
 21
43.1454148061
 31
0.0
  0
LINE
  5
338
330
1F
100
AcDbEntity
  8
SLD-0
  6
Continuous
370
    15
100
AcDbLine
 10
105.2386960938
 20
43.1454148061
 30
0.0
 11
105.2386960938
 21
43.7394149841
 31
0.0
  0
LINE
  5
339
330
1F
100
AcDbEntity
  8
SLD-0
  6
Continuous
370
    15
100
AcDbLine
 10
105.2386960938
 20
43.7394149841
 30
0.0
 11
105.6136961351
 21
43.7394149841
 31
0.0
  0
LINE
  5
33A
330
1F
100
AcDbEntity
  8
SLD-0
  6
Continuous
370
    15
100
AcDbLine
 10
105.6136961351
 20
43.7394149841
 30
0.0
 11
105.6136961351
 21
43.7223877675
 31
0.0
  0
LINE
  5
33B
330
1F
100
AcDbEntity
  8
SLD-0
  6
Continuous
370
    15
100
AcDbLine
 10
105.6136961351
 20
43.7223877675
 30
0.0
 11
106.9266961139
 21
43.7223877675
 31
0.0
  0
LINE
  5
33C
330
1F
100
AcDbEntity
  8
SLD-0
  6
Continuous
370
    15
100
AcDbLine
 10
107.3067531634
 20
43.7394149841
 30
0.0
 11
106.7127529854
 21
43.1454148061
 31
0.0
  0
LINE
  5
33D
330
1F
100
AcDbEntity
  8
SLD-0
  6
Continuous
370
    15
100
AcDbLine
 10
106.9266961139
 20
43.7921158153
 30
0.0
 11
106.9266961139
 21
43.7394149841
 31
0.0
  0
LINE
  5
33E
330
1F
100
AcDbEntity
  8
SLD-0
  6
Continuous
370
    15
100
AcDbLine
 10
106.9266961139
 20
43.7921158153
 30
0.0
 11
107.3666957243
 21
43.7921158153
 31
0.0
  0
SPLINE
  5
33F
330
1F
100
AcDbEntity
  8
SLD-0
  6
Continuous
370
    15
100
AcDbSpline
210
0.0
220
0.0
230
1.0
 70
     8
 71
     3
 72
    11
 73
     7
 74
     0
 42
0.00000001
 43
0.00000001
 12
1.0
 22
0.0
 32
0.0
 13
1.0
 23
0.0
 33
0.0
 40
0.0
 40
0.0
 40
0.0
 40
0.0
 40
0.2499970745476586
 40
0.4999983955033193
 40
0.749991969733799
 40
0.9999999999999999
 40
0.9999999999999999
 40
0.9999999999999999
 40
0.9999999999999999
 10
107.3067531634098
 20
43.73941498413097
 30
0.0
 10
107.3117484157563
 20
43.74632042502899
 30
0.0
 10
107.321739005298
 20
43.76013142411966
 30
0.0
 10
107.3367240763083
 20
43.77755192216145
 30
0.0
 10
107.351710642728
 20
43.78973787231053
 30
0.0
 10
107.3617006008205
 20
43.79132315237663
 30
0.0
 10
107.3666957242815
 20
43.79211581532648
 30
0.0
  0
LINE
  5
340
330
1F
100
AcDbEntity
  8
SLD-0
  6
Continuous
370
    15
100
AcDbLine
 10
107.3666957243
 20
43.7921158153
 30
0.0
 11
107.3666957243
 21
43.7704164393
 31
0.0
  0
SPLINE
  5
341
330
1F
100
AcDbEntity
  8
SLD-0
  6
Continuous
370
    15
100
AcDbSpline
210
0.0
220
0.0
230
1.0
 70
     8
 71
     3
 72
    11
 73
     7
 74
     0
 42
0.00000001
 43
0.00000001
 12
1.0
 22
0.0
 32
0.0
 13
1.0
 23
0.0
 33
0.0
 40
0.0
 40
0.0
 40
0.0
 40
0.0
 40
0.2500095838276698
 40
0.4999997815105457
 40
0.7499979327011446
 40
1.0
 40
1.0
 40
1.0
 40
1.0
 10
107.3067531634098
 20
43.73941498413097
 30
0.0
 10
107.311748263098
 20
43.74347787799355
 30
0.0
 10
107.3217380751464
 20
43.75160335067537
 30
0.0
 10
107.336724805219
 20
43.76184725481742
 30
0.0
 10
107.3517101703811
 20
43.76901771453024
 30
0.0
 10
107.3617005135659
 20
43.76995019529751
 30
0.0
 10
107.3666957242815
 20
43.77041643933286
 30
0.0
  0
LINE
  5
342
330
1F
100
AcDbEntity
  8
SLD-0
  6
Continuous
370
    15
100
AcDbLine
 10
105.2386960938
 20
43.7921158153
 30
0.0
 11
105.6136961351
 21
43.7921158153
 31
0.0
  0
LINE
  5
343
330
1F
100
AcDbEntity
  8
SLD-0
  6
Continuous
370
    15
100
AcDbLine
 10
105.6136961351
 20
43.7394149841
 30
0.0
 11
105.6136961351
 21
43.7921158153
 31
0.0
  0
LINE
  5
344
330
1F
100
AcDbEntity
  8
SLD-0
  6
Continuous
370
    15
100
AcDbLine
 10
105.2386960938
 20
43.7921158153
 30
0.0
 11
105.2386960938
 21
43.7394149841
 31
0.0
  0
SPLINE
  5
345
330
1F
100
AcDbEntity
  8
SLD-0
  6
Continuous
370
    15
100
AcDbSpline
210
0.0
220
0.0
230
1.0
 70
     8
 71
     3
 72
    11
 73
     7
 74
     0
 42
0.00000001
 43
0.00000001
 12
1.0
 22
0.0
 32
0.0
 13
1.0
 23
0.0
 33
0.0
 40
0.0
 40
0.0
 40
0.0
 40
0.0
 40
0.2499956597548946
 40
0.5000051274274631
 40
0.7499934023951799
 40
1.0
 40
1.0
 40
1.0
 40
1.0
 10
122.5721878358058
 20
43.73941498413097
 30
0.0
 10
122.5730586393127
 20
43.74632049875267
 30
0.0
 10
122.5748002944233
 20
43.76013190940577
 30
0.0
 10
122.5753802330642
 20
43.77755137038334
 30
0.0
 10
122.5748759302846
 20
43.78973802134414
 30
0.0
 10
122.5740843276332
 20
43.79132319796909
 30
0.0
 10
122.5736885118032
 20
43.79211581532648
 30
0.0
  0
LINE
  5
346
330
1F
100
AcDbEntity
  8
SLD-0
  6
Continuous
370
    15
100
AcDbLine
 10
122.5721878358
 20
43.7394149841
 30
0.0
 11
107.4157592642
 21
43.7394149841
 31
0.0
  0
SPLINE
  5
347
330
1F
100
AcDbEntity
  8
SLD-0
  6
Continuous
370
    15
100
AcDbSpline
210
0.0
220
0.0
230
1.0
 70
     8
 71
     3
 72
    12
 73
     8
 74
     0
 42
0.00000001
 43
0.00000001
 12
1.0
 22
0.0
 32
0.0
 13
1.0
 23
0.0
 33
0.0
 40
0.0
 40
0.0
 40
0.0
 40
0.0
 40
0.2373975330684039
 40
0.4749143624456583
 40
0.7124356465792836
 40
0.9499587384365472
 40
1.0
 40
1.0
 40
1.0
 40
1.0
 10
107.3666957242815
 20
43.79211581532648
 30
0.0
 10
107.3710722963148
 20
43.79140250828403
 30
0.0
 10
107.3798276396835
 20
43.78997553575018
 30
0.0
 10
107.3924037457697
 20
43.77892986815586
 30
0.0
 10
107.4039230156358
 20
43.76298301342032
 30
0.0
 10
107.4114406910931
 20
43.74868641594955
 30
0.0
 10
107.4151191478993
 20
43.74078923303001
 30
0.0
 10
107.415759264162
 20
43.73941498413097
 30
0.0
  0
LINE
  5
348
330
1F
100
AcDbEntity
  8
SLD-0
  6
Continuous
370
    15
100
AcDbLine
 10
107.3666957243
 20
43.7921158153
 30
0.0
 11
122.5736885118
 21
43.7921158153
 31
0.0
  0
LINE
  5
349
330
1F
100
AcDbEntity
  8
SLD-0
  6
Continuous
370
    15
100
AcDbLine
 10
107.4157592642
 20
43.7394149841
 30
0.0
 11
107.4112642761
 21
43.7394149841
 31
0.0
  0
SPLINE
  5
34A
330
1F
100
AcDbEntity
  8
SLD-0
  6
Continuous
370
    15
100
AcDbSpline
210
0.0
220
0.0
230
1.0
 70
     8
 71
     3
 72
    11
 73
     7
 74
     0
 42
0.00000001
 43
0.00000001
 12
1.0
 22
0.0
 32
0.0
 13
1.0
 23
0.0
 33
0.0
 40
0.0
 40
0.0
 40
0.0
 40
0.0
 40
0.2752315846863647
 40
0.5507903017616853
 40
0.8263777682352804
 40
0.9999999999999999
 40
0.9999999999999999
 40
0.9999999999999999
 40
0.9999999999999999
 10
107.3666957242815
 20
43.77041643933286
 30
0.0
 10
107.3711240330333
 20
43.76984892100742
 30
0.0
 10
107.3799859138978
 20
43.7687132098205
 30
0.0
 10
107.3927494813222
 20
43.7600795744566
 30
0.0
 10
107.4031981410539
 20
43.74950570897429
 30
0.0
 10
107.4090157395268
 20
43.74222790055838
 30
0.0
 10
107.4112642760885
 20
43.73941498413097
 30
0.0
  0
LINE
  5
34B
330
1F
100
AcDbEntity
  8
SLD-0
  6
Continuous
370
    15
100
AcDbLine
 10
107.7937512709
 20
43.1454148061
 30
0.0
 11
107.4157592642
 21
43.7394149841
 31
0.0
  0
LINE
  5
34C
330
1F
100
AcDbEntity
  8
SLD-0
  6
Continuous
370
    15
100
AcDbLine
 10
122.5721878358
 20
43.7394149841
 30
0.0
 11
122.4491197175
 21
43.1454148061
 31
0.0
  0
LINE
  5
34D
330
1F
100
AcDbEntity
  8
SLD-0
  6
Continuous
370
    15
100
AcDbLine
 10
107.7937512709
 20
43.1454148061
 30
0.0
 11
122.4491197175
 21
43.1454148061
 31
0.0
  0
LINE
  5
34E
330
1F
100
AcDbEntity
  8
SLD-0
  6
Continuous
370
    15
100
AcDbLine
 10
107.7937512709
 20
43.1454148061
 30
0.0
 11
107.7892551095
 21
43.1454148061
 31
0.0
  0
LINE
  5
34F
330
1F
100
AcDbEntity
  8
SLD-0
  6
Continuous
370
    15
100
AcDbLine
 10
107.7892551095
 20
43.1454148061
 30
0.0
 11
107.4112642761
 21
43.7394149841
 31
0.0
  0
LINE
  5
350
330
1F
100
AcDbEntity
  8
SLD-0
  6
Continuous
370
    15
100
AcDbLine
 10
104.4596962395
 20
43.7704164393
 30
0.0
 11
104.4596962395
 21
43.7921158153
 31
0.0
  0
LINE
  5
351
330
1F
100
AcDbEntity
  8
SLD-0
  6
Continuous
370
    15
100
AcDbLine
 10
104.4596962395
 20
43.7704164393
 30
0.0
 11
105.2386960938
 21
43.7704164393
 31
0.0
  0
LINE
  5
352
330
1F
100
AcDbEntity
  8
SLD-0
  6
Continuous
370
    15
100
AcDbLine
 10
104.4596962395
 20
43.7921158153
 30
0.0
 11
105.2386960938
 21
43.7921158153
 31
0.0
  0
ARC
  5
353
330
1F
100
AcDbEntity
  8
SLD-0
  6
Continuous
370
    15
100
AcDbCircle
 10
104.4596962534
 20
43.7394152882
 30
0.0
 40
0.0526999999999944
100
AcDbArc
 50
90.0
 51
180.0
  0
ARC
  5
354
330
1F
100
AcDbEntity
  8
SLD-0
  6
Continuous
370
    15
100
AcDbCircle
 10
104.4596962534
 20
43.7394152882
 30
0.0
 40
0.0309999999999917
100
AcDbArc
 50
90.0
 51
180.0
  0
LINE
  5
355
330
1F
100
AcDbEntity
  8
SLD-0
  6
Continuous
370
    15
100
AcDbLine
 10
104.4286959576
 20
43.7394149841
 30
0.0
 11
104.4069965816
 21
43.7394149841
 31
0.0
  0
LINE
  5
356
330
1F
100
AcDbEntity
  8
SLD-0
  6
Continuous
370
    15
100
AcDbLine
 10
104.4286959576
 20
43.7394149841
 30
0.0
 11
104.4286959576
 21
43.3296353979
 31
0.0
  0
LINE
  5
357
330
1F
100
AcDbEntity
  8
SLD-0
  6
Continuous
370
    15
100
AcDbLine
 10
106.9266961139
 20
43.7704164393
 30
0.0
 11
105.6136961351
 21
43.7704164393
 31
0.0
  0
LINE
  5
358
330
1F
100
AcDbEntity
  8
SLD-0
  6
Continuous
370
    15
100
AcDbLine
 10
106.9266961139
 20
43.7921158153
 30
0.0
 11
105.6136961351
 21
43.7921158153
 31
0.0
  0
LINE
  5
359
330
1F
100
AcDbEntity
  8
SLD-0
  6
Continuous
370
    15
100
AcDbLine
 10
123.5626962534
 20
43.7921158153
 30
0.0
 11
123.5626962534
 21
43.7704164393
 31
0.0
  0
LINE
  5
35A
330
1F
100
AcDbEntity
  8
SLD-0
  6
Continuous
370
    15
100
AcDbLine
 10
122.5736885118
 20
43.7704164393
 30
0.0
 11
123.5626962534
 21
43.7704164393
 31
0.0
  0
LINE
  5
35B
330
1F
100
AcDbEntity
  8
SLD-0
  6
Continuous
370
    15
100
AcDbLine
 10
122.5736885118
 20
43.7921158153
 30
0.0
 11
123.5626962534
 21
43.7921158153
 31
0.0
  0
LINE
  5
35C
330
1F
100
AcDbEntity
  8
SLD-0
  6
Continuous
370
    15
100
AcDbLine
 10
123.615396255
 20
43.7394149841
 30
0.0
 11
123.5936962534
 21
43.7394149841
 31
0.0
  0
SPLINE
  5
35D
330
1F
100
AcDbEntity
  8
SLD-0
  6
Continuous
370
    15
100
AcDbSpline
210
0.0
220
0.0
230
1.0
 70
     8
 71
     3
 72
    11
 73
     7
 74
     0
 42
0.00000001
 43
0.00000001
 12
1.0
 22
0.0
 32
0.0
 13
1.0
 23
0.0
 33
0.0
 40
0.0
 40
0.0
 40
0.0
 40
0.0
 40
0.2500027924455341
 40
0.4999996211892029
 40
0.7500046180119156
 40
1.0
 40
1.0
 40
1.0
 40
1.0
 10
123.5626962533685
 20
43.79211581532648
 30
0.0
 10
123.5696018595762
 20
43.79132311653701
 30
0.0
 10
123.5834129072616
 20
43.78973773786754
 30
0.0
 10
123.600833267038
 20
43.77755187590598
 30
0.0
 10
123.6130195494377
 20
43.76013167209603
 30
0.0
 10
123.6146040299621
 20
43.7463204582577
 30
0.0
 10
123.6153962549898
 20
43.73941498413097
 30
0.0
  0
SPLINE
  5
35E
330
1F
100
AcDbEntity
  8
SLD-0
  6
Continuous
370
    15
100
AcDbSpline
210
0.0
220
0.0
230
1.0
 70
     8
 71
     3
 72
    11
 73
     7
 74
     0
 42
0.00000001
 43
0.00000001
 12
1.0
 22
0.0
 32
0.0
 13
1.0
 23
0.0
 33
0.0
 40
0.0
 40
0.0
 40
0.0
 40
0.0
 40
0.2500009634884197
 40
0.5000070297836753
 40
0.7499757645292968
 40
1.0
 40
1.0
 40
1.0
 40
1.0
 10
123.5626962533685
 20
43.77041643933286
 30
0.0
 10
123.5667584452755
 20
43.76995013061427
 30
0.0
 10
123.5748829120035
 20
43.7690175036592
 30
0.0
 10
123.5851287619929
 20
43.76184801848517
 30
0.0
 10
123.5922989907828
 20
43.75160231491238
 30
0.0
 10
123.5932304647144
 20
43.74347772834264
 30
0.0
 10
123.5936962533784
 20
43.73941498413097
 30
0.0
  0
LINE
  5
35F
330
1F
100
AcDbEntity
  8
SLD-0
  6
Continuous
370
    15
100
AcDbLine
 10
123.615396255
 20
43.1454148061
 30
0.0
 11
123.5936962534
 21
43.1454148061
 31
0.0
  0
LINE
  5
360
330
1F
100
AcDbEntity
  8
SLD-0
  6
Continuous
370
    15
100
AcDbLine
 10
123.615396255
 20
43.1454148061
 30
0.0
 11
123.615396255
 21
43.7394149841
 31
0.0
  0
LINE
  5
361
330
1F
100
AcDbEntity
  8
SLD-0
  6
Continuous
370
    15
100
AcDbLine
 10
123.5936962534
 20
43.5883477159
 30
0.0
 11
123.5936962534
 21
43.7394149841
 31
0.0
  0
LINE
  5
362
330
1F
100
AcDbEntity
  8
SLD-0
  6
Continuous
370
    15
100
AcDbLine
 10
104.4736962911
 20
43.7394149841
 30
0.0
 11
104.4736962911
 21
43.2809778267
 31
0.0
  0
LINE
  5
363
330
1F
100
AcDbEntity
  8
SLD-0
  6
Continuous
370
    15
100
AcDbLine
 10
104.4736962911
 20
9.7192523713
 30
0.0
 11
104.4736962911
 21
9.2014152882
 31
0.0
  0
LINE
  5
364
330
1F
100
AcDbEntity
  8
SLD-0
  6
Continuous
370
    15
100
AcDbLine
 10
104.4736962911
 20
43.7394149841
 30
0.0
 11
105.2386960938
 21
43.7394149841
 31
0.0
  0
LINE
  5
365
330
1F
100
AcDbEntity
  8
SLD-0
  6
Continuous
370
    15
100
AcDbLine
 10
105.6136961351
 20
43.7394149841
 30
0.0
 11
106.9266961139
 21
43.7394149841
 31
0.0
  0
LINE
  5
366
330
1F
100
AcDbEntity
  8
SLD-0
  6
Continuous
370
    15
100
AcDbLine
 10
107.3067531634
 20
43.7394149841
 30
0.0
 11
107.4081643652
 21
43.7394149841
 31
0.0
  0
LINE
  5
367
330
1F
100
AcDbEntity
  8
SLD-0
  6
Continuous
370
    15
100
AcDbLine
 10
107.4081643652
 20
43.7394149841
 30
0.0
 11
107.4081643652
 21
9.2014152882
 31
0.0
  0
LINE
  5
368
330
1F
100
AcDbEntity
  8
SLD-0
  6
Continuous
370
    15
100
AcDbLine
 10
104.4736962911
 20
9.2014152882
 30
0.0
 11
105.2386960938
 21
9.2014152882
 31
0.0
  0
LINE
  5
369
330
1F
100
AcDbEntity
  8
SLD-0
  6
Continuous
370
    15
100
AcDbLine
 10
105.6136961351
 20
9.2014152882
 30
0.0
 11
106.9266961139
 21
9.2014152882
 31
0.0
  0
LINE
  5
36A
330
1F
100
AcDbEntity
  8
SLD-0
  6
Continuous
370
    15
100
AcDbLine
 10
107.3067531634
 20
9.2014152882
 30
0.0
 11
107.4081643652
 21
9.2014152882
 31
0.0
  0
LINE
  5
36B
330
1F
100
AcDbEntity
  8
SLD-0
  6
Continuous
370
    15
100
AcDbLine
 10
107.4081643652
 20
43.7394149841
 30
0.0
 11
107.4112642761
 21
43.7394149841
 31
0.0
  0
LINE
  5
36C
330
1F
100
AcDbEntity
  8
SLD-0
  6
Continuous
370
    15
100
AcDbLine
 10
123.5519385002
 20
43.7394149841
 30
0.0
 11
123.5519385002
 21
9.2014152882
 31
0.0
  0
LWPOLYLINE
  5
36D
330
1F
100
AcDbEntity
  8
SLD-0
  6
Continuous
370
    15
100
AcDbPolyline
 90
      110
 70
   128
 43
0.0
 10
117.5604216988
 20
17.4604152547
 10
117.5618431757
 20
17.5108257657
 10
117.5661034999
 20
17.5610690786
 10
117.5731880047
 20
17.6109774087
 10
117.5830738105
 20
17.6603859046
 10
117.5957274776
 20
17.7091303015
 10
117.6111073533
 20
17.7570480947
 10
117.6291618114
 20
17.8039808858
 10
117.6498315993
 20
17.8497720368
 10
117.6730474911
 20
17.8942701894
 10
117.6987326344
 20
17.9373269187
 10
117.7268013768
 20
17.9787990796
 10
117.7571610261
 20
18.0185499804
 10
117.7897100901
 20
18.0564464493
 10
117.82434121
 20
18.0923623544
 10
117.8609388139
 20
18.1261797771
 10
117.8993814631
 20
18.157785492
 10
117.9395412659
 20
18.1870744869
 10
117.981285637
 20
18.2139493765
 10
118.0244743647
 20
18.2383215749
 10
118.0689654774
 20
18.2601089499
 10
118.1146105501
 20
18.2792405156
 10
118.1612576379
 20
18.2956517393
 10
118.2087524493
 20
18.3092880618
 10
118.256936586
 20
18.3201048968
 10
118.3056504765
 20
18.3280658715
 10
118.3547316162
 20
18.3331445862
 10
118.4040180869
 20
18.3353246144
 10
118.4533456237
 20
18.3345977427
 10
118.5025499619
 20
18.3309669047
 10
118.5514680102
 20
18.32444442
 10
118.5999372636
 20
18.3150514085
 10
118.6477963907
 20
18.3028195499
 10
118.6948867001
 20
18.2877899101
 10
118.7410521401
 20
18.2700111822
 10
118.7861387126
 20
18.2495432053
 10
118.8299968192
 20
18.2264534454
 10
118.8724809685
 20
18.2008193415
 10
118.9134500685
 20
18.1727259594
 10
118.952767721
 20
18.1422659912
 10
118.990303394
 20
18.1095409293
 10
119.0259324225
 20
18.0746593056
 10
119.0595365943
 20
18.0377378654
 10
119.0910041507
 20
17.9988980474
 10
119.1202306664
 20
17.9582700901
 10
119.1471187558
 20
17.9159877519
 10
119.1715795399
 20
17.8721924178
 10
119.1935311797
 20
17.8270289929
 10
119.2129015159
 20
17.780647662
 10
119.2296257227
 20
17.7332027168
 10
119.2436480674
 20
17.684851382
 10
119.2549224971
 20
17.6357544025
 10
119.2634111724
 20
17.5860754564
 10
119.2690859335
 20
17.5359788085
 10
119.2719280074
 20
17.4856310701
 10
119.2719280074
 20
17.4351994393
 10
119.2690859335
 20
17.384851701
 10
119.2634111724
 20
17.334755053
 10
119.2549224971
 20
17.2850761069
 10
119.2436480674
 20
17.2359791274
 10
119.2296257227
 20
17.1876277926
 10
119.2129015159
 20
17.1401828474
 10
119.1935311797
 20
17.0938015165
 10
119.1715795399
 20
17.0486380916
 10
119.1471187558
 20
17.0048427575
 10
119.1202306664
 20
16.9625604193
 10
119.0910041507
 20
16.921932462
 10
119.0595365943
 20
16.883092644
 10
119.0259324225
 20
16.8461712038
 10
118.990303394
 20
16.8112895801
 10
118.952767721
 20
16.7785645182
 10
118.9134500685
 20
16.7481051367
 10
118.8724809685
 20
16.7200111679
 10
118.8299968192
 20
16.6943770641
 10
118.7861387126
 20
16.6712878908
 10
118.7410521401
 20
16.6508193272
 10
118.6948867001
 20
16.6330411859
 10
118.6477963907
 20
16.6180109596
 10
118.5999372636
 20
16.6057791009
 10
118.5514680102
 20
16.5963860894
 10
118.5025499619
 20
16.5898636047
 10
118.4533456237
 20
16.5862327667
 10
118.4040180869
 20
16.5855058951
 10
118.3547316162
 20
16.5876859232
 10
118.3056504765
 20
16.5927646379
 10
118.256936586
 20
16.6007256126
 10
118.2087524493
 20
16.6115424476
 10
118.1612576379
 20
16.6251787701
 10
118.1146105501
 20
16.6415899939
 10
118.0689654774
 20
16.6607215595
 10
118.0244743647
 20
16.6825095211
 10
117.981285637
 20
16.7068811329
 10
117.9395412659
 20
16.7337560225
 10
117.8993814631
 20
16.7630450175
 10
117.8609388139
 20
16.7946507323
 10
117.82434121
 20
16.828468155
 10
117.7897100901
 20
16.8643846468
 10
117.7571610261
 20
16.902280529
 10
117.7268013768
 20
16.9420314298
 10
117.6987326344
 20
16.9835035907
 10
117.6730474911
 20
17.02656032
 10
117.6498315993
 20
17.0710584726
 10
117.6291618114
 20
17.1168496236
 10
117.6111073533
 20
17.1637824148
 10
117.5957274776
 20
17.2117002079
 10
117.5830738105
 20
17.2604446048
 10
117.5731880047
 20
17.3098531007
 10
117.5661034999
 20
17.3597620175
 10
117.5618431757
 20
17.4100047437
 10
117.5604216988
 20
17.4604152547
  0
LWPOLYLINE
  5
36E
330
1F
100
AcDbEntity
  8
SLD-0
  6
Continuous
370
    15
100
AcDbPolyline
 90
      110
 70
   128
 43
0.0
 10
114.6258010931
 20
11.8264152725
 10
114.6272225701
 20
11.8768257835
 10
114.6314828942
 20
11.9270688031
 10
114.638567399
 20
11.9769774265
 10
114.6484532048
 20
12.0263859224
 10
114.661106872
 20
12.0751303193
 10
114.6764867476
 20
12.1230481124
 10
114.6945412057
 20
12.1699809036
 10
114.7152109936
 20
12.2157723479
 10
114.7384268854
 20
12.2602702072
 10
114.7641120287
 20
12.3033269365
 10
114.7921807711
 20
12.3447993907
 10
114.8225404204
 20
12.3845497049
 10
114.855090071
 20
12.4224461738
 10
114.8897206043
 20
12.4583626655
 10
114.9263182082
 20
12.4921797949
 10
114.9647608575
 20
12.5237852164
 10
115.0049212468
 20
12.5530742114
 10
115.0466650313
 20
12.5799493943
 10
115.089853759
 20
12.6043212994
 10
115.1343448717
 20
12.6261089677
 10
115.1799899444
 20
12.6452405334
 10
115.2266370322
 20
12.6616517571
 10
115.2741318436
 20
12.6752883729
 10
115.3223159803
 20
12.6861052079
 10
115.3710298709
 20
12.6940661826
 10
115.4201115972
 20
12.6991448973
 10
115.4693974812
 20
12.7013243388
 10
115.518725018
 20
12.7005977605
 10
115.5679293563
 20
12.6969669225
 10
115.6168474045
 20
12.6904444378
 10
115.6653166579
 20
12.6810517197
 10
115.713175785
 20
12.668819861
 10
115.7602663877
 20
12.6537896346
 10
115.8064318277
 20
12.6360109066
 10
115.8515184002
 20
12.6155429298
 10
115.8953765069
 20
12.5924534632
 10
115.9378606561
 20
12.5668193593
 10
115.9788294628
 20
12.5387256838
 10
116.018146822
 20
12.5082657157
 10
116.055682495
 20
12.4755409471
 10
116.0913121101
 20
12.4406596167
 10
116.1249159886
 20
12.4037378832
 10
116.1563838384
 20
12.3648983586
 10
116.1856100608
 20
12.3242698146
 10
116.2124984435
 20
12.2819877697
 10
116.2369586409
 20
12.2381921423
 10
116.2589108673
 20
12.1930287173
 10
116.2782812036
 20
12.1466476798
 10
116.295005117
 20
12.0992024412
 10
116.3090274617
 20
12.0508513998
 10
116.3203018915
 20
12.0017544203
 10
116.3287902734
 20
11.9520751809
 10
116.3344656212
 20
11.9019785329
 10
116.3373074017
 20
11.8516310879
 10
116.3373074017
 20
11.8011994571
 10
116.3344656212
 20
11.7508520121
 10
116.3287902734
 20
11.7007553641
 10
116.3203018915
 20
11.6510761247
 10
116.3090274617
 20
11.6019792919
 10
116.295005117
 20
11.5536281038
 10
116.2782812036
 20
11.5061830118
 10
116.2589108673
 20
11.4598018276
 10
116.2369586409
 20
11.4146384027
 10
116.2124984435
 20
11.3708427753
 10
116.1856100608
 20
11.3285607304
 10
116.1563838384
 20
11.2879323331
 10
116.1249159886
 20
11.2490928084
 10
116.0913121101
 20
11.212171075
 10
116.055682495
 20
11.1772897446
 10
116.018146822
 20
11.1445648293
 10
115.9788294628
 20
11.1141048612
 10
115.9378606561
 20
11.0860111857
 10
115.8953765069
 20
11.0603770818
 10
115.8515184002
 20
11.0372876152
 10
115.8064318277
 20
11.0168196383
 10
115.7602663877
 20
10.9990409104
 10
115.713175785
 20
10.984010684
 10
115.6653166579
 20
10.971778972
 10
115.6168474045
 20
10.9623861072
 10
115.5679293563
 20
10.9558636225
 10
115.518725018
 20
10.9522329311
 10
115.4693974812
 20
10.9515062062
 10
115.4201115972
 20
10.9536857943
 10
115.3710298709
 20
10.958764509
 10
115.3223159803
 20
10.9667254837
 10
115.2741318436
 20
10.9775423187
 10
115.2266370322
 20
10.9911789345
 10
115.1799899444
 20
11.0075901583
 10
115.1343448717
 20
11.0267214306
 10
115.089853759
 20
11.0485092456
 10
115.0466650313
 20
11.0728811507
 10
115.0049212468
 20
11.0997561869
 10
114.9647608575
 20
11.1290451819
 10
114.9263182082
 20
11.1606507501
 10
114.8897206043
 20
11.1944678795
 10
114.855090071
 20
11.2303843712
 10
114.8225404204
 20
11.2682806934
 10
114.7921807711
 20
11.3080311542
 10
114.7641120287
 20
11.3495036085
 10
114.7384268854
 20
11.3925603378
 10
114.7152109936
 20
11.4370583437
 10
114.6945412057
 20
11.4828496414
 10
114.6764867476
 20
11.5297822859
 10
114.661106872
 20
11.5777003723
 10
114.6484532048
 20
11.6264446226
 10
114.638567399
 20
11.6758531185
 10
114.6314828942
 20
11.7257617419
 10
114.6272225701
 20
11.7760047615
 10
114.6258010931
 20
11.8264152725
  0
LINE
  5
36F
330
1F
100
AcDbEntity
  8
SLD-0
  6
Continuous
370
    15
100
AcDbLine
 10
122.5721878358
 20
9.2014152882
 30
0.0
 11
123.5519385002
 21
9.2014152882
 31
0.0
  0
LINE
  5
370
330
1F
100
AcDbEntity
  8
SLD-0
  6
Continuous
370
    15
100
AcDbLine
 10
122.5721878358
 20
43.7394149841
 30
0.0
 11
123.5519385002
 21
43.7394149841
 31
0.0
  0
ARC
  5
371
330
1F
100
AcDbEntity
  8
SLD-0
  6
Continuous
370
    15
100
AcDbCircle
 10
115.4618639234
 20
11.8264153458
 30
0.0
 40
0.875174288364931
100
AcDbArc
 50
271.1533142335
 51
88.8466857665
  0
ARC
  5
372
330
1F
100
AcDbEntity
  8
SLD-0
  6
Continuous
370
    15
100
AcDbCircle
 10
118.3964848754
 20
17.4604152547
 30
0.0
 40
0.8751740614417013
100
AcDbArc
 50
271.1532918559
 51
88.8467081441
  0
LINE
  5
373
330
1F
100
AcDbEntity
  8
SLD-0
  6
Continuous
370
    15
100
AcDbLine
 10
123.5519385002
 20
43.7394149841
 30
0.0
 11
123.5936962534
 21
43.7394149841
 31
0.0
  0
LINE
  5
374
330
1F
100
AcDbEntity
  8
SLD-0
  6
Continuous
370
    15
100
AcDbLine
 10
123.5936962534
 20
43.5883477159
 30
0.0
 11
123.5936962534
 21
9.3524831499
 31
0.0
  0
LINE
  5
375
330
1F
100
AcDbEntity
  8
SLD-0
  6
Continuous
370
    15
100
AcDbLine
 10
123.5519385002
 20
9.2014152882
 30
0.0
 11
123.5936962534
 21
9.2014152882
 31
0.0
  0
LINE
  5
376
330
1F
100
AcDbEntity
  8
SLD-0
  6
Continuous
370
    15
100
AcDbLine
 10
107.3666957243
 20
9.1487152888
 30
0.0
 11
106.9266961139
 21
9.1487152888
 31
0.0
  0
LINE
  5
377
330
1F
100
AcDbEntity
  8
SLD-0
  6
Continuous
370
    15
100
AcDbLine
 10
106.9266961139
 20
9.2014152882
 30
0.0
 11
106.9266961139
 21
9.1487152888
 31
0.0
  0
LINE
  5
378
330
1F
100
AcDbEntity
  8
SLD-0
  6
Continuous
370
    15
100
AcDbLine
 10
107.3067531634
 20
9.2014152882
 30
0.0
 11
106.9266961139
 21
9.2014152882
 31
0.0
  0
SPLINE
  5
379
330
1F
100
AcDbEntity
  8
SLD-0
  6
Continuous
370
    15
100
AcDbSpline
210
0.0
220
0.0
230
1.0
 70
     8
 71
     3
 72
    11
 73
     7
 74
     0
 42
0.00000001
 43
0.00000001
 12
1.0
 22
0.0
 32
0.0
 13
1.0
 23
0.0
 33
0.0
 40
0.0
 40
0.0
 40
0.0
 40
0.0
 40
0.2500061597494019
 40
0.5000018591130414
 40
0.7499998408367542
 40
1.0
 40
1.0
 40
1.0
 40
1.0
 10
107.3666957242815
 20
9.148715288845596
 30
0.0
 10
107.3617005693424
 20
9.149507401433487
 30
0.0
 10
107.3517104684639
 20
9.151091593466873
 30
0.0
 10
107.3367243236896
 20
9.163278685979755
 30
0.0
 10
107.3217387461283
 20
9.180698423634224
 30
0.0
 10
107.3117483721516
 20
9.194509646613069
 30
0.0
 10
107.3067531634098
 20
9.201415288175706
 30
0.0
  0
LINE
  5
37A
330
1F
100
AcDbEntity
  8
SLD-0
  6
Continuous
370
    15
100
AcDbLine
 10
105.6136961351
 20
9.2184437079
 30
0.0
 11
105.6136961351
 21
9.2014152882
 31
0.0
  0
LINE
  5
37B
330
1F
100
AcDbEntity
  8
SLD-0
  6
Continuous
370
    15
100
AcDbLine
 10
105.6136961351
 20
9.2014152882
 30
0.0
 11
105.2386960938
 21
9.2014152882
 31
0.0
  0
LINE
  5
37C
330
1F
100
AcDbEntity
  8
SLD-0
  6
Continuous
370
    15
100
AcDbLine
 10
105.2386960938
 20
9.7954153081
 30
0.0
 11
105.2386960938
 21
9.2014152882
 31
0.0
  0
LINE
  5
37D
330
1F
100
AcDbEntity
  8
SLD-0
  6
Continuous
370
    15
100
AcDbLine
 10
106.7127529854
 20
9.7954153081
 30
0.0
 11
105.2386960938
 21
9.7954153081
 31
0.0
  0
LINE
  5
37E
330
1F
100
AcDbEntity
  8
SLD-0
  6
Continuous
370
    15
100
AcDbLine
 10
106.7127529854
 20
9.7954153081
 30
0.0
 11
107.3067531634
 21
9.2014152882
 31
0.0
  0
LINE
  5
37F
330
1F
100
AcDbEntity
  8
SLD-0
  6
Continuous
370
    15
100
AcDbLine
 10
106.9266961139
 20
9.2014152882
 30
0.0
 11
106.9266961139
 21
9.2184437079
 31
0.0
  0
LINE
  5
380
330
1F
100
AcDbEntity
  8
SLD-0
  6
Continuous
370
    15
100
AcDbLine
 10
106.9266961139
 20
9.2184437079
 30
0.0
 11
105.6136961351
 21
9.2184437079
 31
0.0
  0
SPLINE
  5
381
330
1F
100
AcDbEntity
  8
SLD-0
  6
Continuous
370
    15
100
AcDbSpline
210
0.0
220
0.0
230
1.0
 70
     8
 71
     3
 72
    11
 73
     7
 74
     0
 42
0.00000001
 43
0.00000001
 12
1.0
 22
0.0
 32
0.0
 13
1.0
 23
0.0
 33
0.0
 40
0.0
 40
0.0
 40
0.0
 40
0.0
 40
0.2500016615236506
 40
0.499997257209862
 40
0.7500006358052043
 40
1.0
 40
1.0
 40
1.0
 40
1.0
 10
107.3666957242815
 20
9.170415288165296
 30
0.0
 10
107.3617005558811
 20
9.170881241463047
 30
0.0
 10
107.351710340279
 20
9.171813136753034
 30
0.0
 10
107.3367241118827
 20
9.178982133082691
 30
0.0
 10
107.3217389881103
 20
9.189228718721155
 30
0.0
 10
107.3117484115726
 20
9.19735312010047
 30
0.0
 10
107.3067531634098
 20
9.201415288175706
 30
0.0
  0
LINE
  5
382
330
1F
100
AcDbEntity
  8
SLD-0
  6
Continuous
370
    15
100
AcDbLine
 10
107.3666957243
 20
9.1487152888
 30
0.0
 11
107.3666957243
 21
9.1704152882
 31
0.0
  0
LINE
  5
383
330
1F
100
AcDbEntity
  8
SLD-0
  6
Continuous
370
    15
100
AcDbLine
 10
105.6136961351
 20
9.1487152888
 30
0.0
 11
105.6136961351
 21
9.2014152882
 31
0.0
  0
LINE
  5
384
330
1F
100
AcDbEntity
  8
SLD-0
  6
Continuous
370
    15
100
AcDbLine
 10
105.6136961351
 20
9.1487152888
 30
0.0
 11
105.2386960938
 21
9.1487152888
 31
0.0
  0
LINE
  5
385
330
1F
100
AcDbEntity
  8
SLD-0
  6
Continuous
370
    15
100
AcDbLine
 10
105.2386960938
 20
9.2014152882
 30
0.0
 11
105.2386960938
 21
9.1487152888
 31
0.0
  0
SPLINE
  5
386
330
1F
100
AcDbEntity
  8
SLD-0
  6
Continuous
370
    15
100
AcDbSpline
210
0.0
220
0.0
230
1.0
 70
     8
 71
     3
 72
    11
 73
     7
 74
     0
 42
0.00000001
 43
0.00000001
 12
1.0
 22
0.0
 32
0.0
 13
1.0
 23
0.0
 33
0.0
 40
0.0
 40
0.0
 40
0.0
 40
0.0
 40
0.2500038001568908
 40
0.4999952532948197
 40
0.7499997272077459
 40
1.0
 40
1.0
 40
1.0
 40
1.0
 10
122.5736885118032
 20
9.148715288845596
 30
0.0
 10
122.5740843273994
 20
9.149507371215078
 30
0.0
 10
122.5748759390436
 20
9.151091496835214
 30
0.0
 10
122.5753802397076
 20
9.163279118760547
 30
0.0
 10
122.5748002585615
 20
9.180698093991909
 30
0.0
 10
122.5730586385132
 20
9.194509595463263
 30
0.0
 10
122.5721878358058
 20
9.201415288175706
 30
0.0
  0
LINE
  5
387
330
1F
100
AcDbEntity
  8
SLD-0
  6
Continuous
370
    15
100
AcDbLine
 10
122.5736885118
 20
9.1487152888
 30
0.0
 11
107.3666957243
 21
9.1487152888
 31
0.0
  0
SPLINE
  5
388
330
1F
100
AcDbEntity
  8
SLD-0
  6
Continuous
370
    15
100
AcDbSpline
210
0.0
220
0.0
230
1.0
 70
     8
 71
     3
 72
    12
 73
     8
 74
     0
 42
0.00000001
 43
0.00000001
 12
1.0
 22
0.0
 32
0.0
 13
1.0
 23
0.0
 33
0.0
 40
0.0
 40
0.0
 40
0.0
 40
0.0
 40
0.2373905039931261
 40
0.4749126113025197
 40
0.7124349117514504
 40
0.9499495337352257
 40
1.0
 40
1.0
 40
1.0
 40
1.0
 10
107.415759264162
 20
9.201415288175706
 30
0.0
 10
107.4125925095759
 20
9.19486469966257
 30
0.0
 10
107.4062572448348
 20
9.181759891155016
 30
0.0
 10
107.3949071756688
 20
9.164792808800152
 30
0.0
 10
107.3825475084824
 20
9.152913037158974
 30
0.0
 10
107.3728892925765
 20
9.148943165719361
 30
0.0
 10
107.3676139017081
 20
9.14874907089038
 30
0.0
 10
107.3666957242815
 20
9.148715288845596
 30
0.0
  0
LINE
  5
389
330
1F
100
AcDbEntity
  8
SLD-0
  6
Continuous
370
    15
100
AcDbLine
 10
107.4157592642
 20
9.2014152882
 30
0.0
 11
122.5721878358
 21
9.2014152882
 31
0.0
  0
LINE
  5
38A
330
1F
100
AcDbEntity
  8
SLD-0
  6
Continuous
370
    15
100
AcDbLine
 10
107.4157592642
 20
9.2014152882
 30
0.0
 11
107.4112642761
 21
9.2014152882
 31
0.0
  0
SPLINE
  5
38B
330
1F
100
AcDbEntity
  8
SLD-0
  6
Continuous
370
    15
100
AcDbSpline
210
0.0
220
0.0
230
1.0
 70
     8
 71
     3
 72
    11
 73
     7
 74
     0
 42
0.00000001
 43
0.00000001
 12
1.0
 22
0.0
 32
0.0
 13
1.0
 23
0.0
 33
0.0
 40
0.0
 40
0.0
 40
0.0
 40
0.0
 40
0.27523577207769
 40
0.5507976878946422
 40
0.826362283739121
 40
1.0
 40
1.0
 40
1.0
 40
1.0
 10
107.4112642760885
 20
9.201415288175706
 30
0.0
 10
107.4076450213366
 20
9.19694212862076
 30
0.0
 10
107.400402223156
 20
9.18799050898989
 30
0.0
 10
107.3881039388161
 20
9.177112811608792
 30
0.0
 10
107.3766826922389
 20
9.171233183415088
 30
0.0
 10
107.3694799292611
 20
9.170643304119316
 30
0.0
 10
107.3666957242815
 20
9.170415288165195
 30
0.0
  0
LINE
  5
38C
330
1F
100
AcDbEntity
  8
SLD-0
  6
Continuous
370
    15
100
AcDbLine
 10
107.4157592642
 20
9.2014152882
 30
0.0
 11
107.7937512709
 21
9.7954153081
 31
0.0
  0
LINE
  5
38D
330
1F
100
AcDbEntity
  8
SLD-0
  6
Continuous
370
    15
100
AcDbLine
 10
107.7937512709
 20
9.7954153081
 30
0.0
 11
122.4491197175
 21
9.7954153081
 31
0.0
  0
LINE
  5
38E
330
1F
100
AcDbEntity
  8
SLD-0
  6
Continuous
370
    15
100
AcDbLine
 10
122.4491197175
 20
9.7954153081
 30
0.0
 11
122.5721878358
 21
9.2014152882
 31
0.0
  0
LINE
  5
38F
330
1F
100
AcDbEntity
  8
SLD-0
  6
Continuous
370
    15
100
AcDbLine
 10
107.4112642761
 20
9.2014152882
 30
0.0
 11
107.7892551095
 21
9.7954153081
 31
0.0
  0
LINE
  5
390
330
1F
100
AcDbEntity
  8
SLD-0
  6
Continuous
370
    15
100
AcDbLine
 10
107.7937512709
 20
9.7954153081
 30
0.0
 11
107.7892551095
 21
9.7954153081
 31
0.0
  0
LINE
  5
391
330
1F
100
AcDbEntity
  8
SLD-0
  6
Continuous
370
    15
100
AcDbLine
 10
104.4596962395
 20
9.1704152882
 30
0.0
 11
104.4596962395
 21
9.1487152888
 31
0.0
  0
LINE
  5
392
330
1F
100
AcDbEntity
  8
SLD-0
  6
Continuous
370
    15
100
AcDbLine
 10
105.2386960938
 20
9.1704152882
 30
0.0
 11
104.4596962395
 21
9.1704152882
 31
0.0
  0
LINE
  5
393
330
1F
100
AcDbEntity
  8
SLD-0
  6
Continuous
370
    15
100
AcDbLine
 10
105.2386960938
 20
9.1487152888
 30
0.0
 11
105.1233963057
 21
9.1487152888
 31
0.0
  0
ARC
  5
394
330
1F
100
AcDbEntity
  8
SLD-0
  6
Continuous
370
    15
100
AcDbCircle
 10
104.4596962534
 20
9.2014152882
 30
0.0
 40
0.0527000000000157
100
AcDbArc
 50
180.0
 51
270.0
  0
LINE
  5
395
330
1F
100
AcDbEntity
  8
SLD-0
  6
Continuous
370
    15
100
AcDbLine
 10
104.4286959576
 20
9.2014152882
 30
0.0
 11
104.4069965816
 21
9.2014152882
 31
0.0
  0
ARC
  5
396
330
1F
100
AcDbEntity
  8
SLD-0
  6
Continuous
370
    15
100
AcDbCircle
 10
104.4596962534
 20
9.2014152882
 30
0.0
 40
0.0310000000000059
100
AcDbArc
 50
180.0
 51
270.0
  0
LINE
  5
397
330
1F
100
AcDbEntity
  8
SLD-0
  6
Continuous
370
    15
100
AcDbLine
 10
104.4286959576
 20
9.6704152821
 30
0.0
 11
104.4286959576
 21
9.2014152882
 31
0.0
  0
LINE
  5
398
330
1F
100
AcDbEntity
  8
SLD-0
  6
Continuous
370
    15
100
AcDbLine
 10
105.6136961351
 20
9.1704152882
 30
0.0
 11
106.9266961139
 21
9.1704152882
 31
0.0
  0
LINE
  5
399
330
1F
100
AcDbEntity
  8
SLD-0
  6
Continuous
370
    15
100
AcDbLine
 10
105.6136961351
 20
9.1487152888
 30
0.0
 11
106.9266961139
 21
9.1487152888
 31
0.0
  0
LINE
  5
39A
330
1F
100
AcDbEntity
  8
SLD-0
  6
Continuous
370
    15
100
AcDbLine
 10
123.5626962534
 20
9.1487152888
 30
0.0
 11
123.5626962534
 21
9.1704152882
 31
0.0
  0
LINE
  5
39B
330
1F
100
AcDbEntity
  8
SLD-0
  6
Continuous
370
    15
100
AcDbLine
 10
123.5626962534
 20
9.1704152882
 30
0.0
 11
122.5736885118
 21
9.1704152882
 31
0.0
  0
LINE
  5
39C
330
1F
100
AcDbEntity
  8
SLD-0
  6
Continuous
370
    15
100
AcDbLine
 10
123.5626962534
 20
9.1487152888
 30
0.0
 11
122.5736885118
 21
9.1487152888
 31
0.0
  0
LINE
  5
39D
330
1F
100
AcDbEntity
  8
SLD-0
  6
Continuous
370
    15
100
AcDbLine
 10
123.5936962534
 20
9.2014152882
 30
0.0
 11
123.615396255
 21
9.2014152882
 31
0.0
  0
SPLINE
  5
39E
330
1F
100
AcDbEntity
  8
SLD-0
  6
Continuous
370
    15
100
AcDbSpline
210
0.0
220
0.0
230
1.0
 70
     8
 71
     3
 72
    11
 73
     7
 74
     0
 42
0.00000001
 43
0.00000001
 12
1.0
 22
0.0
 32
0.0
 13
1.0
 23
0.0
 33
0.0
 40
0.0
 40
0.0
 40
0.0
 40
0.0
 40
0.249999998330009
 40
0.499999994313601
 40
0.7499999995086452
 40
1.0
 40
1.0
 40
1.0
 40
1.0
 10
123.5936962533784
 20
9.201415288175706
 30
0.0
 10
123.5932302748387
 20
9.197353139776164
 30
0.0
 10
123.5922983177636
 20
9.1892288430152
 30
0.0
 10
123.5851295919022
 20
9.178981949954771
 30
0.0
 10
123.5748826985718
 20
9.171813224587588
 30
0.0
 10
123.5667584017438
 20
9.170881266969841
 30
0.0
 10
123.562696253368
 20
9.170415288165351
 30
0.0
  0
SPLINE
  5
39F
330
1F
100
AcDbEntity
  8
SLD-0
  6
Continuous
370
    15
100
AcDbSpline
210
0.0
220
0.0
230
1.0
 70
     8
 71
     3
 72
    11
 73
     7
 74
     0
 42
0.00000001
 43
0.00000001
 12
1.0
 22
0.0
 32
0.0
 13
1.0
 23
0.0
 33
0.0
 40
0.0
 40
0.0
 40
0.0
 40
0.0
 40
0.2499999950446476
 40
0.4999999981229393
 40
0.7500000049553286
 40
1.0
 40
1.0
 40
1.0
 40
1.0
 10
123.6153962549898
 20
9.201415288175706
 30
0.0
 10
123.6146040913135
 20
9.194509635959868
 30
0.0
 10
123.6130197639356
 20
9.180698331306287
 30
0.0
 10
123.60083292915
 20
9.163278613240749
 30
0.0
 10
123.5834132101491
 20
9.151091780294214
 30
0.0
 10
123.5696019055198
 20
9.149507452649353
 30
0.0
 10
123.562696253368
 20
9.148715288845596
 30
0.0
  0
LINE
  5
3A0
330
1F
100
AcDbEntity
  8
SLD-0
  6
Continuous
370
    15
100
AcDbLine
 10
123.615396255
 20
9.2014152882
 30
0.0
 11
123.615396255
 21
9.7954153081
 31
0.0
  0
LINE
  5
3A1
330
1F
100
AcDbEntity
  8
SLD-0
  6
Continuous
370
    15
100
AcDbLine
 10
123.5936962534
 20
9.2014152882
 30
0.0
 11
123.5936962534
 21
9.3524831499
 31
0.0
  0
LINE
  5
3A2
330
1F
100
AcDbEntity
  8
SLD-0
  6
Continuous
370
    15
100
AcDbLine
 10
123.5936962534
 20
9.7954153081
 30
0.0
 11
123.615396255
 21
9.7954153081
 31
0.0
  0
LINE
  5
3A3
330
1F
100
AcDbEntity
  8
SLD-0
  6
Continuous
370
    15
100
AcDbLine
 10
107.3783960691
 20
8.1487152643
 30
0.0
 11
107.4327993873
 21
8.1487152643
 31
0.0
  0
LINE
  5
3A4
330
1F
100
AcDbEntity
  8
SLD-0
  6
Continuous
370
    15
100
AcDbLine
 10
107.3783960691
 20
9.1147152866
 30
0.0
 11
107.4327993873
 21
9.1147152866
 31
0.0
  0
LINE
  5
3A5
330
1F
100
AcDbEntity
  8
SLD-0
  6
Continuous
370
    15
100
AcDbLine
 10
107.3783960691
 20
8.146115261
 30
0.0
 11
104.4403963025
 21
8.146115261
 31
0.0
  0
SPLINE
  5
3A6
330
1F
100
AcDbEntity
  8
SLD-0
  6
Continuous
370
    15
100
AcDbSpline
210
0.0
220
0.0
230
1.0
 70
     8
 71
     3
 72
    11
 73
     7
 74
     0
 42
0.00000001
 43
0.00000001
 12
1.0
 22
0.0
 32
0.0
 13
1.0
 23
0.0
 33
0.0
 40
0.0
 40
0.0
 40
0.0
 40
0.0
 40
0.2499997771188362
 40
0.4999989259301537
 40
0.7499933324299738
 40
0.9999999999999999
 40
0.9999999999999999
 40
0.9999999999999999
 40
0.9999999999999999
 10
107.3783960691181
 20
8.146115260966672
 30
0.0
 10
107.3772076270283
 20
8.137335800618704
 30
0.0
 10
107.3748307458355
 20
8.11977690198759
 30
0.0
 10
107.3712630928711
 20
8.097630476236446
 30
0.0
 10
107.3676977343299
 20
8.082136400899504
 30
0.0
 10
107.3653206112502
 20
8.080122320067296
 30
0.0
 10
107.3641320205643
 20
8.07911525495646
 30
0.0
  0
LINE
  5
3A7
330
1F
100
AcDbEntity
  8
SLD-0
  6
Continuous
370
    15
100
AcDbLine
 10
104.4403963025
 20
8.079115255
 30
0.0
 11
107.3641320206
 21
8.079115255
 31
0.0
  0
LINE
  5
3A8
330
1F
100
AcDbEntity
  8
SLD-0
  6
Continuous
370
    15
100
AcDbLine
 10
104.4403963025
 20
8.079115255
 30
0.0
 11
104.4403963025
 21
8.146115261
 31
0.0
  0
LINE
  5
3A9
330
1F
100
AcDbEntity
  8
SLD-0
  6
Continuous
370
    15
100
AcDbLine
 10
104.4403963025
 20
8.146115261
 30
0.0
 11
104.4403963025
 21
9.1151152878
 31
0.0
  0
LINE
  5
3AA
330
1F
100
AcDbEntity
  8
SLD-0
  6
Continuous
370
    15
100
AcDbLine
 10
104.4403963025
 20
9.1151152878
 30
0.0
 11
107.3783960691
 21
9.1151152878
 31
0.0
  0
LINE
  5
3AB
330
1F
100
AcDbEntity
  8
SLD-0
  6
Continuous
370
    15
100
AcDbLine
 10
107.3783960691
 20
9.1151152878
 30
0.0
 11
107.3783960691
 21
8.146115261
 31
0.0
  0
LINE
  5
3AC
330
1F
100
AcDbEntity
  8
SLD-0
  6
Continuous
370
    15
100
AcDbLine
 10
123.5755082156
 20
8.146115261
 30
0.0
 11
123.5755082156
 21
9.1151152878
 31
0.0
  0
LINE
  5
3AD
330
1F
100
AcDbEntity
  8
SLD-0
  6
Continuous
370
    15
100
AcDbLine
 10
123.5755082156
 20
8.146115261
 30
0.0
 11
107.4402581811
 21
8.146115261
 31
0.0
  0
LINE
  5
3AE
330
1F
100
AcDbEntity
  8
SLD-0
  6
Continuous
370
    15
100
AcDbLine
 10
107.4402581811
 20
9.1151152878
 30
0.0
 11
107.4402581811
 21
8.146115261
 31
0.0
  0
LINE
  5
3AF
330
1F
100
AcDbEntity
  8
SLD-0
  6
Continuous
370
    15
100
AcDbLine
 10
107.4402581811
 20
9.1151152878
 30
0.0
 11
123.5755082156
 21
9.1151152878
 31
0.0
  0
LINE
  5
3B0
330
1F
100
AcDbEntity
  8
SLD-0
  6
Continuous
370
    15
100
AcDbLine
 10
107.4263766348
 20
8.079115255
 30
0.0
 11
123.5743962533
 21
8.079115255
 31
0.0
  0
ARC
  5
3B1
330
1F
100
AcDbEntity
  8
SLD-0
  6
Continuous
370
    15
100
AcDbCircle
 10
107.3490121739
 20
8.1300822267
 30
0.0
 40
0.0926438990169139
100
AcDbArc
 50
326.6234877152
 51
9.9658327466
  0
ARC
  5
3B2
330
1F
100
AcDbEntity
  8
SLD-0
  6
Continuous
370
    15
100
AcDbCircle
 10
123.2545924201
 20
8.1461001737
 30
0.0
 40
0.3209157958349101
100
AcDbArc
 50
358.4107757175
 51
0.0026936535
  0
SPLINE
  5
3B3
330
1F
100
AcDbEntity
  8
SLD-0
  6
Continuous
370
    15
100
AcDbSpline
210
0.0
220
0.0
230
1.0
 70
     8
 71
     3
 72
    11
 73
     7
 74
     0
 42
0.00000001
 43
0.00000001
 12
1.0
 22
0.0
 32
0.0
 13
1.0
 23
0.0
 33
0.0
 40
0.0
 40
0.0
 40
0.0
 40
0.0
 40
0.2500027920741983
 40
0.5000010894640978
 40
0.7499970564528607
 40
1.0
 40
1.0
 40
1.0
 40
1.0
 10
123.5753847752266
 20
8.137200010623072
 30
0.0
 10
123.5760548794748
 20
8.1293503169507
 30
0.0
 10
123.5773950759236
 20
8.113651070731962
 30
0.0
 10
123.5773282540376
 20
8.094706579414837
 30
0.0
 10
123.5761968085342
 20
8.081636172940103
 30
0.0
 10
123.5749964439695
 20
8.079955568767579
 30
0.0
 10
123.5743962533128
 20
8.07911525495646
 30
0.0
  0
LINE
  5
3B4
330
1F
100
AcDbEntity
  8
SLD-0
  6
Continuous
370
    15
100
AcDbLine
 10
107.4327993873
 20
9.1151152878
 30
0.0
 11
107.4327993873
 21
8.146115261
 31
0.0
  0
LINE
  5
3B5
330
1F
100
AcDbEntity
  8
SLD-0
  6
Continuous
370
    15
100
AcDbLine
 10
107.4402581811
 20
8.146115261
 30
0.0
 11
107.4327993873
 21
8.146115261
 31
0.0
  0
LINE
  5
3B6
330
1F
100
AcDbEntity
  8
SLD-0
  6
Continuous
370
    15
100
AcDbLine
 10
107.4402581811
 20
9.1151152878
 30
0.0
 11
107.4327993873
 21
9.1151152878
 31
0.0
  0
ARC
  5
3B7
330
1F
100
AcDbEntity
  8
SLD-0
  6
Continuous
370
    15
100
AcDbCircle
 10
107.3905868031
 20
8.1386957569
 30
0.0
 40
0.0428596699390929
100
AcDbArc
 50
326.62071535
 51
9.9687808719
  0
LINE
  5
3B8
330
1F
100
AcDbEntity
  8
SLD-0
  6
Continuous
370
    15
100
AcDbLine
 10
107.4263766348
 20
8.1151152724
 30
0.0
 11
107.4263766348
 21
8.079115255
 31
0.0
  0
LINE
  5
3B9
330
1F
100
AcDbEntity
  8
SLD-0
  6
Continuous
370
    15
100
AcDbLine
 10
107.4257641619
 20
8.079115255
 30
0.0
 11
107.4257641619
 21
8.1151152724
 31
0.0
  0
LINE
  5
3BA
330
1F
100
AcDbEntity
  8
SLD-0
  6
Continuous
370
    15
100
AcDbLine
 10
107.4257641619
 20
8.079115255
 30
0.0
 11
107.3641320206
 21
8.079115255
 31
0.0
  0
LINE
  5
3BB
330
1F
100
AcDbEntity
  8
SLD-0
  6
Continuous
370
    15
100
AcDbLine
 10
107.4257641619
 20
8.1151152724
 30
0.0
 11
107.3739503605
 21
8.1151152724
 31
0.0
  0
ARC
  5
3BC
330
1F
100
AcDbEntity
  8
SLD-0
  6
Continuous
370
    15
100
AcDbCircle
 10
104.4403962534
 20
9.0481152882
 30
0.0
 40
0.0310000000000059
100
AcDbArc
 50
90.0
 51
180.0
  0
LINE
  5
3BD
330
1F
100
AcDbEntity
  8
SLD-0
  6
Continuous
370
    15
100
AcDbLine
 10
104.4093960206
 20
9.048115291
 30
0.0
 11
104.3733962231
 21
9.048115291
 31
0.0
  0
ARC
  5
3BE
330
1F
100
AcDbEntity
  8
SLD-0
  6
Continuous
370
    15
100
AcDbCircle
 10
104.4403962534
 20
9.0481152882
 30
0.0
 40
0.0670000000000019
100
AcDbArc
 50
90.0
 51
180.0
  0
ARC
  5
3BF
330
1F
100
AcDbEntity
  8
SLD-0
  6
Continuous
370
    15
100
AcDbCircle
 10
104.4403962534
 20
8.1461152882
 30
0.0
 40
0.0309999999999988
100
AcDbArc
 50
180.0
 51
270.0
  0
LINE
  5
3C0
330
1F
100
AcDbEntity
  8
SLD-0
  6
Continuous
370
    15
100
AcDbLine
 10
104.4093960206
 20
8.146115261
 30
0.0
 11
104.3733962231
 21
8.146115261
 31
0.0
  0
ARC
  5
3C1
330
1F
100
AcDbEntity
  8
SLD-0
  6
Continuous
370
    15
100
AcDbCircle
 10
104.4403962534
 20
8.1461152882
 30
0.0
 40
0.0669999999999984
100
AcDbArc
 50
180.0
 51
270.0
  0
LINE
  5
3C2
330
1F
100
AcDbEntity
  8
SLD-0
  6
Continuous
370
    15
100
AcDbLine
 10
104.4093960206
 20
8.146115261
 30
0.0
 11
104.4093960206
 21
9.048115291
 31
0.0
  0
LINE
  5
3C3
330
1F
100
AcDbEntity
  8
SLD-0
  6
Continuous
370
    15
100
AcDbLine
 10
104.3733962231
 20
8.146115261
 30
0.0
 11
104.3733962231
 21
9.048115291
 31
0.0
  0
LINE
  5
3C4
330
1F
100
AcDbEntity
  8
SLD-0
  6
Continuous
370
    15
100
AcDbLine
 10
107.4263766348
 20
8.079115255
 30
0.0
 11
107.4257641619
 21
8.079115255
 31
0.0
  0
LINE
  5
3C5
330
1F
100
AcDbEntity
  8
SLD-0
  6
Continuous
370
    15
100
AcDbLine
 10
107.4263766348
 20
8.1151152724
 30
0.0
 11
107.4257641619
 21
8.1151152724
 31
0.0
  0
LINE
  5
3C6
330
1F
100
AcDbEntity
  8
SLD-0
  6
Continuous
370
    15
100
AcDbLine
 10
123.6053962522
 20
8.146115261
 30
0.0
 11
123.6413962559
 21
8.146115261
 31
0.0
  0
ARC
  5
3C7
330
1F
100
AcDbEntity
  8
SLD-0
  6
Continuous
370
    15
100
AcDbCircle
 10
123.5743962534
 20
8.1461152882
 30
0.0
 40
0.0670000000000073
100
AcDbArc
 50
270.0
 51
0.0
  0
ARC
  5
3C8
330
1F
100
AcDbEntity
  8
SLD-0
  6
Continuous
370
    15
100
AcDbCircle
 10
123.5743962534
 20
8.1461152882
 30
0.0
 40
0.0310000000000059
100
AcDbArc
 50
274.8675649223
 51
0.0
  0
LINE
  5
3C9
330
1F
100
AcDbEntity
  8
SLD-0
  6
Continuous
370
    15
100
AcDbLine
 10
123.6053962522
 20
9.1151152878
 30
0.0
 11
123.6053962522
 21
8.146115261
 31
0.0
  0
LINE
  5
3CA
330
1F
100
AcDbEntity
  8
SLD-0
  6
Continuous
370
    15
100
AcDbLine
 10
123.6413962559
 20
9.1151152878
 30
0.0
 11
123.6053962522
 21
9.1151152878
 31
0.0
  0
LINE
  5
3CB
330
1F
100
AcDbEntity
  8
SLD-0
  6
Continuous
370
    15
100
AcDbLine
 10
123.6413962559
 20
9.1151152878
 30
0.0
 11
123.6413962559
 21
8.146115261
 31
0.0
  0
LWPOLYLINE
  5
3CC
330
1F
100
AcDbEntity
  8
SLD-0
  6
Continuous
370
    15
100
AcDbPolyline
 90
        9
 70
   128
 43
0.0
 10
103.88803959
 20
39.4875082625
 10
103.8883340933
 20
39.4866963252
 10
103.8892082165
 20
39.484295713
 10
103.8906279334
 20
39.4803979447
 10
103.8925369247
 20
39.475148512
 10
103.8948647912
 20
39.4687562658
 10
103.8975200138
 20
39.4614605634
 10
103.9004005139
 20
39.4535476948
 10
103.9033959993
 20
39.4453156833
  0
LINE
  5
3CD
330
1F
100
AcDbEntity
  8
SLD-0
  6
Continuous
370
    15
100
AcDbLine
 10
103.9033959993
 20
39.4453156833
 30
0.0
 11
101.0722821446
 21
38.4148734004
 31
0.0
  0
SPLINE
  5
3CE
330
1F
100
AcDbEntity
  8
SLD-0
  6
Continuous
370
    15
100
AcDbSpline
210
0.0
220
0.0
230
1.0
 70
     8
 71
     3
 72
    11
 73
     7
 74
     0
 42
0.00000001
 43
0.00000001
 12
1.0
 22
0.0
 32
0.0
 13
1.0
 23
0.0
 33
0.0
 40
0.0
 40
0.0
 40
0.0
 40
0.0
 40
0.258286999334593
 40
0.516739440987599
 40
0.7752247953323453
 40
1.0
 40
1.0
 40
1.0
 40
1.0
 10
101.072282144551
 20
38.41487340035638
 30
0.0
 10
101.0663950186006
 20
38.41920021486967
 30
0.0
 10
101.0546169957791
 20
38.42785661538001
 30
0.0
 10
101.0380075617721
 20
38.4379474201298
 30
0.0
 10
101.0237259552337
 20
38.44314878444558
 30
0.0
 10
101.0162122046833
 20
38.44166514552835
 30
0.0
 10
101.0127173926481
 20
38.44097507216097
 30
0.0
  0
LINE
  5
3CF
330
1F
100
AcDbEntity
  8
SLD-0
  6
Continuous
370
    15
100
AcDbLine
 10
103.88803959
 20
39.4875082625
 30
0.0
 11
101.0127173926
 21
38.4409750722
 31
0.0
  0
SPLINE
  5
3D0
330
1F
100
AcDbEntity
  8
SLD-0
  6
Continuous
370
    15
100
AcDbSpline
210
0.0
220
0.0
230
1.0
 70
     8
 71
     3
 72
     9
 73
     5
 74
     0
 42
0.00000001
 43
0.00000001
 12
1.0
 22
0.0
 32
0.0
 13
1.0
 23
0.0
 33
0.0
 40
0.0
 40
0.0
 40
0.0
 40
0.0
 40
0.5000106613033332
 40
1.0
 40
1.0
 40
1.0
 40
1.0
 10
101.072282144551
 20
38.41487340035638
 30
0.0
 10
101.0635273035867
 20
38.41600059385075
 30
0.0
 10
101.0460179950021
 20
38.4182549327711
 30
0.0
 10
101.0306336897913
 20
38.41467078993728
 30
0.0
 10
101.0229417012027
 20
38.41287875673201
 30
0.0
  0
LINE
  5
3D1
330
1F
100
AcDbEntity
  8
SLD-0
  6
Continuous
370
    15
100
AcDbLine
 10
101.0229417012
 20
38.4128787567
 30
0.0
 11
101.0127173926
 21
38.4409750722
 31
0.0
  0
LINE
  5
3D2
330
1F
100
AcDbEntity
  8
SLD-0
  6
Continuous
370
    15
100
AcDbLine
 10
104.3733962231
 20
39.4453156833
 30
0.0
 11
103.9033959993
 21
39.4453156833
 31
0.0
  0
LINE
  5
3D3
330
1F
100
AcDbEntity
  8
SLD-0
  6
Continuous
370
    15
100
AcDbLine
 10
104.119662301
 20
36.9938564294
 30
0.0
 11
104.3733962231
 21
37.0862084292
 31
0.0
  0
LINE
  5
3D4
330
1F
100
AcDbEntity
  8
SLD-0
  6
Continuous
370
    15
100
AcDbLine
 10
104.119662301
 20
36.9938564294
 30
0.0
 11
101.0722821446
 21
38.4148734004
 31
0.0
  0
SPLINE
  5
3D5
330
1F
100
AcDbEntity
  8
SLD-0
  6
Continuous
370
    15
100
AcDbSpline
210
0.0
220
0.0
230
1.0
 70
     8
 71
     3
 72
     9
 73
     5
 74
     0
 42
0.00000001
 43
0.00000001
 12
1.0
 22
0.0
 32
0.0
 13
1.0
 23
0.0
 33
0.0
 40
0.0
 40
0.0
 40
0.0
 40
0.0
 40
0.4999881150444654
 40
1.0
 40
1.0
 40
1.0
 40
1.0
 10
101.0229417012027
 20
38.41287875673201
 30
0.0
 10
101.0222416377202
 20
38.41192582351493
 30
0.0
 10
101.0208414774736
 20
38.41001991177745
 30
0.0
 10
101.0231395891552
 20
38.40945871247163
 30
0.0
 10
101.024288672309
 20
38.40917810614891
 30
0.0
  0
LINE
  5
3D6
330
1F
100
AcDbEntity
  8
SLD-0
  6
Continuous
370
    15
100
AcDbLine
 10
101.0242886723
 20
38.4091781061
 30
0.0
 11
101.0345153275
 21
38.3810817907
 31
0.0
  0
SPLINE
  5
3D7
330
1F
100
AcDbEntity
  8
SLD-0
  6
Continuous
370
    15
100
AcDbSpline
210
0.0
220
0.0
230
1.0
 70
     8
 71
     3
 72
    15
 73
    11
 74
     0
 42
0.00000001
 43
0.00000001
 12
1.0
 22
0.0
 32
0.0
 13
1.0
 23
0.0
 33
0.0
 40
0.0
 40
0.0
 40
0.0
 40
0.0
 40
0.1250143706449303
 40
0.2500066740246578
 40
0.375008160883309
 40
0.5000032124940693
 40
0.6250067963104688
 40
0.7499990996901964
 40
0.8750049483892397
 40
1.0
 40
1.0
 40
1.0
 40
1.0
 10
101.0127173926481
 20
38.44097507216097
 30
0.0
 10
101.0089608922052
 20
38.43909839124068
 30
0.0
 10
101.0014485544087
 20
38.43534536066775
 30
0.0
 10
100.9940006749134
 20
38.42479151992136
 30
0.0
 10
100.9909448187969
 20
38.41246924647662
 30
0.0
 10
100.9928900532565
 20
38.39984529579432
 30
0.0
 10
100.999513734057
 20
38.38892502461999
 30
0.0
 10
101.0097775429591
 20
38.38145114481114
 30
0.0
 10
101.0222652361261
 20
38.37815234448502
 30
0.0
 10
101.0304320812812
 20
38.38010533675703
 30
0.0
 10
101.0345153275031
 20
38.38108179071994
 30
0.0
  0
LINE
  5
3D8
330
1F
100
AcDbEntity
  8
SLD-0
  6
Continuous
370
    15
100
AcDbLine
 10
103.9033959993
 20
39.4902162846
 30
0.0
 11
103.9033959993
 21
39.4603154033
 31
0.0
  0
LINE
  5
3D9
330
1F
100
AcDbEntity
  8
SLD-0
  6
Continuous
370
    15
100
AcDbLine
 10
104.3733962231
 20
39.4902162846
 30
0.0
 11
103.9033959993
 21
39.4902162846
 31
0.0
  0
LINE
  5
3DA
330
1F
100
AcDbEntity
  8
SLD-0
  6
Continuous
370
    15
100
AcDbLine
 10
104.3733962231
 20
39.4603154033
 30
0.0
 11
103.9033959993
 21
39.4603154033
 31
0.0
  0
ARC
  5
3DB
330
1F
100
AcDbEntity
  8
SLD-0
  6
Continuous
370
    15
100
AcDbCircle
 10
103.9033962534
 20
39.4453152882
 30
0.0
 40
0.0150000000000006
100
AcDbArc
 50
90.0
 51
110.0
  0
ARC
  5
3DC
330
1F
100
AcDbEntity
  8
SLD-0
  6
Continuous
370
    15
100
AcDbCircle
 10
103.9033962534
 20
39.4453152882
 30
0.0
 40
0.0448999999999941
100
AcDbArc
 50
90.0
 51
110.0
  0
LINE
  5
3DD
330
1F
100
AcDbEntity
  8
SLD-0
  6
Continuous
370
    15
100
AcDbLine
 10
101.0345153275
 20
38.3810817907
 30
0.0
 11
101.0964243723
 21
38.4036142238
 31
0.0
  0
LINE
  5
3DE
330
1F
100
AcDbEntity
  8
SLD-0
  6
Continuous
370
    15
100
AcDbLine
 10
101.0242886723
 20
38.4091781061
 30
0.0
 11
101.0440966568
 21
38.4163893295
 31
0.0
  0
LINE
  5
3DF
330
1F
100
AcDbEntity
  8
SLD-0
  6
Continuous
370
    15
100
AcDbLine
 10
105.2090709427
 20
34.6144155436
 30
0.0
 11
105.1610716038
 21
34.6144155436
 31
0.0
  0
LINE
  5
3E0
330
1F
100
AcDbEntity
  8
SLD-0
  6
Continuous
370
    15
100
AcDbLine
 10
105.1610716038
 20
37.7394143233
 30
0.0
 11
105.1610716038
 21
34.6144155436
 31
0.0
  0
LINE
  5
3E1
330
1F
100
AcDbEntity
  8
SLD-0
  6
Continuous
370
    15
100
AcDbLine
 10
105.2090709427
 20
37.7394143233
 30
0.0
 11
105.1610716038
 21
37.7394143233
 31
0.0
  0
LINE
  5
3E2
330
1F
100
AcDbEntity
  8
SLD-0
  6
Continuous
370
    15
100
AcDbLine
 10
105.2090709427
 20
37.7394143233
 30
0.0
 11
105.2090709427
 21
34.6144155436
 31
0.0
  0
LINE
  5
3E3
330
1F
100
AcDbEntity
  8
SLD-0
  6
Continuous
370
    15
100
AcDbLine
 10
105.2240718361
 20
34.6144155436
 30
0.0
 11
105.2090709427
 21
34.6144155436
 31
0.0
  0
LINE
  5
3E4
330
1F
100
AcDbEntity
  8
SLD-0
  6
Continuous
370
    15
100
AcDbLine
 10
105.2240718361
 20
34.6144155436
 30
0.0
 11
105.2240718361
 21
37.7394143233
 31
0.0
  0
LINE
  5
3E5
330
1F
100
AcDbEntity
  8
SLD-0
  6
Continuous
370
    15
100
AcDbLine
 10
105.2090709427
 20
37.7394143233
 30
0.0
 11
105.2240718361
 21
37.7394143233
 31
0.0
  0
LINE
  5
3E6
330
1F
100
AcDbEntity
  8
SLD-0
  6
Continuous
370
    15
100
AcDbLine
 10
105.2240718361
 20
34.6144155436
 30
0.0
 11
106.8016964912
 21
34.6144155436
 31
0.0
  0
LINE
  5
3E7
330
1F
100
AcDbEntity
  8
SLD-0
  6
Continuous
370
    15
100
AcDbLine
 10
106.8016964912
 20
37.7394143233
 30
0.0
 11
106.8016964912
 21
34.6144155436
 31
0.0
  0
LINE
  5
3E8
330
1F
100
AcDbEntity
  8
SLD-0
  6
Continuous
370
    15
100
AcDbLine
 10
105.2240718361
 20
37.7394143233
 30
0.0
 11
106.8016964912
 21
37.7394143233
 31
0.0
  0
LINE
  5
3E9
330
1F
100
AcDbEntity
  8
SLD-0
  6
Continuous
370
    15
100
AcDbLine
 10
105.2090709427
 20
17.8264153466
 30
0.0
 11
105.1610716038
 21
17.8264153466
 31
0.0
  0
LINE
  5
3EA
330
1F
100
AcDbEntity
  8
SLD-0
  6
Continuous
370
    15
100
AcDbLine
 10
105.2090709427
 20
17.8264153466
 30
0.0
 11
105.2090709427
 21
14.7014153936
 31
0.0
  0
LINE
  5
3EB
330
1F
100
AcDbEntity
  8
SLD-0
  6
Continuous
370
    15
100
AcDbLine
 10
105.1610716038
 20
17.8264153466
 30
0.0
 11
105.1610716038
 21
14.7014153936
 31
0.0
  0
LINE
  5
3EC
330
1F
100
AcDbEntity
  8
SLD-0
  6
Continuous
370
    15
100
AcDbLine
 10
105.2090709427
 20
14.7014153936
 30
0.0
 11
105.1610716038
 21
14.7014153936
 31
0.0
  0
LINE
  5
3ED
330
1F
100
AcDbEntity
  8
SLD-0
  6
Continuous
370
    15
100
AcDbLine
 10
105.2240718361
 20
14.7014153936
 30
0.0
 11
105.2240718361
 21
17.8264153466
 31
0.0
  0
LINE
  5
3EE
330
1F
100
AcDbEntity
  8
SLD-0
  6
Continuous
370
    15
100
AcDbLine
 10
105.2090709427
 20
17.8264153466
 30
0.0
 11
105.2240718361
 21
17.8264153466
 31
0.0
  0
LINE
  5
3EF
330
1F
100
AcDbEntity
  8
SLD-0
  6
Continuous
370
    15
100
AcDbLine
 10
105.2240718361
 20
14.7014153936
 30
0.0
 11
105.2090709427
 21
14.7014153936
 31
0.0
  0
LINE
  5
3F0
330
1F
100
AcDbEntity
  8
SLD-0
  6
Continuous
370
    15
100
AcDbLine
 10
105.2240718361
 20
17.8264153466
 30
0.0
 11
106.8016964912
 21
17.8264153466
 31
0.0
  0
LINE
  5
3F1
330
1F
100
AcDbEntity
  8
SLD-0
  6
Continuous
370
    15
100
AcDbLine
 10
105.2240718361
 20
14.7014153936
 30
0.0
 11
106.8016964912
 21
14.7014153936
 31
0.0
  0
LINE
  5
3F2
330
1F
100
AcDbEntity
  8
SLD-0
  6
Continuous
370
    15
100
AcDbLine
 10
106.8016964912
 20
17.8264153466
 30
0.0
 11
106.8016964912
 21
14.7014153936
 31
0.0
  0
LINE
  5
3F3
330
1F
100
AcDbEntity
  8
SLD-0
  6
Continuous
370
    15
100
AcDbLine
 10
109.9069964052
 20
9.1358977877
 30
0.0
 11
106.9069960748
 21
9.1358977877
 31
0.0
  0
LINE
  5
3F4
330
1F
100
AcDbEntity
  8
SLD-0
  6
Continuous
370
    15
100
AcDbLine
 10
106.9069960748
 20
9.1358977877
 30
0.0
 11
106.9069960748
 21
9.1487152888
 31
0.0
  0
LINE
  5
3F5
330
1F
100
AcDbEntity
  8
SLD-0
  6
Continuous
370
    15
100
AcDbLine
 10
106.9069960748
 20
9.1704152882
 30
0.0
 11
106.9069960748
 21
9.175497788
 31
0.0
  0
LINE
  5
3F6
330
1F
100
AcDbEntity
  8
SLD-0
  6
Continuous
370
    15
100
AcDbLine
 10
107.3831961203
 20
9.175497788
 30
0.0
 11
107.3456381542
 21
9.175497788
 31
0.0
  0
LINE
  5
3F7
330
1F
100
AcDbEntity
  8
SLD-0
  6
Continuous
370
    15
100
AcDbLine
 10
106.9266961139
 20
9.175497788
 30
0.0
 11
106.9069960748
 21
9.175497788
 31
0.0
  0
LINE
  5
3F8
330
1F
100
AcDbEntity
  8
SLD-0
  6
Continuous
370
    15
100
AcDbLine
 10
109.9069964052
 20
9.1358977877
 30
0.0
 11
109.9069964052
 21
9.1487152888
 31
0.0
  0
LINE
  5
3F9
330
1F
100
AcDbEntity
  8
SLD-0
  6
Continuous
370
    15
100
AcDbLine
 10
106.9069960748
 20
9.1804977877
 30
0.0
 11
106.9069960748
 21
9.175497788
 31
0.0
  0
LINE
  5
3FA
330
1F
100
AcDbEntity
  8
SLD-0
  6
Continuous
370
    15
100
AcDbLine
 10
106.9069960748
 20
9.2014152882
 30
0.0
 11
106.9069960748
 21
9.1804977877
 31
0.0
  0
SPLINE
  5
3FB
330
1F
100
AcDbEntity
  8
SLD-0
  6
Continuous
370
    15
100
AcDbSpline
210
0.0
220
0.0
230
1.0
 70
     8
 71
     3
 72
     9
 73
     5
 74
     0
 42
0.00000001
 43
0.00000001
 12
1.0
 22
0.0
 32
0.0
 13
1.0
 23
0.0
 33
0.0
 40
0.0
 40
0.0
 40
0.0
 40
0.0
 40
0.3995291698150729
 40
0.9999999999999999
 40
0.9999999999999999
 40
0.9999999999999999
 40
0.9999999999999999
 10
118.9651471246479
 20
17.53019610193069
 30
0.0
 10
118.9656404710028
 20
17.53358812758877
 30
0.0
 10
118.9668752903656
 20
17.54207818517242
 30
0.0
 10
118.9689744490074
 20
17.54562211353747
 30
0.0
 10
118.9702349325398
 20
17.54775013914495
 30
0.0
  0
SPLINE
  5
3FC
330
1F
100
AcDbEntity
  8
SLD-0
  6
Continuous
370
    15
100
AcDbSpline
210
0.0
220
0.0
230
1.0
 70
     8
 71
     3
 72
     9
 73
     5
 74
     0
 42
0.00000001
 43
0.00000001
 12
1.0
 22
0.0
 32
0.0
 13
1.0
 23
0.0
 33
0.0
 40
0.0
 40
0.0
 40
0.0
 40
0.0
 40
0.5137343694938442
 40
1.0
 40
1.0
 40
1.0
 40
1.0
 10
118.9702349325398
 20
17.36588029345426
 30
0.0
 10
118.9689908503124
 20
17.36809073063693
 30
0.0
 10
118.9665692053901
 20
17.37239341567012
 30
0.0
 10
118.9651553040987
 20
17.38246548890607
 30
0.0
 10
118.9644677724958
 20
17.38736319194865
 30
0.0
  0
SPLINE
  5
3FD
330
1F
100
AcDbEntity
  8
SLD-0
  6
Continuous
370
    15
100
AcDbSpline
210
0.0
220
0.0
230
1.0
 70
     8
 71
     3
 72
    11
 73
     7
 74
     0
 42
0.00000001
 43
0.00000001
 12
1.0
 22
0.0
 32
0.0
 13
1.0
 23
0.0
 33
0.0
 40
0.0
 40
0.0
 40
0.0
 40
0.0
 40
0.2526830616782315
 40
0.5043936765368574
 40
0.7537048249394859
 40
1.0
 40
1.0
 40
1.0
 40
1.0
 10
118.9668267319116
 20
17.34659267626646
 30
0.0
 10
118.9675446947923
 20
17.34878711295784
 30
0.0
 10
118.9689778574848
 20
17.35316754108523
 30
0.0
 10
118.9702341108719
 20
17.35902610576668
 30
0.0
 10
118.9707970216015
 20
17.36369653863733
 30
0.0
 10
118.9704215338934
 20
17.36515533431077
 30
0.0
 10
118.9702349325398
 20
17.36588029345426
 30
0.0
  0
SPLINE
  5
3FE
330
1F
100
AcDbEntity
  8
SLD-0
  6
Continuous
370
    15
100
AcDbSpline
210
0.0
220
0.0
230
1.0
 70
     8
 71
     3
 72
    11
 73
     7
 74
     0
 42
0.00000001
 43
0.00000001
 12
1.0
 22
0.0
 32
0.0
 13
1.0
 23
0.0
 33
0.0
 40
0.0
 40
0.0
 40
0.0
 40
0.0
 40
0.2461424314094607
 40
0.4955293044967838
 40
0.7472769567164878
 40
1.0
 40
1.0
 40
1.0
 40
1.0
 10
118.9702349325398
 20
17.54775013914495
 30
0.0
 10
118.9704216016571
 20
17.54847446915132
 30
0.0
 10
118.9707974004064
 20
17.54993267667055
 30
0.0
 10
118.9702344011481
 20
17.55460219062261
 30
0.0
 10
118.9689782300226
 20
17.5604616324813
 30
0.0
 10
118.9675448217773
 20
17.56484289133636
 30
0.0
 10
118.9668267319116
 20
17.56703775633276
 30
0.0
  0
LINE
  5
3FF
330
1F
100
AcDbEntity
  8
SLD-0
  6
Continuous
370
    15
100
AcDbLine
 10
104.477570593
 20
43.7403160937
 30
0.0
 11
104.477570593
 21
43.7394149841
 31
0.0
  0
LINE
  5
400
330
1F
100
AcDbEntity
  8
SLD-0
  6
Continuous
370
    15
100
AcDbLine
 10
104.9749537539
 20
43.7403160937
 30
0.0
 11
104.477570593
 21
43.7403160937
 31
0.0
  0
LINE
  5
401
330
1F
100
AcDbEntity
  8
SLD-0
  6
Continuous
370
    15
100
AcDbLine
 10
104.9843098058
 20
43.7403160937
 30
0.0
 11
104.9749537539
 21
43.7403160937
 31
0.0
  0
LINE
  5
402
330
1F
100
AcDbEntity
  8
SLD-0
  6
Continuous
370
    15
100
AcDbLine
 10
107.4105250846
 20
43.7403160937
 30
0.0
 11
107.3078901103
 21
43.7403160937
 31
0.0
  0
LINE
  5
403
330
1F
100
AcDbEntity
  8
SLD-0
  6
Continuous
370
    15
100
AcDbLine
 10
106.9266961139
 20
43.7403160937
 30
0.0
 11
105.6136961351
 21
43.7403160937
 31
0.0
  0
LINE
  5
404
330
1F
100
AcDbEntity
  8
SLD-0
  6
Continuous
370
    15
100
AcDbLine
 10
105.2386960938
 20
43.7403160937
 30
0.0
 11
104.9843098058
 21
43.7403160937
 31
0.0
  0
LINE
  5
405
330
1F
100
AcDbEntity
  8
SLD-0
  6
Continuous
370
    15
100
AcDbLine
 10
123.5419962525
 20
43.7403160937
 30
0.0
 11
123.5419962525
 21
43.7394149841
 31
0.0
  0
LINE
  5
406
330
1F
100
AcDbEntity
  8
SLD-0
  6
Continuous
370
    15
100
AcDbLine
 10
123.5719962535
 20
43.7403160937
 30
0.0
 11
123.5419962525
 21
43.7403160937
 31
0.0
  0
LINE
  5
407
330
1F
100
AcDbEntity
  8
SLD-0
  6
Continuous
370
    15
100
AcDbLine
 10
123.5719962535
 20
43.7403160937
 30
0.0
 11
123.5719962535
 21
43.7394149841
 31
0.0
  0
LINE
  5
408
330
1F
100
AcDbEntity
  8
SLD-0
  6
Continuous
370
    15
100
AcDbLine
 10
123.5269962529
 20
43.7403160937
 30
0.0
 11
122.572289328
 21
43.7403160937
 31
0.0
  0
LINE
  5
409
330
1F
100
AcDbEntity
  8
SLD-0
  6
Continuous
370
    15
100
AcDbLine
 10
123.5419962525
 20
43.7403160937
 30
0.0
 11
123.5269962529
 21
43.7403160937
 31
0.0
  0
LINE
  5
40A
330
1F
100
AcDbEntity
  8
SLD-0
  6
Continuous
370
    15
100
AcDbLine
 10
120.5012711659
 20
10.0764152753
 30
0.0
 11
120.5012711659
 21
9.7954153081
 31
0.0
  0
LINE
  5
40B
330
1F
100
AcDbEntity
  8
SLD-0
  6
Continuous
370
    15
100
AcDbLine
 10
118.3003054183
 20
9.7954153081
 30
0.0
 11
118.3003054183
 21
10.0764152753
 31
0.0
  0
LINE
  5
40C
330
1F
100
AcDbEntity
  8
SLD-0
  6
Continuous
370
    15
100
AcDbLine
 10
118.3003054183
 20
10.0764152753
 30
0.0
 11
117.9334781359
 21
10.0764152753
 31
0.0
  0
LINE
  5
40D
330
1F
100
AcDbEntity
  8
SLD-0
  6
Continuous
370
    15
100
AcDbLine
 10
117.9334781359
 20
10.0764152753
 30
0.0
 11
117.9334781359
 21
15.0134152027
 31
0.0
  0
LINE
  5
40E
330
1F
100
AcDbEntity
  8
SLD-0
  6
Continuous
370
    15
100
AcDbLine
 10
117.9334781359
 20
15.0134152027
 30
0.0
 11
120.8680987416
 21
15.0134152027
 31
0.0
  0
LINE
  5
40F
330
1F
100
AcDbEntity
  8
SLD-0
  6
Continuous
370
    15
100
AcDbLine
 10
120.8680987416
 20
15.0134152027
 30
0.0
 11
120.8680987416
 21
10.0764152753
 31
0.0
  0
LINE
  5
410
330
1F
100
AcDbEntity
  8
SLD-0
  6
Continuous
370
    15
100
AcDbLine
 10
120.8680987416
 20
10.0764152753
 30
0.0
 11
120.5012711659
 21
10.0764152753
 31
0.0
  0
LINE
  5
411
330
1F
100
AcDbEntity
  8
SLD-0
  6
Continuous
370
    15
100
AcDbLine
 10
117.9272489812
 20
15.0134152027
 30
0.0
 11
117.9334781359
 21
15.0134152027
 31
0.0
  0
LINE
  5
412
330
1F
100
AcDbEntity
  8
SLD-0
  6
Continuous
370
    15
100
AcDbLine
 10
117.9334781359
 20
10.0764152753
 30
0.0
 11
117.9272489812
 21
10.0764152753
 31
0.0
  0
LINE
  5
413
330
1F
100
AcDbEntity
  8
SLD-0
  6
Continuous
370
    15
100
AcDbLine
 10
117.9272489812
 20
10.0764152753
 30
0.0
 11
117.9272489812
 21
15.0134152027
 31
0.0
  0
LINE
  5
414
330
1F
100
AcDbEntity
  8
SLD-0
  6
Continuous
370
    15
100
AcDbLine
 10
118.2940768502
 20
10.0764152753
 30
0.0
 11
118.2940768502
 21
9.7954153081
 31
0.0
  0
LINE
  5
415
330
1F
100
AcDbEntity
  8
SLD-0
  6
Continuous
370
    15
100
AcDbLine
 10
105.6136961351
 20
43.7428152649
 30
0.0
 11
106.9266961139
 21
43.7428152649
 31
0.0
  0
LINE
  5
416
330
1F
100
AcDbEntity
  8
SLD-0
  6
Continuous
370
    15
100
AcDbLine
 10
107.3110475138
 20
43.7428152649
 30
0.0
 11
107.4084706017
 21
43.7428152649
 31
0.0
  0
LINE
  5
417
330
1F
100
AcDbEntity
  8
SLD-0
  6
Continuous
370
    15
100
AcDbLine
 10
105.2276962209
 20
43.7428152649
 30
0.0
 11
105.2276962209
 21
43.7704164393
 31
0.0
  0
LINE
  5
418
330
1F
100
AcDbEntity
  8
SLD-0
  6
Continuous
370
    15
100
AcDbLine
 10
105.2386960938
 20
43.7428152649
 30
0.0
 11
105.2276962209
 21
43.7428152649
 31
0.0
  0
LINE
  5
419
330
1F
100
AcDbEntity
  8
SLD-0
  6
Continuous
370
    15
100
AcDbLine
 10
105.2276962209
 20
43.7428152649
 30
0.0
 11
105.2276962209
 21
43.7403160937
 31
0.0
  0
LINE
  5
41A
330
1F
100
AcDbEntity
  8
SLD-0
  6
Continuous
370
    15
100
AcDbLine
 10
104.435096417
 20
43.7278155448
 30
0.0
 11
104.4626964182
 21
43.7278155448
 31
0.0
  0
LINE
  5
41B
330
1F
100
AcDbEntity
  8
SLD-0
  6
Continuous
370
    15
100
AcDbLine
 10
104.4626964182
 20
43.7278155448
 30
0.0
 11
104.4626964182
 21
43.291978873
 31
0.0
  0
LINE
  5
41C
330
1F
100
AcDbEntity
  8
SLD-0
  6
Continuous
370
    15
100
AcDbLine
 10
104.435096417
 20
43.7278155448
 30
0.0
 11
104.435096417
 21
43.3207181676
 31
0.0
  0
LINE
  5
41D
330
1F
100
AcDbEntity
  8
SLD-0
  6
Continuous
370
    15
100
AcDbLine
 10
107.4780965707
 20
43.8221152554
 30
0.0
 11
107.4780965707
 21
43.7921158153
 31
0.0
  0
LINE
  5
41E
330
1F
100
AcDbEntity
  8
SLD-0
  6
Continuous
370
    15
100
AcDbLine
 10
121.9780962121
 20
43.8221152554
 30
0.0
 11
107.4780965707
 21
43.8221152554
 31
0.0
  0
LINE
  5
41F
330
1F
100
AcDbEntity
  8
SLD-0
  6
Continuous
370
    15
100
AcDbLine
 10
121.9780962121
 20
43.8221152554
 30
0.0
 11
121.9780962121
 21
43.7921158153
 31
0.0
  0
LINE
  5
420
330
1F
100
AcDbEntity
  8
SLD-0
  6
Continuous
370
    15
100
AcDbLine
 10
107.4780965707
 20
43.8221152554
 30
0.0
 11
107.4780965707
 21
43.8295564495
 31
0.0
  0
LINE
  5
421
330
1F
100
AcDbEntity
  8
SLD-0
  6
Continuous
370
    15
100
AcDbLine
 10
121.9780962121
 20
43.8295564495
 30
0.0
 11
107.4780965707
 21
43.8295564495
 31
0.0
  0
LINE
  5
422
330
1F
100
AcDbEntity
  8
SLD-0
  6
Continuous
370
    15
100
AcDbLine
 10
121.9780962121
 20
43.8295564495
 30
0.0
 11
121.9780962121
 21
43.8221152554
 31
0.0
  0
LINE
  5
423
330
1F
100
AcDbEntity
  8
SLD-0
  6
Continuous
370
    15
100
AcDbLine
 10
105.1030967002
 20
46.7850199077
 30
0.0
 11
121.9780962121
 21
46.7850199077
 31
0.0
  0
LINE
  5
424
330
1F
100
AcDbEntity
  8
SLD-0
  6
Continuous
370
    15
100
AcDbLine
 10
121.9780962121
 20
43.8295564495
 30
0.0
 11
121.9780962121
 21
46.7850199077
 31
0.0
  0
LINE
  5
425
330
1F
100
AcDbEntity
  8
SLD-0
  6
Continuous
370
    15
100
AcDbLine
 10
107.4780965707
 20
43.8295564495
 30
0.0
 11
107.4780965707
 21
45.2921159805
 31
0.0
  0
LINE
  5
426
330
1F
100
AcDbEntity
  8
SLD-0
  6
Continuous
370
    15
100
AcDbLine
 10
107.4780965707
 20
45.2921159805
 30
0.0
 11
107.4780965707
 21
45.3072306859
 31
0.0
  0
LINE
  5
427
330
1F
100
AcDbEntity
  8
SLD-0
  6
Continuous
370
    15
100
AcDbLine
 10
105.3530959456
 20
45.3072306859
 30
0.0
 11
107.4780965707
 21
45.3072306859
 31
0.0
  0
LINE
  5
428
330
1F
100
AcDbEntity
  8
SLD-0
  6
Continuous
370
    15
100
AcDbLine
 10
105.1030967002
 20
45.523175498
 30
0.0
 11
105.3530959456
 21
45.3072306859
 31
0.0
  0
LINE
  5
429
330
1F
100
AcDbEntity
  8
SLD-0
  6
Continuous
370
    15
100
AcDbLine
 10
105.1030967002
 20
45.523175498
 30
0.0
 11
105.1030967002
 21
46.7850199077
 31
0.0
  0
LINE
  5
42A
330
1F
100
AcDbEntity
  8
SLD-0
  6
Continuous
370
    15
100
AcDbLine
 10
113.4780960582
 20
45.9878758364
 30
0.0
 11
113.4780960582
 21
45.1240965882
 31
0.0
  0
ARC
  5
42B
330
1F
100
AcDbEntity
  8
SLD-0
  6
Continuous
370
    15
100
AcDbCircle
 10
113.6030962675
 20
45.1388800683
 30
0.0
 40
0.1258713772660804
100
AcDbArc
 50
186.7449057139
 51
353.2550942861
  0
LINE
  5
42C
330
1F
100
AcDbEntity
  8
SLD-0
  6
Continuous
370
    15
100
AcDbLine
 10
113.7280964768
 20
45.1240965882
 30
0.0
 11
113.7280964768
 21
45.9878758364
 31
0.0
  0
ARC
  5
42D
330
1F
100
AcDbEntity
  8
SLD-0
  6
Continuous
370
    15
100
AcDbCircle
 10
113.6030962675
 20
45.973091441
 30
0.0
 40
0.1258714847704554
100
AcDbArc
 50
6.7453194679
 51
173.2546805321
  0
LINE
  5
42E
330
1F
100
AcDbEntity
  8
SLD-0
  6
Continuous
370
    15
100
AcDbLine
 10
110.4780957278
 20
45.9878758364
 30
0.0
 11
110.4780957278
 21
45.1240965882
 31
0.0
  0
ARC
  5
42F
330
1F
100
AcDbEntity
  8
SLD-0
  6
Continuous
370
    15
100
AcDbCircle
 10
110.6030959371
 20
45.1388796155
 30
0.0
 40
0.1258713240874575
100
AcDbArc
 50
186.7447010348
 51
353.2552989652
  0
LINE
  5
430
330
1F
100
AcDbEntity
  8
SLD-0
  6
Continuous
370
    15
100
AcDbLine
 10
110.7280961464
 20
45.1240965882
 30
0.0
 11
110.7280961464
 21
45.9878758364
 31
0.0
  0
ARC
  5
431
330
1F
100
AcDbEntity
  8
SLD-0
  6
Continuous
370
    15
100
AcDbCircle
 10
110.6030959371
 20
45.9730918937
 30
0.0
 40
0.1258714315885846
100
AcDbArc
 50
6.7451147892
 51
173.2548852108
  0
LINE
  5
432
330
1F
100
AcDbEntity
  8
SLD-0
  6
Continuous
370
    15
100
AcDbLine
 10
105.3530959456
 20
45.2921159805
 30
0.0
 11
105.3530959456
 21
45.3072306859
 31
0.0
  0
LINE
  5
433
330
1F
100
AcDbEntity
  8
SLD-0
  6
Continuous
370
    15
100
AcDbLine
 10
105.3530959456
 20
45.2921159805
 30
0.0
 11
107.4780965707
 21
45.2921159805
 31
0.0
  0
LINE
  5
434
330
1F
100
AcDbEntity
  8
SLD-0
  6
Continuous
370
    15
100
AcDbLine
 10
105.1030967002
 20
45.5080607926
 30
0.0
 11
105.1030967002
 21
45.523175498
 31
0.0
  0
LINE
  5
435
330
1F
100
AcDbEntity
  8
SLD-0
  6
Continuous
370
    15
100
AcDbLine
 10
105.1030967002
 20
45.5080607926
 30
0.0
 11
105.3530959456
 21
45.2921159805
 31
0.0
  0
ARC
  5
436
330
1F
100
AcDbEntity
  8
SLD-0
  6
Continuous
370
    15
100
AcDbCircle
 10
113.6030962675
 20
45.9579753042
 30
0.0
 40
0.1258713772660804
100
AcDbArc
 50
6.7449057139
 51
173.2550942861
  0
ARC
  5
437
330
1F
100
AcDbEntity
  8
SLD-0
  6
Continuous
370
    15
100
AcDbCircle
 10
110.6030959371
 20
45.957975757
 30
0.0
 40
0.1258713240874575
100
AcDbArc
 50
6.7447010348
 51
173.2552989652
  0
LINE
  5
438
330
1F
100
AcDbEntity
  8
SLD-0
  6
Continuous
370
    15
100
AcDbLine
 10
105.1030967002
 20
46.7850199077
 30
0.0
 11
105.1030967002
 21
46.8073458365
 31
0.0
  0
LINE
  5
439
330
1F
100
AcDbEntity
  8
SLD-0
  6
Continuous
370
    15
100
AcDbLine
 10
121.9780962121
 20
46.8073458365
 30
0.0
 11
121.9780962121
 21
46.7850199077
 31
0.0
  0
LINE
  5
43A
330
1F
100
AcDbEntity
  8
SLD-0
  6
Continuous
370
    15
100
AcDbLine
 10
107.4191067455
 20
43.7270904332
 30
0.0
 11
107.4191067455
 21
9.2137407306
 31
0.0
  0
LINE
  5
43B
330
1F
100
AcDbEntity
  8
SLD-0
  6
Continuous
370
    15
100
AcDbLine
 10
107.3783960691
 20
8.1637152776
 30
0.0
 11
107.4327993873
 21
8.1637152776
 31
0.0
  0
LINE
  5
43C
330
1F
100
AcDbEntity
  8
SLD-0
  6
Continuous
370
    15
100
AcDbLine
 10
107.3783960691
 20
9.0661152905
 30
0.0
 11
107.4327993873
 21
9.0661152905
 31
0.0
  0
LINE
  5
43D
330
1F
100
AcDbEntity
  8
SLD-0
  6
Continuous
370
    15
100
AcDbLine
 10
106.9069960748
 20
9.1804977877
 30
0.0
 11
106.9266961139
 21
9.1804977877
 31
0.0
  0
LINE
  5
43E
330
1F
100
AcDbEntity
  8
SLD-0
  6
Continuous
370
    15
100
AcDbLine
 10
107.3352308078
 20
9.1804977877
 30
0.0
 11
107.3910714427
 21
9.1804977877
 31
0.0
  0
LWPOLYLINE
  5
43F
330
1F
100
AcDbEntity
  8
SLD-0
  6
Continuous
370
    15
100
AcDbPolyline
 90
        3
 70
   128
 43
0.0
 10
118.9688433753
 20
17.4268266294
 10
118.9723671479
 20
17.4281272544
 10
118.9758431078
 20
17.4299400334
  0
LWPOLYLINE
  5
440
330
1F
100
AcDbEntity
  8
SLD-0
  6
Continuous
370
    15
100
AcDbPolyline
 90
        3
 70
   128
 43
0.0
 10
118.9758431078
 20
17.4836909858
 10
118.9723671479
 20
17.4855031782
 10
118.9688433753
 20
17.4868038032
  0
LINE
  5
441
330
1F
100
AcDbEntity
  8
SLD-0
  6
Continuous
370
    15
100
AcDbLine
 10
104.9749537539
 20
43.7394149841
 30
0.0
 11
104.9749537539
 21
43.7403160937
 31
0.0
  0
LINE
  5
442
330
1F
100
AcDbEntity
  8
SLD-0
  6
Continuous
370
    15
100
AcDbLine
 10
104.9843098058
 20
43.7394149841
 30
0.0
 11
104.9843098058
 21
43.7403160937
 31
0.0
  0
LINE
  5
443
330
1F
100
AcDbEntity
  8
SLD-0
  6
Continuous
370
    15
100
AcDbLine
 10
123.5269962529
 20
43.7403160937
 30
0.0
 11
123.5269962529
 21
43.7394149841
 31
0.0
  0
DIMENSION
  5
444
330
1F
100
AcDbEntity
  8
DIM
100
AcDbDimension
  2
_D_8
 10
97.7505672689
 20
8.0791152882
 30
0.0
 11
97.7505672689
 21
25.9821152882
 31
0.0
 70
   160
  1
<>
 71
     2
 42
-1.0
  3
SLDDIMSTYLE0
100
AcDbAlignedDimension
 13
104.4379962534
 23
43.8851152882
 33
0.0
 14
104.4403962534
 24
8.0791152882
 34
0.0
 50
90.0
100
AcDbRotatedDimension
  0
DIMENSION
  5
453
330
1F
100
AcDbEntity
  8
DIM
100
AcDbDimension
  2
_D_9
 10
128.216639412
 20
46.8073457653
 30
0.0
 11
128.216639412
 21
45.2997305267
 31
0.0
 70
   160
  1
<>
 71
     2
 42
-1.0
  3
SLDDIMSTYLE1
100
AcDbAlignedDimension
 13
123.5626962534
 23
43.7921152882
 33
0.0
 14
121.9780962534
 24
46.8073457653
 34
0.0
 50
90.0
100
AcDbRotatedDimension
  0
LINE
  5
45E
330
1F
100
AcDbEntity
  8
SLD-0
  6
Continuous
370
    15
100
AcDbLine
 10
23.5159345464
 20
46.8073458365
 30
0.0
 11
6.6409350345
 21
46.8073458365
 31
0.0
  0
LINE
  5
45F
330
1F
100
AcDbEntity
  8
SLD-0
  6
Continuous
370
    15
100
AcDbLine
 10
23.4956349409
 20
14.5905155547
 30
0.0
 11
23.4956349409
 21
10.3689523492
 31
0.0
  0
LINE
  5
460
330
1F
100
AcDbEntity
  8
SLD-0
  6
Continuous
370
    15
100
AcDbLine
 10
23.4956349409
 20
14.5905155547
 30
0.0
 11
23.9336352144
 21
14.5905155547
 31
0.0
  0
LINE
  5
461
330
1F
100
AcDbEntity
  8
SLD-0
  6
Continuous
370
    15
100
AcDbLine
 10
23.9336352144
 20
14.5905155547
 30
0.0
 11
23.9336352144
 21
18.4655150037
 31
0.0
  0
LINE
  5
462
330
1F
100
AcDbEntity
  8
SLD-0
  6
Continuous
370
    15
100
AcDbLine
 10
23.9336352144
 20
18.4655150037
 30
0.0
 11
23.4956349409
 21
18.4655150037
 31
0.0
  0
LINE
  5
463
330
1F
100
AcDbEntity
  8
SLD-0
  6
Continuous
370
    15
100
AcDbLine
 10
23.4956349409
 20
34.4545155241
 30
0.0
 11
23.4956349409
 21
18.4655150037
 31
0.0
  0
LINE
  5
464
330
1F
100
AcDbEntity
  8
SLD-0
  6
Continuous
370
    15
100
AcDbLine
 10
23.4956349409
 20
34.4545155241
 30
0.0
 11
23.9336352144
 21
34.4545155241
 31
0.0
  0
LINE
  5
465
330
1F
100
AcDbEntity
  8
SLD-0
  6
Continuous
370
    15
100
AcDbLine
 10
23.9336352144
 20
34.4545155241
 30
0.0
 11
23.9336352144
 21
38.3295143864
 31
0.0
  0
LINE
  5
466
330
1F
100
AcDbEntity
  8
SLD-0
  6
Continuous
370
    15
100
AcDbLine
 10
23.9336352144
 20
38.3295143864
 30
0.0
 11
23.4956349409
 21
38.3295143864
 31
0.0
  0
LINE
  5
467
330
1F
100
AcDbEntity
  8
SLD-0
  6
Continuous
370
    15
100
AcDbLine
 10
23.4956349409
 20
42.6312778121
 30
0.0
 11
23.4956349409
 21
38.3295143864
 31
0.0
  0
LINE
  5
468
330
1F
100
AcDbEntity
  8
SLD-0
  6
Continuous
370
    15
100
AcDbLine
 10
24.1810355564
 20
43.3166772543
 30
0.0
 11
24.1810355564
 21
9.683552357
 31
0.0
  0
LINE
  5
469
330
1F
100
AcDbEntity
  8
SLD-0
  6
Continuous
370
    15
100
AcDbLine
 10
23.4956349409
 20
42.6312778121
 30
0.0
 11
24.1810355564
 21
43.3166772543
 31
0.0
  0
LINE
  5
46A
330
1F
100
AcDbEntity
  8
SLD-0
  6
Continuous
370
    15
100
AcDbLine
 10
24.1810355564
 20
9.683552357
 30
0.0
 11
23.4956349409
 21
10.3689523492
 31
0.0
  0
LINE
  5
46B
330
1F
100
AcDbEntity
  8
SLD-0
  6
Continuous
370
    15
100
AcDbLine
 10
24.212034665
 20
9.6174407008
 30
0.0
 11
24.2456350235
 21
9.6174407008
 31
0.0
  0
SPLINE
  5
46C
330
1F
100
AcDbEntity
  8
SLD-0
  6
Continuous
370
    15
100
AcDbSpline
210
0.0
220
0.0
230
1.0
 70
     8
 71
     3
 72
    11
 73
     7
 74
     0
 42
0.00000001
 43
0.00000001
 12
1.0
 22
0.0
 32
0.0
 13
1.0
 23
0.0
 33
0.0
 40
0.0
 40
0.0
 40
0.0
 40
0.0
 40
0.2499954109007764
 40
0.4999999999936309
 40
0.7500042279107917
 40
1.0
 40
1.0
 40
1.0
 40
1.0
 10
24.21203466495347
 20
9.617440700756305
 30
0.0
 10
24.21156868054294
 20
9.622950046386125
 30
0.0
 10
24.21063669461398
 20
9.633968939912807
 30
0.0
 10
24.20346890642772
 20
9.650496526414248
 30
0.0
 10
24.19322083587316
 20
9.667024087990733
 30
0.0
 10
24.18509727042417
 20
9.678042996132113
 30
0.0
 10
24.18103555639115
 20
9.68355235702881
 30
0.0
  0
SPLINE
  5
46D
330
1F
100
AcDbEntity
  8
SLD-0
  6
Continuous
370
    15
100
AcDbSpline
210
0.0
220
0.0
230
1.0
 70
     8
 71
     3
 72
    11
 73
     7
 74
     0
 42
0.00000001
 43
0.00000001
 12
1.0
 22
0.0
 32
0.0
 13
1.0
 23
0.0
 33
0.0
 40
0.0
 40
0.0
 40
0.0
 40
0.0
 40
0.2499972621798613
 40
0.4999999999982294
 40
0.7500025710524268
 40
1.0
 40
1.0
 40
1.0
 40
1.0
 10
24.24563502346593
 20
9.617440700756305
 30
0.0
 10
24.24466395442134
 20
9.622950025529754
 30
0.0
 10
24.24272179506302
 20
9.63396879574625
 30
0.0
 10
24.22778318507017
 20
9.650496536206772
 30
0.0
 10
24.20642994249037
 20
9.667024214407752
 30
0.0
 10
24.18950029372152
 20
9.678043013928352
 30
0.0
 10
24.18103555639115
 20
9.68355235702881
 30
0.0
  0
SPLINE
  5
46E
330
1F
100
AcDbEntity
  8
SLD-0
  6
Continuous
370
    15
100
AcDbSpline
210
0.0
220
0.0
230
1.0
 70
     8
 71
     3
 72
    11
 73
     7
 74
     0
 42
0.00000001
 43
0.00000001
 12
1.0
 22
0.0
 32
0.0
 13
1.0
 23
0.0
 33
0.0
 40
0.0
 40
0.0
 40
0.0
 40
0.0
 40
0.2500129286540541
 40
0.5000115581612382
 40
0.7500101876684224
 40
1.0
 40
1.0
 40
1.0
 40
1.0
 10
24.18103555639115
 20
43.31667725429997
 30
0.0
 10
24.18509718860322
 20
43.32218728563382
 30
0.0
 10
24.19322022072785
 20
43.3332070331628
 30
0.0
 10
24.20346897991071
 20
43.34973430730686
 30
0.0
 10
24.21063667898677
 20
43.36626142274123
 30
0.0
 10
24.21156867510975
 20
43.37727995939679
 30
0.0
 10
24.21203466495347
 20
43.38278913056993
 30
0.0
  0
LINE
  5
46F
330
1F
100
AcDbEntity
  8
SLD-0
  6
Continuous
370
    15
100
AcDbLine
 10
24.212034665
 20
43.3827891306
 30
0.0
 11
24.2456350235
 21
43.3827891306
 31
0.0
  0
SPLINE
  5
470
330
1F
100
AcDbEntity
  8
SLD-0
  6
Continuous
370
    15
100
AcDbSpline
210
0.0
220
0.0
230
1.0
 70
     8
 71
     3
 72
    11
 73
     7
 74
     0
 42
0.00000001
 43
0.00000001
 12
1.0
 22
0.0
 32
0.0
 13
1.0
 23
0.0
 33
0.0
 40
0.0
 40
0.0
 40
0.0
 40
0.0
 40
0.2500053506001714
 40
0.5000053367063144
 40
0.7500053228124574
 40
0.9999999999999999
 40
0.9999999999999999
 40
0.9999999999999999
 40
0.9999999999999999
 10
24.18103555639115
 20
43.31667725429997
 30
0.0
 10
24.18950021500728
 20
43.32218733975163
 30
0.0
 10
24.20642935060896
 20
43.33320739242218
 30
0.0
 10
24.227783255785
 20
43.34973424854403
 30
0.0
 10
24.24272178002545
 20
43.36626157272953
 30
0.0
 10
24.24466394919305
 20
43.37727998362079
 30
0.0
 10
24.24563502346593
 20
43.38278913056993
 30
0.0
  0
LINE
  5
471
330
1F
100
AcDbEntity
  8
SLD-0
  6
Continuous
370
    15
100
AcDbLine
 10
24.2456350235
 20
9.6174407008
 30
0.0
 11
24.2456350235
 21
43.3827891306
 31
0.0
  0
LINE
  5
472
330
1F
100
AcDbEntity
  8
SLD-0
  6
Continuous
370
    15
100
AcDbLine
 10
24.212034665
 20
43.3829017693
 30
0.0
 11
24.212034665
 21
43.3827891306
 31
0.0
  0
LINE
  5
473
330
1F
100
AcDbEntity
  8
SLD-0
  6
Continuous
370
    15
100
AcDbLine
 10
24.212034665
 20
43.3829017693
 30
0.0
 11
24.2456350235
 21
43.3829017693
 31
0.0
  0
LINE
  5
474
330
1F
100
AcDbEntity
  8
SLD-0
  6
Continuous
370
    15
100
AcDbLine
 10
24.2456350235
 20
43.3829017693
 30
0.0
 11
24.2456350235
 21
43.3827891306
 31
0.0
  0
LINE
  5
475
330
1F
100
AcDbEntity
  8
SLD-0
  6
Continuous
370
    15
100
AcDbLine
 10
24.212034665
 20
9.6173279887
 30
0.0
 11
24.2456350235
 21
9.6173279887
 31
0.0
  0
LINE
  5
476
330
1F
100
AcDbEntity
  8
SLD-0
  6
Continuous
370
    15
100
AcDbLine
 10
24.212034665
 20
9.6174407008
 30
0.0
 11
24.212034665
 21
9.6173279887
 31
0.0
  0
LINE
  5
477
330
1F
100
AcDbEntity
  8
SLD-0
  6
Continuous
370
    15
100
AcDbLine
 10
24.2456350235
 20
9.6174407008
 30
0.0
 11
24.2456350235
 21
9.6173279887
 31
0.0
  0
LINE
  5
478
330
1F
100
AcDbEntity
  8
SLD-0
  6
Continuous
370
    15
100
AcDbLine
 10
23.4956349409
 20
43.8515163025
 30
0.0
 11
24.1810355564
 21
43.8515163025
 31
0.0
  0
LINE
  5
479
330
1F
100
AcDbEntity
  8
SLD-0
  6
Continuous
370
    15
100
AcDbLine
 10
23.4956349409
 20
43.8515163025
 30
0.0
 11
23.4956349409
 21
43.8851154877
 31
0.0
  0
LINE
  5
47A
330
1F
100
AcDbEntity
  8
SLD-0
  6
Continuous
370
    15
100
AcDbLine
 10
23.4956349409
 20
43.8851154877
 30
0.0
 11
24.1810355564
 21
43.8851154877
 31
0.0
  0
LINE
  5
47B
330
1F
100
AcDbEntity
  8
SLD-0
  6
Continuous
370
    15
100
AcDbLine
 10
24.1810355564
 20
43.8515163025
 30
0.0
 11
24.1810355564
 21
43.8851154877
 31
0.0
  0
LINE
  5
47C
330
1F
100
AcDbEntity
  8
SLD-0
  6
Continuous
370
    15
100
AcDbLine
 10
24.1810355564
 20
9.1487152888
 30
0.0
 11
24.1810355564
 21
9.1151152878
 31
0.0
  0
LINE
  5
47D
330
1F
100
AcDbEntity
  8
SLD-0
  6
Continuous
370
    15
100
AcDbLine
 10
23.4956349409
 20
9.1487152888
 30
0.0
 11
23.4956349409
 21
9.1151152878
 31
0.0
  0
LINE
  5
47E
330
1F
100
AcDbEntity
  8
SLD-0
  6
Continuous
370
    15
100
AcDbLine
 10
24.1786349441
 20
9.1151152878
 30
0.0
 11
24.1810355564
 21
9.1151152878
 31
0.0
  0
LINE
  5
47F
330
1F
100
AcDbEntity
  8
SLD-0
  6
Continuous
370
    15
100
AcDbLine
 10
23.4956349409
 20
9.1487152888
 30
0.0
 11
24.1810355564
 21
9.1487152888
 31
0.0
  0
ARC
  5
480
330
1F
100
AcDbEntity
  8
SLD-0
  6
Continuous
370
    15
100
AcDbCircle
 10
24.1810349932
 20
43.8205152882
 30
0.0
 40
0.0309999999999988
100
AcDbArc
 50
0.0
 51
90.0
  0
ARC
  5
481
330
1F
100
AcDbEntity
  8
SLD-0
  6
Continuous
370
    15
100
AcDbCircle
 10
24.1810349932
 20
43.8205152882
 30
0.0
 40
0.0645999999999951
100
AcDbArc
 50
0.0
 51
90.0
  0
LINE
  5
482
330
1F
100
AcDbEntity
  8
SLD-0
  6
Continuous
370
    15
100
AcDbLine
 10
24.212034665
 20
43.8205148473
 30
0.0
 11
24.2456350235
 21
43.8205148473
 31
0.0
  0
LINE
  5
483
330
1F
100
AcDbEntity
  8
SLD-0
  6
Continuous
370
    15
100
AcDbLine
 10
24.212034665
 20
43.3829017693
 30
0.0
 11
24.212034665
 21
43.8205148473
 31
0.0
  0
LINE
  5
484
330
1F
100
AcDbEntity
  8
SLD-0
  6
Continuous
370
    15
100
AcDbLine
 10
24.2456350235
 20
43.8205148473
 30
0.0
 11
24.2456350235
 21
43.3829017693
 31
0.0
  0
ARC
  5
485
330
1F
100
AcDbEntity
  8
SLD-0
  6
Continuous
370
    15
100
AcDbCircle
 10
24.1810349932
 20
9.1797152882
 30
0.0
 40
0.0309999999999953
100
AcDbArc
 50
270.0
 51
0.0
  0
LINE
  5
486
330
1F
100
AcDbEntity
  8
SLD-0
  6
Continuous
370
    15
100
AcDbLine
 10
24.212034665
 20
9.1797152883
 30
0.0
 11
24.2456350235
 21
9.1797152883
 31
0.0
  0
ARC
  5
487
330
1F
100
AcDbEntity
  8
SLD-0
  6
Continuous
370
    15
100
AcDbCircle
 10
24.1810349932
 20
9.1797152882
 30
0.0
 40
0.0646000000000022
100
AcDbArc
 50
270.0
 51
0.0
  0
LINE
  5
488
330
1F
100
AcDbEntity
  8
SLD-0
  6
Continuous
370
    15
100
AcDbLine
 10
24.212034665
 20
9.1797152883
 30
0.0
 11
24.212034665
 21
9.6173279887
 31
0.0
  0
LINE
  5
489
330
1F
100
AcDbEntity
  8
SLD-0
  6
Continuous
370
    15
100
AcDbLine
 10
24.2456350235
 20
9.6173279887
 30
0.0
 11
24.2456350235
 21
9.1797152883
 31
0.0
  0
LINE
  5
48A
330
1F
100
AcDbEntity
  8
SLD-0
  6
Continuous
370
    15
100
AcDbLine
 10
23.0053351115
 20
43.7223877675
 30
0.0
 11
23.0053351115
 21
43.7394149841
 31
0.0
  0
LINE
  5
48B
330
1F
100
AcDbEntity
  8
SLD-0
  6
Continuous
370
    15
100
AcDbLine
 10
23.0053351115
 20
43.7394149841
 30
0.0
 11
23.3803351528
 21
43.7394149841
 31
0.0
  0
LINE
  5
48C
330
1F
100
AcDbEntity
  8
SLD-0
  6
Continuous
370
    15
100
AcDbLine
 10
23.3803351528
 20
43.1454148061
 30
0.0
 11
23.3803351528
 21
43.7394149841
 31
0.0
  0
LINE
  5
48D
330
1F
100
AcDbEntity
  8
SLD-0
  6
Continuous
370
    15
100
AcDbLine
 10
21.9062782612
 20
43.1454148061
 30
0.0
 11
23.3803351528
 21
43.1454148061
 31
0.0
  0
LINE
  5
48E
330
1F
100
AcDbEntity
  8
SLD-0
  6
Continuous
370
    15
100
AcDbLine
 10
21.9062782612
 20
43.1454148061
 30
0.0
 11
21.3122780832
 21
43.7394149841
 31
0.0
  0
LINE
  5
48F
330
1F
100
AcDbEntity
  8
SLD-0
  6
Continuous
370
    15
100
AcDbLine
 10
21.3122780832
 20
43.7394149841
 30
0.0
 11
21.6923351327
 21
43.7394149841
 31
0.0
  0
LINE
  5
490
330
1F
100
AcDbEntity
  8
SLD-0
  6
Continuous
370
    15
100
AcDbLine
 10
21.6923351327
 20
43.7394149841
 30
0.0
 11
21.6923351327
 21
43.7223877675
 31
0.0
  0
LINE
  5
491
330
1F
100
AcDbEntity
  8
SLD-0
  6
Continuous
370
    15
100
AcDbLine
 10
21.6923351327
 20
43.7223877675
 30
0.0
 11
23.0053351115
 21
43.7223877675
 31
0.0
  0
LINE
  5
492
330
1F
100
AcDbEntity
  8
SLD-0
  6
Continuous
370
    15
100
AcDbLine
 10
21.2523355223
 20
43.7921158153
 30
0.0
 11
21.6923351327
 21
43.7921158153
 31
0.0
  0
LINE
  5
493
330
1F
100
AcDbEntity
  8
SLD-0
  6
Continuous
370
    15
100
AcDbLine
 10
21.6923351327
 20
43.7394149841
 30
0.0
 11
21.6923351327
 21
43.7921158153
 31
0.0
  0
SPLINE
  5
494
330
1F
100
AcDbEntity
  8
SLD-0
  6
Continuous
370
    15
100
AcDbSpline
210
0.0
220
0.0
230
1.0
 70
     8
 71
     3
 72
    11
 73
     7
 74
     0
 42
0.00000001
 43
0.00000001
 12
1.0
 22
0.0
 32
0.0
 13
1.0
 23
0.0
 33
0.0
 40
0.0
 40
0.0
 40
0.0
 40
0.0
 40
0.2500080302662009
 40
0.5000016044966806
 40
0.7500029254523414
 40
1.0
 40
1.0
 40
1.0
 40
1.0
 10
21.2523355223172
 20
43.79211581532648
 30
0.0
 10
21.2573306457782
 20
43.79132315237664
 30
0.0
 10
21.26732060387073
 20
43.78973787231054
 30
0.0
 10
21.2823071702904
 20
43.77755192216145
 30
0.0
 10
21.29729224130075
 20
43.76013142411966
 30
0.0
 10
21.30728283084239
 20
43.74632042502899
 30
0.0
 10
21.31227808318895
 20
43.73941498413097
 30
0.0
  0
SPLINE
  5
495
330
1F
100
AcDbEntity
  8
SLD-0
  6
Continuous
370
    15
100
AcDbSpline
210
0.0
220
0.0
230
1.0
 70
     8
 71
     3
 72
    11
 73
     7
 74
     0
 42
0.00000001
 43
0.00000001
 12
1.0
 22
0.0
 32
0.0
 13
1.0
 23
0.0
 33
0.0
 40
0.0
 40
0.0
 40
0.0
 40
0.0
 40
0.2500020672988553
 40
0.5000002184894541
 40
0.7499904161723301
 40
1.0
 40
1.0
 40
1.0
 40
1.0
 10
21.2523355223172
 20
43.77041643933286
 30
0.0
 10
21.25733073303284
 20
43.76995019529753
 30
0.0
 10
21.26732107621764
 20
43.76901771453022
 30
0.0
 10
21.28230644137968
 20
43.76184725481742
 30
0.0
 10
21.29729317145229
 20
43.75160335067537
 30
0.0
 10
21.30728298350071
 20
43.74347787799356
 30
0.0
 10
21.31227808318895
 20
43.73941498413097
 30
0.0
  0
LINE
  5
496
330
1F
100
AcDbEntity
  8
SLD-0
  6
Continuous
370
    15
100
AcDbLine
 10
21.2523355223
 20
43.7921158153
 30
0.0
 11
21.2523355223
 21
43.7704164393
 31
0.0
  0
LINE
  5
497
330
1F
100
AcDbEntity
  8
SLD-0
  6
Continuous
370
    15
100
AcDbLine
 10
23.0053351115
 20
43.7921158153
 30
0.0
 11
23.0053351115
 21
43.7394149841
 31
0.0
  0
LINE
  5
498
330
1F
100
AcDbEntity
  8
SLD-0
  6
Continuous
370
    15
100
AcDbLine
 10
23.0053351115
 20
43.7921158153
 30
0.0
 11
23.3803351528
 21
43.7921158153
 31
0.0
  0
LINE
  5
499
330
1F
100
AcDbEntity
  8
SLD-0
  6
Continuous
370
    15
100
AcDbLine
 10
23.3803351528
 20
43.7394149841
 30
0.0
 11
23.3803351528
 21
43.7921158153
 31
0.0
  0
SPLINE
  5
49A
330
1F
100
AcDbEntity
  8
SLD-0
  6
Continuous
370
    15
100
AcDbSpline
210
0.0
220
0.0
230
1.0
 70
     8
 71
     3
 72
    11
 73
     7
 74
     0
 42
0.00000001
 43
0.00000001
 12
1.0
 22
0.0
 32
0.0
 13
1.0
 23
0.0
 33
0.0
 40
0.0
 40
0.0
 40
0.0
 40
0.0
 40
0.2500065976048202
 40
0.4999948725725369
 40
0.7500043402451054
 40
1.0
 40
1.0
 40
1.0
 40
1.0
 10
6.045342734795542
 20
43.79211581532648
 30
0.0
 10
6.044946918965477
 20
43.79132319796908
 30
0.0
 10
6.044155316314143
 20
43.78973802134414
 30
0.0
 10
6.043651013534563
 20
43.77755137038335
 30
0.0
 10
6.04423095217539
 20
43.76013190940576
 30
0.0
 10
6.045972607286011
 20
43.74632049875267
 30
0.0
 10
6.046843410792937
 20
43.73941498413097
 30
0.0
  0
LINE
  5
49B
330
1F
100
AcDbEntity
  8
SLD-0
  6
Continuous
370
    15
100
AcDbLine
 10
6.0453427348
 20
43.7921158153
 30
0.0
 11
21.2523355223
 21
43.7921158153
 31
0.0
  0
SPLINE
  5
49C
330
1F
100
AcDbEntity
  8
SLD-0
  6
Continuous
370
    15
100
AcDbSpline
210
0.0
220
0.0
230
1.0
 70
     8
 71
     3
 72
    12
 73
     8
 74
     0
 42
0.00000001
 43
0.00000001
 12
1.0
 22
0.0
 32
0.0
 13
1.0
 23
0.0
 33
0.0
 40
0.0
 40
0.0
 40
0.0
 40
0.0
 40
0.2373815731797834
 40
0.4749137301542748
 40
0.7124365315249235
 40
0.949949448482094
 40
1.0
 40
1.0
 40
1.0
 40
1.0
 10
21.20327198243673
 20
43.73941498413097
 30
0.0
 10
21.20643882988232
 20
43.74596521861933
 30
0.0
 10
21.21277453367378
 20
43.75906984275922
 30
0.0
 10
21.22412373548071
 20
43.77603773159579
 30
0.0
 10
21.23648369983654
 20
43.78791835181197
 30
0.0
 10
21.24614199743151
 20
43.79188646044102
 30
0.0
 10
21.25141734558871
 20
43.79208181395856
 30
0.0
 10
21.2523355223172
 20
43.79211581532648
 30
0.0
  0
LINE
  5
49D
330
1F
100
AcDbEntity
  8
SLD-0
  6
Continuous
370
    15
100
AcDbLine
 10
21.2032719824
 20
43.7394149841
 30
0.0
 11
6.0468434108
 21
43.7394149841
 31
0.0
  0
LINE
  5
49E
330
1F
100
AcDbEntity
  8
SLD-0
  6
Continuous
370
    15
100
AcDbLine
 10
21.2032719824
 20
43.7394149841
 30
0.0
 11
21.2077669705
 21
43.7394149841
 31
0.0
  0
SPLINE
  5
49F
330
1F
100
AcDbEntity
  8
SLD-0
  6
Continuous
370
    15
100
AcDbSpline
210
0.0
220
0.0
230
1.0
 70
     8
 71
     3
 72
    11
 73
     7
 74
     0
 42
0.00000001
 43
0.00000001
 12
1.0
 22
0.0
 32
0.0
 13
1.0
 23
0.0
 33
0.0
 40
0.0
 40
0.0
 40
0.0
 40
0.0
 40
0.2752446558078267
 40
0.5507992755590019
 40
0.8263645087286396
 40
0.9999999999999999
 40
0.9999999999999999
 40
0.9999999999999999
 40
0.9999999999999999
 10
21.20776697051024
 20
43.73941498413097
 30
0.0
 10
21.21138614960145
 20
43.74388858066529
 30
0.0
 10
21.21862858348523
 20
43.75284081162874
 30
0.0
 10
21.23092759845763
 20
43.76371786620913
 30
0.0
 10
21.24234843480595
 20
43.769598595356
 30
0.0
 10
21.24955130264172
 20
43.77018843919875
 30
0.0
 10
21.2523355223172
 20
43.77041643933286
 30
0.0
  0
LINE
  5
4A0
330
1F
100
AcDbEntity
  8
SLD-0
  6
Continuous
370
    15
100
AcDbLine
 10
21.2032719824
 20
43.7394149841
 30
0.0
 11
20.8252799757
 21
43.1454148061
 31
0.0
  0
LINE
  5
4A1
330
1F
100
AcDbEntity
  8
SLD-0
  6
Continuous
370
    15
100
AcDbLine
 10
20.8252799757
 20
43.1454148061
 30
0.0
 11
6.1699115291
 21
43.1454148061
 31
0.0
  0
LINE
  5
4A2
330
1F
100
AcDbEntity
  8
SLD-0
  6
Continuous
370
    15
100
AcDbLine
 10
6.1699115291
 20
43.1454148061
 30
0.0
 11
6.0468434108
 21
43.7394149841
 31
0.0
  0
LINE
  5
4A3
330
1F
100
AcDbEntity
  8
SLD-0
  6
Continuous
370
    15
100
AcDbLine
 10
21.2077669705
 20
43.7394149841
 30
0.0
 11
20.8297761371
 21
43.1454148061
 31
0.0
  0
LINE
  5
4A4
330
1F
100
AcDbEntity
  8
SLD-0
  6
Continuous
370
    15
100
AcDbLine
 10
20.8252799757
 20
43.1454148061
 30
0.0
 11
20.8297761371
 21
43.1454148061
 31
0.0
  0
LINE
  5
4A5
330
1F
100
AcDbEntity
  8
SLD-0
  6
Continuous
370
    15
100
AcDbLine
 10
24.1593350071
 20
43.7704164393
 30
0.0
 11
24.1593350071
 21
43.7921158153
 31
0.0
  0
LINE
  5
4A6
330
1F
100
AcDbEntity
  8
SLD-0
  6
Continuous
370
    15
100
AcDbLine
 10
23.3803351528
 20
43.7704164393
 30
0.0
 11
24.1593350071
 21
43.7704164393
 31
0.0
  0
LINE
  5
4A7
330
1F
100
AcDbEntity
  8
SLD-0
  6
Continuous
370
    15
100
AcDbLine
 10
23.3803351528
 20
43.7921158153
 30
0.0
 11
24.1593350071
 21
43.7921158153
 31
0.0
  0
LINE
  5
4A8
330
1F
100
AcDbEntity
  8
SLD-0
  6
Continuous
370
    15
100
AcDbLine
 10
24.190335289
 20
43.7394149841
 30
0.0
 11
24.212034665
 21
43.7394149841
 31
0.0
  0
LINE
  5
4A9
330
1F
100
AcDbEntity
  8
SLD-0
  6
Continuous
370
    15
100
AcDbLine
 10
24.190335289
 20
43.3296353979
 30
0.0
 11
24.190335289
 21
43.7394149841
 31
0.0
  0
ARC
  5
4AA
330
1F
100
AcDbEntity
  8
SLD-0
  6
Continuous
370
    15
100
AcDbCircle
 10
24.1593349932
 20
43.7394152882
 30
0.0
 40
0.0310000000000024
100
AcDbArc
 50
0.0
 51
90.0
  0
ARC
  5
4AB
330
1F
100
AcDbEntity
  8
SLD-0
  6
Continuous
370
    15
100
AcDbCircle
 10
24.1593349932
 20
43.7394152882
 30
0.0
 40
0.0527000000000015
100
AcDbArc
 50
0.0
 51
90.0
  0
LINE
  5
4AC
330
1F
100
AcDbEntity
  8
SLD-0
  6
Continuous
370
    15
100
AcDbLine
 10
23.0053351115
 20
43.7704164393
 30
0.0
 11
21.6923351327
 21
43.7704164393
 31
0.0
  0
LINE
  5
4AD
330
1F
100
AcDbEntity
  8
SLD-0
  6
Continuous
370
    15
100
AcDbLine
 10
23.0053351115
 20
43.7921158153
 30
0.0
 11
21.6923351327
 21
43.7921158153
 31
0.0
  0
LINE
  5
4AE
330
1F
100
AcDbEntity
  8
SLD-0
  6
Continuous
370
    15
100
AcDbLine
 10
5.0563349932
 20
43.7921158153
 30
0.0
 11
5.0563349932
 21
43.7704164393
 31
0.0
  0
LINE
  5
4AF
330
1F
100
AcDbEntity
  8
SLD-0
  6
Continuous
370
    15
100
AcDbLine
 10
5.0563349932
 20
43.7704164393
 30
0.0
 11
6.0453427348
 21
43.7704164393
 31
0.0
  0
LINE
  5
4B0
330
1F
100
AcDbEntity
  8
SLD-0
  6
Continuous
370
    15
100
AcDbLine
 10
5.0563349932
 20
43.7921158153
 30
0.0
 11
6.0453427348
 21
43.7921158153
 31
0.0
  0
LINE
  5
4B1
330
1F
100
AcDbEntity
  8
SLD-0
  6
Continuous
370
    15
100
AcDbLine
 10
5.0253349932
 20
43.7394149841
 30
0.0
 11
5.0036349916
 21
43.7394149841
 31
0.0
  0
SPLINE
  5
4B2
330
1F
100
AcDbEntity
  8
SLD-0
  6
Continuous
370
    15
100
AcDbSpline
210
0.0
220
0.0
230
1.0
 70
     8
 71
     3
 72
    11
 73
     7
 74
     0
 42
0.00000001
 43
0.00000001
 12
1.0
 22
0.0
 32
0.0
 13
1.0
 23
0.0
 33
0.0
 40
0.0
 40
0.0
 40
0.0
 40
0.0
 40
0.2500242354707032
 40
0.4999929702163249
 40
0.7499990365115804
 40
1.0
 40
1.0
 40
1.0
 40
1.0
 10
5.025334993220346
 20
43.73941498413097
 30
0.0
 10
5.025800781884357
 20
43.74347772834263
 30
0.0
 10
5.026732255815966
 20
43.75160231491239
 30
0.0
 10
5.033902484605764
 20
43.76184801848515
 30
0.0
 10
5.04414833459518
 20
43.76901750365921
 30
0.0
 10
5.052272801323198
 20
43.76995013061428
 30
0.0
 10
5.056334993230204
 20
43.77041643933286
 30
0.0
  0
SPLINE
  5
4B3
330
1F
100
AcDbEntity
  8
SLD-0
  6
Continuous
370
    15
100
AcDbSpline
210
0.0
220
0.0
230
1.0
 70
     8
 71
     3
 72
    11
 73
     7
 74
     0
 42
0.00000001
 43
0.00000001
 12
1.0
 22
0.0
 32
0.0
 13
1.0
 23
0.0
 33
0.0
 40
0.0
 40
0.0
 40
0.0
 40
0.0
 40
0.2499953819880843
 40
0.5000003788107971
 40
0.749997207554466
 40
1.0
 40
1.0
 40
1.0
 40
1.0
 10
5.00363499160895
 20
43.73941498413097
 30
0.0
 10
5.004427216636635
 20
43.74632045825771
 30
0.0
 10
5.006011697161018
 20
43.76013167209606
 30
0.0
 10
5.018197979560716
 20
43.77755187590595
 30
0.0
 10
5.035618339337149
 20
43.78973773786756
 30
0.0
 10
5.049429387022499
 20
43.79132311653701
 30
0.0
 10
5.056334993230207
 20
43.79211581532648
 30
0.0
  0
LINE
  5
4B4
330
1F
100
AcDbEntity
  8
SLD-0
  6
Continuous
370
    15
100
AcDbLine
 10
5.0036349916
 20
43.7394149841
 30
0.0
 11
5.0036349916
 21
43.1454148061
 31
0.0
  0
LINE
  5
4B5
330
1F
100
AcDbEntity
  8
SLD-0
  6
Continuous
370
    15
100
AcDbLine
 10
5.0253349932
 20
43.7394149841
 30
0.0
 11
5.0253349932
 21
43.5883477159
 31
0.0
  0
LINE
  5
4B6
330
1F
100
AcDbEntity
  8
SLD-0
  6
Continuous
370
    15
100
AcDbLine
 10
5.0253349932
 20
43.1454148061
 30
0.0
 11
5.0036349916
 21
43.1454148061
 31
0.0
  0
SPLINE
  5
4B7
330
1F
100
AcDbEntity
  8
SLD-0
  6
Continuous
370
    15
100
AcDbSpline
210
0.0
220
0.0
230
1.0
 70
     8
 71
     3
 72
    11
 73
     7
 74
     0
 42
0.00000001
 43
0.00000001
 12
1.0
 22
0.0
 32
0.0
 13
1.0
 23
0.0
 33
0.0
 40
0.0
 40
0.0
 40
0.0
 40
0.0
 40
0.2500001591632458
 40
0.4999981408869586
 40
0.7499938402505982
 40
1.0
 40
1.0
 40
1.0
 40
1.0
 10
21.31227808318895
 20
9.201415288175706
 30
0.0
 10
21.30728287444711
 20
9.194509646613069
 30
0.0
 10
21.29729250047044
 20
9.180698423634224
 30
0.0
 10
21.28230692290912
 20
9.163278685979755
 30
0.0
 10
21.26732077813482
 20
9.151091593466873
 30
0.0
 10
21.25733067725636
 20
9.149507401433487
 30
0.0
 10
21.2523355223172
 20
9.148715288845596
 30
0.0
  0
LINE
  5
4B8
330
1F
100
AcDbEntity
  8
SLD-0
  6
Continuous
370
    15
100
AcDbLine
 10
21.2523355223
 20
9.1487152888
 30
0.0
 11
21.2523355223
 21
9.1704152882
 31
0.0
  0
SPLINE
  5
4B9
330
1F
100
AcDbEntity
  8
SLD-0
  6
Continuous
370
    15
100
AcDbSpline
210
0.0
220
0.0
230
1.0
 70
     8
 71
     3
 72
    11
 73
     7
 74
     0
 42
0.00000001
 43
0.00000001
 12
1.0
 22
0.0
 32
0.0
 13
1.0
 23
0.0
 33
0.0
 40
0.0
 40
0.0
 40
0.0
 40
0.0
 40
0.2499993641947845
 40
0.5000027427901154
 40
0.7499983384763157
 40
1.0
 40
1.0
 40
1.0
 40
1.0
 10
21.31227808318895
 20
9.201415288175706
 30
0.0
 10
21.30728283502608
 20
9.197353120100471
 30
0.0
 10
21.29729225848841
 20
9.189228718721155
 30
0.0
 10
21.282307134716
 20
9.178982133082691
 30
0.0
 10
21.26732090631971
 20
9.171813136753041
 30
0.0
 10
21.2573306907176
 20
9.170881241463029
 30
0.0
 10
21.2523355223172
 20
9.170415288165268
 30
0.0
  0
LINE
  5
4BA
330
1F
100
AcDbEntity
  8
SLD-0
  6
Continuous
370
    15
100
AcDbLine
 10
21.6923351327
 20
9.2014152882
 30
0.0
 11
21.3122780832
 21
9.2014152882
 31
0.0
  0
LINE
  5
4BB
330
1F
100
AcDbEntity
  8
SLD-0
  6
Continuous
370
    15
100
AcDbLine
 10
21.6923351327
 20
9.1487152888
 30
0.0
 11
21.6923351327
 21
9.2014152882
 31
0.0
  0
LINE
  5
4BC
330
1F
100
AcDbEntity
  8
SLD-0
  6
Continuous
370
    15
100
AcDbLine
 10
21.6923351327
 20
9.1487152888
 30
0.0
 11
21.2523355223
 21
9.1487152888
 31
0.0
  0
LINE
  5
4BD
330
1F
100
AcDbEntity
  8
SLD-0
  6
Continuous
370
    15
100
AcDbLine
 10
21.6923351327
 20
9.2184437079
 30
0.0
 11
21.6923351327
 21
9.2014152882
 31
0.0
  0
LINE
  5
4BE
330
1F
100
AcDbEntity
  8
SLD-0
  6
Continuous
370
    15
100
AcDbLine
 10
21.9062782612
 20
9.7954153081
 30
0.0
 11
23.3803351528
 21
9.7954153081
 31
0.0
  0
LINE
  5
4BF
330
1F
100
AcDbEntity
  8
SLD-0
  6
Continuous
370
    15
100
AcDbLine
 10
23.3803351528
 20
9.7954153081
 30
0.0
 11
23.3803351528
 21
9.2014152882
 31
0.0
  0
LINE
  5
4C0
330
1F
100
AcDbEntity
  8
SLD-0
  6
Continuous
370
    15
100
AcDbLine
 10
23.3803351528
 20
9.2014152882
 30
0.0
 11
23.0053351115
 21
9.2014152882
 31
0.0
  0
LINE
  5
4C1
330
1F
100
AcDbEntity
  8
SLD-0
  6
Continuous
370
    15
100
AcDbLine
 10
23.0053351115
 20
9.2014152882
 30
0.0
 11
23.0053351115
 21
9.2184437079
 31
0.0
  0
LINE
  5
4C2
330
1F
100
AcDbEntity
  8
SLD-0
  6
Continuous
370
    15
100
AcDbLine
 10
23.0053351115
 20
9.2184437079
 30
0.0
 11
21.6923351327
 21
9.2184437079
 31
0.0
  0
LINE
  5
4C3
330
1F
100
AcDbEntity
  8
SLD-0
  6
Continuous
370
    15
100
AcDbLine
 10
21.3122780832
 20
9.2014152882
 30
0.0
 11
21.9062782612
 21
9.7954153081
 31
0.0
  0
LINE
  5
4C4
330
1F
100
AcDbEntity
  8
SLD-0
  6
Continuous
370
    15
100
AcDbLine
 10
23.3803351528
 20
9.1487152888
 30
0.0
 11
23.0053351115
 21
9.1487152888
 31
0.0
  0
LINE
  5
4C5
330
1F
100
AcDbEntity
  8
SLD-0
  6
Continuous
370
    15
100
AcDbLine
 10
23.0053351115
 20
9.2014152882
 30
0.0
 11
23.0053351115
 21
9.1487152888
 31
0.0
  0
LINE
  5
4C6
330
1F
100
AcDbEntity
  8
SLD-0
  6
Continuous
370
    15
100
AcDbLine
 10
23.3803351528
 20
9.1487152888
 30
0.0
 11
23.3803351528
 21
9.2014152882
 31
0.0
  0
SPLINE
  5
4C7
330
1F
100
AcDbEntity
  8
SLD-0
  6
Continuous
370
    15
100
AcDbSpline
210
0.0
220
0.0
230
1.0
 70
     8
 71
     3
 72
    11
 73
     7
 74
     0
 42
0.00000001
 43
0.00000001
 12
1.0
 22
0.0
 32
0.0
 13
1.0
 23
0.0
 33
0.0
 40
0.0
 40
0.0
 40
0.0
 40
0.0
 40
0.2500002727922542
 40
0.5000047467051805
 40
0.7499961998431093
 40
1.0
 40
1.0
 40
1.0
 40
1.0
 10
6.046843410792937
 20
9.201415288175706
 30
0.0
 10
6.045972608085502
 20
9.194509595463263
 30
0.0
 10
6.044230988037258
 20
9.180698093991909
 30
0.0
 10
6.04365100689115
 20
9.163279118760547
 30
0.0
 10
6.044155307555123
 20
9.151091496835214
 30
0.0
 10
6.044946919199311
 20
9.149507371215078
 30
0.0
 10
6.045342734795542
 20
9.148715288845596
 30
0.0
  0
LINE
  5
4C8
330
1F
100
AcDbEntity
  8
SLD-0
  6
Continuous
370
    15
100
AcDbLine
 10
6.0468434108
 20
9.2014152882
 30
0.0
 11
21.2032719824
 21
9.2014152882
 31
0.0
  0
SPLINE
  5
4C9
330
1F
100
AcDbEntity
  8
SLD-0
  6
Continuous
370
    15
100
AcDbSpline
210
0.0
220
0.0
230
1.0
 70
     8
 71
     3
 72
    12
 73
     8
 74
     0
 42
0.00000001
 43
0.00000001
 12
1.0
 22
0.0
 32
0.0
 13
1.0
 23
0.0
 33
0.0
 40
0.0
 40
0.0
 40
0.0
 40
0.0
 40
0.2373999065973931
 40
0.47491832605737
 40
0.7124422260407175
 40
0.9499617053958687
 40
1.0
 40
1.0
 40
1.0
 40
1.0
 10
21.2523355223172
 20
9.148715288845596
 30
0.0
 10
21.24795895584596
 20
9.149428664972579
 30
0.0
 10
21.23920363806937
 20
9.150855773352408
 30
0.0
 10
21.22662745717182
 20
9.161901247626847
 30
0.0
 10
21.21510836755289
 20
9.177848098792532
 30
0.0
 10
21.20759070657532
 20
9.192144346503312
 30
0.0
 10
21.20391210123812
 20
9.20004115454721
 30
0.0
 10
21.20327198243673
 20
9.201415288175706
 30
0.0
  0
LINE
  5
4CA
330
1F
100
AcDbEntity
  8
SLD-0
  6
Continuous
370
    15
100
AcDbLine
 10
21.2523355223
 20
9.1487152888
 30
0.0
 11
6.0453427348
 21
9.1487152888
 31
0.0
  0
LINE
  5
4CB
330
1F
100
AcDbEntity
  8
SLD-0
  6
Continuous
370
    15
100
AcDbLine
 10
21.2032719824
 20
9.2014152882
 30
0.0
 11
21.2077669705
 21
9.2014152882
 31
0.0
  0
SPLINE
  5
4CC
330
1F
100
AcDbEntity
  8
SLD-0
  6
Continuous
370
    15
100
AcDbSpline
210
0.0
220
0.0
230
1.0
 70
     8
 71
     3
 72
    11
 73
     7
 74
     0
 42
0.00000001
 43
0.00000001
 12
1.0
 22
0.0
 32
0.0
 13
1.0
 23
0.0
 33
0.0
 40
0.0
 40
0.0
 40
0.0
 40
0.0
 40
0.275231635748767
 40
0.5507964932314838
 40
0.826368365543025
 40
1.0
 40
1.0
 40
1.0
 40
1.0
 10
21.2523355223172
 20
9.170415288165296
 30
0.0
 10
21.24790715720828
 20
9.170982356565366
 30
0.0
 10
21.23904506558824
 20
9.172117179912732
 30
0.0
 10
21.22628249830549
 20
9.180752016048624
 30
0.0
 10
21.21583245304189
 20
9.191324022410486
 30
0.0
 10
21.21001543534782
 20
9.198602083119377
 30
0.0
 10
21.20776697051025
 20
9.201415288175706
 30
0.0
  0
LINE
  5
4CD
330
1F
100
AcDbEntity
  8
SLD-0
  6
Continuous
370
    15
100
AcDbLine
 10
20.8252799757
 20
9.7954153081
 30
0.0
 11
21.2032719824
 21
9.2014152882
 31
0.0
  0
LINE
  5
4CE
330
1F
100
AcDbEntity
  8
SLD-0
  6
Continuous
370
    15
100
AcDbLine
 10
6.0468434108
 20
9.2014152882
 30
0.0
 11
6.1699115291
 21
9.7954153081
 31
0.0
  0
LINE
  5
4CF
330
1F
100
AcDbEntity
  8
SLD-0
  6
Continuous
370
    15
100
AcDbLine
 10
20.8252799757
 20
9.7954153081
 30
0.0
 11
6.1699115291
 21
9.7954153081
 31
0.0
  0
LINE
  5
4D0
330
1F
100
AcDbEntity
  8
SLD-0
  6
Continuous
370
    15
100
AcDbLine
 10
20.8252799757
 20
9.7954153081
 30
0.0
 11
20.8297761371
 21
9.7954153081
 31
0.0
  0
LINE
  5
4D1
330
1F
100
AcDbEntity
  8
SLD-0
  6
Continuous
370
    15
100
AcDbLine
 10
20.8297761371
 20
9.7954153081
 30
0.0
 11
21.2077669705
 21
9.2014152882
 31
0.0
  0
LINE
  5
4D2
330
1F
100
AcDbEntity
  8
SLD-0
  6
Continuous
370
    15
100
AcDbLine
 10
24.1593350071
 20
9.1704152882
 30
0.0
 11
24.1593350071
 21
9.1487152888
 31
0.0
  0
LINE
  5
4D3
330
1F
100
AcDbEntity
  8
SLD-0
  6
Continuous
370
    15
100
AcDbLine
 10
23.4956349409
 20
9.1487152888
 30
0.0
 11
23.3803351528
 21
9.1487152888
 31
0.0
  0
LINE
  5
4D4
330
1F
100
AcDbEntity
  8
SLD-0
  6
Continuous
370
    15
100
AcDbLine
 10
24.1593350071
 20
9.1704152882
 30
0.0
 11
23.3803351528
 21
9.1704152882
 31
0.0
  0
LINE
  5
4D5
330
1F
100
AcDbEntity
  8
SLD-0
  6
Continuous
370
    15
100
AcDbLine
 10
24.190335289
 20
9.2014152882
 30
0.0
 11
24.212034665
 21
9.2014152882
 31
0.0
  0
ARC
  5
4D6
330
1F
100
AcDbEntity
  8
SLD-0
  6
Continuous
370
    15
100
AcDbCircle
 10
24.1593349932
 20
9.2014152882
 30
0.0
 40
0.0527000000000015
100
AcDbArc
 50
270.0
 51
0.0
  0
ARC
  5
4D7
330
1F
100
AcDbEntity
  8
SLD-0
  6
Continuous
370
    15
100
AcDbCircle
 10
24.1593349932
 20
9.2014152882
 30
0.0
 40
0.0310000000000024
100
AcDbArc
 50
270.0
 51
0.0
  0
LINE
  5
4D8
330
1F
100
AcDbEntity
  8
SLD-0
  6
Continuous
370
    15
100
AcDbLine
 10
24.190335289
 20
9.2014152882
 30
0.0
 11
24.190335289
 21
9.6704152821
 31
0.0
  0
LINE
  5
4D9
330
1F
100
AcDbEntity
  8
SLD-0
  6
Continuous
370
    15
100
AcDbLine
 10
21.6923351327
 20
9.1487152888
 30
0.0
 11
23.0053351115
 21
9.1487152888
 31
0.0
  0
LINE
  5
4DA
330
1F
100
AcDbEntity
  8
SLD-0
  6
Continuous
370
    15
100
AcDbLine
 10
21.6923351327
 20
9.1704152882
 30
0.0
 11
23.0053351115
 21
9.1704152882
 31
0.0
  0
LINE
  5
4DB
330
1F
100
AcDbEntity
  8
SLD-0
  6
Continuous
370
    15
100
AcDbLine
 10
5.0563349932
 20
9.1487152888
 30
0.0
 11
5.0563349932
 21
9.1704152882
 31
0.0
  0
LINE
  5
4DC
330
1F
100
AcDbEntity
  8
SLD-0
  6
Continuous
370
    15
100
AcDbLine
 10
6.0453427348
 20
9.1487152888
 30
0.0
 11
5.0563349932
 21
9.1487152888
 31
0.0
  0
LINE
  5
4DD
330
1F
100
AcDbEntity
  8
SLD-0
  6
Continuous
370
    15
100
AcDbLine
 10
6.0453427348
 20
9.1704152882
 30
0.0
 11
5.0563349932
 21
9.1704152882
 31
0.0
  0
LINE
  5
4DE
330
1F
100
AcDbEntity
  8
SLD-0
  6
Continuous
370
    15
100
AcDbLine
 10
5.0036349916
 20
9.2014152882
 30
0.0
 11
5.0253349932
 21
9.2014152882
 31
0.0
  0
SPLINE
  5
4DF
330
1F
100
AcDbEntity
  8
SLD-0
  6
Continuous
370
    15
100
AcDbSpline
210
0.0
220
0.0
230
1.0
 70
     8
 71
     3
 72
    11
 73
     7
 74
     0
 42
0.00000001
 43
0.00000001
 12
1.0
 22
0.0
 32
0.0
 13
1.0
 23
0.0
 33
0.0
 40
0.0
 40
0.0
 40
0.0
 40
0.0
 40
0.249999995044648
 40
0.500000001877045
 40
0.7500000049553447
 40
1.0
 40
1.0
 40
1.0
 40
1.0
 10
5.056334993230701
 20
9.148715288845596
 30
0.0
 10
5.04942934107887
 20
9.149507452649353
 30
0.0
 10
5.035618036449597
 20
9.151091780294214
 30
0.0
 10
5.018198317448749
 20
9.163278613240749
 30
0.0
 10
5.006011482663125
 20
9.180698331306287
 30
0.0
 10
5.004427155285189
 20
9.194509635959868
 30
0.0
 10
5.00363499160895
 20
9.201415288175706
 30
0.0
  0
SPLINE
  5
4E0
330
1F
100
AcDbEntity
  8
SLD-0
  6
Continuous
370
    15
100
AcDbSpline
210
0.0
220
0.0
230
1.0
 70
     8
 71
     3
 72
    11
 73
     7
 74
     0
 42
0.00000001
 43
0.00000001
 12
1.0
 22
0.0
 32
0.0
 13
1.0
 23
0.0
 33
0.0
 40
0.0
 40
0.0
 40
0.0
 40
0.0
 40
0.2500000004913166
 40
0.5000000056863735
 40
0.7500000016699783
 40
1.0
 40
1.0
 40
1.0
 40
1.0
 10
5.056334993230701
 20
9.170415288165351
 30
0.0
 10
5.052272844854919
 20
9.170881266969841
 30
0.0
 10
5.044148548026926
 20
9.171813224587588
 30
0.0
 10
5.033901654696481
 20
9.178981949954771
 30
0.0
 10
5.026732928835099
 20
9.1892288430152
 30
0.0
 10
5.025800971760055
 20
9.197353139776164
 30
0.0
 10
5.025334993220346
 20
9.201415288175706
 30
0.0
  0
LINE
  5
4E1
330
1F
100
AcDbEntity
  8
SLD-0
  6
Continuous
370
    15
100
AcDbLine
 10
5.0036349916
 20
9.7954153081
 30
0.0
 11
5.0253349932
 21
9.7954153081
 31
0.0
  0
LINE
  5
4E2
330
1F
100
AcDbEntity
  8
SLD-0
  6
Continuous
370
    15
100
AcDbLine
 10
5.0036349916
 20
9.7954153081
 30
0.0
 11
5.0036349916
 21
9.2014152882
 31
0.0
  0
LINE
  5
4E3
330
1F
100
AcDbEntity
  8
SLD-0
  6
Continuous
370
    15
100
AcDbLine
 10
5.0253349932
 20
9.3524831499
 30
0.0
 11
5.0253349932
 21
9.2014152882
 31
0.0
  0
LINE
  5
4E4
330
1F
100
AcDbEntity
  8
SLD-0
  6
Continuous
370
    15
100
AcDbLine
 10
21.2406351775
 20
8.1487152643
 30
0.0
 11
21.1862318593
 21
8.1487152643
 31
0.0
  0
LINE
  5
4E5
330
1F
100
AcDbEntity
  8
SLD-0
  6
Continuous
370
    15
100
AcDbLine
 10
21.2406351775
 20
9.1147152866
 30
0.0
 11
21.1862318593
 21
9.1147152866
 31
0.0
  0
LINE
  5
4E6
330
1F
100
AcDbEntity
  8
SLD-0
  6
Continuous
370
    15
100
AcDbLine
 10
21.2406351775
 20
9.1151152878
 30
0.0
 11
21.2406351775
 21
8.146115261
 31
0.0
  0
LINE
  5
4E7
330
1F
100
AcDbEntity
  8
SLD-0
  6
Continuous
370
    15
100
AcDbLine
 10
24.1786349441
 20
9.1151152878
 30
0.0
 11
21.2406351775
 21
9.1151152878
 31
0.0
  0
LINE
  5
4E8
330
1F
100
AcDbEntity
  8
SLD-0
  6
Continuous
370
    15
100
AcDbLine
 10
24.1786349441
 20
8.146115261
 30
0.0
 11
24.1786349441
 21
9.1151152878
 31
0.0
  0
LINE
  5
4E9
330
1F
100
AcDbEntity
  8
SLD-0
  6
Continuous
370
    15
100
AcDbLine
 10
24.1786349441
 20
8.146115261
 30
0.0
 11
21.2406351775
 21
8.146115261
 31
0.0
  0
LINE
  5
4EA
330
1F
100
AcDbEntity
  8
SLD-0
  6
Continuous
370
    15
100
AcDbLine
 10
21.254899226
 20
8.079115255
 30
0.0
 11
24.1786349441
 21
8.079115255
 31
0.0
  0
LINE
  5
4EB
330
1F
100
AcDbEntity
  8
SLD-0
  6
Continuous
370
    15
100
AcDbLine
 10
24.1786349441
 20
8.146115261
 30
0.0
 11
24.1786349441
 21
8.079115255
 31
0.0
  0
SPLINE
  5
4EC
330
1F
100
AcDbEntity
  8
SLD-0
  6
Continuous
370
    15
100
AcDbSpline
210
0.0
220
0.0
230
1.0
 70
     8
 71
     3
 72
    11
 73
     7
 74
     0
 42
0.00000001
 43
0.00000001
 12
1.0
 22
0.0
 32
0.0
 13
1.0
 23
0.0
 33
0.0
 40
0.0
 40
0.0
 40
0.0
 40
0.0
 40
0.2500066675700262
 40
0.5000010740698463
 40
0.7500002228811639
 40
0.9999999999999999
 40
0.9999999999999999
 40
0.9999999999999999
 40
0.9999999999999999
 10
21.2548992260344
 20
8.07911525495646
 30
0.0
 10
21.25371063534853
 20
8.080122320067296
 30
0.0
 10
21.25133351226879
 20
8.082136400899504
 30
0.0
 10
21.24776815372761
 20
8.097630476236448
 30
0.0
 10
21.24420050076322
 20
8.11977690198759
 30
0.0
 10
21.2418236195704
 20
8.137335800618704
 30
0.0
 10
21.24063517748058
 20
8.146115260966672
 30
0.0
  0
LINE
  5
4ED
330
1F
100
AcDbEntity
  8
SLD-0
  6
Continuous
370
    15
100
AcDbLine
 10
21.1787730655
 20
8.146115261
 30
0.0
 11
21.1787730655
 21
9.1151152878
 31
0.0
  0
LINE
  5
4EE
330
1F
100
AcDbEntity
  8
SLD-0
  6
Continuous
370
    15
100
AcDbLine
 10
21.1787730655
 20
8.146115261
 30
0.0
 11
5.043523031
 21
8.146115261
 31
0.0
  0
LINE
  5
4EF
330
1F
100
AcDbEntity
  8
SLD-0
  6
Continuous
370
    15
100
AcDbLine
 10
5.043523031
 20
9.1151152878
 30
0.0
 11
5.043523031
 21
8.146115261
 31
0.0
  0
LINE
  5
4F0
330
1F
100
AcDbEntity
  8
SLD-0
  6
Continuous
370
    15
100
AcDbLine
 10
21.1787730655
 20
9.1151152878
 30
0.0
 11
5.043523031
 21
9.1151152878
 31
0.0
  0
LINE
  5
4F1
330
1F
100
AcDbEntity
  8
SLD-0
  6
Continuous
370
    15
100
AcDbLine
 10
5.0446349933
 20
8.079115255
 30
0.0
 11
21.1926546118
 21
8.079115255
 31
0.0
  0
SPLINE
  5
4F2
330
1F
100
AcDbEntity
  8
SLD-0
  6
Continuous
370
    15
100
AcDbSpline
210
0.0
220
0.0
230
1.0
 70
     8
 71
     3
 72
    11
 73
     7
 74
     0
 42
0.00000001
 43
0.00000001
 12
1.0
 22
0.0
 32
0.0
 13
1.0
 23
0.0
 33
0.0
 40
0.0
 40
0.0
 40
0.0
 40
0.0
 40
0.2500029435471393
 40
0.4999989105359022
 40
0.7499972079258017
 40
1.0
 40
1.0
 40
1.0
 40
1.0
 10
5.044634993285932
 20
8.07911525495646
 30
0.0
 10
5.04403480262918
 20
8.079955568767579
 30
0.0
 10
5.042834438064539
 20
8.081636172940105
 30
0.0
 10
5.041702992561127
 20
8.094706579414837
 30
0.0
 10
5.041636170675125
 20
8.113651070731962
 30
0.0
 10
5.042976367123937
 20
8.1293503169507
 30
0.0
 10
5.043646471372088
 20
8.137200010623072
 30
0.0
  0
ARC
  5
4F3
330
1F
100
AcDbEntity
  8
SLD-0
  6
Continuous
370
    15
100
AcDbCircle
 10
5.3644388265
 20
8.1461001737
 30
0.0
 40
0.3209157958698457
100
AcDbArc
 50
179.9973063465
 51
181.5892242823
  0
ARC
  5
4F4
330
1F
100
AcDbEntity
  8
SLD-0
  6
Continuous
370
    15
100
AcDbCircle
 10
21.2700190727
 20
8.1300822267
 30
0.0
 40
0.0926438990168795
100
AcDbArc
 50
170.0341672534
 51
213.3765122848
  0
LINE
  5
4F5
330
1F
100
AcDbEntity
  8
SLD-0
  6
Continuous
370
    15
100
AcDbLine
 10
21.1862318593
 20
8.146115261
 30
0.0
 11
21.1862318593
 21
9.1151152878
 31
0.0
  0
LINE
  5
4F6
330
1F
100
AcDbEntity
  8
SLD-0
  6
Continuous
370
    15
100
AcDbLine
 10
21.1862318593
 20
8.146115261
 30
0.0
 11
21.1787730655
 21
8.146115261
 31
0.0
  0
LINE
  5
4F7
330
1F
100
AcDbEntity
  8
SLD-0
  6
Continuous
370
    15
100
AcDbLine
 10
21.1787730655
 20
9.1151152878
 30
0.0
 11
21.1862318593
 21
9.1151152878
 31
0.0
  0
ARC
  5
4F8
330
1F
100
AcDbEntity
  8
SLD-0
  6
Continuous
370
    15
100
AcDbCircle
 10
21.2284444435
 20
8.1386957569
 30
0.0
 40
0.0428596699390404
100
AcDbArc
 50
170.0312191281
 51
213.37928465
  0
LINE
  5
4F9
330
1F
100
AcDbEntity
  8
SLD-0
  6
Continuous
370
    15
100
AcDbLine
 10
21.1926546118
 20
8.079115255
 30
0.0
 11
21.1926546118
 21
8.1151152724
 31
0.0
  0
LINE
  5
4FA
330
1F
100
AcDbEntity
  8
SLD-0
  6
Continuous
370
    15
100
AcDbLine
 10
21.1932670847
 20
8.079115255
 30
0.0
 11
21.1932670847
 21
8.1151152724
 31
0.0
  0
LINE
  5
4FB
330
1F
100
AcDbEntity
  8
SLD-0
  6
Continuous
370
    15
100
AcDbLine
 10
21.254899226
 20
8.079115255
 30
0.0
 11
21.1932670847
 21
8.079115255
 31
0.0
  0
LINE
  5
4FC
330
1F
100
AcDbEntity
  8
SLD-0
  6
Continuous
370
    15
100
AcDbLine
 10
21.2450808861
 20
8.1151152724
 30
0.0
 11
21.1932670847
 21
8.1151152724
 31
0.0
  0
ARC
  5
4FD
330
1F
100
AcDbEntity
  8
SLD-0
  6
Continuous
370
    15
100
AcDbCircle
 10
24.1786349932
 20
8.1461152882
 30
0.0
 40
0.0309999999999988
100
AcDbArc
 50
270.0
 51
0.0
  0
LINE
  5
4FE
330
1F
100
AcDbEntity
  8
SLD-0
  6
Continuous
370
    15
100
AcDbLine
 10
24.209635226
 20
8.146115261
 30
0.0
 11
24.2456350235
 21
8.146115261
 31
0.0
  0
ARC
  5
4FF
330
1F
100
AcDbEntity
  8
SLD-0
  6
Continuous
370
    15
100
AcDbCircle
 10
24.1786349932
 20
8.1461152882
 30
0.0
 40
0.0669999999999984
100
AcDbArc
 50
270.0
 51
0.0
  0
LINE
  5
500
330
1F
100
AcDbEntity
  8
SLD-0
  6
Continuous
370
    15
100
AcDbLine
 10
24.2456350235
 20
9.048115291
 30
0.0
 11
24.2456350235
 21
8.146115261
 31
0.0
  0
LINE
  5
501
330
1F
100
AcDbEntity
  8
SLD-0
  6
Continuous
370
    15
100
AcDbLine
 10
24.209635226
 20
9.048115291
 30
0.0
 11
24.209635226
 21
8.146115261
 31
0.0
  0
LINE
  5
502
330
1F
100
AcDbEntity
  8
SLD-0
  6
Continuous
370
    15
100
AcDbLine
 10
24.209635226
 20
9.048115291
 30
0.0
 11
24.2456350235
 21
9.048115291
 31
0.0
  0
ARC
  5
503
330
1F
100
AcDbEntity
  8
SLD-0
  6
Continuous
370
    15
100
AcDbCircle
 10
24.1786349932
 20
9.0481152882
 30
0.0
 40
0.0310000000000024
100
AcDbArc
 50
0.0
 51
90.0
  0
ARC
  5
504
330
1F
100
AcDbEntity
  8
SLD-0
  6
Continuous
370
    15
100
AcDbCircle
 10
24.1786349932
 20
9.0481152882
 30
0.0
 40
0.0670000000000019
100
AcDbArc
 50
0.0
 51
90.0
  0
LINE
  5
505
330
1F
100
AcDbEntity
  8
SLD-0
  6
Continuous
370
    15
100
AcDbLine
 10
21.1932670847
 20
8.079115255
 30
0.0
 11
21.1926546118
 21
8.079115255
 31
0.0
  0
LINE
  5
506
330
1F
100
AcDbEntity
  8
SLD-0
  6
Continuous
370
    15
100
AcDbLine
 10
21.1932670847
 20
8.1151152724
 30
0.0
 11
21.1926546118
 21
8.1151152724
 31
0.0
  0
ARC
  5
507
330
1F
100
AcDbEntity
  8
SLD-0
  6
Continuous
370
    15
100
AcDbCircle
 10
5.0446349932
 20
8.1461152882
 30
0.0
 40
0.0309999999999997
100
AcDbArc
 50
180.0
 51
265.1467149591
  0
LINE
  5
508
330
1F
100
AcDbEntity
  8
SLD-0
  6
Continuous
370
    15
100
AcDbLine
 10
5.0136349944
 20
8.146115261
 30
0.0
 11
4.9776349907
 21
8.146115261
 31
0.0
  0
ARC
  5
509
330
1F
100
AcDbEntity
  8
SLD-0
  6
Continuous
370
    15
100
AcDbCircle
 10
5.0446349932
 20
8.1461152882
 30
0.0
 40
0.0670000000000011
100
AcDbArc
 50
180.0
 51
270.0
  0
LINE
  5
50A
330
1F
100
AcDbEntity
  8
SLD-0
  6
Continuous
370
    15
100
AcDbLine
 10
4.9776349907
 20
8.146115261
 30
0.0
 11
4.9776349907
 21
9.1151152878
 31
0.0
  0
LINE
  5
50B
330
1F
100
AcDbEntity
  8
SLD-0
  6
Continuous
370
    15
100
AcDbLine
 10
4.9776349907
 20
9.1151152878
 30
0.0
 11
5.0136349944
 21
9.1151152878
 31
0.0
  0
LINE
  5
50C
330
1F
100
AcDbEntity
  8
SLD-0
  6
Continuous
370
    15
100
AcDbLine
 10
5.0136349944
 20
8.146115261
 30
0.0
 11
5.0136349944
 21
9.1151152878
 31
0.0
  0
LWPOLYLINE
  5
50D
330
1F
100
AcDbEntity
  8
SLD-0
  6
Continuous
370
    15
100
AcDbPolyline
 90
        9
 70
   128
 43
0.0
 10
24.7156352473
 20
39.4453156833
 10
24.7186307327
 20
39.4535476948
 10
24.7215112328
 20
39.4614605634
 10
24.7241664554
 20
39.4687562658
 10
24.7264943219
 20
39.475148512
 10
24.7284033132
 20
39.4803979447
 10
24.7298230301
 20
39.484295713
 10
24.7306971533
 20
39.4866963252
 10
24.7309916566
 20
39.4875082625
  0
LINE
  5
50E
330
1F
100
AcDbEntity
  8
SLD-0
  6
Continuous
370
    15
100
AcDbLine
 10
24.7309916566
 20
39.4875082625
 30
0.0
 11
27.606313854
 21
38.4409750722
 31
0.0
  0
SPLINE
  5
50F
330
1F
100
AcDbEntity
  8
SLD-0
  6
Continuous
370
    15
100
AcDbSpline
210
0.0
220
0.0
230
1.0
 70
     8
 71
     3
 72
    11
 73
     7
 74
     0
 42
0.00000001
 43
0.00000001
 12
1.0
 22
0.0
 32
0.0
 13
1.0
 23
0.0
 33
0.0
 40
0.0
 40
0.0
 40
0.0
 40
0.0
 40
0.2582751752183826
 40
0.516737379264115
 40
0.7752159117431701
 40
1.0
 40
1.0
 40
1.0
 40
1.0
 10
27.60631385395063
 20
38.44097507216097
 30
0.0
 10
27.60226044139066
 20
38.44168235589056
 30
0.0
 10
27.5941506810099
 20
38.44309743552611
 30
0.0
 10
27.57894014636775
 20
38.43686084421959
 30
0.0
 10
27.56286380556047
 20
38.42672080356164
 30
0.0
 10
27.55186504834144
 20
38.41863460381072
 30
0.0
 10
27.54674910204773
 20
38.41487340035638
 30
0.0
  0
LINE
  5
510
330
1F
100
AcDbEntity
  8
SLD-0
  6
Continuous
370
    15
100
AcDbLine
 10
27.546749102
 20
38.4148734004
 30
0.0
 11
24.7156352473
 21
39.4453156833
 31
0.0
  0
SPLINE
  5
511
330
1F
100
AcDbEntity
  8
SLD-0
  6
Continuous
370
    15
100
AcDbSpline
210
0.0
220
0.0
230
1.0
 70
     8
 71
     3
 72
     9
 73
     5
 74
     0
 42
0.00000001
 43
0.00000001
 12
1.0
 22
0.0
 32
0.0
 13
1.0
 23
0.0
 33
0.0
 40
0.0
 40
0.0
 40
0.0
 40
0.0
 40
0.4999893386966669
 40
1.0
 40
1.0
 40
1.0
 40
1.0
 10
27.59608954539605
 20
38.41287875673201
 30
0.0
 10
27.5883975568074
 20
38.41467078993729
 30
0.0
 10
27.5730132515966
 20
38.41825493277111
 30
0.0
 10
27.55550394301205
 20
38.41600059385075
 30
0.0
 10
27.54674910204773
 20
38.41487340035638
 30
0.0
  0
LINE
  5
512
330
1F
100
AcDbEntity
  8
SLD-0
  6
Continuous
370
    15
100
AcDbLine
 10
27.5960895454
 20
38.4128787567
 30
0.0
 11
27.606313854
 21
38.4409750722
 31
0.0
  0
LINE
  5
513
330
1F
100
AcDbEntity
  8
SLD-0
  6
Continuous
370
    15
100
AcDbLine
 10
24.4993689456
 20
36.9938564294
 30
0.0
 11
27.546749102
 21
38.4148734004
 31
0.0
  0
LINE
  5
514
330
1F
100
AcDbEntity
  8
SLD-0
  6
Continuous
370
    15
100
AcDbLine
 10
24.4993689456
 20
36.9938564294
 30
0.0
 11
24.2456350235
 21
37.0862084292
 31
0.0
  0
LINE
  5
515
330
1F
100
AcDbEntity
  8
SLD-0
  6
Continuous
370
    15
100
AcDbLine
 10
24.2456350235
 20
39.4453156833
 30
0.0
 11
24.7156352473
 21
39.4453156833
 31
0.0
  0
SPLINE
  5
516
330
1F
100
AcDbEntity
  8
SLD-0
  6
Continuous
370
    15
100
AcDbSpline
210
0.0
220
0.0
230
1.0
 70
     8
 71
     3
 72
     9
 73
     5
 74
     0
 42
0.00000001
 43
0.00000001
 12
1.0
 22
0.0
 32
0.0
 13
1.0
 23
0.0
 33
0.0
 40
0.0
 40
0.0
 40
0.0
 40
0.0
 40
0.5000118849555345
 40
1.0
 40
1.0
 40
1.0
 40
1.0
 10
27.59474257428971
 20
38.40917810614891
 30
0.0
 10
27.5958916574435
 20
38.40945871247165
 30
0.0
 10
27.59818976912512
 20
38.41001991177745
 30
0.0
 10
27.59678960887852
 20
38.41192582351494
 30
0.0
 10
27.59608954539606
 20
38.41287875673201
 30
0.0
  0
SPLINE
  5
517
330
1F
100
AcDbEntity
  8
SLD-0
  6
Continuous
370
    15
100
AcDbSpline
210
0.0
220
0.0
230
1.0
 70
     8
 71
     3
 72
    15
 73
    11
 74
     0
 42
0.00000001
 43
0.00000001
 12
1.0
 22
0.0
 32
0.0
 13
1.0
 23
0.0
 33
0.0
 40
0.0
 40
0.0
 40
0.0
 40
0.0
 40
0.1249950516107603
 40
0.2500009003098037
 40
0.3749932036895312
 40
0.4999967875059307
 40
0.624991839116691
 40
0.7499933259753422
 40
0.8749856293550697
 40
1.0
 40
1.0
 40
1.0
 40
1.0
 10
27.58451591909557
 20
38.38108179071994
 30
0.0
 10
27.58859916531747
 20
38.38010533675704
 30
0.0
 10
27.59676601047256
 20
38.37815234448502
 30
0.0
 10
27.60925370363961
 20
38.38145114481114
 30
0.0
 10
27.61951751254169
 20
38.38892502461999
 30
0.0
 10
27.62614119334225
 20
38.39984529579431
 30
0.0
 10
27.62808642780183
 20
38.41246924647662
 30
0.0
 10
27.6250305716853
 20
38.42479151992136
 30
0.0
 10
27.61758269219002
 20
38.43534536066775
 30
0.0
 10
27.61007035439353
 20
38.43909839124068
 30
0.0
 10
27.60631385395063
 20
38.44097507216097
 30
0.0
  0
LINE
  5
518
330
1F
100
AcDbEntity
  8
SLD-0
  6
Continuous
370
    15
100
AcDbLine
 10
27.5845159191
 20
38.3810817907
 30
0.0
 11
27.5947425743
 21
38.4091781061
 31
0.0
  0
ARC
  5
519
330
1F
100
AcDbEntity
  8
SLD-0
  6
Continuous
370
    15
100
AcDbCircle
 10
24.7156349932
 20
39.4453152882
 30
0.0
 40
0.0150000000000006
100
AcDbArc
 50
70.0
 51
90.0
  0
LINE
  5
51A
330
1F
100
AcDbEntity
  8
SLD-0
  6
Continuous
370
    15
100
AcDbLine
 10
24.7156352473
 20
39.4603154033
 30
0.0
 11
24.7156352473
 21
39.4902162846
 31
0.0
  0
ARC
  5
51B
330
1F
100
AcDbEntity
  8
SLD-0
  6
Continuous
370
    15
100
AcDbCircle
 10
24.7156349932
 20
39.4453152882
 30
0.0
 40
0.0448999999999917
100
AcDbArc
 50
70.0
 51
90.0
  0
LINE
  5
51C
330
1F
100
AcDbEntity
  8
SLD-0
  6
Continuous
370
    15
100
AcDbLine
 10
24.2456350235
 20
39.4902162846
 30
0.0
 11
24.7156352473
 21
39.4902162846
 31
0.0
  0
LINE
  5
51D
330
1F
100
AcDbEntity
  8
SLD-0
  6
Continuous
370
    15
100
AcDbLine
 10
24.2456350235
 20
39.4603154033
 30
0.0
 11
24.7156352473
 21
39.4603154033
 31
0.0
  0
LINE
  5
51E
330
1F
100
AcDbEntity
  8
SLD-0
  6
Continuous
370
    15
100
AcDbLine
 10
27.5947425743
 20
38.4091781061
 30
0.0
 11
27.5749345898
 21
38.4163893295
 31
0.0
  0
LINE
  5
51F
330
1F
100
AcDbEntity
  8
SLD-0
  6
Continuous
370
    15
100
AcDbLine
 10
27.5845159191
 20
38.3810817907
 30
0.0
 11
27.5226068743
 21
38.4036142238
 31
0.0
  0
LINE
  5
520
330
1F
100
AcDbEntity
  8
SLD-0
  6
Continuous
370
    15
100
AcDbLine
 10
23.4099603039
 20
15.2014150575
 30
0.0
 11
23.4099603039
 21
18.3264150106
 31
0.0
  0
LINE
  5
521
330
1F
100
AcDbEntity
  8
SLD-0
  6
Continuous
370
    15
100
AcDbLine
 10
23.4579596428
 20
15.2014150575
 30
0.0
 11
23.4579596428
 21
18.3264150106
 31
0.0
  0
LINE
  5
522
330
1F
100
AcDbEntity
  8
SLD-0
  6
Continuous
370
    15
100
AcDbLine
 10
23.4099603039
 20
15.2014150575
 30
0.0
 11
23.4579596428
 21
15.2014150575
 31
0.0
  0
LINE
  5
523
330
1F
100
AcDbEntity
  8
SLD-0
  6
Continuous
370
    15
100
AcDbLine
 10
23.4099603039
 20
18.3264150106
 30
0.0
 11
23.4579596428
 21
18.3264150106
 31
0.0
  0
LINE
  5
524
330
1F
100
AcDbEntity
  8
SLD-0
  6
Continuous
370
    15
100
AcDbLine
 10
23.3949594105
 20
18.3264150106
 30
0.0
 11
23.4099603039
 21
18.3264150106
 31
0.0
  0
LINE
  5
525
330
1F
100
AcDbEntity
  8
SLD-0
  6
Continuous
370
    15
100
AcDbLine
 10
23.3949594105
 20
18.3264150106
 30
0.0
 11
23.3949594105
 21
15.2014150575
 31
0.0
  0
LINE
  5
526
330
1F
100
AcDbEntity
  8
SLD-0
  6
Continuous
370
    15
100
AcDbLine
 10
23.4099603039
 20
15.2014150575
 30
0.0
 11
23.3949594105
 21
15.2014150575
 31
0.0
  0
LINE
  5
527
330
1F
100
AcDbEntity
  8
SLD-0
  6
Continuous
370
    15
100
AcDbLine
 10
23.3949594105
 20
15.2014150575
 30
0.0
 11
21.8173347554
 21
15.2014150575
 31
0.0
  0
LINE
  5
528
330
1F
100
AcDbEntity
  8
SLD-0
  6
Continuous
370
    15
100
AcDbLine
 10
23.3949594105
 20
18.3264150106
 30
0.0
 11
21.8173347554
 21
18.3264150106
 31
0.0
  0
LINE
  5
529
330
1F
100
AcDbEntity
  8
SLD-0
  6
Continuous
370
    15
100
AcDbLine
 10
21.8173347554
 20
15.2014150575
 30
0.0
 11
21.8173347554
 21
18.3264150106
 31
0.0
  0
LINE
  5
52A
330
1F
100
AcDbEntity
  8
SLD-0
  6
Continuous
370
    15
100
AcDbLine
 10
23.4099603039
 20
38.2394151606
 30
0.0
 11
23.4579596428
 21
38.2394151606
 31
0.0
  0
LINE
  5
52B
330
1F
100
AcDbEntity
  8
SLD-0
  6
Continuous
370
    15
100
AcDbLine
 10
23.4579596428
 20
35.1144163809
 30
0.0
 11
23.4579596428
 21
38.2394151606
 31
0.0
  0
LINE
  5
52C
330
1F
100
AcDbEntity
  8
SLD-0
  6
Continuous
370
    15
100
AcDbLine
 10
23.4099603039
 20
35.1144163809
 30
0.0
 11
23.4579596428
 21
35.1144163809
 31
0.0
  0
LINE
  5
52D
330
1F
100
AcDbEntity
  8
SLD-0
  6
Continuous
370
    15
100
AcDbLine
 10
23.4099603039
 20
35.1144163809
 30
0.0
 11
23.4099603039
 21
38.2394151606
 31
0.0
  0
LINE
  5
52E
330
1F
100
AcDbEntity
  8
SLD-0
  6
Continuous
370
    15
100
AcDbLine
 10
23.3949594105
 20
38.2394151606
 30
0.0
 11
23.3949594105
 21
35.1144163809
 31
0.0
  0
LINE
  5
52F
330
1F
100
AcDbEntity
  8
SLD-0
  6
Continuous
370
    15
100
AcDbLine
 10
23.4099603039
 20
35.1144163809
 30
0.0
 11
23.3949594105
 21
35.1144163809
 31
0.0
  0
LINE
  5
530
330
1F
100
AcDbEntity
  8
SLD-0
  6
Continuous
370
    15
100
AcDbLine
 10
23.3949594105
 20
38.2394151606
 30
0.0
 11
23.4099603039
 21
38.2394151606
 31
0.0
  0
LINE
  5
531
330
1F
100
AcDbEntity
  8
SLD-0
  6
Continuous
370
    15
100
AcDbLine
 10
23.3949594105
 20
35.1144163809
 30
0.0
 11
21.8173347554
 21
35.1144163809
 31
0.0
  0
LINE
  5
532
330
1F
100
AcDbEntity
  8
SLD-0
  6
Continuous
370
    15
100
AcDbLine
 10
21.8173347554
 20
35.1144163809
 30
0.0
 11
21.8173347554
 21
38.2394151606
 31
0.0
  0
LINE
  5
533
330
1F
100
AcDbEntity
  8
SLD-0
  6
Continuous
370
    15
100
AcDbLine
 10
23.3949594105
 20
38.2394151606
 30
0.0
 11
21.8173347554
 21
38.2394151606
 31
0.0
  0
LINE
  5
534
330
1F
100
AcDbEntity
  8
SLD-0
  6
Continuous
370
    15
100
AcDbLine
 10
21.7120351718
 20
9.1358977877
 30
0.0
 11
21.7120351718
 21
9.1487152888
 31
0.0
  0
LINE
  5
535
330
1F
100
AcDbEntity
  8
SLD-0
  6
Continuous
370
    15
100
AcDbLine
 10
21.7120351718
 20
9.1704152882
 30
0.0
 11
21.7120351718
 21
9.175497788
 31
0.0
  0
LINE
  5
536
330
1F
100
AcDbEntity
  8
SLD-0
  6
Continuous
370
    15
100
AcDbLine
 10
21.7120351718
 20
9.175497788
 30
0.0
 11
21.6923351327
 21
9.175497788
 31
0.0
  0
LINE
  5
537
330
1F
100
AcDbEntity
  8
SLD-0
  6
Continuous
370
    15
100
AcDbLine
 10
21.2733930924
 20
9.175497788
 30
0.0
 11
21.2356215821
 21
9.175497788
 31
0.0
  0
LINE
  5
538
330
1F
100
AcDbEntity
  8
SLD-0
  6
Continuous
370
    15
100
AcDbLine
 10
18.7120348414
 20
9.1358977877
 30
0.0
 11
18.7120348414
 21
9.1487152888
 31
0.0
  0
LINE
  5
539
330
1F
100
AcDbEntity
  8
SLD-0
  6
Continuous
370
    15
100
AcDbLine
 10
21.7120351718
 20
9.1358977877
 30
0.0
 11
18.7120348414
 21
9.1358977877
 31
0.0
  0
LINE
  5
53A
330
1F
100
AcDbEntity
  8
SLD-0
  6
Continuous
370
    15
100
AcDbLine
 10
21.7120351718
 20
9.175497788
 30
0.0
 11
21.7120351718
 21
9.1804977877
 31
0.0
  0
LINE
  5
53B
330
1F
100
AcDbEntity
  8
SLD-0
  6
Continuous
370
    15
100
AcDbLine
 10
21.7120351718
 20
9.1804977877
 30
0.0
 11
21.7120351718
 21
9.2014152882
 31
0.0
  0
LINE
  5
53C
330
1F
100
AcDbEntity
  8
SLD-0
  6
Continuous
370
    15
100
AcDbLine
 10
24.1414606536
 20
43.7403160937
 30
0.0
 11
24.1414606536
 21
43.7394149841
 31
0.0
  0
LINE
  5
53D
330
1F
100
AcDbEntity
  8
SLD-0
  6
Continuous
370
    15
100
AcDbLine
 10
23.6440774927
 20
43.7403160937
 30
0.0
 11
24.1414606536
 21
43.7403160937
 31
0.0
  0
LINE
  5
53E
330
1F
100
AcDbEntity
  8
SLD-0
  6
Continuous
370
    15
100
AcDbLine
 10
23.6347214408
 20
43.7403160937
 30
0.0
 11
23.6440774927
 21
43.7403160937
 31
0.0
  0
LINE
  5
53F
330
1F
100
AcDbEntity
  8
SLD-0
  6
Continuous
370
    15
100
AcDbLine
 10
21.208535495
 20
43.7403160937
 30
0.0
 11
21.3111411363
 21
43.7403160937
 31
0.0
  0
LINE
  5
540
330
1F
100
AcDbEntity
  8
SLD-0
  6
Continuous
370
    15
100
AcDbLine
 10
21.6923351327
 20
43.7403160937
 30
0.0
 11
23.0053351115
 21
43.7403160937
 31
0.0
  0
LINE
  5
541
330
1F
100
AcDbEntity
  8
SLD-0
  6
Continuous
370
    15
100
AcDbLine
 10
23.3803351528
 20
43.7403160937
 30
0.0
 11
23.6347214408
 21
43.7403160937
 31
0.0
  0
LINE
  5
542
330
1F
100
AcDbEntity
  8
SLD-0
  6
Continuous
370
    15
100
AcDbLine
 10
5.0470349931
 20
43.7403160937
 30
0.0
 11
5.0470349931
 21
43.7394149841
 31
0.0
  0
LINE
  5
543
330
1F
100
AcDbEntity
  8
SLD-0
  6
Continuous
370
    15
100
AcDbLine
 10
5.0470349931
 20
43.7403160937
 30
0.0
 11
5.0770349941
 21
43.7403160937
 31
0.0
  0
LINE
  5
544
330
1F
100
AcDbEntity
  8
SLD-0
  6
Continuous
370
    15
100
AcDbLine
 10
5.0770349941
 20
43.7403160937
 30
0.0
 11
5.0770349941
 21
43.7394149841
 31
0.0
  0
LINE
  5
545
330
1F
100
AcDbEntity
  8
SLD-0
  6
Continuous
370
    15
100
AcDbLine
 10
5.0920349937
 20
43.7403160937
 30
0.0
 11
6.0467419186
 21
43.7403160937
 31
0.0
  0
LINE
  5
546
330
1F
100
AcDbEntity
  8
SLD-0
  6
Continuous
370
    15
100
AcDbLine
 10
5.0770349941
 20
43.7403160937
 30
0.0
 11
5.0920349937
 21
43.7403160937
 31
0.0
  0
LINE
  5
547
330
1F
100
AcDbEntity
  8
SLD-0
  6
Continuous
370
    15
100
AcDbLine
 10
13.3818507628
 20
14.8264150162
 30
0.0
 11
13.3768676737
 21
14.8264150162
 31
0.0
  0
LINE
  5
548
330
1F
100
AcDbEntity
  8
SLD-0
  6
Continuous
370
    15
100
AcDbLine
 10
13.3818507628
 20
10.326415254
 30
0.0
 11
13.3818507628
 21
14.8264150162
 31
0.0
  0
LINE
  5
549
330
1F
100
AcDbEntity
  8
SLD-0
  6
Continuous
370
    15
100
AcDbLine
 10
13.3768676737
 20
10.326415254
 30
0.0
 11
13.3768676737
 21
14.8264150162
 31
0.0
  0
LINE
  5
54A
330
1F
100
AcDbEntity
  8
SLD-0
  6
Continuous
370
    15
100
AcDbLine
 10
13.3818507628
 20
10.326415254
 30
0.0
 11
13.3768676737
 21
10.326415254
 31
0.0
  0
LINE
  5
54B
330
1F
100
AcDbEntity
  8
SLD-0
  6
Continuous
370
    15
100
AcDbLine
 10
13.3768676737
 20
14.8264150162
 30
0.0
 11
7.0185232725
 21
14.8264150162
 31
0.0
  0
LINE
  5
54C
330
1F
100
AcDbEntity
  8
SLD-0
  6
Continuous
370
    15
100
AcDbLine
 10
13.0711779784
 20
9.8264152967
 30
0.0
 11
13.0711779784
 21
10.326415254
 31
0.0
  0
LINE
  5
54D
330
1F
100
AcDbEntity
  8
SLD-0
  6
Continuous
370
    15
100
AcDbLine
 10
7.3242128212
 20
9.8264152967
 30
0.0
 11
13.0711779784
 21
9.8264152967
 31
0.0
  0
LINE
  5
54E
330
1F
100
AcDbEntity
  8
SLD-0
  6
Continuous
370
    15
100
AcDbLine
 10
7.3242128212
 20
10.326415254
 30
0.0
 11
7.3242128212
 21
9.8264152967
 31
0.0
  0
LINE
  5
54F
330
1F
100
AcDbEntity
  8
SLD-0
  6
Continuous
370
    15
100
AcDbLine
 10
7.0185232725
 20
10.326415254
 30
0.0
 11
7.3242128212
 21
10.326415254
 31
0.0
  0
LINE
  5
550
330
1F
100
AcDbEntity
  8
SLD-0
  6
Continuous
370
    15
100
AcDbLine
 10
7.0185232725
 20
14.8264150162
 30
0.0
 11
7.0185232725
 21
10.326415254
 31
0.0
  0
LWPOLYLINE
  5
551
330
1F
100
AcDbEntity
  8
SLD-0
  6
Continuous
370
    15
100
AcDbPolyline
 90
      110
 70
   128
 43
0.0
 10
11.0536264587
 20
11.8264152725
 10
11.0522049818
 20
11.8768257835
 10
11.0479446576
 20
11.9270688031
 10
11.0408601528
 20
11.9769774265
 10
11.030974347
 20
12.0263859224
 10
11.0183206799
 20
12.0751303193
 10
11.0029408042
 20
12.1230481124
 10
10.9848863461
 20
12.1699809036
 10
10.9642165582
 20
12.2157723479
 10
10.9410006664
 20
12.2602702072
 10
10.9153155231
 20
12.3033269365
 10
10.8872467807
 20
12.3447993907
 10
10.8568871314
 20
12.3845497049
 10
10.8243374808
 20
12.4224461738
 10
10.7897069475
 20
12.4583626655
 10
10.7531093436
 20
12.4921797949
 10
10.7146666944
 20
12.5237852164
 10
10.674506305
 20
12.5530742114
 10
10.6327625205
 20
12.5799493943
 10
10.5895737928
 20
12.6043212994
 10
10.5450826801
 20
12.6261089677
 10
10.4994376074
 20
12.6452405334
 10
10.4527905196
 20
12.6616517571
 10
10.4052957082
 20
12.6752883729
 10
10.3571115715
 20
12.6861052079
 10
10.308397681
 20
12.6940661826
 10
10.2593159546
 20
12.6991448973
 10
10.2100300706
 20
12.7013243388
 10
10.1607025338
 20
12.7005977605
 10
10.1114981956
 20
12.6969669225
 10
10.0625801473
 20
12.6904444378
 10
10.0141108939
 20
12.6810517197
 10
9.9662517668
 20
12.668819861
 10
9.9191611641
 20
12.6537896346
 10
9.8729960174
 20
12.6360109066
 10
9.8279094449
 20
12.6155429298
 10
9.7840510449
 20
12.5924534632
 10
9.7415668957
 20
12.5668193593
 10
9.700598089
 20
12.5387256838
 10
9.6612804365
 20
12.5082657157
 10
9.6237447635
 20
12.4755409471
 10
9.588115735
 20
12.4406596167
 10
9.5545115632
 20
12.4037378832
 10
9.5230440068
 20
12.3648983586
 10
9.4938174911
 20
12.3242698146
 10
9.4669294017
 20
12.2819877697
 10
9.4424686176
 20
12.2381921423
 10
9.4205166845
 20
12.1930287173
 10
9.4011466416
 20
12.1466476798
 10
9.3844224348
 20
12.0992024412
 10
9.3704000901
 20
12.0508513998
 10
9.3591256604
 20
12.0017544203
 10
9.3506369851
 20
11.9520751809
 10
9.344962224
 20
11.9019785329
 10
9.3421198568
 20
11.8516310879
 10
9.3421198568
 20
11.8011994571
 10
9.344962224
 20
11.7508520121
 10
9.3506369851
 20
11.7007553641
 10
9.3591256604
 20
11.6510761247
 10
9.3704000901
 20
11.6019792919
 10
9.3844224348
 20
11.5536281038
 10
9.4011466416
 20
11.5061830118
 10
9.4205166845
 20
11.4598018276
 10
9.4424686176
 20
11.4146384027
 10
9.4669294017
 20
11.3708427753
 10
9.4938174911
 20
11.3285607304
 10
9.5230440068
 20
11.2879323331
 10
9.5545115632
 20
11.2490928084
 10
9.588115735
 20
11.212171075
 10
9.6237447635
 20
11.1772897446
 10
9.6612804365
 20
11.1445648293
 10
9.700598089
 20
11.1141048612
 10
9.7415668957
 20
11.0860111857
 10
9.7840510449
 20
11.0603770818
 10
9.8279094449
 20
11.0372876152
 10
9.8729960174
 20
11.0168196383
 10
9.9191611641
 20
10.9990409104
 10
9.9662517668
 20
10.984010684
 10
10.0141108939
 20
10.971778972
 10
10.0625801473
 20
10.9623861072
 10
10.1114981956
 20
10.9558636225
 10
10.1607025338
 20
10.9522329311
 10
10.2100300706
 20
10.9515062062
 10
10.2593159546
 20
10.9536857943
 10
10.308397681
 20
10.958764509
 10
10.3571115715
 20
10.9667254837
 10
10.4052957082
 20
10.9775423187
 10
10.4527905196
 20
10.9911789345
 10
10.4994376074
 20
11.0075901583
 10
10.5450826801
 20
11.0267214306
 10
10.5895737928
 20
11.0485092456
 10
10.6327625205
 20
11.0728811507
 10
10.674506305
 20
11.0997561869
 10
10.7146666944
 20
11.1290451819
 10
10.7531093436
 20
11.1606507501
 10
10.7897069475
 20
11.1944678795
 10
10.8243374808
 20
11.2303843712
 10
10.8568871314
 20
11.2682806934
 10
10.8872467807
 20
11.3080311542
 10
10.9153155231
 20
11.3495036085
 10
10.9410006664
 20
11.3925603378
 10
10.9642165582
 20
11.4370583437
 10
10.9848863461
 20
11.4828496414
 10
11.0029408042
 20
11.5297822859
 10
11.0183206799
 20
11.5777003723
 10
11.030974347
 20
11.6264446226
 10
11.0408601528
 20
11.6758531185
 10
11.0479446576
 20
11.7257617419
 10
11.0522049818
 20
11.7760047615
 10
11.0536264587
 20
11.8264152725
  0
LINE
  5
552
330
1F
100
AcDbEntity
  8
SLD-0
  6
Continuous
370
    15
100
AcDbLine
 10
13.0711779784
 20
10.326415254
 30
0.0
 11
13.3768676737
 21
10.326415254
 31
0.0
  0
LINE
  5
553
330
1F
100
AcDbEntity
  8
SLD-0
  6
Continuous
370
    15
100
AcDbLine
 10
13.0761610675
 20
9.8264152967
 30
0.0
 11
13.0711779784
 21
9.8264152967
 31
0.0
  0
LINE
  5
554
330
1F
100
AcDbEntity
  8
SLD-0
  6
Continuous
370
    15
100
AcDbLine
 10
13.0761610675
 20
9.8264152967
 30
0.0
 11
13.0761610675
 21
10.326415254
 31
0.0
  0
ARC
  5
555
330
1F
100
AcDbEntity
  8
SLD-0
  6
Continuous
370
    15
100
AcDbCircle
 10
10.2180462794
 20
11.8264151992
 30
0.0
 40
0.8751784979272594
100
AcDbArc
 50
91.1692782112
 51
268.8307217888
  0
LINE
  5
556
330
1F
100
AcDbEntity
  8
SLD-0
  6
Continuous
370
    15
100
AcDbLine
 10
23.0053351115
 20
43.7428152649
 30
0.0
 11
21.6923351327
 21
43.7428152649
 31
0.0
  0
LINE
  5
557
330
1F
100
AcDbEntity
  8
SLD-0
  6
Continuous
370
    15
100
AcDbLine
 10
21.3079837328
 20
43.7428152649
 30
0.0
 11
21.210670937
 21
43.7428152649
 31
0.0
  0
LINE
  5
558
330
1F
100
AcDbEntity
  8
SLD-0
  6
Continuous
370
    15
100
AcDbLine
 10
23.3913350257
 20
43.7704164393
 30
0.0
 11
23.3913350257
 21
43.7428152649
 31
0.0
  0
LINE
  5
559
330
1F
100
AcDbEntity
  8
SLD-0
  6
Continuous
370
    15
100
AcDbLine
 10
23.3913350257
 20
43.7428152649
 30
0.0
 11
23.3803351528
 21
43.7428152649
 31
0.0
  0
LINE
  5
55A
330
1F
100
AcDbEntity
  8
SLD-0
  6
Continuous
370
    15
100
AcDbLine
 10
23.3913350257
 20
43.7403160937
 30
0.0
 11
23.3913350257
 21
43.7428152649
 31
0.0
  0
LINE
  5
55B
330
1F
100
AcDbEntity
  8
SLD-0
  6
Continuous
370
    15
100
AcDbLine
 10
24.1839348296
 20
43.7278155448
 30
0.0
 11
24.1563348284
 21
43.7278155448
 31
0.0
  0
LINE
  5
55C
330
1F
100
AcDbEntity
  8
SLD-0
  6
Continuous
370
    15
100
AcDbLine
 10
24.1563348284
 20
43.7278155448
 30
0.0
 11
24.1563348284
 21
43.291978873
 31
0.0
  0
LINE
  5
55D
330
1F
100
AcDbEntity
  8
SLD-0
  6
Continuous
370
    15
100
AcDbLine
 10
24.1839348296
 20
43.7278155448
 30
0.0
 11
24.1839348296
 21
43.3207181676
 31
0.0
  0
LINE
  5
55E
330
1F
100
AcDbEntity
  8
SLD-0
  6
Continuous
370
    15
100
AcDbLine
 10
6.6409350345
 20
43.8221152554
 30
0.0
 11
21.1409346759
 21
43.8221152554
 31
0.0
  0
LINE
  5
55F
330
1F
100
AcDbEntity
  8
SLD-0
  6
Continuous
370
    15
100
AcDbLine
 10
21.1409346759
 20
43.8221152554
 30
0.0
 11
21.1409346759
 21
43.7921158153
 31
0.0
  0
LINE
  5
560
330
1F
100
AcDbEntity
  8
SLD-0
  6
Continuous
370
    15
100
AcDbLine
 10
6.6409350345
 20
43.8221152554
 30
0.0
 11
6.6409350345
 21
43.7921158153
 31
0.0
  0
LINE
  5
561
330
1F
100
AcDbEntity
  8
SLD-0
  6
Continuous
370
    15
100
AcDbLine
 10
21.1409346759
 20
43.8295564495
 30
0.0
 11
6.6409350345
 21
43.8295564495
 31
0.0
  0
LINE
  5
562
330
1F
100
AcDbEntity
  8
SLD-0
  6
Continuous
370
    15
100
AcDbLine
 10
21.1409346759
 20
43.8221152554
 30
0.0
 11
21.1409346759
 21
43.8295564495
 31
0.0
  0
LINE
  5
563
330
1F
100
AcDbEntity
  8
SLD-0
  6
Continuous
370
    15
100
AcDbLine
 10
6.6409350345
 20
43.8295564495
 30
0.0
 11
6.6409350345
 21
43.8221152554
 31
0.0
  0
ARC
  5
564
330
1F
100
AcDbEntity
  8
SLD-0
  6
Continuous
370
    15
100
AcDbCircle
 10
18.0159353095
 20
45.9730918937
 30
0.0
 40
0.1258714315885846
100
AcDbArc
 50
6.7451147892
 51
173.2548852108
  0
LINE
  5
565
330
1F
100
AcDbEntity
  8
SLD-0
  6
Continuous
370
    15
100
AcDbLine
 10
17.8909351002
 20
45.9878758364
 30
0.0
 11
17.8909351002
 21
45.1240965882
 31
0.0
  0
ARC
  5
566
330
1F
100
AcDbEntity
  8
SLD-0
  6
Continuous
370
    15
100
AcDbCircle
 10
18.0159353095
 20
45.1388796155
 30
0.0
 40
0.1258713240874575
100
AcDbArc
 50
186.7447010348
 51
353.2552989652
  0
LINE
  5
567
330
1F
100
AcDbEntity
  8
SLD-0
  6
Continuous
370
    15
100
AcDbLine
 10
18.1409355188
 20
45.9878758364
 30
0.0
 11
18.1409355188
 21
45.1240965882
 31
0.0
  0
LINE
  5
568
330
1F
100
AcDbEntity
  8
SLD-0
  6
Continuous
370
    15
100
AcDbLine
 10
23.265935301
 20
45.3072306859
 30
0.0
 11
21.1409346759
 21
45.3072306859
 31
0.0
  0
LINE
  5
569
330
1F
100
AcDbEntity
  8
SLD-0
  6
Continuous
370
    15
100
AcDbLine
 10
21.1409346759
 20
45.2921159805
 30
0.0
 11
21.1409346759
 21
45.3072306859
 31
0.0
  0
LINE
  5
56A
330
1F
100
AcDbEntity
  8
SLD-0
  6
Continuous
370
    15
100
AcDbLine
 10
21.1409346759
 20
45.2921159805
 30
0.0
 11
21.1409346759
 21
43.8295564495
 31
0.0
  0
LINE
  5
56B
330
1F
100
AcDbEntity
  8
SLD-0
  6
Continuous
370
    15
100
AcDbLine
 10
6.6409350345
 20
46.7850199077
 30
0.0
 11
6.6409350345
 21
43.8295564495
 31
0.0
  0
LINE
  5
56C
330
1F
100
AcDbEntity
  8
SLD-0
  6
Continuous
370
    15
100
AcDbLine
 10
6.6409350345
 20
46.7850199077
 30
0.0
 11
23.5159345464
 21
46.7850199077
 31
0.0
  0
LINE
  5
56D
330
1F
100
AcDbEntity
  8
SLD-0
  6
Continuous
370
    15
100
AcDbLine
 10
23.5159345464
 20
46.7850199077
 30
0.0
 11
23.5159345464
 21
45.523175498
 31
0.0
  0
LINE
  5
56E
330
1F
100
AcDbEntity
  8
SLD-0
  6
Continuous
370
    15
100
AcDbLine
 10
23.5159345464
 20
45.523175498
 30
0.0
 11
23.265935301
 21
45.3072306859
 31
0.0
  0
ARC
  5
56F
330
1F
100
AcDbEntity
  8
SLD-0
  6
Continuous
370
    15
100
AcDbCircle
 10
15.0159349791
 20
45.973091441
 30
0.0
 40
0.1258714847704448
100
AcDbArc
 50
6.7453194679
 51
173.2546805321
  0
LINE
  5
570
330
1F
100
AcDbEntity
  8
SLD-0
  6
Continuous
370
    15
100
AcDbLine
 10
14.8909347698
 20
45.1240965882
 30
0.0
 11
14.8909347698
 21
45.9878758364
 31
0.0
  0
ARC
  5
571
330
1F
100
AcDbEntity
  8
SLD-0
  6
Continuous
370
    15
100
AcDbCircle
 10
15.0159349791
 20
45.1388800683
 30
0.0
 40
0.1258713772660663
100
AcDbArc
 50
186.7449057139
 51
353.2550942861
  0
LINE
  5
572
330
1F
100
AcDbEntity
  8
SLD-0
  6
Continuous
370
    15
100
AcDbLine
 10
15.1409351884
 20
45.9878758364
 30
0.0
 11
15.1409351884
 21
45.1240965882
 31
0.0
  0
LINE
  5
573
330
1F
100
AcDbEntity
  8
SLD-0
  6
Continuous
370
    15
100
AcDbLine
 10
23.265935301
 20
45.2921159805
 30
0.0
 11
23.265935301
 21
45.3072306859
 31
0.0
  0
LINE
  5
574
330
1F
100
AcDbEntity
  8
SLD-0
  6
Continuous
370
    15
100
AcDbLine
 10
21.1409346759
 20
45.2921159805
 30
0.0
 11
23.265935301
 21
45.2921159805
 31
0.0
  0
LINE
  5
575
330
1F
100
AcDbEntity
  8
SLD-0
  6
Continuous
370
    15
100
AcDbLine
 10
23.5159345464
 20
45.5080607926
 30
0.0
 11
23.5159345464
 21
45.523175498
 31
0.0
  0
LINE
  5
576
330
1F
100
AcDbEntity
  8
SLD-0
  6
Continuous
370
    15
100
AcDbLine
 10
23.5159345464
 20
45.5080607926
 30
0.0
 11
23.265935301
 21
45.2921159805
 31
0.0
  0
ARC
  5
577
330
1F
100
AcDbEntity
  8
SLD-0
  6
Continuous
370
    15
100
AcDbCircle
 10
15.0159349791
 20
45.9579753042
 30
0.0
 40
0.1258713772660663
100
AcDbArc
 50
6.7449057139
 51
173.2550942861
  0
ARC
  5
578
330
1F
100
AcDbEntity
  8
SLD-0
  6
Continuous
370
    15
100
AcDbCircle
 10
18.0159353095
 20
45.957975757
 30
0.0
 40
0.1258713240874575
100
AcDbArc
 50
6.7447010348
 51
173.2552989652
  0
LINE
  5
579
330
1F
100
AcDbEntity
  8
SLD-0
  6
Continuous
370
    15
100
AcDbLine
 10
23.5159345464
 20
46.8073458365
 30
0.0
 11
23.5159345464
 21
46.7850199077
 31
0.0
  0
LINE
  5
57A
330
1F
100
AcDbEntity
  8
SLD-0
  6
Continuous
370
    15
100
AcDbLine
 10
6.6409350345
 20
46.7850199077
 30
0.0
 11
6.6409350345
 21
46.8073458365
 31
0.0
  0
LINE
  5
57B
330
1F
100
AcDbEntity
  8
SLD-0
  6
Continuous
370
    15
100
AcDbLine
 10
21.2108668814
 20
43.7394149841
 30
0.0
 11
21.2108668814
 21
9.2014152882
 31
0.0
  0
LINE
  5
57C
330
1F
100
AcDbEntity
  8
SLD-0
  6
Continuous
370
    15
100
AcDbLine
 10
24.1453349555
 20
43.7394149841
 30
0.0
 11
24.1453349555
 21
43.2809778267
 31
0.0
  0
LINE
  5
57D
330
1F
100
AcDbEntity
  8
SLD-0
  6
Continuous
370
    15
100
AcDbLine
 10
24.1453349555
 20
9.7192523713
 30
0.0
 11
24.1453349555
 21
9.2014152882
 31
0.0
  0
LINE
  5
57E
330
1F
100
AcDbEntity
  8
SLD-0
  6
Continuous
370
    15
100
AcDbLine
 10
24.1453349555
 20
9.2014152882
 30
0.0
 11
23.3803351528
 21
9.2014152882
 31
0.0
  0
LINE
  5
57F
330
1F
100
AcDbEntity
  8
SLD-0
  6
Continuous
370
    15
100
AcDbLine
 10
23.0053351115
 20
9.2014152882
 30
0.0
 11
21.6923351327
 21
9.2014152882
 31
0.0
  0
LINE
  5
580
330
1F
100
AcDbEntity
  8
SLD-0
  6
Continuous
370
    15
100
AcDbLine
 10
21.3122780832
 20
9.2014152882
 30
0.0
 11
21.2108668814
 21
9.2014152882
 31
0.0
  0
LINE
  5
581
330
1F
100
AcDbEntity
  8
SLD-0
  6
Continuous
370
    15
100
AcDbLine
 10
24.1453349555
 20
43.7394149841
 30
0.0
 11
23.3803351528
 21
43.7394149841
 31
0.0
  0
LINE
  5
582
330
1F
100
AcDbEntity
  8
SLD-0
  6
Continuous
370
    15
100
AcDbLine
 10
23.0053351115
 20
43.7394149841
 30
0.0
 11
21.6923351327
 21
43.7394149841
 31
0.0
  0
LINE
  5
583
330
1F
100
AcDbEntity
  8
SLD-0
  6
Continuous
370
    15
100
AcDbLine
 10
21.3122780832
 20
43.7394149841
 30
0.0
 11
21.2108668814
 21
43.7394149841
 31
0.0
  0
LINE
  5
584
330
1F
100
AcDbEntity
  8
SLD-0
  6
Continuous
370
    15
100
AcDbLine
 10
21.2108668814
 20
43.7394149841
 30
0.0
 11
21.2077669705
 21
43.7394149841
 31
0.0
  0
LINE
  5
585
330
1F
100
AcDbEntity
  8
SLD-0
  6
Continuous
370
    15
100
AcDbLine
 10
21.2108668814
 20
9.2014152882
 30
0.0
 11
21.2077470241
 21
9.2014152882
 31
0.0
  0
LINE
  5
586
330
1F
100
AcDbEntity
  8
SLD-0
  6
Continuous
370
    15
100
AcDbLine
 10
5.0670927464
 20
43.7394149841
 30
0.0
 11
5.0670927464
 21
9.2014152882
 31
0.0
  0
LINE
  5
587
330
1F
100
AcDbEntity
  8
SLD-0
  6
Continuous
370
    15
100
AcDbLine
 10
6.0468434108
 20
43.7394149841
 30
0.0
 11
5.0670927464
 21
43.7394149841
 31
0.0
  0
LWPOLYLINE
  5
588
330
1F
100
AcDbEntity
  8
SLD-0
  6
Continuous
370
    15
100
AcDbPolyline
 90
      110
 70
   128
 43
0.0
 10
11.0586095478
 20
17.4604152547
 10
11.0571880709
 20
17.5108257657
 10
11.0529277467
 20
17.5610690786
 10
11.0458432419
 20
17.6109774087
 10
11.0359574361
 20
17.6603859046
 10
11.023303769
 20
17.7091303015
 10
11.0079238933
 20
17.7570480947
 10
10.9898694352
 20
17.8039808858
 10
10.9691996473
 20
17.8497720368
 10
10.9459837555
 20
17.8942701894
 10
10.9202986122
 20
17.9373269187
 10
10.8922298698
 20
17.9787990796
 10
10.8618702205
 20
18.0185499804
 10
10.8293211565
 20
18.0564464493
 10
10.7946900366
 20
18.0923623544
 10
10.7580924327
 20
18.1261797771
 10
10.7196497835
 20
18.157785492
 10
10.6794899807
 20
18.1870744869
 10
10.6377456096
 20
18.2139493765
 10
10.5945568819
 20
18.2383215749
 10
10.5500657692
 20
18.2601089499
 10
10.5044206965
 20
18.2792405156
 10
10.4577736087
 20
18.2956517393
 10
10.4102787973
 20
18.3092880618
 10
10.3620946606
 20
18.3201048968
 10
10.3133807701
 20
18.3280658715
 10
10.2642996304
 20
18.3331445862
 10
10.2150131597
 20
18.3353246144
 10
10.1656856229
 20
18.3345977427
 10
10.1164812847
 20
18.3309669047
 10
10.0675632364
 20
18.32444442
 10
10.019093983
 20
18.3150514085
 10
9.9712348559
 20
18.3028195499
 10
9.9241445465
 20
18.2877899101
 10
9.8779791065
 20
18.2700111822
 10
9.832892534
 20
18.2495432053
 10
9.7890344273
 20
18.2264534454
 10
9.7465502781
 20
18.2008193415
 10
9.7055811781
 20
18.1727259594
 10
9.6662635256
 20
18.1422659912
 10
9.6287278526
 20
18.1095409293
 10
9.5930988241
 20
18.0746593056
 10
9.5594946523
 20
18.0377378654
 10
9.5280270959
 20
17.9988980474
 10
9.4988005802
 20
17.9582700901
 10
9.4719124908
 20
17.9159877519
 10
9.4474517067
 20
17.8721924178
 10
9.4255000669
 20
17.8270289929
 10
9.4061297307
 20
17.780647662
 10
9.3894055239
 20
17.7332027168
 10
9.3753831792
 20
17.684851382
 10
9.3641087495
 20
17.6357544025
 10
9.3556200742
 20
17.5860754564
 10
9.3499453131
 20
17.5359788085
 10
9.3471032392
 20
17.4856310701
 10
9.3471032392
 20
17.4351994393
 10
9.3499453131
 20
17.384851701
 10
9.3556200742
 20
17.334755053
 10
9.3641087495
 20
17.2850761069
 10
9.3753831792
 20
17.2359791274
 10
9.3894055239
 20
17.1876277926
 10
9.4061297307
 20
17.1401828474
 10
9.4255000669
 20
17.0938015165
 10
9.4474517067
 20
17.0486380916
 10
9.4719124908
 20
17.0048427575
 10
9.4988005802
 20
16.9625604193
 10
9.5280270959
 20
16.921932462
 10
9.5594946523
 20
16.883092644
 10
9.5930988241
 20
16.8461712038
 10
9.6287278526
 20
16.8112895801
 10
9.6662635256
 20
16.7785645182
 10
9.7055811781
 20
16.7481051367
 10
9.7465502781
 20
16.7200111679
 10
9.7890344273
 20
16.6943770641
 10
9.832892534
 20
16.6712878908
 10
9.8779791065
 20
16.6508193272
 10
9.9241445465
 20
16.6330411859
 10
9.9712348559
 20
16.6180109596
 10
10.019093983
 20
16.6057791009
 10
10.0675632364
 20
16.5963860894
 10
10.1164812847
 20
16.5898636047
 10
10.1656856229
 20
16.5862327667
 10
10.2150131597
 20
16.5855058951
 10
10.2642996304
 20
16.5876859232
 10
10.3133807701
 20
16.5927646379
 10
10.3620946606
 20
16.6007256126
 10
10.4102787973
 20
16.6115424476
 10
10.4577736087
 20
16.6251787701
 10
10.5044206965
 20
16.6415899939
 10
10.5500657692
 20
16.6607215595
 10
10.5945568819
 20
16.6825095211
 10
10.6377456096
 20
16.7068811329
 10
10.6794899807
 20
16.7337560225
 10
10.7196497835
 20
16.7630450175
 10
10.7580924327
 20
16.7946507323
 10
10.7946900366
 20
16.828468155
 10
10.8293211565
 20
16.8643846468
 10
10.8618702205
 20
16.902280529
 10
10.8922298698
 20
16.9420314298
 10
10.9202986122
 20
16.9835035907
 10
10.9459837555
 20
17.02656032
 10
10.9691996473
 20
17.0710584726
 10
10.9898694352
 20
17.1168496236
 10
11.0079238933
 20
17.1637824148
 10
11.023303769
 20
17.2117002079
 10
11.0359574361
 20
17.2604446048
 10
11.0458432419
 20
17.3098531007
 10
11.0529277467
 20
17.3597620175
 10
11.0571880709
 20
17.4100047437
 10
11.0586095478
 20
17.4604152547
  0
LINE
  5
589
330
1F
100
AcDbEntity
  8
SLD-0
  6
Continuous
370
    15
100
AcDbLine
 10
6.0468434108
 20
9.2014152882
 30
0.0
 11
5.0670927464
 21
9.2014152882
 31
0.0
  0
ARC
  5
58A
330
1F
100
AcDbEntity
  8
SLD-0
  6
Continuous
370
    15
100
AcDbCircle
 10
10.2225463712
 20
17.4604152547
 30
0.0
 40
0.8751740614417012
100
AcDbArc
 50
91.1532918559
 51
268.8467081441
  0
LINE
  5
58B
330
1F
100
AcDbEntity
  8
SLD-0
  6
Continuous
370
    15
100
AcDbLine
 10
5.0253349932
 20
43.5883477159
 30
0.0
 11
5.0253349932
 21
9.3524831499
 31
0.0
  0
LINE
  5
58C
330
1F
100
AcDbEntity
  8
SLD-0
  6
Continuous
370
    15
100
AcDbLine
 10
5.0670927464
 20
9.2014152882
 30
0.0
 11
5.0253349932
 21
9.2014152882
 31
0.0
  0
LINE
  5
58D
330
1F
100
AcDbEntity
  8
SLD-0
  6
Continuous
370
    15
100
AcDbLine
 10
5.0670927464
 20
43.7394149841
 30
0.0
 11
5.0253349932
 21
43.7394149841
 31
0.0
  0
LINE
  5
58E
330
1F
100
AcDbEntity
  8
SLD-0
  6
Continuous
370
    15
100
AcDbLine
 10
21.2406351775
 20
8.1637152776
 30
0.0
 11
21.1862318593
 21
8.1637152776
 31
0.0
  0
LINE
  5
58F
330
1F
100
AcDbEntity
  8
SLD-0
  6
Continuous
370
    15
100
AcDbLine
 10
21.2406351775
 20
9.0661152905
 30
0.0
 11
21.1862318593
 21
9.0661152905
 31
0.0
  0
LINE
  5
590
330
1F
100
AcDbEntity
  8
SLD-0
  6
Continuous
370
    15
100
AcDbLine
 10
21.7120351718
 20
9.1804977877
 30
0.0
 11
21.6923351327
 21
9.1804977877
 31
0.0
  0
LINE
  5
591
330
1F
100
AcDbEntity
  8
SLD-0
  6
Continuous
370
    15
100
AcDbLine
 10
21.2838004388
 20
9.1804977877
 30
0.0
 11
21.22772514
 21
9.1804977877
 31
0.0
  0
LINE
  5
592
330
1F
100
AcDbEntity
  8
SLD-0
  6
Continuous
370
    15
100
AcDbLine
 10
23.6440774927
 20
43.7394149841
 30
0.0
 11
23.6440774927
 21
43.7403160937
 31
0.0
  0
LINE
  5
593
330
1F
100
AcDbEntity
  8
SLD-0
  6
Continuous
370
    15
100
AcDbLine
 10
23.6347214408
 20
43.7394149841
 30
0.0
 11
23.6347214408
 21
43.7403160937
 31
0.0
  0
LINE
  5
594
330
1F
100
AcDbEntity
  8
SLD-0
  6
Continuous
370
    15
100
AcDbLine
 10
5.0920349937
 20
43.7403160937
 30
0.0
 11
5.0920349937
 21
43.7394149841
 31
0.0
  0
LINE
  5
595
330
1F
100
AcDbEntity
  8
SLD-0
  6
Continuous
370
    15
100
AcDbLine
 10
21.1999245011
 20
43.7270904332
 30
0.0
 11
21.1999245011
 21
9.2137407306
 31
0.0
  0
ENDSEC
  0
SECTION
  2
OBJECTS
  0
DICTIONARY
  5
C
330
0
100
AcDbDictionary
281
     1
  3
ACAD_GROUP
350
D
  3
ACAD_LAYOUT
350
1A
  3
ACAD_MATERIAL
350
3B
  3
ACAD_MLEADERSTYLE
350
597
  3
ACAD_MLINESTYLE
350
17
  3
ACAD_PLOTSETTINGS
350
19
  3
ACAD_PLOTSTYLENAME
350
E
  3
ACAD_TABLESTYLE
350
596
  0
DICTIONARY
  5
D
102
{ACAD_REACTORS
330
C
102
}
330
C
100
AcDbDictionary
281
     1
  0
DICTIONARY
  5
1A
102
{ACAD_REACTORS
330
C
102
}
330
C
100
AcDbDictionary
281
     1
  3
Layout1
350
1E
  3
Layout2
350
26
  3
Model
350
22
  0
DICTIONARY
  5
3B
102
{ACAD_REACTORS
330
C
102
}
330
C
100
AcDbDictionary
281
     1
  3
ByBlock
350
3D
  3
ByLayer
350
3C
  3
Global
350
3E
  0
DICTIONARY
  5
597
102
{ACAD_REACTORS
330
C
102
}
330
C
100
AcDbDictionary
281
     1
  0
DICTIONARY
  5
17
102
{ACAD_REACTORS
330
C
102
}
330
C
100
AcDbDictionary
281
     1
  3
Standard
350
18
  0
DICTIONARY
  5
19
102
{ACAD_REACTORS
330
C
102
}
330
C
100
AcDbDictionary
281
     1
  0
ACDBDICTIONARYWDFLT
  5
E
102
{ACAD_REACTORS
330
C
102
}
330
C
100
AcDbDictionary
281
     1
  3
Normal
350
F
100
AcDbDictionaryWithDefault
340
F
  0
DICTIONARY
  5
596
102
{ACAD_REACTORS
330
C
102
}
330
C
100
AcDbDictionary
281
     1
  0
LAYOUT
  5
1E
102
{ACAD_REACTORS
330
1A
102
}
330
1A
100
AcDbPlotSettings
  1

  2
none_device
  4

  6

 40
0.0
 41
0.0
 42
0.0
 43
0.0
 44
0.0
 45
0.0
 46
0.0
 47
0.0
 48
0.0
 49
0.0
140
0.0
141
0.0
142
1.0
143
1.0
 70
   688
 72
     0
 73
     0
 74
     5
  7

 75
    16
 76
     0
 77
     2
 78
   300
147
1.0
148
0.0
149
0.0
100
AcDbLayout
  1
Layout1
 70
     1
 71
     1
 10
0.0
 20
0.0
 11
12.0
 21
9.0
 12
0.0
 22
0.0
 32
0.0
 14
1.0000000000E+20
 24
1.0000000000E+20
 34
1.0000000000E+20
 15
-1.0000000000E+20
 25
-1.0000000000E+20
 35
-1.0000000000E+20
146
0.0
 13
0.0
 23
0.0
 33
0.0
 16
1.0
 26
0.0
 36
0.0
 17
0.0
 27
1.0
 37
0.0
 76
     0
330
1B
  0
LAYOUT
  5
26
102
{ACAD_REACTORS
330
1A
102
}
330
1A
100
AcDbPlotSettings
  1

  2
none_device
  4

  6

 40
0.0
 41
0.0
 42
0.0
 43
0.0
 44
0.0
 45
0.0
 46
0.0
 47
0.0
 48
0.0
 49
0.0
140
0.0
141
0.0
142
1.0
143
1.0
 70
   688
 72
     0
 73
     0
 74
     5
  7

 75
    16
 76
     0
 77
     2
 78
   300
147
1.0
148
0.0
149
0.0
100
AcDbLayout
  1
Layout2
 70
     1
 71
     2
 10
0.0
 20
0.0
 11
0.0
 21
0.0
 12
0.0
 22
0.0
 32
0.0
 14
0.0
 24
0.0
 34
0.0
 15
0.0
 25
0.0
 35
0.0
146
0.0
 13
0.0
 23
0.0
 33
0.0
 16
1.0
 26
0.0
 36
0.0
 17
0.0
 27
1.0
 37
0.0
 76
     0
330
23
  0
LAYOUT
  5
22
102
{ACAD_REACTORS
330
1A
102
}
330
1A
100
AcDbPlotSettings
  1

  2
none_device
  4

  6

 40
0.0
 41
0.0
 42
0.0
 43
0.0
 44
0.0
 45
0.0
 46
0.0
 47
0.0
 48
0.0
 49
0.0
140
0.0
141
0.0
142
1.0
143
1.0
 70
  1712
 72
     0
 73
     0
 74
     0
  7

 75
     0
 76
     0
 77
     2
 78
   300
147
1.0
148
0.0
149
0.0
100
AcDbLayout
  1
Model
 70
     1
 71
     0
 10
0.0
 20
0.0
 11
130.0
 21
90.0
 12
0.0
 22
0.0
 32
0.0
 14
0.0
 24
0.0
 34
0.0
 15
130.0
 25
90.0
 35
0.0
146
0.0
 13
0.0
 23
0.0
 33
0.0
 16
1.0
 26
0.0
 36
0.0
 17
0.0
 27
1.0
 37
0.0
 76
     0
330
1F
331
29
  0
MATERIAL
  5
3D
102
{ACAD_REACTORS
330
3B
102
}
330
3B
100
AcDbMaterial
  1
ByBlock
  0
MATERIAL
  5
3C
102
{ACAD_REACTORS
330
3B
102
}
330
3B
100
AcDbMaterial
  1
ByLayer
  0
MATERIAL
  5
3E
102
{ACAD_REACTORS
330
3B
102
}
330
3B
100
AcDbMaterial
  1
Global
  0
MLINESTYLE
  5
18
102
{ACAD_REACTORS
330
17
102
}
330
17
100
AcDbMlineStyle
  2
Standard
 70
     0
  3

 62
   256
 51
90.0
 52
90.0
 71
     2
 49
0.5
 62
   256
  6
BYLAYER
 49
-0.5
 62
   256
  6
BYLAYER
  0
ACDBPLACEHOLDER
  5
F
102
{ACAD_REACTORS
330
E
102
}
330
E
  0
ENDSEC
  0
EOF
