  0
SECTION
  2
HEADER
  9
$ACADVER
  1
AC1015
  9
$ACADMAINTVER
 70
     6
  9
$DWGCODEPAGE
  3
ANSI_1252
  9
$INSBASE
 10
0.0
 20
0.0
 30
0.0
  9
$EXTMIN
 10
0.0
 20
0.0
 30
0.0
  9
$EXTMAX
 10
125.0
 20
90.0
 30
0.0
  9
$LIMMIN
 10
0.0
 20
0.0
  9
$LIMMAX
 10
125.0
 20
90.0
  9
$ORTHOMODE
 70
     0
  9
$REGENMODE
 70
     1
  9
$FILLMODE
 70
     1
  9
$QTEXTMODE
 70
     0
  9
$MIRRTEXT
 70
     1
  9
$LTSCALE
 40
1.0
  9
$ATTMODE
 70
     1
  9
$TEXTSIZE
 40
0.1388888889
  9
$TRACEWID
 40
0.05
  9
$TEXTSTYLE
  7
Standard
  9
$CLAYER
  8
0
  9
$CELTYPE
  6
ByLayer
  9
$CECOLOR
 62
   256
  9
$CELTSCALE
 40
1.0
  9
$DISPSILH
 70
     0
  9
$DIMSCALE
 40
1.0
  9
$DIMASZ
 40
1.0
  9
$DIMEXO
 40
0.0393700787
  9
$DIMDLI
 40
0.38
  9
$DIMRND
 40
0.0
  9
$DIMDLE
 40
0.0
  9
$DIMEXE
 40
0.0393700787
  9
$DIMTP
 40
0.0
  9
$DIMTM
 40
0.0
  9
$DIMTXT
 40
1.5
  9
$DIMCEN
 40
0.09
  9
$DIMTSZ
 40
0.0
  9
$DIMTOL
 70
     0
  9
$DIMLIM
 70
     0
  9
$DIMTIH
 70
     1
  9
$DIMTOH
 70
     1
  9
$DIMSE1
 70
     0
  9
$DIMSE2
 70
     0
  9
$DIMTAD
 70
     0
  9
$DIMZIN
 70
     0
  9
$DIMBLK
  1

  9
$DIMASO
 70
     1
  9
$DIMSHO
 70
     1
  9
$DIMPOST
  1

  9
$DIMAPOST
  1

  9
$DIMALT
 70
     0
  9
$DIMALTD
 70
     2
  9
$DIMALTF
 40
25.4
  9
$DIMLFAC
 40
1.0
  9
$DIMTOFL
 70
     0
  9
$DIMTVP
 40
0.0
  9
$DIMTIX
 70
     0
  9
$DIMSOXD
 70
     0
  9
$DIMSAH
 70
     0
  9
$DIMBLK1
  1

  9
$DIMBLK2
  1

  9
$DIMSTYLE
  2
Standard
  9
$DIMCLRD
 70
     0
  9
$DIMCLRE
 70
     0
  9
$DIMCLRT
 70
     0
  9
$DIMTFAC
 40
1.0
  9
$DIMGAP
 40
0.06
  9
$DIMJUST
 70
     0
  9
$DIMSD1
 70
     0
  9
$DIMSD2
 70
     0
  9
$DIMTOLJ
 70
     1
  9
$DIMTZIN
 70
     0
  9
$DIMALTZ
 70
     0
  9
$DIMALTTZ
 70
     0
  9
$DIMUPT
 70
     0
  9
$DIMDEC
 70
     3
  9
$DIMTDEC
 70
     2
  9
$DIMALTU
 70
     2
  9
$DIMALTTD
 70
     2
  9
$DIMTXSTY
  7
Standard
  9
$DIMAUNIT
 70
     0
  9
$DIMADEC
 70
     2
  9
$DIMALTRND
 40
0.0
  9
$DIMAZIN
 70
     0
  9
$DIMDSEP
 70
    46
  9
$DIMATFIT
 70
     3
  9
$DIMFRAC
 70
     0
  9
$DIMLDRBLK
  1

  9
$DIMLUNIT
 70
     2
  9
$DIMLWD
 70
    -2
  9
$DIMLWE
 70
    -2
  9
$DIMTMOVE
 70
     0
  9
$LUNITS
 70
     2
  9
$LUPREC
 70
     3
  9
$SKETCHINC
 40
0.1
  9
$FILLETRAD
 40
0.5
  9
$AUNITS
 70
     0
  9
$AUPREC
 70
     2
  9
$MENU
  1
.
  9
$ELEVATION
 40
0.0
  9
$PELEVATION
 40
0.0
  9
$THICKNESS
 40
0.0
  9
$LIMCHECK
 70
     0
  9
$CHAMFERA
 40
0.5
  9
$CHAMFERB
 40
0.5
  9
$CHAMFERC
 40
1.0
  9
$CHAMFERD
 40
0.0
  9
$SKPOLY
 70
     0
  9
$TDCREATE
 40
2456577.34162257
  9
$TDUCREATE
 40
2456577.549955903
  9
$TDUPDATE
 40
2456577.341625636
  9
$TDUUPDATE
 40
2456577.54995897
  9
$TDINDWG
 40
0.0000000116
  9
$TDUSRTIMER
 40
0.0000000116
  9
$USRTIMER
 70
     1
  9
$ANGBASE
 50
0.0
  9
$ANGDIR
 70
     0
  9
$PDMODE
 70
     0
  9
$PDSIZE
 40
-1.0
  9
$PLINEWID
 40
0.0
  9
$SPLFRAME
 70
     0
  9
$SPLINETYPE
 70
     6
  9
$SPLINESEGS
 70
     8
  9
$HANDSEED
  5
450
  9
$SURFTAB1
 70
     6
  9
$SURFTAB2
 70
     6
  9
$SURFTYPE
 70
     6
  9
$SURFU
 70
     6
  9
$SURFV
 70
     6
  9
$UCSBASE
  2

  9
$UCSNAME
  2

  9
$UCSORG
 10
0.0
 20
0.0
 30
0.0
  9
$UCSXDIR
 10
1.0
 20
0.0
 30
0.0
  9
$UCSYDIR
 10
0.0
 20
1.0
 30
0.0
  9
$UCSORTHOREF
  2

  9
$UCSORTHOVIEW
 70
     0
  9
$UCSORGTOP
 10
0.0
 20
0.0
 30
0.0
  9
$UCSORGBOTTOM
 10
0.0
 20
0.0
 30
0.0
  9
$UCSORGLEFT
 10
0.0
 20
0.0
 30
0.0
  9
$UCSORGRIGHT
 10
0.0
 20
0.0
 30
0.0
  9
$UCSORGFRONT
 10
0.0
 20
0.0
 30
0.0
  9
$UCSORGBACK
 10
0.0
 20
0.0
 30
0.0
  9
$PUCSBASE
  2

  9
$PUCSNAME
  2

  9
$PUCSORG
 10
0.0
 20
0.0
 30
0.0
  9
$PUCSXDIR
 10
1.0
 20
0.0
 30
0.0
  9
$PUCSYDIR
 10
0.0
 20
1.0
 30
0.0
  9
$PUCSORTHOREF
  2

  9
$PUCSORTHOVIEW
 70
     0
  9
$PUCSORGTOP
 10
0.0
 20
0.0
 30
0.0
  9
$PUCSORGBOTTOM
 10
0.0
 20
0.0
 30
0.0
  9
$PUCSORGLEFT
 10
0.0
 20
0.0
 30
0.0
  9
$PUCSORGRIGHT
 10
0.0
 20
0.0
 30
0.0
  9
$PUCSORGFRONT
 10
0.0
 20
0.0
 30
0.0
  9
$PUCSORGBACK
 10
0.0
 20
0.0
 30
0.0
  9
$USERI1
 70
     0
  9
$USERI2
 70
     0
  9
$USERI3
 70
     0
  9
$USERI4
 70
     0
  9
$USERI5
 70
     0
  9
$USERR1
 40
0.0
  9
$USERR2
 40
0.0
  9
$USERR3
 40
0.0
  9
$USERR4
 40
0.0
  9
$USERR5
 40
0.0
  9
$WORLDVIEW
 70
     1
  9
$SHADEDGE
 70
     3
  9
$SHADEDIF
 70
    70
  9
$TILEMODE
 70
     1
  9
$MAXACTVP
 70
    64
  9
$PINSBASE
 10
0.0
 20
0.0
 30
0.0
  9
$PLIMCHECK
 70
     0
  9
$PEXTMIN
 10
1.0000000000E+20
 20
1.0000000000E+20
 30
1.0000000000E+20
  9
$PEXTMAX
 10
-1.0000000000E+20
 20
-1.0000000000E+20
 30
-1.0000000000E+20
  9
$PLIMMIN
 10
0.0
 20
0.0
  9
$PLIMMAX
 10
12.0
 20
9.0
  9
$UNITMODE
 70
     0
  9
$VISRETAIN
 70
     1
  9
$PLINEGEN
 70
     0
  9
$PSLTSCALE
 70
     1
  9
$TREEDEPTH
 70
  3020
  9
$CMLSTYLE
  2
Standard
  9
$CMLJUST
 70
     0
  9
$CMLSCALE
 40
1.0
  9
$PROXYGRAPHICS
 70
     1
  9
$MEASUREMENT
 70
     0
  9
$CELWEIGHT
370
    -1
  9
$ENDCAPS
280
     0
  9
$JOINSTYLE
280
     0
  9
$LWDISPLAY
290
     1
  9
$INSUNITS
 70
     1
  9
$HYPERLINKBASE
  1

  9
$STYLESHEET
  1

  9
$XEDIT
290
     1
  9
$CEPSNTYPE
380
     0
  9
$PSTYLEMODE
290
     1
  9
$FINGERPRINTGUID
  2
{3394518C-8941-4C5C-B03F-6BD6923F5B43}
  9
$VERSIONGUID
  2
{FAEB1C32-E019-11D5-929B-00C0DF256EC4}
  9
$EXTNAMES
290
     1
  9
$PSVPSCALE
 40
0.0
  9
$OLESTARTUP
290
     0
  0
ENDSEC
  0
SECTION
  2
CLASSES
  0
CLASS
  1
ACDBDICTIONARYWDFLT
  2
AcDbDictionaryWithDefault
  3
ObjectDBX Classes
 90
        0
280
     0
281
     0
  0
CLASS
  1
VISUALSTYLE
  2
AcDbVisualStyle
  3
ObjectDBX Classes
 90
     4095
280
     0
281
     0
  0
CLASS
  1
MATERIAL
  2
AcDbMaterial
  3
ObjectDBX Classes
 90
     1153
280
     0
281
     0
  0
CLASS
  1
ACDBPLACEHOLDER
  2
AcDbPlaceHolder
  3
ObjectDBX Classes
 90
        0
280
     0
281
     0
  0
CLASS
  1
LAYOUT
  2
AcDbLayout
  3
ObjectDBX Classes
 90
        0
280
     0
281
     0
  0
ENDSEC
  0
SECTION
  2
TABLES
  0
TABLE
  2
VPORT
  5
8
330
0
100
AcDbSymbolTable
 70
     1
  0
VPORT
  5
29
330
8
100
AcDbSymbolTableRecord
100
AcDbViewportTableRecord
  2
*Active
 70
     0
 10
0.0
 20
0.0
 11
1.0
 21
1.0
 12
62.5
 22
45.0
 13
0.0
 23
0.0
 14
0.5
 24
0.5
 15
0.5
 25
0.5
 16
0.0
 26
0.0
 36
1.0
 17
0.0
 27
0.0
 37
0.0
 40
90.0
 41
1.3888888889
 42
50.0
 43
0.0
 44
0.0
 50
0.0
 51
0.0
 71
     0
 72
  2000
 73
     1
 74
     3
 75
     0
 76
     0
 77
     0
 78
     0
281
     0
 65
     1
110
0.0
120
0.0
130
0.0
111
1.0
121
0.0
131
0.0
112
0.0
122
1.0
132
0.0
 79
     0
146
0.0
  0
ENDTAB
  0
TABLE
  2
LTYPE
  5
5
330
0
100
AcDbSymbolTable
 70
     6
  0
LTYPE
  5
14
330
5
100
AcDbSymbolTableRecord
100
AcDbLinetypeTableRecord
  2
ByBlock
 70
     0
  3

 72
    65
 73
     0
 40
0.0
  0
LTYPE
  5
15
330
5
100
AcDbSymbolTableRecord
100
AcDbLinetypeTableRecord
  2
ByLayer
 70
     0
  3

 72
    65
 73
     0
 40
0.0
  0
LTYPE
  5
16
330
5
100
AcDbSymbolTableRecord
100
AcDbLinetypeTableRecord
  2
Continuous
 70
     0
  3
Solid line
 72
    65
 73
     0
 40
0.0
  0
LTYPE
  5
3F
330
5
100
AcDbSymbolTableRecord
100
AcDbLinetypeTableRecord
  2
HIDDEN
 70
     0
  3
Hidden __ __ __ __ __ __ __ __ __ __ __ __ __ __
 72
    65
 73
     2
 40
0.075
 49
0.05
 74
     0
 49
-0.025
 74
     0
  0
LTYPE
  5
40
330
5
100
AcDbSymbolTableRecord
100
AcDbLinetypeTableRecord
  2
PHANTOM
 70
     0
  3
Phantom ______  __  __  ______  __  __  ______
 72
    65
 73
     6
 40
0.5
 49
0.25
 74
     0
 49
-0.05
 74
     0
 49
0.05
 74
     0
 49
-0.05
 74
     0
 49
0.05
 74
     0
 49
-0.05
 74
     0
  0
LTYPE
  5
41
330
5
100
AcDbSymbolTableRecord
100
AcDbLinetypeTableRecord
  2
CENTER
 70
     0
  3
Center ____ _ ____ _ ____ _ ____ _ ____ _ ____
 72
    65
 73
     4
 40
0.4
 49
0.25
 74
     0
 49
-0.05
 74
     0
 49
0.05
 74
     0
 49
-0.05
 74
     0
  0
LTYPE
  5
42
330
5
100
AcDbSymbolTableRecord
100
AcDbLinetypeTableRecord
  2
CENTERX2
 70
     0
  3
Center (2x) ________  __  ________  __  _____
 72
    65
 73
     4
 40
0.8
 49
0.5
 74
     0
 49
-0.1
 74
     0
 49
0.1
 74
     0
 49
-0.1
 74
     0
  0
LTYPE
  5
43
330
5
100
AcDbSymbolTableRecord
100
AcDbLinetypeTableRecord
  2
DOT2
 70
     0
  3
Dot (.5x) ........................................
 72
    65
 73
     2
 40
0.025
 49
0.0
 74
     0
 49
-0.025
 74
     0
  0
ENDTAB
  0
TABLE
  2
LAYER
  5
2
330
0
100
AcDbSymbolTable
 70
     4
  0
LAYER
  5
10
330
2
100
AcDbSymbolTableRecord
100
AcDbLayerTableRecord
  2
0
 70
     0
 62
     7
  6
Continuous
370
    -3
390
F
  0
LAYER
  5
44
330
2
100
AcDbSymbolTableRecord
100
AcDbLayerTableRecord
  2
SLD-0
 70
     0
 62
     7
  6
Continuous
370
    -3
390
F
  0
LAYER
  5
45
330
2
100
AcDbSymbolTableRecord
100
AcDbLayerTableRecord
  2
NOTES
 70
     0
 62
     1
  6
Continuous
370
    -3
390
F
  0
LAYER
  5
46
330
2
100
AcDbSymbolTableRecord
100
AcDbLayerTableRecord
  2
DIM
 70
     0
 62
   100
  6
Continuous
370
    -3
390
F
  0
ENDTAB
  0
TABLE
  2
STYLE
  5
3
330
0
100
AcDbSymbolTable
 70
     2
  0
STYLE
  5
11
330
3
100
AcDbSymbolTableRecord
100
AcDbTextStyleTableRecord
  2
Standard
 70
     0
 40
0.0
 41
1.0
 50
0.0
 71
     0
 42
0.1388888889
  3
txt
  4

  0
STYLE
  5
47
330
3
100
AcDbSymbolTableRecord
100
AcDbTextStyleTableRecord
  2
SLDTEXTSTYLE0
 70
     0
 40
0.0
 41
0.75
 50
0.0
 71
     0
 42
0.2
  3
TXT
  4

  0
ENDTAB
  0
TABLE
  2
VIEW
  5
6
330
0
100
AcDbSymbolTable
 70
     0
  0
ENDTAB
  0
TABLE
  2
UCS
  5
7
330
0
100
AcDbSymbolTable
 70
     0
  0
ENDTAB
  0
TABLE
  2
APPID
  5
9
330
0
100
AcDbSymbolTable
 70
     1
  0
APPID
  5
12
330
9
100
AcDbSymbolTableRecord
100
AcDbRegAppTableRecord
  2
ACAD
 70
     0
  0
ENDTAB
  0
TABLE
  2
DIMSTYLE
  5
A
330
0
100
AcDbSymbolTable
 70
     3
100
AcDbDimStyleTable
  0
DIMSTYLE
105
27
330
A
100
AcDbSymbolTableRecord
100
AcDbDimStyleTableRecord
  2
Standard
 70
     0
178
     0
340
11
  0
DIMSTYLE
105
11E
102
{ACAD_REACTORS
330
11D
330
12D
330
13C
330
149
330
326
330
335
330
344
330
436
102
}
330
A
100
AcDbSymbolTableRecord
100
AcDbDimStyleTableRecord
  2
SLDDIMSTYLE0
 70
     0
 41
1.0
 44
0.0
 45
0.000000001
 78
    12
 79
     3
140
1.5
147
0.375
173
     1
178
     0
271
     3
272
     2
276
     2
277
     5
284
    12
340
47
  0
DIMSTYLE
105
318
102
{ACAD_REACTORS
330
317
330
445
102
}
330
A
100
AcDbSymbolTableRecord
100
AcDbDimStyleTableRecord
  2
SLDDIMSTYLE1
 70
     0
 41
1.0
 44
0.0
 45
0.000000001
 78
    12
 79
     3
140
1.5
147
0.375
172
     1
173
     1
178
     0
271
     3
272
     2
276
     2
277
     5
284
    12
289
     0
340
47
  0
ENDTAB
  0
TABLE
  2
BLOCK_RECORD
  5
1
330
0
100
AcDbSymbolTable
 70
    11
  0
BLOCK_RECORD
  5
1F
330
1
100
AcDbSymbolTableRecord
100
AcDbBlockTableRecord
  2
*Model_Space
340
22
  0
BLOCK_RECORD
  5
1B
330
1
100
AcDbSymbolTableRecord
100
AcDbBlockTableRecord
  2
*Paper_Space
340
1E
  0
BLOCK_RECORD
  5
23
330
1
100
AcDbSymbolTableRecord
100
AcDbBlockTableRecord
  2
*Paper_Space0
340
26
  0
BLOCK_RECORD
  5
11F
330
1
100
AcDbSymbolTableRecord
100
AcDbBlockTableRecord
  2
_D
340
0
  0
BLOCK_RECORD
  5
12E
330
1
100
AcDbSymbolTableRecord
100
AcDbBlockTableRecord
  2
_D_1
340
0
  0
BLOCK_RECORD
  5
13D
330
1
100
AcDbSymbolTableRecord
100
AcDbBlockTableRecord
  2
_D_2
340
0
  0
BLOCK_RECORD
  5
14A
330
1
100
AcDbSymbolTableRecord
100
AcDbBlockTableRecord
  2
_D_3
340
0
  0
BLOCK_RECORD
  5
319
330
1
100
AcDbSymbolTableRecord
100
AcDbBlockTableRecord
  2
_D_4
340
0
  0
BLOCK_RECORD
  5
327
330
1
100
AcDbSymbolTableRecord
100
AcDbBlockTableRecord
  2
_D_5
340
0
  0
BLOCK_RECORD
  5
336
330
1
100
AcDbSymbolTableRecord
100
AcDbBlockTableRecord
  2
_D_6
340
0
  0
BLOCK_RECORD
  5
345
330
1
100
AcDbSymbolTableRecord
100
AcDbBlockTableRecord
  2
_D_7
340
0
  0
BLOCK_RECORD
  5
437
330
1
100
AcDbSymbolTableRecord
100
AcDbBlockTableRecord
  2
_D_8
340
0
  0
BLOCK_RECORD
  5
446
330
1
100
AcDbSymbolTableRecord
100
AcDbBlockTableRecord
  2
_D_9
340
0
  0
ENDTAB
  0
ENDSEC
  0
SECTION
  2
BLOCKS
  0
BLOCK
  5
20
330
1F
100
AcDbEntity
  8
0
100
AcDbBlockBegin
  2
*Model_Space
 70
     0
 10
0.0
 20
0.0
 30
0.0
  3
*Model_Space
  1

  0
ENDBLK
  5
21
330
1F
100
AcDbEntity
  8
0
100
AcDbBlockEnd
  0
BLOCK
  5
1C
330
1B
100
AcDbEntity
 67
     1
  8
0
100
AcDbBlockBegin
  2
*Paper_Space
 70
     0
 10
0.0
 20
0.0
 30
0.0
  3
*Paper_Space
  1

  0
ENDBLK
  5
1D
330
1B
100
AcDbEntity
 67
     1
  8
0
100
AcDbBlockEnd
  0
BLOCK
  5
24
330
23
100
AcDbEntity
  8
0
100
AcDbBlockBegin
  2
*Paper_Space0
 70
     0
 10
0.0
 20
0.0
 30
0.0
  3
*Paper_Space0
  1

  0
ENDBLK
  5
25
330
23
100
AcDbEntity
  8
0
100
AcDbBlockEnd
  0
BLOCK
  5
120
330
11F
100
AcDbEntity
  8
0
100
AcDbBlockBegin
  2
_D
 70
     0
 10
0.0
 20
0.0
 30
0.0
  3
_D
  1

  0
SOLID
  5
122
330
11F
100
AcDbEntity
  8
DIM
100
AcDbTrace
 10
36.005967536
 20
38.95313311
 30
0.0
 11
35.755967536
 21
37.95313311
 31
0.0
 12
36.255967536
 22
37.95313311
 32
0.0
 13
36.255967536
 23
37.95313311
 33
0.0
  0
SOLID
  5
123
330
11F
100
AcDbEntity
  8
DIM
100
AcDbTrace
 10
36.005967536
 20
14.57473311
 30
0.0
 11
36.255967536
 21
15.57473311
 31
0.0
 12
35.755967536
 22
15.57473311
 32
0.0
 13
35.755967536
 23
15.57473311
 33
0.0
  0
LINE
  5
124
330
11F
100
AcDbEntity
  8
DIM
100
AcDbLine
 10
37.0955508704
 20
23.7358267297
 30
0.0
 11
35.2955508481
 21
20.7358266926
 31
0.0
  0
LINE
  5
125
330
11F
100
AcDbEntity
  8
DIM
100
AcDbLine
 10
41.9043407873
 20
38.95313311
 30
0.0
 11
35.9665974573
 21
38.95313311
 31
0.0
  0
LINE
  5
126
330
11F
100
AcDbEntity
  8
DIM
100
AcDbLine
 10
41.9043407873
 20
14.57473311
 30
0.0
 11
35.9665974573
 21
14.57473311
 31
0.0
  0
LINE
  5
127
330
11F
100
AcDbEntity
  8
DIM
100
AcDbLine
 10
36.005967536
 20
38.95313311
 30
0.0
 11
36.005967536
 21
24.1754101049
 31
0.0
  0
LINE
  5
128
330
11F
100
AcDbEntity
  8
DIM
100
AcDbLine
 10
36.005967536
 20
14.57473311
 30
0.0
 11
36.005967536
 21
20.2962433174
 31
0.0
  0
MTEXT
  5
129
330
11F
100
AcDbEntity
  8
DIM
100
AcDbMText
 10
32.8705508499
 20
23.0954701006
 30
-10.6624385613
 40
1.5
 41
0.0
 71
     1
 72
     1
  1
24
  7
SLDTEXTSTYLE0
 73
     1
 44
1.0
  0
MTEXT
  5
12A
330
11F
100
AcDbEntity
  8
DIM
100
AcDbMText
 10
35.0872175228
 20
24.1694283575
 30
-10.6624385613
 40
1.5
 41
0.0
 71
     1
 72
     1
  1
3
  7
SLDTEXTSTYLE0
 73
     1
 44
1.0
  0
MTEXT
  5
12B
330
11F
100
AcDbEntity
  8
DIM
100
AcDbMText
 10
36.1955508593
 20
22.2298449637
 30
-10.6624385613
 40
1.5
 41
0.0
 71
     1
 72
     1
  1
8
  7
SLDTEXTSTYLE0
 73
     1
 44
1.0
  0
MTEXT
  5
12C
330
11F
100
AcDbEntity
  8
DIM
100
AcDbMText
 10
37.3038841957
 20
23.0954701006
 30
-10.6624385613
 40
1.5
 41
0.0
 71
     1
 72
     1
  1
"
  7
SLDTEXTSTYLE0
 73
     1
 44
1.0
  0
ENDBLK
  5
121
330
11F
100
AcDbEntity
  8
0
100
AcDbBlockEnd
  0
BLOCK
  5
12F
330
12E
100
AcDbEntity
  8
0
100
AcDbBlockBegin
  2
_D_1
 70
     0
 10
0.0
 20
0.0
 30
0.0
  3
_D_1
  1

  0
SOLID
  5
131
330
12E
100
AcDbEntity
  8
DIM
100
AcDbTrace
 10
31.505967536
 20
8.51373311
 30
0.0
 11
31.755967536
 21
9.51373311
 31
0.0
 12
31.255967536
 22
9.51373311
 32
0.0
 13
31.255967536
 23
9.51373311
 33
0.0
  0
SOLID
  5
132
330
12E
100
AcDbEntity
  8
DIM
100
AcDbTrace
 10
31.505967536
 20
46.1956635871
 30
0.0
 11
31.255967536
 21
45.1956635871
 31
0.0
 12
31.755967536
 22
45.1956635871
 32
0.0
 13
31.755967536
 23
45.1956635871
 33
0.0
  0
LINE
  5
133
330
12E
100
AcDbEntity
  8
DIM
100
AcDbLine
 10
32.595550797
 20
28.8546983671
 30
0.0
 11
30.7955507748
 21
25.85469833
 31
0.0
  0
LINE
  5
134
330
12E
100
AcDbEntity
  8
DIM
100
AcDbLine
 10
40.4561534856
 20
8.51373311
 30
0.0
 11
31.4665974573
 21
8.51373311
 31
0.0
  0
LINE
  5
135
330
12E
100
AcDbEntity
  8
DIM
100
AcDbLine
 10
51.6489407873
 20
46.1956635871
 30
0.0
 11
31.4665974573
 21
46.1956635871
 31
0.0
  0
LINE
  5
136
330
12E
100
AcDbEntity
  8
DIM
100
AcDbLine
 10
31.505967536
 20
8.51373311
 30
0.0
 11
31.505967536
 21
25.4151149548
 31
0.0
  0
LINE
  5
137
330
12E
100
AcDbEntity
  8
DIM
100
AcDbLine
 10
31.505967536
 20
46.1956635871
 30
0.0
 11
31.505967536
 21
29.2942817423
 31
0.0
  0
MTEXT
  5
138
330
12E
100
AcDbEntity
  8
DIM
100
AcDbMText
 10
27.2622174402
 20
28.214341738
 30
-10.6624385613
 40
1.5
 41
0.0
 71
     1
 72
     1
  1
37
  7
SLDTEXTSTYLE0
 73
     1
 44
1.0
  0
MTEXT
  5
139
330
12E
100
AcDbEntity
  8
DIM
100
AcDbMText
 10
29.478884113
 20
29.2882999949
 30
-10.6624385613
 40
1.5
 41
0.0
 71
     1
 72
     1
  1
11
  7
SLDTEXTSTYLE0
 73
     1
 44
1.0
  0
MTEXT
  5
13A
330
12E
100
AcDbEntity
  8
DIM
100
AcDbMText
 10
31.6955507859
 20
27.3487166011
 30
-10.6624385613
 40
1.5
 41
0.0
 71
     1
 72
     1
  1
16
  7
SLDTEXTSTYLE0
 73
     1
 44
1.0
  0
MTEXT
  5
13B
330
12E
100
AcDbEntity
  8
DIM
100
AcDbMText
 10
33.9122173121
 20
28.214341738
 30
-10.6624385613
 40
1.5
 41
0.0
 71
     1
 72
     1
  1
"
  7
SLDTEXTSTYLE0
 73
     1
 44
1.0
  0
ENDBLK
  5
130
330
12E
100
AcDbEntity
  8
0
100
AcDbBlockEnd
  0
BLOCK
  5
13E
330
13D
100
AcDbEntity
  8
0
100
AcDbBlockBegin
  2
_D_2
 70
     0
 10
0.0
 20
0.0
 30
0.0
  3
_D_2
  1

  0
SOLID
  5
140
330
13D
100
AcDbEntity
  8
DIM
100
AcDbTrace
 10
41.943710866
 20
27.3546983485
 30
0.0
 11
42.943710866
 21
27.1046983485
 31
0.0
 12
42.943710866
 22
27.6046983485
 32
0.0
 13
42.943710866
 23
27.6046983485
 33
0.0
  0
SOLID
  5
141
330
13D
100
AcDbEntity
  8
DIM
100
AcDbTrace
 10
82.072910866
 20
27.3546983485
 30
0.0
 11
81.072910866
 21
27.6046983485
 31
0.0
 12
81.072910866
 22
27.1046983485
 32
0.0
 13
81.072910866
 23
27.1046983485
 33
0.0
  0
LINE
  5
142
330
13D
100
AcDbEntity
  8
DIM
100
AcDbLine
 10
62.811985293
 20
28.8546983671
 30
0.0
 11
61.0119852708
 21
25.85469833
 31
0.0
  0
LINE
  5
143
330
13D
100
AcDbEntity
  8
DIM
100
AcDbLine
 10
41.943710866
 20
27.3546983485
 30
0.0
 11
58.5869852726
 21
27.3546983485
 31
0.0
  0
LINE
  5
144
330
13D
100
AcDbEntity
  8
DIM
100
AcDbLine
 10
82.072910866
 20
27.3546983485
 30
0.0
 11
64.8578186447
 21
27.3546983485
 31
0.0
  0
MTEXT
  5
145
330
13D
100
AcDbEntity
  8
DIM
100
AcDbMText
 10
58.5869852726
 20
28.214341738
 30
-10.6624385613
 40
1.5
 41
0.0
 71
     1
 72
     1
  1
40
  7
SLDTEXTSTYLE0
 73
     1
 44
1.0
  0
MTEXT
  5
146
330
13D
100
AcDbEntity
  8
DIM
100
AcDbMText
 10
60.8036519455
 20
29.2882999949
 30
-10.6624385613
 40
1.5
 41
0.0
 71
     1
 72
     1
  1
1
  7
SLDTEXTSTYLE0
 73
     1
 44
1.0
  0
MTEXT
  5
147
330
13D
100
AcDbEntity
  8
DIM
100
AcDbMText
 10
61.9119852819
 20
27.3487166011
 30
-10.6624385613
 40
1.5
 41
0.0
 71
     1
 72
     1
  1
8
  7
SLDTEXTSTYLE0
 73
     1
 44
1.0
  0
MTEXT
  5
148
330
13D
100
AcDbEntity
  8
DIM
100
AcDbMText
 10
63.0203186184
 20
28.214341738
 30
-10.6624385613
 40
1.5
 41
0.0
 71
     1
 72
     1
  1
"
  7
SLDTEXTSTYLE0
 73
     1
 44
1.0
  0
ENDBLK
  5
13F
330
13D
100
AcDbEntity
  8
0
100
AcDbBlockEnd
  0
BLOCK
  5
14B
330
14A
100
AcDbEntity
  8
0
100
AcDbBlockBegin
  2
_D_3
 70
     0
 10
0.0
 20
0.0
 30
0.0
  3
_D_3
  1

  0
SOLID
  5
14D
330
14A
100
AcDbEntity
  8
DIM
100
AcDbTrace
 10
83.585810866
 20
5.01373311
 30
0.0
 11
82.585810866
 21
5.26373311
 31
0.0
 12
82.585810866
 22
4.76373311
 32
0.0
 13
82.585810866
 23
4.76373311
 33
0.0
  0
SOLID
  5
14E
330
14A
100
AcDbEntity
  8
DIM
100
AcDbTrace
 10
40.430810866
 20
5.01373311
 30
0.0
 11
41.430810866
 21
4.76373311
 31
0.0
 12
41.430810866
 22
5.26373311
 32
0.0
 13
41.430810866
 23
5.26373311
 33
0.0
  0
LINE
  5
14F
330
14A
100
AcDbEntity
  8
DIM
100
AcDbLine
 10
63.0978942004
 20
6.5137331285
 30
0.0
 11
61.2978941781
 21
3.5137330914
 31
0.0
  0
LINE
  5
150
330
14A
100
AcDbEntity
  8
DIM
100
AcDbLine
 10
83.585810866
 20
9.0428001038
 30
0.0
 11
83.585810866
 21
4.9743630312
 31
0.0
  0
LINE
  5
151
330
14A
100
AcDbEntity
  8
DIM
100
AcDbLine
 10
40.430810866
 20
9.0428001038
 30
0.0
 11
40.430810866
 21
4.9743630312
 31
0.0
  0
LINE
  5
152
330
14A
100
AcDbEntity
  8
DIM
100
AcDbLine
 10
83.585810866
 20
5.01373311
 30
0.0
 11
65.1437275521
 21
5.01373311
 31
0.0
  0
LINE
  5
153
330
14A
100
AcDbEntity
  8
DIM
100
AcDbLine
 10
40.430810866
 20
5.01373311
 30
0.0
 11
58.8728941799
 21
5.01373311
 31
0.0
  0
MTEXT
  5
154
330
14A
100
AcDbEntity
  8
DIM
100
AcDbMText
 10
58.8728941799
 20
5.8733764994
 30
-10.6624385613
 40
1.5
 41
0.0
 71
     1
 72
     1
  1
43
  7
SLDTEXTSTYLE0
 73
     1
 44
1.0
  0
MTEXT
  5
155
330
14A
100
AcDbEntity
  8
DIM
100
AcDbMText
 10
61.0895608528
 20
6.9473347563
 30
-10.6624385613
 40
1.5
 41
0.0
 71
     1
 72
     1
  1
1
  7
SLDTEXTSTYLE0
 73
     1
 44
1.0
  0
MTEXT
  5
156
330
14A
100
AcDbEntity
  8
DIM
100
AcDbMText
 10
62.1978941893
 20
5.0077513625
 30
-10.6624385613
 40
1.5
 41
0.0
 71
     1
 72
     1
  1
8
  7
SLDTEXTSTYLE0
 73
     1
 44
1.0
  0
MTEXT
  5
157
330
14A
100
AcDbEntity
  8
DIM
100
AcDbMText
 10
63.3062275257
 20
5.8733764994
 30
-10.6624385613
 40
1.5
 41
0.0
 71
     1
 72
     1
  1
"
  7
SLDTEXTSTYLE0
 73
     1
 44
1.0
  0
ENDBLK
  5
14C
330
14A
100
AcDbEntity
  8
0
100
AcDbBlockEnd
  0
BLOCK
  5
31A
330
319
100
AcDbEntity
  8
0
100
AcDbBlockBegin
  2
_D_4
 70
     0
 10
0.0
 20
0.0
 30
0.0
  3
_D_4
  1

  0
SOLID
  5
31C
330
319
100
AcDbEntity
  8
DIM
100
AcDbTrace
 10
40.430810866
 20
55.6046681772
 30
0.0
 11
41.430810866
 21
55.3546681772
 31
0.0
 12
41.430810866
 22
55.8546681772
 32
0.0
 13
41.430810866
 23
55.8546681772
 33
0.0
  0
SOLID
  5
31D
330
319
100
AcDbEntity
  8
DIM
100
AcDbTrace
 10
39.505967536
 20
55.6046681772
 30
0.0
 11
38.505967536
 21
55.8546681772
 31
0.0
 12
38.505967536
 22
55.3546681772
 32
0.0
 13
38.505967536
 23
55.3546681772
 33
0.0
  0
LINE
  5
31E
330
319
100
AcDbEntity
  8
DIM
100
AcDbLine
 10
34.4229240444
 20
57.1046681957
 30
0.0
 11
32.6229240221
 21
54.1046681587
 31
0.0
  0
LINE
  5
31F
330
319
100
AcDbEntity
  8
DIM
100
AcDbLine
 10
40.430810866
 20
61.7539383334
 30
0.0
 11
40.430810866
 21
55.5652980985
 31
0.0
  0
LINE
  5
320
330
319
100
AcDbEntity
  8
DIM
100
AcDbLine
 10
39.505967536
 20
62.4727133334
 30
0.0
 11
39.505967536
 21
55.5652980985
 31
0.0
  0
LINE
  5
321
330
319
100
AcDbEntity
  8
DIM
100
AcDbLine
 10
40.430810866
 20
55.6046681772
 30
0.0
 11
41.930810866
 21
55.6046681772
 31
0.0
  0
LINE
  5
322
330
319
100
AcDbEntity
  8
DIM
100
AcDbLine
 10
39.505967536
 20
55.6046681772
 30
0.0
 11
37.5770907325
 21
55.6046681772
 31
0.0
  0
MTEXT
  5
323
330
319
100
AcDbEntity
  8
DIM
100
AcDbMText
 10
31.3062573604
 20
57.5382698235
 30
-17.7920282307
 40
1.5
 41
0.0
 71
     1
 72
     1
  1
15
  7
SLDTEXTSTYLE0
 73
     1
 44
1.0
  0
MTEXT
  5
324
330
319
100
AcDbEntity
  8
DIM
100
AcDbMText
 10
33.5229240333
 20
55.5986864298
 30
-17.7920282307
 40
1.5
 41
0.0
 71
     1
 72
     1
  1
16
  7
SLDTEXTSTYLE0
 73
     1
 44
1.0
  0
MTEXT
  5
325
330
319
100
AcDbEntity
  8
DIM
100
AcDbMText
 10
35.7395907061
 20
56.4643115666
 30
-17.7920282307
 40
1.5
 41
0.0
 71
     1
 72
     1
  1
"
  7
SLDTEXTSTYLE0
 73
     1
 44
1.0
  0
ENDBLK
  5
31B
330
319
100
AcDbEntity
  8
0
100
AcDbBlockEnd
  0
BLOCK
  5
328
330
327
100
AcDbEntity
  8
0
100
AcDbBlockBegin
  2
_D_5
 70
     0
 10
0.0
 20
0.0
 30
0.0
  3
_D_5
  1

  0
SOLID
  5
32A
330
327
100
AcDbEntity
  8
DIM
100
AcDbTrace
 10
40.430810866
 20
55.6046681772
 30
0.0
 11
41.430810866
 21
55.3546681772
 31
0.0
 12
41.430810866
 22
55.8546681772
 32
0.0
 13
41.430810866
 23
55.8546681772
 33
0.0
  0
SOLID
  5
32B
330
327
100
AcDbEntity
  8
DIM
100
AcDbTrace
 10
83.585810866
 20
55.6046681772
 30
0.0
 11
82.585810866
 21
55.8546681772
 31
0.0
 12
82.585810866
 22
55.3546681772
 32
0.0
 13
82.585810866
 23
55.3546681772
 33
0.0
  0
LINE
  5
32C
330
327
100
AcDbEntity
  8
DIM
100
AcDbLine
 10
63.1722261979
 20
57.1046681957
 30
0.0
 11
61.3722261756
 21
54.1046681587
 31
0.0
  0
LINE
  5
32D
330
327
100
AcDbEntity
  8
DIM
100
AcDbLine
 10
40.430810866
 20
61.7539383334
 30
0.0
 11
40.430810866
 21
55.5652980985
 31
0.0
  0
LINE
  5
32E
330
327
100
AcDbEntity
  8
DIM
100
AcDbLine
 10
83.585810866
 20
61.7539383334
 30
0.0
 11
83.585810866
 21
55.5652980985
 31
0.0
  0
LINE
  5
32F
330
327
100
AcDbEntity
  8
DIM
100
AcDbLine
 10
40.430810866
 20
55.6046681772
 30
0.0
 11
58.9472261774
 21
55.6046681772
 31
0.0
  0
LINE
  5
330
330
327
100
AcDbEntity
  8
DIM
100
AcDbLine
 10
83.585810866
 20
55.6046681772
 30
0.0
 11
65.2180595495
 21
55.6046681772
 31
0.0
  0
MTEXT
  5
331
330
327
100
AcDbEntity
  8
DIM
100
AcDbMText
 10
58.9472261774
 20
56.4643115666
 30
-17.7920282307
 40
1.5
 41
0.0
 71
     1
 72
     1
  1
43
  7
SLDTEXTSTYLE0
 73
     1
 44
1.0
  0
MTEXT
  5
332
330
327
100
AcDbEntity
  8
DIM
100
AcDbMText
 10
61.1638928503
 20
57.5382698235
 30
-17.7920282307
 40
1.5
 41
0.0
 71
     1
 72
     1
  1
1
  7
SLDTEXTSTYLE0
 73
     1
 44
1.0
  0
MTEXT
  5
333
330
327
100
AcDbEntity
  8
DIM
100
AcDbMText
 10
62.2722261867
 20
55.5986864298
 30
-17.7920282307
 40
1.5
 41
0.0
 71
     1
 72
     1
  1
8
  7
SLDTEXTSTYLE0
 73
     1
 44
1.0
  0
MTEXT
  5
334
330
327
100
AcDbEntity
  8
DIM
100
AcDbMText
 10
63.3805595232
 20
56.4643115666
 30
-17.7920282307
 40
1.5
 41
0.0
 71
     1
 72
     1
  1
"
  7
SLDTEXTSTYLE0
 73
     1
 44
1.0
  0
ENDBLK
  5
329
330
327
100
AcDbEntity
  8
0
100
AcDbBlockEnd
  0
BLOCK
  5
337
330
336
100
AcDbEntity
  8
0
100
AcDbBlockBegin
  2
_D_6
 70
     0
 10
0.0
 20
0.0
 30
0.0
  3
_D_6
  1

  0
SOLID
  5
339
330
336
100
AcDbEntity
  8
DIM
100
AcDbTrace
 10
43.938310866
 20
85.1399975088
 30
0.0
 11
44.938310866
 21
84.8899975088
 31
0.0
 12
44.938310866
 22
85.3899975088
 32
0.0
 13
44.938310866
 23
85.3899975088
 33
0.0
  0
SOLID
  5
33A
330
336
100
AcDbEntity
  8
DIM
100
AcDbTrace
 10
80.078310866
 20
85.1399975088
 30
0.0
 11
79.078310866
 21
85.3899975088
 31
0.0
 12
79.078310866
 22
84.8899975088
 32
0.0
 13
79.078310866
 23
84.8899975088
 33
0.0
  0
LINE
  5
33B
330
336
100
AcDbEntity
  8
DIM
100
AcDbLine
 10
62.3130536392
 20
86.6399975273
 30
0.0
 11
60.5130536169
 21
83.6399974902
 31
0.0
  0
LINE
  5
33C
330
336
100
AcDbEntity
  8
DIM
100
AcDbLine
 10
43.938310866
 20
80.9530784909
 30
0.0
 11
43.938310866
 21
85.1793675875
 31
0.0
  0
LINE
  5
33D
330
336
100
AcDbEntity
  8
DIM
100
AcDbLine
 10
80.078310866
 20
80.9530784909
 30
0.0
 11
80.078310866
 21
85.1793675875
 31
0.0
  0
LINE
  5
33E
330
336
100
AcDbEntity
  8
DIM
100
AcDbLine
 10
43.938310866
 20
85.1399975088
 30
0.0
 11
58.0880536187
 21
85.1399975088
 31
0.0
  0
LINE
  5
33F
330
336
100
AcDbEntity
  8
DIM
100
AcDbLine
 10
80.078310866
 20
85.1399975088
 30
0.0
 11
64.3588869909
 21
85.1399975088
 31
0.0
  0
MTEXT
  5
340
330
336
100
AcDbEntity
  8
DIM
100
AcDbMText
 10
58.0880536187
 20
85.9996408982
 30
-17.7920282307
 40
1.5
 41
0.0
 71
     1
 72
     1
  1
36
  7
SLDTEXTSTYLE0
 73
     1
 44
1.0
  0
MTEXT
  5
341
330
336
100
AcDbEntity
  8
DIM
100
AcDbMText
 10
60.3047202916
 20
87.0735991551
 30
-17.7920282307
 40
1.5
 41
0.0
 71
     1
 72
     1
  1
1
  7
SLDTEXTSTYLE0
 73
     1
 44
1.0
  0
MTEXT
  5
342
330
336
100
AcDbEntity
  8
DIM
100
AcDbMText
 10
61.413053628
 20
85.1340157613
 30
-17.7920282307
 40
1.5
 41
0.0
 71
     1
 72
     1
  1
8
  7
SLDTEXTSTYLE0
 73
     1
 44
1.0
  0
MTEXT
  5
343
330
336
100
AcDbEntity
  8
DIM
100
AcDbMText
 10
62.5213869645
 20
85.9996408982
 30
-17.7920282307
 40
1.5
 41
0.0
 71
     1
 72
     1
  1
"
  7
SLDTEXTSTYLE0
 73
     1
 44
1.0
  0
ENDBLK
  5
338
330
336
100
AcDbEntity
  8
0
100
AcDbBlockEnd
  0
BLOCK
  5
346
330
345
100
AcDbEntity
  8
0
100
AcDbBlockBegin
  2
_D_7
 70
     0
 10
0.0
 20
0.0
 30
0.0
  3
_D_7
  1

  0
SOLID
  5
348
330
345
100
AcDbEntity
  8
DIM
100
AcDbTrace
 10
36.005967536
 20
61.7287084121
 30
0.0
 11
36.255967536
 21
62.7287084121
 31
0.0
 12
35.755967536
 22
62.7287084121
 32
0.0
 13
35.755967536
 23
62.7287084121
 33
0.0
  0
SOLID
  5
349
330
345
100
AcDbEntity
  8
DIM
100
AcDbTrace
 10
36.005967536
 20
80.9664084121
 30
0.0
 11
35.755967536
 21
79.9664084121
 31
0.0
 12
36.255967536
 22
79.9664084121
 32
0.0
 13
36.255967536
 23
79.9664084121
 33
0.0
  0
LINE
  5
34A
330
345
100
AcDbEntity
  8
DIM
100
AcDbLine
 10
37.0955508704
 20
74.7052400104
 30
0.0
 11
35.2955508481
 21
71.7052399733
 31
0.0
  0
LINE
  5
34B
330
345
100
AcDbEntity
  8
DIM
100
AcDbLine
 10
40.4561534856
 20
61.7287084121
 30
0.0
 11
35.9665974573
 21
61.7287084121
 31
0.0
  0
LINE
  5
34C
330
345
100
AcDbEntity
  8
DIM
100
AcDbLine
 10
43.9116355906
 20
80.9664084121
 30
0.0
 11
35.9665974573
 21
80.9664084121
 31
0.0
  0
LINE
  5
34D
330
345
100
AcDbEntity
  8
DIM
100
AcDbLine
 10
36.005967536
 20
61.7287084121
 30
0.0
 11
36.005967536
 21
71.2656565981
 31
0.0
  0
LINE
  5
34E
330
345
100
AcDbEntity
  8
DIM
100
AcDbLine
 10
36.005967536
 20
80.9664084121
 30
0.0
 11
36.005967536
 21
75.1448233856
 31
0.0
  0
MTEXT
  5
34F
330
345
100
AcDbEntity
  8
DIM
100
AcDbMText
 10
32.8705508499
 20
74.0648833813
 30
-17.7920282307
 40
1.5
 41
0.0
 71
     1
 72
     1
  1
19
  7
SLDTEXTSTYLE0
 73
     1
 44
1.0
  0
MTEXT
  5
350
330
345
100
AcDbEntity
  8
DIM
100
AcDbMText
 10
35.0872175228
 20
75.1388416382
 30
-17.7920282307
 40
1.5
 41
0.0
 71
     1
 72
     1
  1
1
  7
SLDTEXTSTYLE0
 73
     1
 44
1.0
  0
MTEXT
  5
351
330
345
100
AcDbEntity
  8
DIM
100
AcDbMText
 10
36.1955508593
 20
73.1992582444
 30
-17.7920282307
 40
1.5
 41
0.0
 71
     1
 72
     1
  1
4
  7
SLDTEXTSTYLE0
 73
     1
 44
1.0
  0
MTEXT
  5
352
330
345
100
AcDbEntity
  8
DIM
100
AcDbMText
 10
37.3038841957
 20
74.0648833813
 30
-17.7920282307
 40
1.5
 41
0.0
 71
     1
 72
     1
  1
"
  7
SLDTEXTSTYLE0
 73
     1
 44
1.0
  0
ENDBLK
  5
347
330
345
100
AcDbEntity
  8
0
100
AcDbBlockEnd
  0
BLOCK
  5
438
330
437
100
AcDbEntity
  8
0
100
AcDbBlockBegin
  2
_D_8
 70
     0
 10
0.0
 20
0.0
 30
0.0
  3
_D_8
  1

  0
SOLID
  5
43A
330
437
100
AcDbEntity
  8
DIM
100
AcDbTrace
 10
90.5559085345
 20
43.28373311
 30
0.0
 11
90.3059085345
 21
42.28373311
 31
0.0
 12
90.8059085345
 22
42.28373311
 32
0.0
 13
90.8059085345
 23
42.28373311
 33
0.0
  0
SOLID
  5
43B
330
437
100
AcDbEntity
  8
DIM
100
AcDbTrace
 10
90.5559085345
 20
8.51373311
 30
0.0
 11
90.8059085345
 21
9.51373311
 31
0.0
 12
90.3059085345
 22
9.51373311
 32
0.0
 13
90.3059085345
 23
9.51373311
 33
0.0
  0
LINE
  5
43C
330
437
100
AcDbEntity
  8
DIM
100
AcDbLine
 10
91.6454918689
 20
27.3987331285
 30
0.0
 11
89.8454918467
 21
24.3987330914
 31
0.0
  0
LINE
  5
43D
330
437
100
AcDbEntity
  8
DIM
100
AcDbLine
 10
96.7051786907
 20
43.28373311
 30
0.0
 11
90.5165384558
 21
43.28373311
 31
0.0
  0
LINE
  5
43E
330
437
100
AcDbEntity
  8
DIM
100
AcDbLine
 10
96.7051786907
 20
8.51373311
 30
0.0
 11
90.5165384558
 21
8.51373311
 31
0.0
  0
LINE
  5
43F
330
437
100
AcDbEntity
  8
DIM
100
AcDbLine
 10
90.5559085345
 20
43.28373311
 30
0.0
 11
90.5559085345
 21
27.8383165037
 31
0.0
  0
LINE
  5
440
330
437
100
AcDbEntity
  8
DIM
100
AcDbLine
 10
90.5559085345
 20
8.51373311
 30
0.0
 11
90.5559085345
 21
23.9591497162
 31
0.0
  0
MTEXT
  5
441
330
437
100
AcDbEntity
  8
DIM
100
AcDbMText
 10
87.4204918485
 20
26.7583764994
 30
0.0017297822
 40
1.5
 41
0.0
 71
     1
 72
     1
  1
34
  7
SLDTEXTSTYLE0
 73
     1
 44
1.0
  0
MTEXT
  5
442
330
437
100
AcDbEntity
  8
DIM
100
AcDbMText
 10
89.6371585213
 20
27.8323347563
 30
0.0017297822
 40
1.5
 41
0.0
 71
     1
 72
     1
  1
3
  7
SLDTEXTSTYLE0
 73
     1
 44
1.0
  0
MTEXT
  5
443
330
437
100
AcDbEntity
  8
DIM
100
AcDbMText
 10
90.7454918578
 20
25.8927513625
 30
0.0017297822
 40
1.5
 41
0.0
 71
     1
 72
     1
  1
4
  7
SLDTEXTSTYLE0
 73
     1
 44
1.0
  0
MTEXT
  5
444
330
437
100
AcDbEntity
  8
DIM
100
AcDbMText
 10
91.8538251942
 20
26.7583764994
 30
0.0017297822
 40
1.5
 41
0.0
 71
     1
 72
     1
  1
"
  7
SLDTEXTSTYLE0
 73
     1
 44
1.0
  0
ENDBLK
  5
439
330
437
100
AcDbEntity
  8
0
100
AcDbBlockEnd
  0
BLOCK
  5
447
330
446
100
AcDbEntity
  8
0
100
AcDbBlockBegin
  2
_D_9
 70
     0
 10
0.0
 20
0.0
 30
0.0
  3
_D_9
  1

  0
SOLID
  5
449
330
446
100
AcDbEntity
  8
DIM
100
AcDbTrace
 10
120.0912378661
 20
43.18043311
 30
0.0
 11
119.8412378661
 21
42.18043311
 31
0.0
 12
120.3412378661
 22
42.18043311
 32
0.0
 13
120.3412378661
 23
42.18043311
 33
0.0
  0
SOLID
  5
44A
330
446
100
AcDbEntity
  8
DIM
100
AcDbTrace
 10
120.0912378661
 20
46.1956635871
 30
0.0
 11
120.3412378661
 21
47.1956635871
 31
0.0
 12
119.8412378661
 22
47.1956635871
 32
0.0
 13
119.8412378661
 23
47.1956635871
 33
0.0
  0
LINE
  5
44B
330
446
100
AcDbEntity
  8
DIM
100
AcDbLine
 10
114.9153111072
 20
43.18043311
 30
0.0
 11
120.1306079448
 21
43.18043311
 31
0.0
  0
LINE
  5
44C
330
446
100
AcDbEntity
  8
DIM
100
AcDbLine
 10
114.3197188482
 20
46.1956635871
 30
0.0
 11
120.1306079448
 21
46.1956635871
 31
0.0
  0
LINE
  5
44D
330
446
100
AcDbEntity
  8
DIM
100
AcDbLine
 10
120.0912378661
 20
43.18043311
 30
0.0
 11
120.0912378661
 21
41.68043311
 31
0.0
  0
LINE
  5
44E
330
446
100
AcDbEntity
  8
DIM
100
AcDbLine
 10
120.0912378661
 20
46.1956635871
 30
0.0
 11
120.0912378661
 21
47.6956635871
 31
0.0
  0
MTEXT
  5
44F
330
446
100
AcDbEntity
  8
DIM
100
AcDbMText
 10
118.618321148
 20
45.3391419126
 30
0.0017297822
 40
1.5
 41
0.0
 71
     1
 72
     1
  1
3"
  7
SLDTEXTSTYLE0
 73
     1
 44
1.0
  0
ENDBLK
  5
448
330
446
100
AcDbEntity
  8
0
100
AcDbBlockEnd
  0
ENDSEC
  0
SECTION
  2
ENTITIES
  0
MTEXT
  5
48
330
1F
100
AcDbEntity
  8
NOTES
100
AcDbMText
 10
3.2578993139
 20
87.4726325635
 30
0.0
 40
2.0
 41
0.0
 71
     1
 72
     1
  1
OP42FB2MF
  7
SLDTEXTSTYLE0
 73
     1
 44
1.0
  0
LINE
  5
49
330
1F
100
AcDbEntity
  8
SLD-0
  6
Continuous
370
    15
100
AcDbLine
 10
42.1431739498
 20
36.6334812468
 30
0.0
 11
81.8734477823
 21
36.6334812468
 31
0.0
  0
SPLINE
  5
4A
330
1F
100
AcDbEntity
  8
SLD-0
  6
Continuous
370
    15
100
AcDbSpline
210
0.0
220
0.0
230
1.0
 70
     8
 71
     3
 72
    11
 73
     7
 74
     0
 42
0.00000001
 43
0.00000001
 12
1.0
 22
0.0
 32
0.0
 13
1.0
 23
0.0
 33
0.0
 40
0.0
 40
0.0
 40
0.0
 40
0.0
 40
0.3328927696799754
 40
0.5430872365195857
 40
0.7122972197876936
 40
1.0
 40
1.0
 40
1.0
 40
1.0
 10
42.07336142291223
 20
36.68940166749981
 30
0.0
 10
42.07431787583044
 20
36.68934298374398
 30
0.0
 10
42.07587825027989
 20
36.68924724601192
 30
0.0
 10
42.0815802727327
 20
36.68731971423593
 30
0.0
 10
42.08841002048182
 20
36.68381348322742
 30
0.0
 10
42.09293603170098
 20
36.67928967125576
 30
0.0
 10
42.09578591052929
 20
36.6764411772205
 30
0.0
  0
SPLINE
  5
4B
330
1F
100
AcDbEntity
  8
SLD-0
  6
Continuous
370
    15
100
AcDbSpline
210
0.0
220
0.0
230
1.0
 70
     8
 71
     3
 72
    11
 73
     7
 74
     0
 42
0.00000001
 43
0.00000001
 12
1.0
 22
0.0
 32
0.0
 13
1.0
 23
0.0
 33
0.0
 40
0.0
 40
0.0
 40
0.0
 40
0.0
 40
0.2877027802123064
 40
0.4569127634804143
 40
0.6671072303200246
 40
1.0
 40
1.0
 40
1.0
 40
1.0
 10
81.92083582148764
 20
36.6764411772205
 30
0.0
 10
81.92368570031597
 20
36.67928967125575
 30
0.0
 10
81.92821171153514
 20
36.68381348322742
 30
0.0
 10
81.93504145928425
 20
36.68731971423592
 30
0.0
 10
81.94074348173707
 20
36.68924724601194
 30
0.0
 10
81.94230385618653
 20
36.68934298374398
 30
0.0
 10
81.94326030910472
 20
36.68940166749981
 30
0.0
  0
LINE
  5
4C
330
1F
100
AcDbEntity
  8
SLD-0
  6
Continuous
370
    15
100
AcDbLine
 10
83.5212111471
 20
42.7814070255
 30
0.0
 11
83.5212111471
 21
9.0160585223
 31
0.0
  0
SPLINE
  5
4D
330
1F
100
AcDbEntity
  8
SLD-0
  6
Continuous
370
    15
100
AcDbSpline
210
0.0
220
0.0
230
1.0
 70
     8
 71
     3
 72
    11
 73
     7
 74
     0
 42
0.00000001
 43
0.00000001
 12
1.0
 22
0.0
 32
0.0
 13
1.0
 23
0.0
 33
0.0
 40
0.0
 40
0.0
 40
0.0
 40
0.0
 40
0.2500005319595013
 40
0.4999938696090139
 40
0.7499872072585266
 40
1.0
 40
1.0
 40
1.0
 40
1.0
 10
83.52121114714865
 20
42.7814070254674
 30
0.0
 10
83.52967624651326
 20
42.77589794677692
 30
0.0
 10
83.5466062016408
 20
42.76487994793174
 30
0.0
 10
83.56796044609395
 20
42.74835215094411
 30
0.0
 10
83.58289719332078
 20
42.73182474202587
 30
0.0
 10
83.58484023093473
 20
42.72080515639653
 30
0.0
 10
83.58581178754321
 20
42.71529514919743
 30
0.0
  0
LINE
  5
4E
330
1F
100
AcDbEntity
  8
SLD-0
  6
Continuous
370
    15
100
AcDbLine
 10
83.5858117875
 20
9.0821701786
 30
0.0
 11
83.5858117875
 21
42.7152951492
 31
0.0
  0
SPLINE
  5
4F
330
1F
100
AcDbEntity
  8
SLD-0
  6
Continuous
370
    15
100
AcDbSpline
210
0.0
220
0.0
230
1.0
 70
     8
 71
     3
 72
    11
 73
     7
 74
     0
 42
0.00000001
 43
0.00000001
 12
1.0
 22
0.0
 32
0.0
 13
1.0
 23
0.0
 33
0.0
 40
0.0
 40
0.0
 40
0.0
 40
0.0
 40
0.2500048713950923
 40
0.5000007939248047
 40
0.7499968832202845
 40
1.0
 40
1.0
 40
1.0
 40
1.0
 10
83.58581178754321
 20
9.082170178593788
 30
0.0
 10
83.58484017182944
 20
9.076660913750503
 30
0.0
 10
83.58289697518066
 20
9.065642581266768
 30
0.0
 10
83.56796044009202
 20
9.049114350273635
 30
0.0
 10
83.54660621105722
 20
9.032586137000592
 30
0.0
 10
83.52967624776834
 20
9.02156777883536
 30
0.0
 10
83.52121114714865
 20
9.016058522321282
 30
0.0
  0
SPLINE
  5
50
330
1F
100
AcDbEntity
  8
SLD-0
  6
Continuous
370
    15
100
AcDbSpline
210
0.0
220
0.0
230
1.0
 70
     8
 71
     3
 72
    11
 73
     7
 74
     0
 42
0.00000001
 43
0.00000001
 12
1.0
 22
0.0
 32
0.0
 13
1.0
 23
0.0
 33
0.0
 40
0.0
 40
0.0
 40
0.0
 40
0.0
 40
0.2500031167797156
 40
0.4999992060751954
 40
0.7499951286049077
 40
1.0
 40
1.0
 40
1.0
 40
1.0
 10
40.49541058486829
 20
9.016058522321282
 30
0.0
 10
40.48694548424861
 20
9.02156777883536
 30
0.0
 10
40.47001552095973
 20
9.032586137000592
 30
0.0
 10
40.44866129192494
 20
9.049114350273635
 30
0.0
 10
40.43372475683631
 20
9.065642581266768
 30
0.0
 10
40.43178156018751
 20
9.076660913750503
 30
0.0
 10
40.43080994447374
 20
9.082170178593788
 30
0.0
  0
LINE
  5
51
330
1F
100
AcDbEntity
  8
SLD-0
  6
Continuous
370
    15
100
AcDbLine
 10
40.4308099445
 20
42.7152951492
 30
0.0
 11
40.4308099445
 21
9.0821701786
 31
0.0
  0
SPLINE
  5
52
330
1F
100
AcDbEntity
  8
SLD-0
  6
Continuous
370
    15
100
AcDbSpline
210
0.0
220
0.0
230
1.0
 70
     8
 71
     3
 72
    11
 73
     7
 74
     0
 42
0.00000001
 43
0.00000001
 12
1.0
 22
0.0
 32
0.0
 13
1.0
 23
0.0
 33
0.0
 40
0.0
 40
0.0
 40
0.0
 40
0.0
 40
0.2500127927414735
 40
0.5000061303909861
 40
0.7499994680404988
 40
1.0
 40
1.0
 40
1.0
 40
1.0
 10
40.43080994447374
 20
42.71529514919743
 30
0.0
 10
40.43178150108223
 20
42.72080515639653
 30
0.0
 10
40.43372453869618
 20
42.73182474202586
 30
0.0
 10
40.44866128592301
 20
42.74835215094411
 30
0.0
 10
40.47001553037616
 20
42.76487994793175
 30
0.0
 10
40.4869454855037
 20
42.77589794677694
 30
0.0
 10
40.49541058486829
 20
42.7814070254674
 30
0.0
  0
LINE
  5
53
330
1F
100
AcDbEntity
  8
SLD-0
  6
Continuous
370
    15
100
AcDbLine
 10
40.4954105849
 20
9.0160585223
 30
0.0
 11
40.4954105849
 21
42.7814070255
 31
0.0
  0
LINE
  5
54
330
1F
100
AcDbEntity
  8
SLD-0
  6
Continuous
370
    15
100
AcDbLine
 10
40.4955232236
 20
43.2191327422
 30
0.0
 11
40.4955232236
 21
42.7815196642
 31
0.0
  0
LINE
  5
55
330
1F
100
AcDbEntity
  8
SLD-0
  6
Continuous
370
    15
100
AcDbLine
 10
40.4955232236
 20
43.2191327422
 30
0.0
 11
83.5210985084
 21
43.2191327422
 31
0.0
  0
LINE
  5
56
330
1F
100
AcDbEntity
  8
SLD-0
  6
Continuous
370
    15
100
AcDbLine
 10
83.5210985084
 20
42.7815196642
 30
0.0
 11
83.5210985084
 21
43.2191327422
 31
0.0
  0
LINE
  5
57
330
1F
100
AcDbEntity
  8
SLD-0
  6
Continuous
370
    15
100
AcDbLine
 10
83.5212111471
 20
42.7814070255
 30
0.0
 11
83.5210985084
 21
42.7815196642
 31
0.0
  0
LINE
  5
58
330
1F
100
AcDbEntity
  8
SLD-0
  6
Continuous
370
    15
100
AcDbLine
 10
83.5210985084
 20
8.5783331356
 30
0.0
 11
83.5210985084
 21
9.0159458103
 31
0.0
  0
LINE
  5
59
330
1F
100
AcDbEntity
  8
SLD-0
  6
Continuous
370
    15
100
AcDbLine
 10
83.5210985084
 20
8.5783331356
 30
0.0
 11
40.4955232236
 21
8.5783331356
 31
0.0
  0
LINE
  5
5A
330
1F
100
AcDbEntity
  8
SLD-0
  6
Continuous
370
    15
100
AcDbLine
 10
40.4955232236
 20
9.0159458103
 30
0.0
 11
40.4955232236
 21
8.5783331356
 31
0.0
  0
LINE
  5
5B
330
1F
100
AcDbEntity
  8
SLD-0
  6
Continuous
370
    15
100
AcDbLine
 10
40.4954105849
 20
9.0160585223
 30
0.0
 11
40.4955232236
 21
9.0159458103
 31
0.0
  0
LINE
  5
5C
330
1F
100
AcDbEntity
  8
SLD-0
  6
Continuous
370
    15
100
AcDbLine
 10
40.4955232236
 20
42.7815196642
 30
0.0
 11
40.4954105849
 21
42.7814070255
 31
0.0
  0
LINE
  5
5D
330
1F
100
AcDbEntity
  8
SLD-0
  6
Continuous
370
    15
100
AcDbLine
 10
82.072909798
 20
38.3273842387
 30
0.0
 11
82.072909798
 21
15.2002329522
 31
0.0
  0
LINE
  5
5E
330
1F
100
AcDbEntity
  8
SLD-0
  6
Continuous
370
    15
100
AcDbLine
 10
82.072909798
 20
38.3273842387
 30
0.0
 11
82.072909798
 21
38.9531321034
 31
0.0
  0
LINE
  5
5F
330
1F
100
AcDbEntity
  8
SLD-0
  6
Continuous
370
    15
100
AcDbLine
 10
82.072909798
 20
38.9531321034
 30
0.0
 11
81.4471619334
 21
38.9531321034
 31
0.0
  0
LINE
  5
60
330
1F
100
AcDbEntity
  8
SLD-0
  6
Continuous
370
    15
100
AcDbLine
 10
42.5694597986
 20
38.9531321034
 30
0.0
 11
81.4471619334
 21
38.9531321034
 31
0.0
  0
LINE
  5
61
330
1F
100
AcDbEntity
  8
SLD-0
  6
Continuous
370
    15
100
AcDbLine
 10
42.5694597986
 20
38.9531321034
 30
0.0
 11
41.943711934
 21
38.9531321034
 31
0.0
  0
LINE
  5
62
330
1F
100
AcDbEntity
  8
SLD-0
  6
Continuous
370
    15
100
AcDbLine
 10
41.943711934
 20
38.9531321034
 30
0.0
 11
41.943711934
 21
38.3273842387
 31
0.0
  0
LINE
  5
63
330
1F
100
AcDbEntity
  8
SLD-0
  6
Continuous
370
    15
100
AcDbLine
 10
41.943711934
 20
15.2002329522
 30
0.0
 11
41.943711934
 21
38.3273842387
 31
0.0
  0
LINE
  5
64
330
1F
100
AcDbEntity
  8
SLD-0
  6
Continuous
370
    15
100
AcDbLine
 10
41.943711934
 20
15.2002329522
 30
0.0
 11
41.943711934
 21
14.5747332447
 31
0.0
  0
LINE
  5
65
330
1F
100
AcDbEntity
  8
SLD-0
  6
Continuous
370
    15
100
AcDbLine
 10
41.943711934
 20
14.5747332447
 30
0.0
 11
42.9442110961
 21
14.5747332447
 31
0.0
  0
LINE
  5
66
330
1F
100
AcDbEntity
  8
SLD-0
  6
Continuous
370
    15
100
AcDbLine
 10
81.0724106359
 20
14.5747332447
 30
0.0
 11
42.9442110961
 21
14.5747332447
 31
0.0
  0
LINE
  5
67
330
1F
100
AcDbEntity
  8
SLD-0
  6
Continuous
370
    15
100
AcDbLine
 10
81.0724106359
 20
14.5747332447
 30
0.0
 11
82.072909798
 21
14.5747332447
 31
0.0
  0
LINE
  5
68
330
1F
100
AcDbEntity
  8
SLD-0
  6
Continuous
370
    15
100
AcDbLine
 10
82.072909798
 20
14.5747332447
 30
0.0
 11
82.072909798
 21
15.2002329522
 31
0.0
  0
LINE
  5
69
330
1F
100
AcDbEntity
  8
SLD-0
  6
Continuous
370
    15
100
AcDbLine
 10
83.5210985084
 20
9.0159458103
 30
0.0
 11
83.5212111471
 21
9.0160585223
 31
0.0
  0
LINE
  5
6A
330
1F
100
AcDbEntity
  8
SLD-0
  6
Continuous
370
    15
100
AcDbLine
 10
82.072909798
 20
15.2002329522
 30
0.0
 11
82.0083115043
 21
15.2002329522
 31
0.0
  0
LINE
  5
6B
330
1F
100
AcDbEntity
  8
SLD-0
  6
Continuous
370
    15
100
AcDbLine
 10
82.0083115043
 20
15.2002329522
 30
0.0
 11
82.0083115043
 21
38.3273842387
 31
0.0
  0
LINE
  5
6C
330
1F
100
AcDbEntity
  8
SLD-0
  6
Continuous
370
    15
100
AcDbLine
 10
82.0083115043
 20
38.3273842387
 30
0.0
 11
82.072909798
 21
38.3273842387
 31
0.0
  0
LINE
  5
6D
330
1F
100
AcDbEntity
  8
SLD-0
  6
Continuous
370
    15
100
AcDbLine
 10
81.4471619334
 20
38.9531321034
 30
0.0
 11
81.4471619334
 21
38.8885338096
 31
0.0
  0
LINE
  5
6E
330
1F
100
AcDbEntity
  8
SLD-0
  6
Continuous
370
    15
100
AcDbLine
 10
81.4471619334
 20
38.8885338096
 30
0.0
 11
42.5694597986
 21
38.8885338096
 31
0.0
  0
LINE
  5
6F
330
1F
100
AcDbEntity
  8
SLD-0
  6
Continuous
370
    15
100
AcDbLine
 10
42.5694597986
 20
38.8885338096
 30
0.0
 11
42.5694597986
 21
38.9531321034
 31
0.0
  0
LINE
  5
70
330
1F
100
AcDbEntity
  8
SLD-0
  6
Continuous
370
    15
100
AcDbLine
 10
81.0724106359
 20
14.6393332984
 30
0.0
 11
81.0724106359
 21
14.5747332447
 31
0.0
  0
LINE
  5
71
330
1F
100
AcDbEntity
  8
SLD-0
  6
Continuous
370
    15
100
AcDbLine
 10
42.9442110961
 20
14.5747332447
 30
0.0
 11
42.9442110961
 21
14.6393332984
 31
0.0
  0
LINE
  5
72
330
1F
100
AcDbEntity
  8
SLD-0
  6
Continuous
370
    15
100
AcDbLine
 10
81.0724106359
 20
14.6393332984
 30
0.0
 11
42.9442110961
 21
14.6393332984
 31
0.0
  0
LINE
  5
73
330
1F
100
AcDbEntity
  8
SLD-0
  6
Continuous
370
    15
100
AcDbLine
 10
83.5210985084
 20
43.2837333826
 30
0.0
 11
40.4955232236
 21
43.2837333826
 31
0.0
  0
LINE
  5
74
330
1F
100
AcDbEntity
  8
SLD-0
  6
Continuous
370
    15
100
AcDbLine
 10
83.5210985084
 20
43.2837333826
 30
0.0
 11
83.5210985084
 21
43.2191327422
 31
0.0
  0
LINE
  5
75
330
1F
100
AcDbEntity
  8
SLD-0
  6
Continuous
370
    15
100
AcDbLine
 10
40.4955232236
 20
43.2191327422
 30
0.0
 11
40.4955232236
 21
43.2837333826
 31
0.0
  0
LINE
  5
76
330
1F
100
AcDbEntity
  8
SLD-0
  6
Continuous
370
    15
100
AcDbLine
 10
40.4955232236
 20
8.5137330819
 30
0.0
 11
83.5210985084
 21
8.5137330819
 31
0.0
  0
LINE
  5
77
330
1F
100
AcDbEntity
  8
SLD-0
  6
Continuous
370
    15
100
AcDbLine
 10
40.4955232236
 20
8.5137330819
 30
0.0
 11
40.4955232236
 21
8.5783331356
 31
0.0
  0
LINE
  5
78
330
1F
100
AcDbEntity
  8
SLD-0
  6
Continuous
370
    15
100
AcDbLine
 10
83.5210985084
 20
8.5783331356
 30
0.0
 11
83.5210985084
 21
8.5137330819
 31
0.0
  0
LINE
  5
79
330
1F
100
AcDbEntity
  8
SLD-0
  6
Continuous
370
    15
100
AcDbLine
 10
42.0083102277
 20
38.3273842387
 30
0.0
 11
42.0083102277
 21
15.2002329522
 31
0.0
  0
SPLINE
  5
7A
330
1F
100
AcDbEntity
  8
SLD-0
  6
Continuous
370
    15
100
AcDbSpline
210
0.0
220
0.0
230
1.0
 70
    24
 71
     3
 72
    11
 73
     7
 74
     0
 42
0.00000001
 43
0.00000001
 12
1.0
 22
0.0
 32
0.0
 13
1.0
 23
0.0
 33
0.0
 40
0.0
 40
0.0
 40
0.0
 40
0.0
 40
0.250005915537055
 40
0.5000167444575523
 40
0.7500146423589328
 40
1.0
 40
1.0
 40
1.0
 40
1.0
 10
42.00831022772252
 20
15.20023295221055
 30
0.0
 10
42.00733976142649
 20
15.20023295221055
 30
0.0
 10
42.0053988097618
 20
15.20023295221055
 30
0.0
 10
41.99045848859179
 20
15.20023295221055
 30
0.0
 10
41.96910532294385
 20
15.20023295221055
 30
0.0
 10
41.95217625542494
 20
15.20023295221055
 30
0.0
 10
41.94371193396752
 20
15.20023295221055
 30
0.0
  0
LINE
  5
7B
330
1F
100
AcDbEntity
  8
SLD-0
  6
Continuous
370
    15
100
AcDbLine
 10
41.943711934
 20
38.3273842387
 30
0.0
 11
42.0083102277
 21
38.3273842387
 31
0.0
  0
SPLINE
  5
7C
330
1F
100
AcDbEntity
  8
SLD-0
  6
Continuous
370
    15
100
AcDbSpline
210
0.0
220
0.0
230
1.0
 70
     8
 71
     3
 72
    13
 73
     9
 74
     0
 42
0.00000001
 43
0.00000001
 12
1.0
 22
0.0
 32
0.0
 13
1.0
 23
0.0
 33
0.0
 40
0.0
 40
0.0
 40
0.0
 40
0.0
 40
0.1666401781786359
 40
0.3333336609241748
 40
0.5000031441781008
 40
0.6666563995548779
 40
0.8333305167460738
 40
1.0
 40
1.0
 40
1.0
 40
1.0
 10
81.91331014842487
 20
36.68788339170573
 30
0.0
 10
81.91109551499433
 20
36.68459563328349
 30
0.0
 10
81.90666553972018
 20
36.67801906475661
 30
0.0
 10
81.90002392486977
 20
36.66531120344749
 30
0.0
 10
81.89338135146619
 20
36.65283107531323
 30
0.0
 10
81.88673305240609
 20
36.64228602731457
 30
0.0
 10
81.88009150805307
 20
36.63491968422728
 30
0.0
 10
81.87566233699494
 20
36.6339607215192
 30
0.0
 10
81.87344778225166
 20
36.63348124683062
 30
0.0
  0
SPLINE
  5
7D
330
1F
100
AcDbEntity
  8
SLD-0
  6
Continuous
370
    15
100
AcDbSpline
210
0.0
220
0.0
230
1.0
 70
     8
 71
     3
 72
    13
 73
     9
 74
     0
 42
0.00000001
 43
0.00000001
 12
1.0
 22
0.0
 32
0.0
 13
1.0
 23
0.0
 33
0.0
 40
0.0
 40
0.0
 40
0.0
 40
0.0
 40
0.166669483253926
 40
0.333343600445122
 40
0.4999968558218991
 40
0.6666663390758251
 40
0.833359821821364
 40
1.0
 40
1.0
 40
1.0
 40
1.0
 10
42.14317394976529
 20
36.63348124683062
 30
0.0
 10
42.14095939502202
 20
36.6339607215192
 30
0.0
 10
42.13653022396388
 20
36.63491968422728
 30
0.0
 10
42.12988867961087
 20
36.64228602731457
 30
0.0
 10
42.12324038055078
 20
36.65283107531323
 30
0.0
 10
42.11659780714719
 20
36.66531120344749
 30
0.0
 10
42.10995619229678
 20
36.6780190647566
 30
0.0
 10
42.10552621702264
 20
36.68459563328348
 30
0.0
 10
42.10331158359208
 20
36.68788339170573
 30
0.0
  0
LINE
  5
7E
330
1F
100
AcDbEntity
  8
SLD-0
  6
Continuous
370
    15
100
AcDbLine
 10
81.9133101484
 20
36.6878833917
 30
0.0
 11
42.1033115836
 21
36.6878833917
 31
0.0
  0
LINE
  5
7F
330
1F
100
AcDbEntity
  8
SLD-0
  6
Continuous
370
    15
100
AcDbLine
 10
81.9133101484
 20
36.6667425159
 30
0.0
 11
81.9133101484
 21
36.6878833917
 31
0.0
  0
LINE
  5
80
330
1F
100
AcDbEntity
  8
SLD-0
  6
Continuous
370
    15
100
AcDbLine
 10
81.9133101484
 20
36.6667425159
 30
0.0
 11
81.9000234752
 21
36.665348612
 31
0.0
  0
LINE
  5
81
330
1F
100
AcDbEntity
  8
SLD-0
  6
Continuous
370
    15
100
AcDbLine
 10
42.1165982568
 20
36.665348612
 30
0.0
 11
42.1033115836
 21
36.6667425159
 31
0.0
  0
LINE
  5
82
330
1F
100
AcDbEntity
  8
SLD-0
  6
Continuous
370
    15
100
AcDbLine
 10
42.1033115836
 20
36.6667425159
 30
0.0
 11
42.1033115836
 21
36.6878833917
 31
0.0
  0
LINE
  5
83
330
1F
100
AcDbEntity
  8
SLD-0
  6
Continuous
370
    15
100
AcDbLine
 10
42.1033115836
 20
36.6667425159
 30
0.0
 11
42.0953846352
 21
36.6768494925
 31
0.0
  0
LINE
  5
84
330
1F
100
AcDbEntity
  8
SLD-0
  6
Continuous
370
    15
100
AcDbLine
 10
42.0733614229
 20
36.6894016675
 30
0.0
 11
42.0584109823
 21
36.6894016675
 31
0.0
  0
SPLINE
  5
85
330
1F
100
AcDbEntity
  8
SLD-0
  6
Continuous
370
    15
100
AcDbSpline
210
0.0
220
0.0
230
1.0
 70
     8
 71
     3
 72
    11
 73
     7
 74
     0
 42
0.00000001
 43
0.00000001
 12
1.0
 22
0.0
 32
0.0
 13
1.0
 23
0.0
 33
0.0
 40
0.0
 40
0.0
 40
0.0
 40
0.0
 40
0.2582708885152336
 40
0.5167689126059608
 40
0.7752238973918782
 40
1.0
 40
1.0
 40
1.0
 40
1.0
 10
42.10331158359208
 20
36.68788339170573
 30
0.0
 10
42.09723223635931
 20
36.69023853631712
 30
0.0
 10
42.08506819542966
 20
36.69495089676492
 30
0.0
 10
42.06990670550797
 20
36.69572207294383
 30
0.0
 10
42.06013423859519
 20
36.69333045173563
 30
0.0
 10
42.05895807678341
 20
36.69064896670946
 30
0.0
 10
42.05841098228765
 20
36.68940166749981
 30
0.0
  0
ARC
  5
86
330
1F
100
AcDbEntity
  8
SLD-0
  6
Continuous
370
    15
100
AcDbCircle
 10
42.0976974049
 20
38.7651253134
 30
0.0
 40
0.040080236668735
100
AcDbArc
 50
81.9479010317
 51
168.5777594508
  0
LINE
  5
87
330
1F
100
AcDbEntity
  8
SLD-0
  6
Continuous
370
    15
100
AcDbLine
 10
42.1033115836
 20
38.8048104035
 30
0.0
 11
42.1033115836
 21
36.6878833917
 31
0.0
  0
LINE
  5
88
330
1F
100
AcDbEntity
  8
SLD-0
  6
Continuous
370
    15
100
AcDbLine
 10
42.0584109823
 20
38.7730627169
 30
0.0
 11
42.0584109823
 21
36.6894016675
 31
0.0
  0
LINE
  5
89
330
1F
100
AcDbEntity
  8
SLD-0
  6
Continuous
370
    15
100
AcDbLine
 10
81.9133101484
 20
38.8048104035
 30
0.0
 11
42.1033115836
 21
38.8048104035
 31
0.0
  0
LINE
  5
8A
330
1F
100
AcDbEntity
  8
SLD-0
  6
Continuous
370
    15
100
AcDbLine
 10
81.9133101484
 20
38.8048104035
 30
0.0
 11
81.9133101484
 21
36.6878833917
 31
0.0
  0
LINE
  5
8B
330
1F
100
AcDbEntity
  8
SLD-0
  6
Continuous
370
    15
100
AcDbLine
 10
81.9212370969
 20
36.6768494925
 30
0.0
 11
81.9133101484
 21
36.6667425159
 31
0.0
  0
SPLINE
  5
8C
330
1F
100
AcDbEntity
  8
SLD-0
  6
Continuous
370
    15
100
AcDbSpline
210
0.0
220
0.0
230
1.0
 70
     8
 71
     3
 72
    11
 73
     7
 74
     0
 42
0.00000001
 43
0.00000001
 12
1.0
 22
0.0
 32
0.0
 13
1.0
 23
0.0
 33
0.0
 40
0.0
 40
0.0
 40
0.0
 40
0.0
 40
0.25826603131272
 40
0.5167325463466336
 40
0.7752053795077428
 40
1.0
 40
1.0
 40
1.0
 40
1.0
 10
81.95821074972929
 20
36.68940166749981
 30
0.0
 10
81.95748930880558
 20
36.69083492280644
 30
0.0
 10
81.95604586692644
 20
36.69370254601029
 30
0.0
 10
81.94497814655152
 20
36.69582995793256
 30
0.0
 10
81.92995602504682
 20
36.69450705950864
 30
0.0
 10
81.91859485954643
 20
36.68998626508985
 30
0.0
 10
81.91331014842487
 20
36.68788339170573
 30
0.0
  0
LINE
  5
8D
330
1F
100
AcDbEntity
  8
SLD-0
  6
Continuous
370
    15
100
AcDbLine
 10
81.9582107497
 20
36.6894016675
 30
0.0
 11
81.9432603091
 21
36.6894016675
 31
0.0
  0
ARC
  5
8E
330
1F
100
AcDbEntity
  8
SLD-0
  6
Continuous
370
    15
100
AcDbCircle
 10
81.9189243272
 20
38.7651253134
 30
0.0
 40
0.0400802366687316
100
AcDbArc
 50
11.4222405492
 51
98.0520989683
  0
LINE
  5
8F
330
1F
100
AcDbEntity
  8
SLD-0
  6
Continuous
370
    15
100
AcDbLine
 10
81.9582107497
 20
36.6894016675
 30
0.0
 11
81.9582107497
 21
38.7730627169
 31
0.0
  0
LINE
  5
90
330
1F
100
AcDbEntity
  8
SLD-0
  6
Continuous
370
    15
100
AcDbLine
 10
81.9133101484
 20
38.8179609715
 30
0.0
 11
42.1033115836
 21
38.8179609715
 31
0.0
  0
LINE
  5
91
330
1F
100
AcDbEntity
  8
SLD-0
  6
Continuous
370
    15
100
AcDbLine
 10
42.1033115836
 20
38.8048104035
 30
0.0
 11
42.1033115836
 21
38.8179609715
 31
0.0
  0
LINE
  5
92
330
1F
100
AcDbEntity
  8
SLD-0
  6
Continuous
370
    15
100
AcDbLine
 10
81.9133101484
 20
38.8179609715
 30
0.0
 11
81.9133101484
 21
38.8048104035
 31
0.0
  0
CIRCLE
  5
93
330
1F
100
AcDbEntity
  8
SLD-0
  6
Continuous
370
    15
100
AcDbCircle
 10
84.3280686474
 20
35.56523311
 30
0.0
 40
0.09375
  0
LINE
  5
94
330
1F
100
AcDbEntity
  8
SLD-0
  6
Continuous
370
    15
100
AcDbLine
 10
84.5150693193
 20
37.1277328172
 30
0.0
 11
83.5858117875
 21
37.1277328172
 31
0.0
  0
LINE
  5
95
330
1F
100
AcDbEntity
  8
SLD-0
  6
Continuous
370
    15
100
AcDbLine
 10
84.5150693193
 20
37.1277328172
 30
0.0
 11
84.5150693193
 21
34.0027340374
 31
0.0
  0
LINE
  5
96
330
1F
100
AcDbEntity
  8
SLD-0
  6
Continuous
370
    15
100
AcDbLine
 10
84.5150693193
 20
34.0027340374
 30
0.0
 11
83.5858117875
 21
34.0027340374
 31
0.0
  0
LINE
  5
97
330
1F
100
AcDbEntity
  8
SLD-0
  6
Continuous
370
    15
100
AcDbLine
 10
84.5150693193
 20
17.2147332539
 30
0.0
 11
83.5858117875
 21
17.2147332539
 31
0.0
  0
LINE
  5
98
330
1F
100
AcDbEntity
  8
SLD-0
  6
Continuous
370
    15
100
AcDbLine
 10
84.5150693193
 20
17.2147332539
 30
0.0
 11
84.5150693193
 21
14.0897330075
 31
0.0
  0
LINE
  5
99
330
1F
100
AcDbEntity
  8
SLD-0
  6
Continuous
370
    15
100
AcDbLine
 10
84.5150693193
 20
14.0897330075
 30
0.0
 11
83.5858117875
 21
14.0897330075
 31
0.0
  0
CIRCLE
  5
9A
330
1F
100
AcDbEntity
  8
SLD-0
  6
Continuous
370
    15
100
AcDbCircle
 10
84.3280686474
 20
15.65223311
 30
0.0
 40
0.09375
  0
LINE
  5
9B
330
1F
100
AcDbEntity
  8
SLD-0
  6
Continuous
370
    15
100
AcDbLine
 10
39.5059664417
 20
37.6277336545
 30
0.0
 11
40.4308099445
 21
37.6277336545
 31
0.0
  0
CIRCLE
  5
9C
330
1F
100
AcDbEntity
  8
SLD-0
  6
Continuous
370
    15
100
AcDbCircle
 10
39.692967536
 20
36.06523311
 30
0.0
 40
0.09375
  0
LINE
  5
9D
330
1F
100
AcDbEntity
  8
SLD-0
  6
Continuous
370
    15
100
AcDbLine
 10
39.5059664417
 20
34.5027325281
 30
0.0
 11
39.5059664417
 21
37.6277336545
 31
0.0
  0
LINE
  5
9E
330
1F
100
AcDbEntity
  8
SLD-0
  6
Continuous
370
    15
100
AcDbLine
 10
39.5059664417
 20
34.5027325281
 30
0.0
 11
40.4308099445
 21
34.5027325281
 31
0.0
  0
CIRCLE
  5
9F
330
1F
100
AcDbEntity
  8
SLD-0
  6
Continuous
370
    15
100
AcDbCircle
 10
39.692967536
 20
16.15223311
 30
0.0
 40
0.09375
  0
LINE
  5
A0
330
1F
100
AcDbEntity
  8
SLD-0
  6
Continuous
370
    15
100
AcDbLine
 10
39.5059664417
 20
14.5897329648
 30
0.0
 11
39.5059664417
 21
17.7147329178
 31
0.0
  0
LINE
  5
A1
330
1F
100
AcDbEntity
  8
SLD-0
  6
Continuous
370
    15
100
AcDbLine
 10
39.5059664417
 20
17.7147329178
 30
0.0
 11
40.4308099445
 21
17.7147329178
 31
0.0
  0
LINE
  5
A2
330
1F
100
AcDbEntity
  8
SLD-0
  6
Continuous
370
    15
100
AcDbLine
 10
39.5059664417
 20
14.5897329648
 30
0.0
 11
40.4308099445
 21
14.5897329648
 31
0.0
  0
LINE
  5
A3
330
1F
100
AcDbEntity
  8
SLD-0
  6
Continuous
370
    15
100
AcDbLine
 10
42.0683114546
 20
14.5747332447
 30
0.0
 11
42.0683114546
 21
14.5921329904
 31
0.0
  0
LINE
  5
A4
330
1F
100
AcDbEntity
  8
SLD-0
  6
Continuous
370
    15
100
AcDbLine
 10
42.0683114546
 20
14.5921329904
 30
0.0
 11
42.9442110961
 21
14.5921329904
 31
0.0
  0
LINE
  5
A5
330
1F
100
AcDbEntity
  8
SLD-0
  6
Continuous
370
    15
100
AcDbLine
 10
81.0724106359
 20
14.5921329904
 30
0.0
 11
81.9483102774
 21
14.5921329904
 31
0.0
  0
LINE
  5
A6
330
1F
100
AcDbEntity
  8
SLD-0
  6
Continuous
370
    15
100
AcDbLine
 10
81.9483102774
 20
14.5921329904
 30
0.0
 11
81.9483102774
 21
14.5747332447
 31
0.0
  0
ARC
  5
A7
330
1F
100
AcDbEntity
  8
SLD-0
  6
Continuous
370
    15
100
AcDbCircle
 10
81.4194880205
 20
38.0597335706
 30
0.0
 40
0.5431894434598741
100
AcDbArc
 50
352.6471770765
 51
7.3528229235
  0
ARC
  5
A8
330
1F
100
AcDbEntity
  8
SLD-0
  6
Continuous
370
    15
100
AcDbCircle
 10
42.5973836268
 20
38.0597323973
 30
0.0
 40
0.5434365541635018
100
AcDbArc
 50
172.6511626575
 51
187.3488373425
  0
SPLINE
  5
A9
330
1F
100
AcDbEntity
  8
SLD-0
  6
Continuous
370
    15
100
AcDbSpline
210
0.0
220
0.0
230
1.0
 70
     8
 71
     3
 72
    10
 73
     6
 74
     0
 42
0.00000001
 43
0.00000001
 12
1.0
 22
0.0
 32
0.0
 13
1.0
 23
0.0
 33
0.0
 40
0.0
 40
0.0
 40
0.0
 40
0.0
 40
0.2576654320206821
 40
0.6288379747204902
 40
1.0
 40
1.0
 40
1.0
 40
1.0
 10
46.57704966258803
 20
38.84556214601664
 30
0.0
 10
46.57912777907262
 20
38.85067119826123
 30
0.0
 10
46.58419946661392
 20
38.86313994907905
 30
0.0
 10
46.60085046754657
 20
38.87613275152294
 30
0.0
 10
46.61502657523906
 20
38.87815181418257
 30
0.0
 10
46.62211452866152
 20
38.87916133120932
 30
0.0
  0
LINE
  5
AA
330
1F
100
AcDbEntity
  8
SLD-0
  6
Continuous
370
    15
100
AcDbLine
 10
46.6221145287
 20
38.8791613312
 30
0.0
 11
46.6221145287
 21
38.845562146
 31
0.0
  0
LINE
  5
AB
330
1F
100
AcDbEntity
  8
SLD-0
  6
Continuous
370
    15
100
AcDbLine
 10
59.5083107862
 20
38.845562146
 30
0.0
 11
59.5083107862
 21
38.8791613312
 31
0.0
  0
LINE
  5
AC
330
1F
100
AcDbEntity
  8
SLD-0
  6
Continuous
370
    15
100
AcDbLine
 10
46.6221145287
 20
38.8791613312
 30
0.0
 11
59.5083107862
 21
38.8791613312
 31
0.0
  0
SPLINE
  5
AD
330
1F
100
AcDbEntity
  8
SLD-0
  6
Continuous
370
    15
100
AcDbSpline
210
0.0
220
0.0
230
1.0
 70
     8
 71
     3
 72
    10
 73
     6
 74
     0
 42
0.00000001
 43
0.00000001
 12
1.0
 22
0.0
 32
0.0
 13
1.0
 23
0.0
 33
0.0
 40
0.0
 40
0.0
 40
0.0
 40
0.0
 40
0.3711620252795099
 40
0.7423345679793178
 40
1.0
 40
1.0
 40
1.0
 40
1.0
 10
77.39450720335543
 20
38.87916133120932
 30
0.0
 10
77.40159515677789
 20
38.87815181418257
 30
0.0
 10
77.41577126447037
 20
38.87613275152293
 30
0.0
 10
77.43242226540303
 20
38.86313994907905
 30
0.0
 10
77.43749395294434
 20
38.85067119826124
 30
0.0
 10
77.43957206942892
 20
38.84556214601664
 30
0.0
  0
LINE
  5
AE
330
1F
100
AcDbEntity
  8
SLD-0
  6
Continuous
370
    15
100
AcDbLine
 10
77.3945072034
 20
38.8791613312
 30
0.0
 11
77.3945072034
 21
38.845562146
 31
0.0
  0
LINE
  5
AF
330
1F
100
AcDbEntity
  8
SLD-0
  6
Continuous
370
    15
100
AcDbLine
 10
64.5083109458
 20
38.845562146
 30
0.0
 11
64.5083109458
 21
38.8791613312
 31
0.0
  0
LINE
  5
B0
330
1F
100
AcDbEntity
  8
SLD-0
  6
Continuous
370
    15
100
AcDbLine
 10
64.5083109458
 20
38.8791613312
 30
0.0
 11
77.3945072034
 21
38.8791613312
 31
0.0
  0
LINE
  5
B1
330
1F
100
AcDbEntity
  8
SLD-0
  6
Continuous
370
    15
100
AcDbLine
 10
64.5083109458
 20
38.8791613312
 30
0.0
 11
59.5083107862
 21
38.8791613312
 31
0.0
  0
LINE
  5
B2
330
1F
100
AcDbEntity
  8
SLD-0
  6
Continuous
370
    15
100
AcDbLine
 10
51.8833109242
 20
38.8179609715
 30
0.0
 11
51.8833109242
 21
38.845562146
 31
0.0
  0
LINE
  5
B3
330
1F
100
AcDbEntity
  8
SLD-0
  6
Continuous
370
    15
100
AcDbLine
 10
52.1333113428
 20
38.845562146
 30
0.0
 11
51.8833109242
 21
38.845562146
 31
0.0
  0
LINE
  5
B4
330
1F
100
AcDbEntity
  8
SLD-0
  6
Continuous
370
    15
100
AcDbLine
 10
52.1333113428
 20
38.845562146
 30
0.0
 11
52.1333113428
 21
38.8179609715
 31
0.0
  0
LINE
  5
B5
330
1F
100
AcDbEntity
  8
SLD-0
  6
Continuous
370
    15
100
AcDbLine
 10
52.1333113428
 20
38.845562146
 30
0.0
 11
71.8833103892
 21
38.845562146
 31
0.0
  0
LINE
  5
B6
330
1F
100
AcDbEntity
  8
SLD-0
  6
Continuous
370
    15
100
AcDbLine
 10
71.8833103892
 20
38.8179609715
 30
0.0
 11
71.8833103892
 21
38.845562146
 31
0.0
  0
LINE
  5
B7
330
1F
100
AcDbEntity
  8
SLD-0
  6
Continuous
370
    15
100
AcDbLine
 10
42.0213458105
 20
38.8179609715
 30
0.0
 11
42.1033115836
 21
38.8179609715
 31
0.0
  0
LINE
  5
B8
330
1F
100
AcDbEntity
  8
SLD-0
  6
Continuous
370
    15
100
AcDbLine
 10
42.0213458105
 20
38.845562146
 30
0.0
 11
51.8833109242
 21
38.845562146
 31
0.0
  0
LINE
  5
B9
330
1F
100
AcDbEntity
  8
SLD-0
  6
Continuous
370
    15
100
AcDbLine
 10
42.0213458105
 20
38.845562146
 30
0.0
 11
42.0213458105
 21
38.8179609715
 31
0.0
  0
LINE
  5
BA
330
1F
100
AcDbEntity
  8
SLD-0
  6
Continuous
370
    15
100
AcDbLine
 10
72.1333108078
 20
38.845562146
 30
0.0
 11
72.1333108078
 21
38.8179609715
 31
0.0
  0
LINE
  5
BB
330
1F
100
AcDbEntity
  8
SLD-0
  6
Continuous
370
    15
100
AcDbLine
 10
72.1333108078
 20
38.845562146
 30
0.0
 11
81.9952759215
 21
38.845562146
 31
0.0
  0
LINE
  5
BC
330
1F
100
AcDbEntity
  8
SLD-0
  6
Continuous
370
    15
100
AcDbLine
 10
81.9133101484
 20
38.8179609715
 30
0.0
 11
81.9952759215
 21
38.8179609715
 31
0.0
  0
LINE
  5
BD
330
1F
100
AcDbEntity
  8
SLD-0
  6
Continuous
370
    15
100
AcDbLine
 10
81.9952759215
 20
38.845562146
 30
0.0
 11
81.9952759215
 21
38.8179609715
 31
0.0
  0
LINE
  5
BE
330
1F
100
AcDbEntity
  8
SLD-0
  6
Continuous
370
    15
100
AcDbLine
 10
72.1333108078
 20
38.845562146
 30
0.0
 11
71.8833103892
 21
38.845562146
 31
0.0
  0
ARC
  5
BF
330
1F
100
AcDbEntity
  8
SLD-0
  6
Continuous
370
    15
100
AcDbCircle
 10
72.328310866
 20
46.1506635871
 30
0.0
 40
0.0450000000000088
100
AcDbArc
 50
30.2564371635
 51
149.7435628365
  0
LINE
  5
C0
330
1F
100
AcDbEntity
  8
SLD-0
  6
Continuous
370
    15
100
AcDbLine
 10
72.3671804261
 20
46.1733384016
 30
0.0
 11
72.3412676588
 21
46.1582213496
 31
0.0
  0
LINE
  5
C1
330
1F
100
AcDbEntity
  8
SLD-0
  6
Continuous
370
    15
100
AcDbLine
 10
72.3153537182
 20
46.1582213496
 30
0.0
 11
72.2894409508
 21
46.1733384016
 31
0.0
  0
ARC
  5
C2
330
1F
100
AcDbEntity
  8
SLD-0
  6
Continuous
370
    15
100
AcDbCircle
 10
72.328310866
 20
46.1506635871
 30
0.0
 40
0.0150000000000018
100
AcDbArc
 50
30.2564371635
 51
149.7435628364
  0
LINE
  5
C3
330
1F
100
AcDbEntity
  8
SLD-0
  6
Continuous
370
    15
100
AcDbLine
 10
71.5792785947
 20
44.8963769398
 30
0.0
 11
71.5533652407
 21
44.9114939919
 31
0.0
  0
LINE
  5
C4
330
1F
100
AcDbEntity
  8
SLD-0
  6
Continuous
370
    15
100
AcDbLine
 10
71.5792785947
 20
44.8963769398
 30
0.0
 11
71.4533109832
 21
44.6804321278
 31
0.0
  0
LINE
  5
C5
330
1F
100
AcDbEntity
  8
SLD-0
  6
Continuous
370
    15
100
AcDbLine
 10
71.4533109832
 20
44.6804321278
 30
0.0
 11
71.4273976292
 21
44.6955491798
 31
0.0
  0
LINE
  5
C6
330
1F
100
AcDbEntity
  8
SLD-0
  6
Continuous
370
    15
100
AcDbLine
 10
71.5533652407
 20
44.9114939919
 30
0.0
 11
71.4273976292
 21
44.6955491798
 31
0.0
  0
LINE
  5
C7
330
1F
100
AcDbEntity
  8
SLD-0
  6
Continuous
370
    15
100
AcDbLine
 10
73.2033103938
 20
44.6804321278
 30
0.0
 11
73.2292243344
 21
44.6955491798
 31
0.0
  0
LINE
  5
C8
330
1F
100
AcDbEntity
  8
SLD-0
  6
Continuous
370
    15
100
AcDbLine
 10
73.0773427823
 20
44.8963769398
 30
0.0
 11
73.2033103938
 21
44.6804321278
 31
0.0
  0
LINE
  5
C9
330
1F
100
AcDbEntity
  8
SLD-0
  6
Continuous
370
    15
100
AcDbLine
 10
73.0773427823
 20
44.8963769398
 30
0.0
 11
73.1032567229
 21
44.9114939919
 31
0.0
  0
LINE
  5
CA
330
1F
100
AcDbEntity
  8
SLD-0
  6
Continuous
370
    15
100
AcDbLine
 10
73.1032567229
 20
44.9114939919
 30
0.0
 11
73.2292243344
 21
44.6955491798
 31
0.0
  0
LINE
  5
CB
330
1F
100
AcDbEntity
  8
SLD-0
  6
Continuous
370
    15
100
AcDbLine
 10
73.0773427823
 20
44.8963769398
 30
0.0
 11
72.3412676588
 21
46.1582213496
 31
0.0
  0
LINE
  5
CC
330
1F
100
AcDbEntity
  8
SLD-0
  6
Continuous
370
    15
100
AcDbLine
 10
73.1032567229
 20
44.9114939919
 30
0.0
 11
72.3671804261
 21
46.1733384016
 31
0.0
  0
LINE
  5
CD
330
1F
100
AcDbEntity
  8
SLD-0
  6
Continuous
370
    15
100
AcDbLine
 10
72.3153537182
 20
46.1582213496
 30
0.0
 11
71.5792785947
 21
44.8963769398
 31
0.0
  0
LINE
  5
CE
330
1F
100
AcDbEntity
  8
SLD-0
  6
Continuous
370
    15
100
AcDbLine
 10
72.2894409508
 20
46.1733384016
 30
0.0
 11
71.5533652407
 21
44.9114939919
 31
0.0
  0
LINE
  5
CF
330
1F
100
AcDbEntity
  8
SLD-0
  6
Continuous
370
    15
100
AcDbLine
 10
73.2380418325
 20
44.6804321278
 30
0.0
 11
73.2121290652
 21
44.6653174224
 31
0.0
  0
LINE
  5
D0
330
1F
100
AcDbEntity
  8
SLD-0
  6
Continuous
370
    15
100
AcDbLine
 10
73.2121290652
 20
44.6653174224
 30
0.0
 11
73.2033103938
 21
44.6804321278
 31
0.0
  0
LINE
  5
D1
330
1F
100
AcDbEntity
  8
SLD-0
  6
Continuous
370
    15
100
AcDbLine
 10
73.2380418325
 20
44.6804321278
 30
0.0
 11
73.2292243344
 21
44.6955491798
 31
0.0
  0
LINE
  5
D2
330
1F
100
AcDbEntity
  8
SLD-0
  6
Continuous
370
    15
100
AcDbLine
 10
74.0180530884
 20
43.2837333826
 30
0.0
 11
73.2121290652
 21
44.6653174224
 31
0.0
  0
LINE
  5
D3
330
1F
100
AcDbEntity
  8
SLD-0
  6
Continuous
370
    15
100
AcDbLine
 10
74.0527833539
 20
43.2837333826
 30
0.0
 11
73.2380418325
 21
44.6804321278
 31
0.0
  0
LINE
  5
D4
330
1F
100
AcDbEntity
  8
SLD-0
  6
Continuous
370
    15
100
AcDbLine
 10
71.4444928984
 20
44.6653174224
 30
0.0
 11
71.4185795444
 21
44.6804321278
 31
0.0
  0
LINE
  5
D5
330
1F
100
AcDbEntity
  8
SLD-0
  6
Continuous
370
    15
100
AcDbLine
 10
71.4533109832
 20
44.6804321278
 30
0.0
 11
71.4444928984
 21
44.6653174224
 31
0.0
  0
LINE
  5
D6
330
1F
100
AcDbEntity
  8
SLD-0
  6
Continuous
370
    15
100
AcDbLine
 10
71.4185795444
 20
44.6804321278
 30
0.0
 11
71.4273976292
 21
44.6955491798
 31
0.0
  0
LINE
  5
D7
330
1F
100
AcDbEntity
  8
SLD-0
  6
Continuous
370
    15
100
AcDbLine
 10
70.6385694619
 20
43.2837333826
 30
0.0
 11
71.4444928984
 21
44.6653174224
 31
0.0
  0
LINE
  5
D8
330
1F
100
AcDbEntity
  8
SLD-0
  6
Continuous
370
    15
100
AcDbLine
 10
71.4185795444
 20
44.6804321278
 30
0.0
 11
70.6038380231
 21
43.2837333826
 31
0.0
  0
LINE
  5
D9
330
1F
100
AcDbEntity
  8
SLD-0
  6
Continuous
370
    15
100
AcDbLine
 10
50.9392789497
 20
44.8963769398
 30
0.0
 11
50.9133650091
 21
44.9114939919
 31
0.0
  0
LINE
  5
DA
330
1F
100
AcDbEntity
  8
SLD-0
  6
Continuous
370
    15
100
AcDbLine
 10
50.9392789497
 20
44.8963769398
 30
0.0
 11
50.8133113383
 21
44.6804321278
 31
0.0
  0
LINE
  5
DB
330
1F
100
AcDbEntity
  8
SLD-0
  6
Continuous
370
    15
100
AcDbLine
 10
50.8133113383
 20
44.6804321278
 30
0.0
 11
50.7873973976
 21
44.6955491798
 31
0.0
  0
LINE
  5
DC
330
1F
100
AcDbEntity
  8
SLD-0
  6
Continuous
370
    15
100
AcDbLine
 10
50.9133650091
 20
44.9114939919
 30
0.0
 11
50.7873973976
 21
44.6955491798
 31
0.0
  0
ARC
  5
DD
330
1F
100
AcDbEntity
  8
SLD-0
  6
Continuous
370
    15
100
AcDbCircle
 10
51.688310866
 20
46.1506635871
 30
0.0
 40
0.0450000000000027
100
AcDbArc
 50
30.2564371635
 51
149.7435628365
  0
LINE
  5
DE
330
1F
100
AcDbEntity
  8
SLD-0
  6
Continuous
370
    15
100
AcDbLine
 10
51.7271807812
 20
46.1733384016
 30
0.0
 11
51.7012680138
 21
46.1582213496
 31
0.0
  0
LINE
  5
DF
330
1F
100
AcDbEntity
  8
SLD-0
  6
Continuous
370
    15
100
AcDbLine
 10
51.6753540732
 20
46.1582213496
 30
0.0
 11
51.6494413059
 21
46.1733384016
 31
0.0
  0
ARC
  5
E0
330
1F
100
AcDbEntity
  8
SLD-0
  6
Continuous
370
    15
100
AcDbCircle
 10
51.688310866
 20
46.1506635871
 30
0.0
 40
0.0150000000000018
100
AcDbArc
 50
30.2564371635
 51
149.7435628364
  0
LINE
  5
E1
330
1F
100
AcDbEntity
  8
SLD-0
  6
Continuous
370
    15
100
AcDbLine
 10
52.4373431373
 20
44.8963769398
 30
0.0
 11
52.4632564913
 21
44.9114939919
 31
0.0
  0
LINE
  5
E2
330
1F
100
AcDbEntity
  8
SLD-0
  6
Continuous
370
    15
100
AcDbLine
 10
52.4373431373
 20
44.8963769398
 30
0.0
 11
51.7012680138
 21
46.1582213496
 31
0.0
  0
LINE
  5
E3
330
1F
100
AcDbEntity
  8
SLD-0
  6
Continuous
370
    15
100
AcDbLine
 10
52.4632564913
 20
44.9114939919
 30
0.0
 11
51.7271807812
 21
46.1733384016
 31
0.0
  0
LINE
  5
E4
330
1F
100
AcDbEntity
  8
SLD-0
  6
Continuous
370
    15
100
AcDbLine
 10
51.6494413059
 20
46.1733384016
 30
0.0
 11
50.9133650091
 21
44.9114939919
 31
0.0
  0
LINE
  5
E5
330
1F
100
AcDbEntity
  8
SLD-0
  6
Continuous
370
    15
100
AcDbLine
 10
51.6753540732
 20
46.1582213496
 30
0.0
 11
50.9392789497
 21
44.8963769398
 31
0.0
  0
LINE
  5
E6
330
1F
100
AcDbEntity
  8
SLD-0
  6
Continuous
370
    15
100
AcDbLine
 10
52.5633107488
 20
44.6804321278
 30
0.0
 11
52.5892241028
 21
44.6955491798
 31
0.0
  0
LINE
  5
E7
330
1F
100
AcDbEntity
  8
SLD-0
  6
Continuous
370
    15
100
AcDbLine
 10
52.4373431373
 20
44.8963769398
 30
0.0
 11
52.5633107488
 21
44.6804321278
 31
0.0
  0
LINE
  5
E8
330
1F
100
AcDbEntity
  8
SLD-0
  6
Continuous
370
    15
100
AcDbLine
 10
52.4632564913
 20
44.9114939919
 30
0.0
 11
52.5892241028
 21
44.6955491798
 31
0.0
  0
LINE
  5
E9
330
1F
100
AcDbEntity
  8
SLD-0
  6
Continuous
370
    15
100
AcDbLine
 10
50.8044926668
 20
44.6653174224
 30
0.0
 11
50.7785798995
 21
44.6804321278
 31
0.0
  0
LINE
  5
EA
330
1F
100
AcDbEntity
  8
SLD-0
  6
Continuous
370
    15
100
AcDbLine
 10
50.7785798995
 20
44.6804321278
 30
0.0
 11
49.9638383781
 21
43.2837333826
 31
0.0
  0
LINE
  5
EB
330
1F
100
AcDbEntity
  8
SLD-0
  6
Continuous
370
    15
100
AcDbLine
 10
49.9985686436
 20
43.2837333826
 30
0.0
 11
50.8044926668
 21
44.6653174224
 31
0.0
  0
LINE
  5
EC
330
1F
100
AcDbEntity
  8
SLD-0
  6
Continuous
370
    15
100
AcDbLine
 10
50.7785798995
 20
44.6804321278
 30
0.0
 11
50.7873973976
 21
44.6955491798
 31
0.0
  0
LINE
  5
ED
330
1F
100
AcDbEntity
  8
SLD-0
  6
Continuous
370
    15
100
AcDbLine
 10
50.8133113383
 20
44.6804321278
 30
0.0
 11
50.8044926668
 21
44.6653174224
 31
0.0
  0
LINE
  5
EE
330
1F
100
AcDbEntity
  8
SLD-0
  6
Continuous
370
    15
100
AcDbLine
 10
52.5980421876
 20
44.6804321278
 30
0.0
 11
52.5721288336
 21
44.6653174224
 31
0.0
  0
LINE
  5
EF
330
1F
100
AcDbEntity
  8
SLD-0
  6
Continuous
370
    15
100
AcDbLine
 10
53.3780522702
 20
43.2837333826
 30
0.0
 11
52.5721288336
 21
44.6653174224
 31
0.0
  0
LINE
  5
F0
330
1F
100
AcDbEntity
  8
SLD-0
  6
Continuous
370
    15
100
AcDbLine
 10
53.4127837089
 20
43.2837333826
 30
0.0
 11
52.5980421876
 21
44.6804321278
 31
0.0
  0
LINE
  5
F1
330
1F
100
AcDbEntity
  8
SLD-0
  6
Continuous
370
    15
100
AcDbLine
 10
52.5721288336
 20
44.6653174224
 30
0.0
 11
52.5633107488
 21
44.6804321278
 31
0.0
  0
LINE
  5
F2
330
1F
100
AcDbEntity
  8
SLD-0
  6
Continuous
370
    15
100
AcDbLine
 10
52.5980421876
 20
44.6804321278
 30
0.0
 11
52.5892241028
 21
44.6955491798
 31
0.0
  0
ARC
  5
F3
330
1F
100
AcDbEntity
  8
SLD-0
  6
Continuous
370
    15
100
AcDbCircle
 10
40.508310866
 20
43.12773311
 30
0.0
 40
0.0310000000000414
100
AcDbArc
 50
114.3615754624
 51
180.0
  0
LINE
  5
F4
330
1F
100
AcDbEntity
  8
SLD-0
  6
Continuous
370
    15
100
AcDbLine
 10
40.477310954
 20
43.127733478
 30
0.0
 11
40.455611578
 21
43.127733478
 31
0.0
  0
ARC
  5
F5
330
1F
100
AcDbEntity
  8
SLD-0
  6
Continuous
370
    15
100
AcDbCircle
 10
40.508310866
 20
43.12773311
 30
0.0
 40
0.0527000000000098
100
AcDbArc
 50
104.0426024311
 51
179.9999999999
  0
LINE
  5
F6
330
1F
100
AcDbEntity
  8
SLD-0
  6
Continuous
370
    15
100
AcDbLine
 10
83.5393107781
 20
42.7693077519
 30
0.0
 11
83.5393107781
 21
43.127733478
 31
0.0
  0
LINE
  5
F7
330
1F
100
AcDbEntity
  8
SLD-0
  6
Continuous
370
    15
100
AcDbLine
 10
83.5393107781
 20
43.127733478
 30
0.0
 11
83.5610101541
 21
43.127733478
 31
0.0
  0
LINE
  5
F8
330
1F
100
AcDbEntity
  8
SLD-0
  6
Continuous
370
    15
100
AcDbLine
 10
83.5610101541
 20
42.7529892204
 30
0.0
 11
83.5610101541
 21
43.127733478
 31
0.0
  0
ARC
  5
F9
330
1F
100
AcDbEntity
  8
SLD-0
  6
Continuous
370
    15
100
AcDbCircle
 10
83.508310866
 20
43.12773311
 30
0.0
 40
0.0526999999999976
100
AcDbArc
 50
360.0
 51
75.9573975702
  0
ARC
  5
FA
330
1F
100
AcDbEntity
  8
SLD-0
  6
Continuous
370
    15
100
AcDbCircle
 10
83.508310866
 20
43.12773311
 30
0.0
 40
0.0309999999999981
100
AcDbArc
 50
0.0
 51
65.6384245398
  0
LINE
  5
FB
330
1F
100
AcDbEntity
  8
SLD-0
  6
Continuous
370
    15
100
AcDbLine
 10
40.477310954
 20
42.7693077519
 30
0.0
 11
40.477310954
 21
43.127733478
 31
0.0
  0
LINE
  5
FC
330
1F
100
AcDbEntity
  8
SLD-0
  6
Continuous
370
    15
100
AcDbLine
 10
40.455611578
 20
42.7529892204
 30
0.0
 11
40.455611578
 21
43.127733478
 31
0.0
  0
LINE
  5
FD
330
1F
100
AcDbEntity
  8
SLD-0
  6
Continuous
370
    15
100
AcDbLine
 10
40.477310954
 20
43.127733478
 30
0.0
 11
40.4860615729
 21
43.127733478
 31
0.0
  0
SPLINE
  5
FE
330
1F
100
AcDbEntity
  8
SLD-0
  6
Continuous
370
    15
100
AcDbSpline
210
0.0
220
0.0
230
1.0
 70
     8
 71
     3
 72
    10
 73
     6
 74
     0
 42
0.00000001
 43
0.00000001
 12
1.0
 22
0.0
 32
0.0
 13
1.0
 23
0.0
 33
0.0
 40
0.0
 40
0.0
 40
0.0
 40
0.0
 40
0.4252886891066524
 40
0.8511664991096228
 40
1.0
 40
1.0
 40
1.0
 40
1.0
 10
40.48606157286888
 20
43.127733478008
 30
0.0
 10
40.48590831185994
 20
43.13213619033984
 30
0.0
 10
40.48560157754097
 20
43.14094771375457
 30
0.0
 10
40.49007736585681
 20
43.15028919724784
 30
0.0
 10
40.4944030081289
 20
43.15285970635441
 30
0.0
 10
40.49552322356708
 20
43.15352539339092
 30
0.0
  0
LINE
  5
FF
330
1F
100
AcDbEntity
  8
SLD-0
  6
Continuous
370
    15
100
AcDbLine
 10
83.5393107781
 20
43.127733478
 30
0.0
 11
83.5305601591
 21
43.127733478
 31
0.0
  0
SPLINE
  5
100
330
1F
100
AcDbEntity
  8
SLD-0
  6
Continuous
370
    15
100
AcDbSpline
210
0.0
220
0.0
230
1.0
 70
     8
 71
     3
 72
    10
 73
     6
 74
     0
 42
0.00000001
 43
0.00000001
 12
1.0
 22
0.0
 32
0.0
 13
1.0
 23
0.0
 33
0.0
 40
0.0
 40
0.0
 40
0.0
 40
0.0
 40
0.305794560168829
 40
0.7316834025537331
 40
1.0
 40
1.0
 40
1.0
 40
1.0
 10
83.52109850844987
 20
43.15360752577546
 30
0.0
 10
83.52321113370357
 20
43.15185918719715
 30
0.0
 10
83.52826607265702
 20
43.14767588740568
 30
0.0
 10
83.53139534101165
 20
43.13775588416277
 30
0.0
 10
83.53079297787555
 20
43.13052736512282
 30
0.0
 10
83.53056015914807
 20
43.127733478008
 30
0.0
  0
LINE
  5
101
330
1F
100
AcDbEntity
  8
SLD-0
  6
Continuous
370
    15
100
AcDbLine
 10
40.4860615729
 20
43.127733478
 30
0.0
 11
40.4955232236
 21
43.0575243691
 31
0.0
  0
LINE
  5
102
330
1F
100
AcDbEntity
  8
SLD-0
  6
Continuous
370
    15
100
AcDbLine
 10
40.477310954
 20
43.035142121
 30
0.0
 11
40.4955232236
 21
42.8999991488
 31
0.0
  0
LINE
  5
103
330
1F
100
AcDbEntity
  8
SLD-0
  6
Continuous
370
    15
100
AcDbLine
 10
83.5210985084
 20
43.0575243691
 30
0.0
 11
83.5305601591
 21
43.127733478
 31
0.0
  0
LINE
  5
104
330
1F
100
AcDbEntity
  8
SLD-0
  6
Continuous
370
    15
100
AcDbLine
 10
83.5210985084
 20
42.8999991488
 30
0.0
 11
83.5393107781
 21
43.035142121
 31
0.0
  0
LINE
  5
105
330
1F
100
AcDbEntity
  8
SLD-0
  6
Continuous
370
    15
100
AcDbLine
 10
61.758310869
 20
38.8885338096
 30
0.0
 11
61.758310869
 21
38.8791613312
 31
0.0
  0
LINE
  5
106
330
1F
100
AcDbEntity
  8
SLD-0
  6
Continuous
370
    15
100
AcDbLine
 10
62.258310863
 20
38.8885338096
 30
0.0
 11
62.258310863
 21
38.8791613312
 31
0.0
  0
ARC
  5
107
330
1F
100
AcDbEntity
  8
SLD-0
  6
Continuous
370
    15
100
AcDbCircle
 10
83.508310866
 20
8.58973311
 30
0.0
 40
0.031000000000002
100
AcDbArc
 50
294.3615754601
 51
0.0
  0
LINE
  5
108
330
1F
100
AcDbEntity
  8
SLD-0
  6
Continuous
370
    15
100
AcDbLine
 10
83.5393107781
 20
8.5897331106
 30
0.0
 11
83.5610101541
 21
8.5897331106
 31
0.0
  0
ARC
  5
109
330
1F
100
AcDbEntity
  8
SLD-0
  6
Continuous
370
    15
100
AcDbCircle
 10
83.508310866
 20
8.58973311
 30
0.0
 40
0.0527000000000015
100
AcDbArc
 50
284.0426024298
 51
359.9999999999
  0
LINE
  5
10A
330
1F
100
AcDbEntity
  8
SLD-0
  6
Continuous
370
    15
100
AcDbLine
 10
83.5610101541
 20
9.044477904
 30
0.0
 11
83.5610101541
 21
8.5897331106
 31
0.0
  0
LINE
  5
10B
330
1F
100
AcDbEntity
  8
SLD-0
  6
Continuous
370
    15
100
AcDbLine
 10
83.5393107781
 20
9.0281595925
 30
0.0
 11
83.5393107781
 21
8.5897331106
 31
0.0
  0
LINE
  5
10C
330
1F
100
AcDbEntity
  8
SLD-0
  6
Continuous
370
    15
100
AcDbLine
 10
40.477310954
 20
8.5897331106
 30
0.0
 11
40.455611578
 21
8.5897331106
 31
0.0
  0
LINE
  5
10D
330
1F
100
AcDbEntity
  8
SLD-0
  6
Continuous
370
    15
100
AcDbLine
 10
40.455611578
 20
9.044477904
 30
0.0
 11
40.455611578
 21
8.5897331106
 31
0.0
  0
LINE
  5
10E
330
1F
100
AcDbEntity
  8
SLD-0
  6
Continuous
370
    15
100
AcDbLine
 10
40.477310954
 20
9.0281595925
 30
0.0
 11
40.477310954
 21
8.5897331106
 31
0.0
  0
ARC
  5
10F
330
1F
100
AcDbEntity
  8
SLD-0
  6
Continuous
370
    15
100
AcDbCircle
 10
40.508310866
 20
8.58973311
 30
0.0
 40
0.0527000000000086
100
AcDbArc
 50
180.0
 51
255.9573975689
  0
ARC
  5
110
330
1F
100
AcDbEntity
  8
SLD-0
  6
Continuous
370
    15
100
AcDbCircle
 10
40.508310866
 20
8.58973311
 30
0.0
 40
0.0310000000000001
100
AcDbArc
 50
180.0
 51
245.6384245375
  0
LINE
  5
111
330
1F
100
AcDbEntity
  8
SLD-0
  6
Continuous
370
    15
100
AcDbLine
 10
83.5393107781
 20
8.5897331106
 30
0.0
 11
83.5305601591
 21
8.5897331106
 31
0.0
  0
SPLINE
  5
112
330
1F
100
AcDbEntity
  8
SLD-0
  6
Continuous
370
    15
100
AcDbSpline
210
0.0
220
0.0
230
1.0
 70
     8
 71
     3
 72
    10
 73
     6
 74
     0
 42
0.00000001
 43
0.00000001
 12
1.0
 22
0.0
 32
0.0
 13
1.0
 23
0.0
 33
0.0
 40
0.0
 40
0.0
 40
0.0
 40
0.0
 40
0.425313187284087
 40
0.8511599974529446
 40
1.0
 40
1.0
 40
1.0
 40
1.0
 10
83.53056015914807
 20
8.589733110602152
 30
0.0
 10
83.53071353106932
 20
8.585329679564847
 30
0.0
 10
83.53102046734126
 20
8.576517292687237
 30
0.0
 10
83.52654394744573
 20
8.567178525806606
 30
0.0
 10
83.5222187145527
 20
8.56460710301904
 30
0.0
 10
83.52109850844987
 20
8.56394112188674
 30
0.0
  0
LINE
  5
113
330
1F
100
AcDbEntity
  8
SLD-0
  6
Continuous
370
    15
100
AcDbLine
 10
40.477310954
 20
8.5897331106
 30
0.0
 11
40.4860615729
 21
8.5897331106
 31
0.0
  0
SPLINE
  5
114
330
1F
100
AcDbEntity
  8
SLD-0
  6
Continuous
370
    15
100
AcDbSpline
210
0.0
220
0.0
230
1.0
 70
     8
 71
     3
 72
    10
 73
     6
 74
     0
 42
0.00000001
 43
0.00000001
 12
1.0
 22
0.0
 32
0.0
 13
1.0
 23
0.0
 33
0.0
 40
0.0
 40
0.0
 40
0.0
 40
0.0
 40
0.3057818687920407
 40
0.7316750762214124
 40
1.0
 40
1.0
 40
1.0
 40
1.0
 10
40.49552322356708
 20
8.563858402842317
 30
0.0
 10
40.49341058736186
 20
8.56560647371202
 30
0.0
 10
40.48835546992607
 20
8.569789258950015
 30
0.0
 10
40.48522640682682
 20
8.579710045084358
 30
0.0
 10
40.48582875641104
 20
8.586939013987816
 30
0.0
 10
40.48606157286888
 20
8.589733110602152
 30
0.0
  0
LINE
  5
115
330
1F
100
AcDbEntity
  8
SLD-0
  6
Continuous
370
    15
100
AcDbLine
 10
83.5305601591
 20
8.5897331106
 30
0.0
 11
83.5210985084
 21
8.6599412662
 31
0.0
  0
LINE
  5
116
330
1F
100
AcDbEntity
  8
SLD-0
  6
Continuous
370
    15
100
AcDbLine
 10
83.5393107781
 20
8.6823240277
 30
0.0
 11
83.5210985084
 21
8.8174666331
 31
0.0
  0
LINE
  5
117
330
1F
100
AcDbEntity
  8
SLD-0
  6
Continuous
370
    15
100
AcDbLine
 10
40.4955232236
 20
8.6599412662
 30
0.0
 11
40.4860615729
 21
8.5897331106
 31
0.0
  0
LINE
  5
118
330
1F
100
AcDbEntity
  8
SLD-0
  6
Continuous
370
    15
100
AcDbLine
 10
40.4955232236
 20
8.8174666331
 30
0.0
 11
40.477310954
 21
8.6823240277
 31
0.0
  0
LINE
  5
119
330
1F
100
AcDbEntity
  8
SLD-0
  6
Continuous
370
    15
100
AcDbLine
 10
40.4860615729
 20
43.127733478
 30
0.0
 11
40.4955232236
 21
43.127733478
 31
0.0
  0
LINE
  5
11A
330
1F
100
AcDbEntity
  8
SLD-0
  6
Continuous
370
    15
100
AcDbLine
 10
83.5210985084
 20
43.127733478
 30
0.0
 11
83.5305601591
 21
43.127733478
 31
0.0
  0
LINE
  5
11B
330
1F
100
AcDbEntity
  8
SLD-0
  6
Continuous
370
    15
100
AcDbLine
 10
83.5305601591
 20
8.5897331106
 30
0.0
 11
83.5210985084
 21
8.5897331106
 31
0.0
  0
LINE
  5
11C
330
1F
100
AcDbEntity
  8
SLD-0
  6
Continuous
370
    15
100
AcDbLine
 10
40.4955232236
 20
8.5897331106
 30
0.0
 11
40.4860615729
 21
8.5897331106
 31
0.0
  0
DIMENSION
  5
11D
330
1F
100
AcDbEntity
  8
DIM
100
AcDbDimension
  2
_D
 10
36.005967536
 20
14.57473311
 30
0.0
 11
36.005967536
 21
22.2358267112
 31
0.0
 70
   160
  1
<>
 71
     2
 42
-1.0
  3
SLDDIMSTYLE0
100
AcDbAlignedDimension
 13
41.943710866
 23
38.95313311
 33
0.0
 14
41.943710866
 24
14.57473311
 34
0.0
 50
90.0
100
AcDbRotatedDimension
  0
DIMENSION
  5
12D
330
1F
100
AcDbEntity
  8
DIM
100
AcDbDimension
  2
_D_1
 10
31.505967536
 20
46.1956635871
 30
0.0
 11
31.505967536
 21
27.3546983485
 31
0.0
 70
   160
  1
<>
 71
     2
 42
-1.0
  3
SLDDIMSTYLE0
100
AcDbAlignedDimension
 13
40.4955235644
 23
8.51373311
 33
0.0
 14
51.688310866
 24
46.1956635871
 34
0.0
 50
90.0
100
AcDbRotatedDimension
  0
DIMENSION
  5
13C
330
1F
100
AcDbEntity
  8
DIM
100
AcDbDimension
  2
_D_2
 10
82.072910866
 20
27.3546983485
 30
0.0
 11
61.7224019587
 21
27.3546983485
 31
0.0
 70
   160
  1
<>
 71
     2
 42
-1.0
  3
SLDDIMSTYLE0
100
AcDbAlignedDimension
 13
41.943710866
 23
38.95313311
 33
0.0
 14
82.072910866
 24
38.95313311
 34
0.0
 50
0.0
100
AcDbRotatedDimension
  0
DIMENSION
  5
149
330
1F
100
AcDbEntity
  8
DIM
100
AcDbDimension
  2
_D_3
 10
40.430810866
 20
5.01373311
 30
0.0
 11
62.008310866
 21
5.01373311
 31
0.0
 70
   160
  1
<>
 71
     2
 42
-1.0
  3
SLDDIMSTYLE0
100
AcDbAlignedDimension
 13
83.585810866
 23
9.0821701825
 33
0.0
 14
40.430810866
 24
9.0821701825
 34
0.0
 50
0.0
100
AcDbRotatedDimension
  0
LINE
  5
158
330
1F
100
AcDbEntity
  8
SLD-0
  6
Continuous
370
    15
100
AcDbLine
 10
22.4379651351
 20
46.1956643303
 30
0.0
 11
5.5629647432
 21
46.1956643303
 31
0.0
  0
LWPOLYLINE
  5
159
330
1F
100
AcDbEntity
  8
SLD-0
  6
Continuous
370
    15
100
AcDbPolyline
 90
        9
 70
   128
 43
0.0
 10
23.6292965461
 20
38.7730627169
 10
23.6354893279
 20
38.7792554987
 10
23.6414474457
 20
38.7852112699
 10
23.6469362356
 20
38.7907000598
 10
23.6517468467
 20
38.7955130175
 10
23.6556938945
 20
38.7994600653
 10
23.6586295406
 20
38.8023933647
 10
23.660436453
 20
38.8042002772
 10
23.6610465793
 20
38.8048104035
  0
LINE
  5
15A
330
1F
100
AcDbEntity
  8
SLD-0
  6
Continuous
370
    15
100
AcDbLine
 10
23.6610465793
 20
38.8048104035
 30
0.0
 11
25.7779735911
 21
36.6878833917
 31
0.0
  0
SPLINE
  5
15B
330
1F
100
AcDbEntity
  8
SLD-0
  6
Continuous
370
    15
100
AcDbSpline
210
0.0
220
0.0
230
1.0
 70
     8
 71
     3
 72
    11
 73
     7
 74
     0
 42
0.00000001
 43
0.00000001
 12
1.0
 22
0.0
 32
0.0
 13
1.0
 23
0.0
 33
0.0
 40
0.0
 40
0.0
 40
0.0
 40
0.0
 40
0.2582708885152336
 40
0.5167689126059608
 40
0.7752238973918782
 40
1.0
 40
1.0
 40
1.0
 40
1.0
 10
25.7779735910516
 20
36.68788339170573
 30
0.0
 10
25.77459878398671
 20
36.69023853631712
 30
0.0
 10
25.76784620189278
 20
36.69495089676492
 30
0.0
 10
25.75142272531677
 20
36.69572207294383
 30
0.0
 10
25.7325687707558
 20
36.69333045173563
 30
0.0
 10
25.71918369543541
 20
36.69064896670946
 30
0.0
 10
25.71295759545526
 20
36.68940166749981
 30
0.0
  0
LINE
  5
15C
330
1F
100
AcDbEntity
  8
SLD-0
  6
Continuous
370
    15
100
AcDbLine
 10
23.6292965461
 20
38.7730627169
 30
0.0
 11
25.7129575955
 21
36.6894016675
 31
0.0
  0
SPLINE
  5
15D
330
1F
100
AcDbEntity
  8
SLD-0
  6
Continuous
370
    15
100
AcDbSpline
210
0.0
220
0.0
230
1.0
 70
     8
 71
     3
 72
     9
 73
     5
 74
     0
 42
0.00000001
 43
0.00000001
 12
1.0
 22
0.0
 32
0.0
 13
1.0
 23
0.0
 33
0.0
 40
0.0
 40
0.0
 40
0.0
 40
0.0
 40
0.5000031507639254
 40
1.0
 40
1.0
 40
1.0
 40
1.0
 10
25.75683036863324
 20
36.66674251592693
 30
0.0
 10
25.75061649473621
 20
36.67161726121687
 30
0.0
 10
25.73818882525547
 20
36.68136669036046
 30
0.0
 10
25.7213679700563
 20
36.68672335303841
 30
0.0
 10
25.71295759545526
 20
36.68940166749981
 30
0.0
  0
LINE
  5
15E
330
1F
100
AcDbEntity
  8
SLD-0
  6
Continuous
370
    15
100
AcDbLine
 10
25.7568303686
 20
36.6667425159
 30
0.0
 11
25.7779735911
 21
36.6878833917
 31
0.0
  0
LINE
  5
15F
330
1F
100
AcDbEntity
  8
SLD-0
  6
Continuous
370
    15
100
AcDbLine
 10
23.1633642219
 20
36.6894016675
 30
0.0
 11
25.7129575955
 21
36.6894016675
 31
0.0
  0
LINE
  5
160
330
1F
100
AcDbEntity
  8
SLD-0
  6
Continuous
370
    15
100
AcDbLine
 10
23.1633642219
 20
38.7730627169
 30
0.0
 11
23.6292965461
 21
38.7730627169
 31
0.0
  0
SPLINE
  5
161
330
1F
100
AcDbEntity
  8
SLD-0
  6
Continuous
370
    15
100
AcDbSpline
210
0.0
220
0.0
230
1.0
 70
     8
 71
     3
 72
    15
 73
    11
 74
     0
 42
0.00000001
 43
0.00000001
 12
1.0
 22
0.0
 32
0.0
 13
1.0
 23
0.0
 33
0.0
 40
0.0
 40
0.0
 40
0.0
 40
0.0
 40
0.1250132052844178
 40
0.2500131294467561
 40
0.3750130536090943
 40
0.500016453163544
 40
0.6250042066310836
 40
0.750004130793422
 40
0.8750220542593697
 40
0.9999999999999999
 40
0.9999999999999999
 40
0.9999999999999999
 40
0.9999999999999999
 10
25.73290403169899
 20
36.64281617899268
 30
0.0
 10
25.73619216324489
 20
36.64020553218462
 30
0.0
 10
25.74276807701299
 20
36.63498451591775
 30
0.0
 10
25.7554808153797
 20
36.63269304487944
 30
0.0
 10
25.76794119497536
 20
36.63513088929386
 30
0.0
 10
25.77856049323284
 20
36.64222944390388
 30
0.0
 10
25.78565612015633
 20
36.65284623236423
 30
0.0
 10
25.78809443776079
 20
36.66530716070802
 30
0.0
 10
25.78580353638856
 20
36.67802007512503
 30
0.0
 10
25.78058329456814
 20
36.68459597003705
 30
0.0
 10
25.7779735910516
 20
36.68788339170573
 30
0.0
  0
LINE
  5
162
330
1F
100
AcDbEntity
  8
SLD-0
  6
Continuous
370
    15
100
AcDbLine
 10
25.7329040317
 20
36.642816179
 30
0.0
 11
25.7540472541
 21
36.6639570548
 31
0.0
  0
SPLINE
  5
163
330
1F
100
AcDbEntity
  8
SLD-0
  6
Continuous
370
    15
100
AcDbSpline
210
0.0
220
0.0
230
1.0
 70
     8
 71
     3
 72
     9
 73
     5
 74
     0
 42
0.00000001
 43
0.00000001
 12
1.0
 22
0.0
 32
0.0
 13
1.0
 23
0.0
 33
0.0
 40
0.0
 40
0.0
 40
0.0
 40
0.0
 40
0.4999977123460988
 40
1.0
 40
1.0
 40
1.0
 40
1.0
 10
25.75404725411735
 20
36.66395705477149
 30
0.0
 10
25.75520688410451
 20
36.6637249361946
 30
0.0
 10
25.75752615469019
 20
36.66326069691679
 30
0.0
 10
25.75706229802632
 20
36.66558190605014
 30
0.0
 10
25.75683036863324
 20
36.66674251592693
 30
0.0
  0
LINE
  5
164
330
1F
100
AcDbEntity
  8
SLD-0
  6
Continuous
370
    15
100
AcDbLine
 10
23.1633642219
 20
38.8179609715
 30
0.0
 11
23.6292965461
 21
38.8179609715
 31
0.0
  0
LINE
  5
165
330
1F
100
AcDbEntity
  8
SLD-0
  6
Continuous
370
    15
100
AcDbLine
 10
23.6292965461
 20
38.7880624369
 30
0.0
 11
23.6292965461
 21
38.8179609715
 31
0.0
  0
LINE
  5
166
330
1F
100
AcDbEntity
  8
SLD-0
  6
Continuous
370
    15
100
AcDbLine
 10
23.1633642219
 20
38.7880624369
 30
0.0
 11
23.6292965461
 21
38.7880624369
 31
0.0
  0
ARC
  5
167
330
1F
100
AcDbEntity
  8
SLD-0
  6
Continuous
370
    15
100
AcDbCircle
 10
23.6292964873
 20
38.7730620126
 30
0.0
 40
0.0449000000000014
100
AcDbArc
 50
45.0
 51
90.0
  0
ARC
  5
168
330
1F
100
AcDbEntity
  8
SLD-0
  6
Continuous
370
    15
100
AcDbCircle
 10
23.6292964873
 20
38.7730620126
 30
0.0
 40
0.0150000000000006
100
AcDbArc
 50
45.0
 51
90.0
  0
LINE
  5
169
330
1F
100
AcDbEntity
  8
SLD-0
  6
Continuous
370
    15
100
AcDbLine
 10
25.7329040317
 20
36.642816179
 30
0.0
 11
25.6863185432
 21
36.6894016675
 31
0.0
  0
LINE
  5
16A
330
1F
100
AcDbEntity
  8
SLD-0
  6
Continuous
370
    15
100
AcDbLine
 10
25.7540472541
 20
36.6639570548
 30
0.0
 11
25.7391413996
 21
36.6788629092
 31
0.0
  0
SPLINE
  5
16B
330
1F
100
AcDbEntity
  8
SLD-0
  6
Continuous
370
    15
100
AcDbSpline
210
0.0
220
0.0
230
1.0
 70
     8
 71
     3
 72
    11
 73
     7
 74
     0
 42
0.00000001
 43
0.00000001
 12
1.0
 22
0.0
 32
0.0
 13
1.0
 23
0.0
 33
0.0
 40
0.0
 40
0.0
 40
0.0
 40
0.0
 40
0.2499969680727885
 40
0.5
 40
0.7500030319272115
 40
1.0
 40
1.0
 40
1.0
 40
1.0
 10
20.17436493775027
 20
43.18043196256394
 30
0.0
 10
20.17936018144577
 20
43.17964018419778
 30
0.0
 10
20.18935078999994
 20
43.17805660826031
 30
0.0
 10
20.20433621818615
 20
43.16587052569309
 30
0.0
 10
20.21932164637235
 20
43.14845001643066
 30
0.0
 10
20.22931225492653
 20
43.13463893498329
 30
0.0
 10
20.23430749862202
 20
43.127733478008
 30
0.0
  0
SPLINE
  5
16C
330
1F
100
AcDbEntity
  8
SLD-0
  6
Continuous
370
    15
100
AcDbSpline
210
0.0
220
0.0
230
1.0
 70
     8
 71
     3
 72
    11
 73
     7
 74
     0
 42
0.00000001
 43
0.00000001
 12
1.0
 22
0.0
 32
0.0
 13
1.0
 23
0.0
 33
0.0
 40
0.0
 40
0.0
 40
0.0
 40
0.0
 40
0.2499931474930981
 40
0.5000034483764606
 40
0.7500031199388696
 40
1.0
 40
1.0
 40
1.0
 40
1.0
 10
20.17436493775027
 20
43.15873258657032
 30
0.0
 10
20.1793602571279
 20
43.15826719705682
 30
0.0
 10
20.18935123863922
 20
43.15733638609694
 30
0.0
 10
20.20433576227551
 20
43.15016656784799
 30
0.0
 10
20.21932182167454
 20
43.13991870936517
 30
0.0
 10
20.22931229156526
 20
43.13179520667578
 30
0.0
 10
20.23430749862202
 20
43.127733478008
 30
0.0
  0
LINE
  5
16D
330
1F
100
AcDbEntity
  8
SLD-0
  6
Continuous
370
    15
100
AcDbLine
 10
20.1743649378
 20
43.1587325866
 30
0.0
 11
20.1743649378
 21
43.1804319626
 31
0.0
  0
LINE
  5
16E
330
1F
100
AcDbEntity
  8
SLD-0
  6
Continuous
370
    15
100
AcDbLine
 10
21.9273645269
 20
43.1107039147
 30
0.0
 11
21.9273645269
 21
43.127733478
 31
0.0
  0
LINE
  5
16F
330
1F
100
AcDbEntity
  8
SLD-0
  6
Continuous
370
    15
100
AcDbLine
 10
21.9273645269
 20
43.127733478
 30
0.0
 11
22.3023645683
 21
43.127733478
 31
0.0
  0
LINE
  5
170
330
1F
100
AcDbEntity
  8
SLD-0
  6
Continuous
370
    15
100
AcDbLine
 10
22.3023645683
 20
42.5337332999
 30
0.0
 11
22.3023645683
 21
43.127733478
 31
0.0
  0
LINE
  5
171
330
1F
100
AcDbEntity
  8
SLD-0
  6
Continuous
370
    15
100
AcDbLine
 10
20.8283076767
 20
42.5337332999
 30
0.0
 11
22.3023645683
 21
42.5337332999
 31
0.0
  0
LINE
  5
172
330
1F
100
AcDbEntity
  8
SLD-0
  6
Continuous
370
    15
100
AcDbLine
 10
20.2343074986
 20
43.127733478
 30
0.0
 11
20.6143645482
 21
43.127733478
 31
0.0
  0
LINE
  5
173
330
1F
100
AcDbEntity
  8
SLD-0
  6
Continuous
370
    15
100
AcDbLine
 10
20.6143645482
 20
43.127733478
 30
0.0
 11
20.6143645482
 21
43.1107039147
 31
0.0
  0
LINE
  5
174
330
1F
100
AcDbEntity
  8
SLD-0
  6
Continuous
370
    15
100
AcDbLine
 10
20.6143645482
 20
43.1107039147
 30
0.0
 11
21.9273645269
 21
43.1107039147
 31
0.0
  0
LINE
  5
175
330
1F
100
AcDbEntity
  8
SLD-0
  6
Continuous
370
    15
100
AcDbLine
 10
20.8283076767
 20
42.5337332999
 30
0.0
 11
20.2343074986
 21
43.127733478
 31
0.0
  0
LINE
  5
176
330
1F
100
AcDbEntity
  8
SLD-0
  6
Continuous
370
    15
100
AcDbLine
 10
20.1743649378
 20
43.1804319626
 30
0.0
 11
20.6143645482
 21
43.1804319626
 31
0.0
  0
LINE
  5
177
330
1F
100
AcDbEntity
  8
SLD-0
  6
Continuous
370
    15
100
AcDbLine
 10
20.6143645482
 20
43.127733478
 30
0.0
 11
20.6143645482
 21
43.1804319626
 31
0.0
  0
LINE
  5
178
330
1F
100
AcDbEntity
  8
SLD-0
  6
Continuous
370
    15
100
AcDbLine
 10
21.9273645269
 20
43.1804319626
 30
0.0
 11
21.9273645269
 21
43.127733478
 31
0.0
  0
LINE
  5
179
330
1F
100
AcDbEntity
  8
SLD-0
  6
Continuous
370
    15
100
AcDbLine
 10
21.9273645269
 20
43.1804319626
 30
0.0
 11
22.3023645683
 21
43.1804319626
 31
0.0
  0
LINE
  5
17A
330
1F
100
AcDbEntity
  8
SLD-0
  6
Continuous
370
    15
100
AcDbLine
 10
22.3023645683
 20
43.127733478
 30
0.0
 11
22.3023645683
 21
43.1804319626
 31
0.0
  0
SPLINE
  5
17B
330
1F
100
AcDbEntity
  8
SLD-0
  6
Continuous
370
    15
100
AcDbSpline
210
0.0
220
0.0
230
1.0
 70
     8
 71
     3
 72
    11
 73
     7
 74
     0
 42
0.00000001
 43
0.00000001
 12
1.0
 22
0.0
 32
0.0
 13
1.0
 23
0.0
 33
0.0
 40
0.0
 40
0.0
 40
0.0
 40
0.0
 40
0.2500015412151709
 40
0.5000020397666155
 40
0.7500039146550623
 40
1.0
 40
1.0
 40
1.0
 40
1.0
 10
4.967372516891043
 20
43.18043196256394
 30
0.0
 10
4.966976739390436
 20
43.17964021926481
 30
0.0
 10
4.966185186039864
 20
43.17805673596862
 30
0.0
 10
4.965680762009696
 20
43.16587047540595
 30
0.0
 10
4.966260768709344
 20
43.14845000880621
 30
0.0
 10
4.968002391550902
 20
43.13463893496731
 30
0.0
 10
4.96887319288844
 20
43.127733478008
 30
0.0
  0
LINE
  5
17C
330
1F
100
AcDbEntity
  8
SLD-0
  6
Continuous
370
    15
100
AcDbLine
 10
4.9673725169
 20
43.1804319626
 30
0.0
 11
20.1743649378
 21
43.1804319626
 31
0.0
  0
SPLINE
  5
17D
330
1F
100
AcDbEntity
  8
SLD-0
  6
Continuous
370
    15
100
AcDbSpline
210
0.0
220
0.0
230
1.0
 70
     8
 71
     3
 72
    12
 73
     8
 74
     0
 42
0.00000001
 43
0.00000001
 12
1.0
 22
0.0
 32
0.0
 13
1.0
 23
0.0
 33
0.0
 40
0.0
 40
0.0
 40
0.0
 40
0.0
 40
0.2373853863192678
 40
0.4749164564521821
 40
0.7124430732309108
 40
0.9499598054373849
 40
1.0
 40
1.0
 40
1.0
 40
1.0
 10
20.1253013978698
 20
43.127733478008
 30
0.0
 10
20.12846822603742
 20
43.1342836452806
 30
0.0
 10
20.13480382586048
 20
43.14738799967456
 30
0.0
 10
20.14615321992285
 20
43.16435680854444
 30
0.0
 10
20.15851345537222
 20
43.17623542859025
 30
0.0
 10
20.16817030643051
 20
43.18020830456665
 30
0.0
 10
20.17344674106878
 20
43.18039881094921
 30
0.0
 10
20.17436493775027
 20
43.18043196256394
 30
0.0
  0
LINE
  5
17E
330
1F
100
AcDbEntity
  8
SLD-0
  6
Continuous
370
    15
100
AcDbLine
 10
20.1253013979
 20
43.127733478
 30
0.0
 11
4.9688731929
 21
43.127733478
 31
0.0
  0
LINE
  5
17F
330
1F
100
AcDbEntity
  8
SLD-0
  6
Continuous
370
    15
100
AcDbLine
 10
20.1253013979
 20
43.127733478
 30
0.0
 11
20.1297975593
 21
43.127733478
 31
0.0
  0
SPLINE
  5
180
330
1F
100
AcDbEntity
  8
SLD-0
  6
Continuous
370
    15
100
AcDbSpline
210
0.0
220
0.0
230
1.0
 70
     8
 71
     3
 72
    11
 73
     7
 74
     0
 42
0.00000001
 43
0.00000001
 12
1.0
 22
0.0
 32
0.0
 13
1.0
 23
0.0
 33
0.0
 40
0.0
 40
0.0
 40
0.0
 40
0.0
 40
0.2752130418436037
 40
0.5508073159137918
 40
0.8263728033072123
 40
0.9999999999999999
 40
0.9999999999999999
 40
0.9999999999999999
 40
0.9999999999999999
 10
20.12979755926309
 20
43.127733478008
 30
0.0
 10
20.13341662019374
 20
43.13220601141341
 30
0.0
 10
20.14065975527186
 20
43.14115727369325
 30
0.0
 10
20.15295521648886
 20
43.15203722847542
 30
0.0
 10
20.1643795592514
 20
43.15791415461695
 30
0.0
 10
20.17158125448938
 20
43.15850442743455
 30
0.0
 10
20.17436493775027
 20
43.15873258657032
 30
0.0
  0
LINE
  5
181
330
1F
100
AcDbEntity
  8
SLD-0
  6
Continuous
370
    15
100
AcDbLine
 10
20.1253013979
 20
43.127733478
 30
0.0
 11
19.7473093911
 21
42.5337332999
 31
0.0
  0
LINE
  5
182
330
1F
100
AcDbEntity
  8
SLD-0
  6
Continuous
370
    15
100
AcDbLine
 10
19.7473093911
 20
42.5337332999
 30
0.0
 11
5.0919413845
 21
42.5337332999
 31
0.0
  0
LINE
  5
183
330
1F
100
AcDbEntity
  8
SLD-0
  6
Continuous
370
    15
100
AcDbLine
 10
5.0919413845
 20
42.5337332999
 30
0.0
 11
4.9688731929
 21
43.127733478
 31
0.0
  0
LINE
  5
184
330
1F
100
AcDbEntity
  8
SLD-0
  6
Continuous
370
    15
100
AcDbLine
 10
20.1297975593
 20
43.127733478
 30
0.0
 11
19.7518055525
 21
42.5337332999
 31
0.0
  0
LINE
  5
185
330
1F
100
AcDbEntity
  8
SLD-0
  6
Continuous
370
    15
100
AcDbLine
 10
19.7473093911
 20
42.5337332999
 30
0.0
 11
19.7518055525
 21
42.5337332999
 31
0.0
  0
LINE
  5
186
330
1F
100
AcDbEntity
  8
SLD-0
  6
Continuous
370
    15
100
AcDbLine
 10
23.0813644225
 20
43.1587325866
 30
0.0
 11
23.0813644225
 21
43.1804319626
 31
0.0
  0
LINE
  5
187
330
1F
100
AcDbEntity
  8
SLD-0
  6
Continuous
370
    15
100
AcDbLine
 10
22.3023645683
 20
43.1804319626
 30
0.0
 11
23.0813644225
 21
43.1804319626
 31
0.0
  0
LINE
  5
188
330
1F
100
AcDbEntity
  8
SLD-0
  6
Continuous
370
    15
100
AcDbLine
 10
22.3023645683
 20
43.1587325866
 30
0.0
 11
23.0813644225
 21
43.1587325866
 31
0.0
  0
ARC
  5
189
330
1F
100
AcDbEntity
  8
SLD-0
  6
Continuous
370
    15
100
AcDbCircle
 10
23.081364786
 20
43.12773311
 30
0.0
 40
0.0527000000000086
100
AcDbArc
 50
23.3058382067
 51
90.0
  0
ARC
  5
18A
330
1F
100
AcDbEntity
  8
SLD-0
  6
Continuous
370
    15
100
AcDbCircle
 10
23.081364786
 20
43.12773311
 30
0.0
 40
0.0310000000000059
100
AcDbArc
 50
0.0
 51
90.0
  0
LINE
  5
18B
330
1F
100
AcDbEntity
  8
SLD-0
  6
Continuous
370
    15
100
AcDbLine
 10
23.1123647044
 20
42.7346783919
 30
0.0
 11
23.1123647044
 21
43.127733478
 31
0.0
  0
LINE
  5
18C
330
1F
100
AcDbEntity
  8
SLD-0
  6
Continuous
370
    15
100
AcDbLine
 10
21.9273645269
 20
43.1804319626
 30
0.0
 11
20.6143645482
 21
43.1804319626
 31
0.0
  0
LINE
  5
18D
330
1F
100
AcDbEntity
  8
SLD-0
  6
Continuous
370
    15
100
AcDbLine
 10
21.9273645269
 20
43.1587325866
 30
0.0
 11
20.6143645482
 21
43.1587325866
 31
0.0
  0
LINE
  5
18E
330
1F
100
AcDbEntity
  8
SLD-0
  6
Continuous
370
    15
100
AcDbLine
 10
3.9783647845
 20
43.1804319626
 30
0.0
 11
3.9783647845
 21
43.1587325866
 31
0.0
  0
LINE
  5
18F
330
1F
100
AcDbEntity
  8
SLD-0
  6
Continuous
370
    15
100
AcDbLine
 10
3.9783647845
 20
43.1804319626
 30
0.0
 11
4.9673725169
 21
43.1804319626
 31
0.0
  0
LINE
  5
190
330
1F
100
AcDbEntity
  8
SLD-0
  6
Continuous
370
    15
100
AcDbLine
 10
3.9783647845
 20
43.1587325866
 30
0.0
 11
4.9673725169
 21
43.1587325866
 31
0.0
  0
LINE
  5
191
330
1F
100
AcDbEntity
  8
SLD-0
  6
Continuous
370
    15
100
AcDbLine
 10
3.9473647868
 20
43.127733478
 30
0.0
 11
3.9256647875
 21
43.127733478
 31
0.0
  0
SPLINE
  5
192
330
1F
100
AcDbEntity
  8
SLD-0
  6
Continuous
370
    15
100
AcDbSpline
210
0.0
220
0.0
230
1.0
 70
     8
 71
     3
 72
    11
 73
     7
 74
     0
 42
0.00000001
 43
0.00000001
 12
1.0
 22
0.0
 32
0.0
 13
1.0
 23
0.0
 33
0.0
 40
0.0
 40
0.0
 40
0.0
 40
0.0
 40
0.2499791545144785
 40
0.4999910624986852
 40
0.7500024501988919
 40
1.0
 40
1.0
 40
1.0
 40
1.0
 10
3.947364786774049
 20
43.127733478008
 30
0.0
 10
3.947830848225502
 20
43.13179532208232
 30
0.0
 10
3.948763032194019
 20
43.13991954243328
 30
0.0
 10
3.955931485958621
 20
43.15016621990654
 30
0.0
 10
3.966177962004096
 20
43.1573364795662
 30
0.0
 10
3.974302585280345
 20
43.15826722615517
 30
0.0
 10
3.978364784492763
 20
43.15873258657032
 30
0.0
  0
SPLINE
  5
193
330
1F
100
AcDbEntity
  8
SLD-0
  6
Continuous
370
    15
100
AcDbSpline
210
0.0
220
0.0
230
1.0
 70
     8
 71
     3
 72
    11
 73
     7
 74
     0
 42
0.00000001
 43
0.00000001
 12
1.0
 22
0.0
 32
0.0
 13
1.0
 23
0.0
 33
0.0
 40
0.0
 40
0.0
 40
0.0
 40
0.0
 40
0.2499951388430498
 40
0.5000020277551982
 40
0.7500007636448287
 40
1.0
 40
1.0
 40
1.0
 40
1.0
 10
3.925664787454293
 20
43.127733478008
 30
0.0
 10
3.926457019837239
 20
43.13463897907694
 30
0.0
 10
3.928041521838992
 20
43.14845030578159
 30
0.0
 10
3.94022780542966
 20
43.1658701909012
 30
0.0
 10
3.957647882397555
 20
43.17805677035577
 30
0.0
 10
3.971459145852967
 20
43.17964023129957
 30
0.0
 10
3.978364784492763
 20
43.18043196256394
 30
0.0
  0
LINE
  5
194
330
1F
100
AcDbEntity
  8
SLD-0
  6
Continuous
370
    15
100
AcDbLine
 10
3.9256647875
 20
43.127733478
 30
0.0
 11
3.9256647875
 21
42.5337332999
 31
0.0
  0
LINE
  5
195
330
1F
100
AcDbEntity
  8
SLD-0
  6
Continuous
370
    15
100
AcDbLine
 10
3.9473647868
 20
43.127733478
 30
0.0
 11
3.9473647868
 21
42.9766662098
 31
0.0
  0
LINE
  5
196
330
1F
100
AcDbEntity
  8
SLD-0
  6
Continuous
370
    15
100
AcDbLine
 10
3.9473647868
 20
42.5337332999
 30
0.0
 11
3.9256647875
 21
42.5337332999
 31
0.0
  0
LINE
  5
197
330
1F
100
AcDbEntity
  8
SLD-0
  6
Continuous
370
    15
100
AcDbLine
 10
20.1328962968
 20
43.127733478
 30
0.0
 11
20.1328962968
 21
8.5897331106
 31
0.0
  0
LINE
  5
198
330
1F
100
AcDbEntity
  8
SLD-0
  6
Continuous
370
    15
100
AcDbLine
 10
23.0673643709
 20
43.127733478
 30
0.0
 11
22.3023645683
 21
43.127733478
 31
0.0
  0
LINE
  5
199
330
1F
100
AcDbEntity
  8
SLD-0
  6
Continuous
370
    15
100
AcDbLine
 10
21.9273645269
 20
43.127733478
 30
0.0
 11
20.6143645482
 21
43.127733478
 31
0.0
  0
LINE
  5
19A
330
1F
100
AcDbEntity
  8
SLD-0
  6
Continuous
370
    15
100
AcDbLine
 10
20.2343074986
 20
43.127733478
 30
0.0
 11
20.1328962968
 21
43.127733478
 31
0.0
  0
LINE
  5
19B
330
1F
100
AcDbEntity
  8
SLD-0
  6
Continuous
370
    15
100
AcDbLine
 10
23.0673643709
 20
43.127733478
 30
0.0
 11
23.0673643709
 21
42.6838971119
 31
0.0
  0
LINE
  5
19C
330
1F
100
AcDbEntity
  8
SLD-0
  6
Continuous
370
    15
100
AcDbLine
 10
23.0673643709
 20
9.1135701959
 30
0.0
 11
23.0673643709
 21
8.5897331106
 31
0.0
  0
LINE
  5
19D
330
1F
100
AcDbEntity
  8
SLD-0
  6
Continuous
370
    15
100
AcDbLine
 10
23.0673643709
 20
8.5897331106
 30
0.0
 11
22.3023645683
 21
8.5897331106
 31
0.0
  0
LINE
  5
19E
330
1F
100
AcDbEntity
  8
SLD-0
  6
Continuous
370
    15
100
AcDbLine
 10
21.9273645269
 20
8.5897331106
 30
0.0
 11
20.6143645482
 21
8.5897331106
 31
0.0
  0
LINE
  5
19F
330
1F
100
AcDbEntity
  8
SLD-0
  6
Continuous
370
    15
100
AcDbLine
 10
20.2343074986
 20
8.5897331106
 30
0.0
 11
20.1328962968
 21
8.5897331106
 31
0.0
  0
LINE
  5
1A0
330
1F
100
AcDbEntity
  8
SLD-0
  6
Continuous
370
    15
100
AcDbLine
 10
20.1328962968
 20
43.127733478
 30
0.0
 11
20.1297975593
 21
43.127733478
 31
0.0
  0
LINE
  5
1A1
330
1F
100
AcDbEntity
  8
SLD-0
  6
Continuous
370
    15
100
AcDbLine
 10
3.9891225411
 20
43.127733478
 30
0.0
 11
3.9891225411
 21
8.5897331106
 31
0.0
  0
LINE
  5
1A2
330
1F
100
AcDbEntity
  8
SLD-0
  6
Continuous
370
    15
100
AcDbLine
 10
4.9688731929
 20
43.127733478
 30
0.0
 11
3.9891225411
 21
43.127733478
 31
0.0
  0
LWPOLYLINE
  5
1A3
330
1F
100
AcDbEntity
  8
SLD-0
  6
Continuous
370
    15
100
AcDbPolyline
 90
      108
 70
   128
 43
0.0
 10
9.9806395499
 20
17.838732872
 10
9.9791641002
 20
17.8900849721
 10
9.974743618
 20
17.9412593143
 10
9.9673921829
 20
17.9920804872
 10
9.9571361947
 20
18.0423730796
 10
9.944010853
 20
18.0919640267
 10
9.9280613306
 20
18.1406814372
 10
9.9093421868
 20
18.1883581131
 10
9.8879179543
 20
18.2348297896
 10
9.8638631389
 20
18.2799357219
 10
9.8372604595
 20
18.3235210317
 10
9.8082014352
 20
18.3654349475
 10
9.7767857981
 20
18.4055337376
 10
9.743122667
 20
18.4436783637
 10
9.7073276139
 20
18.4797374138
 10
9.6695244239
 20
18.5135865161
 10
9.629842749
 20
18.5451100986
 10
9.5884204542
 20
18.5741978692
 10
9.5453989245
 20
18.6007506825
 10
9.5009277582
 20
18.6246764327
 10
9.4551589003
 20
18.6458935743
 10
9.4082513355
 20
18.6643276014
 10
9.3603663953
 20
18.6799157413
 10
9.3116695179
 20
18.6926040214
 10
9.2623273145
 20
18.7023490288
 10
9.21251109
 20
18.7091173239
 10
9.162392149
 20
18.7128848538
 10
9.1121435561
 20
18.7136387117
 10
9.0619383761
 20
18.7113771378
 10
9.0119490869
 20
18.7061071721
 10
8.9623487533
 20
18.6978470008
 10
8.9133080931
 20
18.6866253704
 10
8.8649960645
 20
18.6724810005
 10
8.817579279
 20
18.6554625838
 10
8.7712214145
 20
18.6356281996
 10
8.7260820426
 20
18.6130476604
 10
8.6823166282
 20
18.5877972321
 10
8.6400765295
 20
18.5599649136
 10
8.5995069448
 20
18.5296463305
 10
8.5607477926
 20
18.4969459083
 10
8.5239325379
 20
18.4619762856
 10
8.4891884859
 20
18.4248583144
 10
8.4566353153
 20
18.3857198865
 10
8.4263850781
 20
18.3446965204
 10
8.3985419064
 20
18.3019284278
 10
8.3732023058
 20
18.257563447
 10
8.3504531019
 20
18.2117546962
 10
8.3303729072
 20
18.1646605736
 10
8.3130309476
 20
18.1164424106
 10
8.2984870622
 20
18.0672668187
 10
8.2867914107
 20
18.0173039292
 10
8.2779841791
 20
17.9667250468
 10
8.2720955804
 20
17.9157049962
 10
8.2691464412
 20
17.8644197753
 10
8.2691464412
 20
17.8130459688
 10
8.2720955804
 20
17.7617607479
 10
8.2779841791
 20
17.7107412839
 10
8.2867914107
 20
17.6601624016
 10
8.2984870622
 20
17.6101989254
 10
8.3130309476
 20
17.5610239202
 10
8.3303729072
 20
17.5128057572
 10
8.3504531019
 20
17.4657116345
 10
8.3732023058
 20
17.4199028837
 10
8.3985419064
 20
17.3755379029
 10
8.4263850781
 20
17.3327698103
 10
8.4566353153
 20
17.2917458575
 10
8.4891884859
 20
17.2526074297
 10
8.5239325379
 20
17.2154900451
 10
8.5607477926
 20
17.1805204224
 10
8.5995069448
 20
17.1478200002
 10
8.6400765295
 20
17.1175014171
 10
8.6823166282
 20
17.0896690986
 10
8.7260820426
 20
17.0644186703
 10
8.7712214145
 20
17.0418375445
 10
8.817579279
 20
17.022003747
 10
8.8649960645
 20
17.0049853302
 10
8.9133080931
 20
16.9908409603
 10
8.9623487533
 20
16.9796193299
 10
9.0119490869
 20
16.9713591587
 10
9.0619383761
 20
16.9660891929
 10
9.1121435561
 20
16.963827619
 10
9.162392149
 20
16.964581477
 10
9.21251109
 20
16.9683490068
 10
9.2623273145
 20
16.9751173019
 10
9.3116695179
 20
16.9848623094
 10
9.3603663953
 20
16.9975505894
 10
9.4082513355
 20
17.0131387294
 10
9.4551589003
 20
17.0315727564
 10
9.5009277582
 20
17.0527893113
 10
9.5453989245
 20
17.0767156483
 10
9.5884204542
 20
17.1032684615
 10
9.629842749
 20
17.1323562322
 10
9.6695244239
 20
17.163879228
 10
9.7073276139
 20
17.197728917
 10
9.743122667
 20
17.2337879671
 10
9.7767857981
 20
17.2719325931
 10
9.8082014352
 20
17.3120307965
 10
9.8372604595
 20
17.353945299
 10
9.8638631389
 20
17.3975300222
 10
9.8879179543
 20
17.4426365411
 10
9.9093421868
 20
17.4891082176
 10
9.9280613306
 20
17.5367848935
 10
9.944010853
 20
17.585502304
 10
9.9571361947
 20
17.6350932512
 10
9.9673921829
 20
17.6853858435
 10
9.974743618
 20
17.7362070164
 10
9.9791641002
 20
17.7873813586
 10
9.9806395499
 20
17.838732872
  0
LINE
  5
1A4
330
1F
100
AcDbEntity
  8
SLD-0
  6
Continuous
370
    15
100
AcDbLine
 10
4.9688731929
 20
8.5897331106
 30
0.0
 11
3.9891225411
 21
8.5897331106
 31
0.0
  0
LWPOLYLINE
  5
1A5
330
1F
100
AcDbEntity
  8
SLD-0
  6
Continuous
370
    15
100
AcDbPolyline
 90
       56
 70
   128
 43
0.0
 10
9.1269197588
 20
18.7137302307
 10
9.1166491041
 20
18.7136387117
 10
9.0664439241
 20
18.7113771378
 10
9.0164546349
 20
18.7061071721
 10
8.9668543012
 20
18.6978470008
 10
8.9178136411
 20
18.6866253704
 10
8.8695016125
 20
18.6724810005
 10
8.8220848269
 20
18.6554625838
 10
8.7757269625
 20
18.6356281996
 10
8.7305875906
 20
18.6130476604
 10
8.6868221762
 20
18.5877972321
 10
8.6445820775
 20
18.5599649136
 10
8.6040124928
 20
18.5296463305
 10
8.5652533405
 20
18.4969459083
 10
8.5284383792
 20
18.4619762856
 10
8.4936943272
 20
18.4248583144
 10
8.4611408632
 20
18.3857198865
 10
8.430890626
 20
18.3446965204
 10
8.4030477477
 20
18.3019284278
 10
8.3777078537
 20
18.257563447
 10
8.3549586499
 20
18.2117546962
 10
8.3348784552
 20
18.1646605736
 10
8.3175367888
 20
18.1164424106
 10
8.3029929035
 20
18.0672668187
 10
8.2912969586
 20
18.0173039292
 10
8.282489727
 20
17.9667250468
 10
8.2766014217
 20
17.9157049962
 10
8.2736519891
 20
17.8644197753
 10
8.2736519891
 20
17.8130459688
 10
8.2766014217
 20
17.7617607479
 10
8.282489727
 20
17.7107412839
 10
8.2912969586
 20
17.6601624016
 10
8.3029929035
 20
17.6101989254
 10
8.3175367888
 20
17.5610239202
 10
8.3348784552
 20
17.5128057572
 10
8.3549586499
 20
17.4657116345
 10
8.3777078537
 20
17.4199028837
 10
8.4030477477
 20
17.3755379029
 10
8.430890626
 20
17.3327698103
 10
8.4611408632
 20
17.2917458575
 10
8.4936943272
 20
17.2526074297
 10
8.5284383792
 20
17.2154900451
 10
8.5652533405
 20
17.1805204224
 10
8.6040124928
 20
17.1478200002
 10
8.6445820775
 20
17.1175014171
 10
8.6868221762
 20
17.0896690986
 10
8.7305875906
 20
17.0644186703
 10
8.7757269625
 20
17.0418375445
 10
8.8220848269
 20
17.022003747
 10
8.8695016125
 20
17.0049853302
 10
8.9178136411
 20
16.9908409603
 10
8.9668543012
 20
16.9796193299
 10
9.0164546349
 20
16.9713591587
 10
9.0664439241
 20
16.9660891929
 10
9.1166491041
 20
16.963827619
 10
9.1269209321
 20
16.9637361001
  0
LINE
  5
1A6
330
1F
100
AcDbEntity
  8
SLD-0
  6
Continuous
370
    15
100
AcDbLine
 10
3.9473647868
 20
42.9766662098
 30
0.0
 11
3.9473647868
 21
8.7408009655
 31
0.0
  0
LINE
  5
1A7
330
1F
100
AcDbEntity
  8
SLD-0
  6
Continuous
370
    15
100
AcDbLine
 10
3.9891225411
 20
8.5897331106
 30
0.0
 11
3.9473647868
 21
8.5897331106
 31
0.0
  0
LINE
  5
1A8
330
1F
100
AcDbEntity
  8
SLD-0
  6
Continuous
370
    15
100
AcDbLine
 10
3.9891225411
 20
43.127733478
 30
0.0
 11
3.9473647868
 21
43.127733478
 31
0.0
  0
LINE
  5
1A9
330
1F
100
AcDbEntity
  8
SLD-0
  6
Continuous
370
    15
100
AcDbLine
 10
20.6143645482
 20
8.5897331106
 30
0.0
 11
20.2343074986
 21
8.5897331106
 31
0.0
  0
LINE
  5
1AA
330
1F
100
AcDbEntity
  8
SLD-0
  6
Continuous
370
    15
100
AcDbLine
 10
20.6143645482
 20
8.5370330861
 30
0.0
 11
20.6143645482
 21
8.5897331106
 31
0.0
  0
LINE
  5
1AB
330
1F
100
AcDbEntity
  8
SLD-0
  6
Continuous
370
    15
100
AcDbLine
 10
20.6143645482
 20
8.5370330861
 30
0.0
 11
20.1743649378
 21
8.5370330861
 31
0.0
  0
SPLINE
  5
1AC
330
1F
100
AcDbEntity
  8
SLD-0
  6
Continuous
370
    15
100
AcDbSpline
210
0.0
220
0.0
230
1.0
 70
     8
 71
     3
 72
    11
 73
     7
 74
     0
 42
0.00000001
 43
0.00000001
 12
1.0
 22
0.0
 32
0.0
 13
1.0
 23
0.0
 33
0.0
 40
0.0
 40
0.0
 40
0.0
 40
0.0
 40
0.249998896438696
 40
0.4999980960538587
 40
0.7500021417409314
 40
1.0
 40
1.0
 40
1.0
 40
1.0
 10
20.23430749862202
 20
8.589733110602152
 30
0.0
 10
20.22931229271724
 20
8.582827483534672
 30
0.0
 10
20.21932187484994
 20
8.569016221025176
 30
0.0
 10
20.20433601316853
 20
8.551596180247197
 30
0.0
 10
20.18935082136727
 20
8.539409768445255
 30
0.0
 10
20.17936019107855
 20
8.537825306988616
 30
0.0
 10
20.17436493775027
 20
8.537033086064
 30
0.0
  0
LINE
  5
1AD
330
1F
100
AcDbEntity
  8
SLD-0
  6
Continuous
370
    15
100
AcDbLine
 10
20.1743649378
 20
8.5370330861
 30
0.0
 11
20.1743649378
 21
8.558733122
 31
0.0
  0
SPLINE
  5
1AE
330
1F
100
AcDbEntity
  8
SLD-0
  6
Continuous
370
    15
100
AcDbSpline
210
0.0
220
0.0
230
1.0
 70
     8
 71
     3
 72
    11
 73
     7
 74
     0
 42
0.00000001
 43
0.00000001
 12
1.0
 22
0.0
 32
0.0
 13
1.0
 23
0.0
 33
0.0
 40
0.0
 40
0.0
 40
0.0
 40
0.0
 40
0.250003980712752
 40
0.4999991521499748
 40
0.7500052761000028
 40
1.0
 40
1.0
 40
1.0
 40
1.0
 10
20.23430749862202
 20
8.589733110602152
 30
0.0
 10
20.22931235206428
 20
8.585670986542643
 30
0.0
 10
20.21932223496049
 20
8.577546881558826
 30
0.0
 10
20.20433572524009
 20
8.567299501638685
 30
0.0
 10
20.18935104511326
 20
8.56013115402637
 30
0.0
 10
20.17936023094087
 20
8.559199125625355
 30
0.0
 10
20.17436493775027
 20
8.558733122049999
 30
0.0
  0
LINE
  5
1AF
330
1F
100
AcDbEntity
  8
SLD-0
  6
Continuous
370
    15
100
AcDbLine
 10
20.6143645482
 20
8.6067615006
 30
0.0
 11
20.6143645482
 21
8.5897331106
 31
0.0
  0
LINE
  5
1B0
330
1F
100
AcDbEntity
  8
SLD-0
  6
Continuous
370
    15
100
AcDbLine
 10
20.8283076767
 20
9.1837331053
 30
0.0
 11
22.3023645683
 21
9.1837331053
 31
0.0
  0
LINE
  5
1B1
330
1F
100
AcDbEntity
  8
SLD-0
  6
Continuous
370
    15
100
AcDbLine
 10
22.3023645683
 20
9.1837331053
 30
0.0
 11
22.3023645683
 21
8.5897331106
 31
0.0
  0
LINE
  5
1B2
330
1F
100
AcDbEntity
  8
SLD-0
  6
Continuous
370
    15
100
AcDbLine
 10
22.3023645683
 20
8.5897331106
 30
0.0
 11
21.9273645269
 21
8.5897331106
 31
0.0
  0
LINE
  5
1B3
330
1F
100
AcDbEntity
  8
SLD-0
  6
Continuous
370
    15
100
AcDbLine
 10
21.9273645269
 20
8.5897331106
 30
0.0
 11
21.9273645269
 21
8.6067615006
 31
0.0
  0
LINE
  5
1B4
330
1F
100
AcDbEntity
  8
SLD-0
  6
Continuous
370
    15
100
AcDbLine
 10
21.9273645269
 20
8.6067615006
 30
0.0
 11
20.6143645482
 21
8.6067615006
 31
0.0
  0
LINE
  5
1B5
330
1F
100
AcDbEntity
  8
SLD-0
  6
Continuous
370
    15
100
AcDbLine
 10
20.2343074986
 20
8.5897331106
 30
0.0
 11
20.8283076767
 21
9.1837331053
 31
0.0
  0
LINE
  5
1B6
330
1F
100
AcDbEntity
  8
SLD-0
  6
Continuous
370
    15
100
AcDbLine
 10
22.3023645683
 20
8.5370330861
 30
0.0
 11
21.9273645269
 21
8.5370330861
 31
0.0
  0
LINE
  5
1B7
330
1F
100
AcDbEntity
  8
SLD-0
  6
Continuous
370
    15
100
AcDbLine
 10
22.3023645683
 20
8.5370330861
 30
0.0
 11
22.3023645683
 21
8.5897331106
 31
0.0
  0
LINE
  5
1B8
330
1F
100
AcDbEntity
  8
SLD-0
  6
Continuous
370
    15
100
AcDbLine
 10
21.9273645269
 20
8.5897331106
 30
0.0
 11
21.9273645269
 21
8.5370330861
 31
0.0
  0
SPLINE
  5
1B9
330
1F
100
AcDbEntity
  8
SLD-0
  6
Continuous
370
    15
100
AcDbSpline
210
0.0
220
0.0
230
1.0
 70
     8
 71
     3
 72
    11
 73
     7
 74
     0
 42
0.00000001
 43
0.00000001
 12
1.0
 22
0.0
 32
0.0
 13
1.0
 23
0.0
 33
0.0
 40
0.0
 40
0.0
 40
0.0
 40
0.0
 40
0.2499989692242973
 40
0.4999951129084814
 40
0.7499971275829777
 40
1.0
 40
1.0
 40
1.0
 40
1.0
 10
4.96887319288844
 20
8.589733110602152
 30
0.0
 10
4.968002392432895
 20
8.582827503736128
 30
0.0
 10
4.966260801363775
 20
8.56901636805268
 30
0.0
 10
4.965680754135787
 20
8.551596125157987
 30
0.0
 10
4.966185188861959
 20
8.539409658355288
 30
0.0
 10
4.966976740428722
 20
8.537825277733747
 30
0.0
 10
4.967372516891043
 20
8.537033086064
 30
0.0
  0
LINE
  5
1BA
330
1F
100
AcDbEntity
  8
SLD-0
  6
Continuous
370
    15
100
AcDbLine
 10
4.9688731929
 20
8.5897331106
 30
0.0
 11
20.1253013979
 21
8.5897331106
 31
0.0
  0
SPLINE
  5
1BB
330
1F
100
AcDbEntity
  8
SLD-0
  6
Continuous
370
    15
100
AcDbSpline
210
0.0
220
0.0
230
1.0
 70
     8
 71
     3
 72
    12
 73
     8
 74
     0
 42
0.00000001
 43
0.00000001
 12
1.0
 22
0.0
 32
0.0
 13
1.0
 23
0.0
 33
0.0
 40
0.0
 40
0.0
 40
0.0
 40
0.0
 40
0.2373914307833925
 40
0.4749030428023382
 40
0.7124330379794955
 40
0.9499602164339134
 40
1.0
 40
1.0
 40
1.0
 40
1.0
 10
20.17436493775027
 20
8.537033086064
 30
0.0
 10
20.16998842485786
 20
8.537746447350612
 30
0.0
 10
20.16123318342975
 20
8.539173531068467
 30
0.0
 10
20.14865591345496
 20
8.550219525131451
 30
0.0
 10
20.13713990703755
 20
8.566165952021489
 30
0.0
 10
20.12962004273293
 20
8.580462206967683
 30
0.0
 10
20.12594150372395
 20
8.588358985181392
 30
0.0
 10
20.1253013978698
 20
8.589733110602152
 30
0.0
  0
LINE
  5
1BC
330
1F
100
AcDbEntity
  8
SLD-0
  6
Continuous
370
    15
100
AcDbLine
 10
20.1743649378
 20
8.5370330861
 30
0.0
 11
4.9673725169
 21
8.5370330861
 31
0.0
  0
LINE
  5
1BD
330
1F
100
AcDbEntity
  8
SLD-0
  6
Continuous
370
    15
100
AcDbLine
 10
20.1253013979
 20
8.5897331106
 30
0.0
 11
20.1297975593
 21
8.5897331106
 31
0.0
  0
SPLINE
  5
1BE
330
1F
100
AcDbEntity
  8
SLD-0
  6
Continuous
370
    15
100
AcDbSpline
210
0.0
220
0.0
230
1.0
 70
     8
 71
     3
 72
    11
 73
     7
 74
     0
 42
0.00000001
 43
0.00000001
 12
1.0
 22
0.0
 32
0.0
 13
1.0
 23
0.0
 33
0.0
 40
0.0
 40
0.0
 40
0.0
 40
0.0
 40
0.2752251160228205
 40
0.550795411352939
 40
0.8263762042630838
 40
1.0
 40
1.0
 40
1.0
 40
1.0
 10
20.17436493775027
 20
8.558733122049999
 30
0.0
 10
20.16993651921805
 20
8.559300194815389
 30
0.0
 10
20.16107412816035
 20
8.560435051552279
 30
0.0
 10
20.14831195170433
 20
8.56907006638319
 30
0.0
 10
20.13786176880009
 20
8.579641289465687
 30
0.0
 10
20.13204559211538
 20
8.586919847212842
 30
0.0
 10
20.12979755926309
 20
8.589733110602152
 30
0.0
  0
LINE
  5
1BF
330
1F
100
AcDbEntity
  8
SLD-0
  6
Continuous
370
    15
100
AcDbLine
 10
19.7473093911
 20
9.1837331053
 30
0.0
 11
20.1253013979
 21
8.5897331106
 31
0.0
  0
LINE
  5
1C0
330
1F
100
AcDbEntity
  8
SLD-0
  6
Continuous
370
    15
100
AcDbLine
 10
4.9688731929
 20
8.5897331106
 30
0.0
 11
5.0919413845
 21
9.1837331053
 31
0.0
  0
LINE
  5
1C1
330
1F
100
AcDbEntity
  8
SLD-0
  6
Continuous
370
    15
100
AcDbLine
 10
19.7473093911
 20
9.1837331053
 30
0.0
 11
5.0919413845
 21
9.1837331053
 31
0.0
  0
LINE
  5
1C2
330
1F
100
AcDbEntity
  8
SLD-0
  6
Continuous
370
    15
100
AcDbLine
 10
19.7473093911
 20
9.1837331053
 30
0.0
 11
19.7518055525
 21
9.1837331053
 31
0.0
  0
LINE
  5
1C3
330
1F
100
AcDbEntity
  8
SLD-0
  6
Continuous
370
    15
100
AcDbLine
 10
19.7518055525
 20
9.1837331053
 30
0.0
 11
20.1297975593
 21
8.5897331106
 31
0.0
  0
ARC
  5
1C4
330
1F
100
AcDbEntity
  8
SLD-0
  6
Continuous
370
    15
100
AcDbCircle
 10
23.081364786
 20
8.58973311
 30
0.0
 40
0.0310000000000006
100
AcDbArc
 50
270.0
 51
0.0
  0
LINE
  5
1C5
330
1F
100
AcDbEntity
  8
SLD-0
  6
Continuous
370
    15
100
AcDbLine
 10
22.4133653126
 20
8.5370330861
 30
0.0
 11
22.3023645683
 21
8.5370330861
 31
0.0
  0
LINE
  5
1C6
330
1F
100
AcDbEntity
  8
SLD-0
  6
Continuous
370
    15
100
AcDbLine
 10
23.0813644225
 20
8.558733122
 30
0.0
 11
22.3023645683
 21
8.558733122
 31
0.0
  0
LINE
  5
1C7
330
1F
100
AcDbEntity
  8
SLD-0
  6
Continuous
370
    15
100
AcDbLine
 10
23.1148321959
 20
9.058733116
 30
0.0
 11
23.1123647044
 21
9.058733116
 31
0.0
  0
LINE
  5
1C8
330
1F
100
AcDbEntity
  8
SLD-0
  6
Continuous
370
    15
100
AcDbLine
 10
23.1123647044
 20
8.5897331106
 30
0.0
 11
23.1123647044
 21
9.058733116
 31
0.0
  0
LINE
  5
1C9
330
1F
100
AcDbEntity
  8
SLD-0
  6
Continuous
370
    15
100
AcDbLine
 10
20.6143645482
 20
8.5370330861
 30
0.0
 11
21.9273645269
 21
8.5370330861
 31
0.0
  0
LINE
  5
1CA
330
1F
100
AcDbEntity
  8
SLD-0
  6
Continuous
370
    15
100
AcDbLine
 10
20.6143645482
 20
8.558733122
 30
0.0
 11
21.9273645269
 21
8.558733122
 31
0.0
  0
LINE
  5
1CB
330
1F
100
AcDbEntity
  8
SLD-0
  6
Continuous
370
    15
100
AcDbLine
 10
3.9783647845
 20
8.5370330861
 30
0.0
 11
3.9783647845
 21
8.558733122
 31
0.0
  0
LINE
  5
1CC
330
1F
100
AcDbEntity
  8
SLD-0
  6
Continuous
370
    15
100
AcDbLine
 10
4.9673725169
 20
8.5370330861
 30
0.0
 11
3.9783647845
 21
8.5370330861
 31
0.0
  0
LINE
  5
1CD
330
1F
100
AcDbEntity
  8
SLD-0
  6
Continuous
370
    15
100
AcDbLine
 10
4.9673725169
 20
8.558733122
 30
0.0
 11
3.9783647845
 21
8.558733122
 31
0.0
  0
LINE
  5
1CE
330
1F
100
AcDbEntity
  8
SLD-0
  6
Continuous
370
    15
100
AcDbLine
 10
3.9256647875
 20
8.5897331106
 30
0.0
 11
3.9473647868
 21
8.5897331106
 31
0.0
  0
SPLINE
  5
1CF
330
1F
100
AcDbEntity
  8
SLD-0
  6
Continuous
370
    15
100
AcDbSpline
210
0.0
220
0.0
230
1.0
 70
     8
 71
     3
 72
    11
 73
     7
 74
     0
 42
0.00000001
 43
0.00000001
 12
1.0
 22
0.0
 32
0.0
 13
1.0
 23
0.0
 33
0.0
 40
0.0
 40
0.0
 40
0.0
 40
0.0
 40
0.2500012880825074
 40
0.5000027692076495
 40
0.7500040044698023
 40
1.0
 40
1.0
 40
1.0
 40
1.0
 10
3.978364784492763
 20
8.558733122049999
 30
0.0
 10
3.974302633686012
 20
8.559199080242703
 30
0.0
 10
3.966178328935853
 20
8.560130996987905
 30
0.0
 10
3.955931457137598
 20
8.567299784109473
 30
0.0
 10
3.948762766249201
 20
8.577546479816668
 30
0.0
 10
3.947830776676831
 20
8.585670928720438
 30
0.0
 10
3.947364786774049
 20
8.589733110602152
 30
0.0
  0
SPLINE
  5
1D0
330
1F
100
AcDbEntity
  8
SLD-0
  6
Continuous
370
    15
100
AcDbSpline
210
0.0
220
0.0
230
1.0
 70
     8
 71
     3
 72
    11
 73
     7
 74
     0
 42
0.00000001
 43
0.00000001
 12
1.0
 22
0.0
 32
0.0
 13
1.0
 23
0.0
 33
0.0
 40
0.0
 40
0.0
 40
0.0
 40
0.0
 40
0.2500005675609233
 40
0.5000008195703618
 40
0.7500019772863039
 40
1.0
 40
1.0
 40
1.0
 40
1.0
 10
3.978364784492763
 20
8.537033086064
 30
0.0
 10
3.971459136457126
 20
8.537825265698629
 30
0.0
 10
3.957647849102179
 20
8.539409623968
 30
0.0
 10
3.940228074032036
 20
8.551596409666598
 30
0.0
 10
3.928041337758258
 20
8.569016071072696
 30
0.0
 10
3.926456967577607
 20
8.58282745962487
 30
0.0
 10
3.925664787454293
 20
8.589733110602152
 30
0.0
  0
LINE
  5
1D1
330
1F
100
AcDbEntity
  8
SLD-0
  6
Continuous
370
    15
100
AcDbLine
 10
3.9256647875
 20
9.1837331053
 30
0.0
 11
3.9473647868
 21
9.1837331053
 31
0.0
  0
LINE
  5
1D2
330
1F
100
AcDbEntity
  8
SLD-0
  6
Continuous
370
    15
100
AcDbLine
 10
3.9256647875
 20
9.1837331053
 30
0.0
 11
3.9256647875
 21
8.5897331106
 31
0.0
  0
LINE
  5
1D3
330
1F
100
AcDbEntity
  8
SLD-0
  6
Continuous
370
    15
100
AcDbLine
 10
3.9473647868
 20
8.7408009655
 30
0.0
 11
3.9473647868
 21
8.5897331106
 31
0.0
  0
LINE
  5
1D4
330
1F
100
AcDbEntity
  8
SLD-0
  6
Continuous
370
    15
100
AcDbLine
 10
23.0673643709
 20
43.1256332356
 30
0.0
 11
23.0733647283
 21
43.1256332356
 31
0.0
  0
LINE
  5
1D5
330
1F
100
AcDbEntity
  8
SLD-0
  6
Continuous
370
    15
100
AcDbLine
 10
23.0733647283
 20
43.1256332356
 30
0.0
 11
23.0733647283
 21
42.6898951226
 31
0.0
  0
LINE
  5
1D6
330
1F
100
AcDbEntity
  8
SLD-0
  6
Continuous
370
    15
100
AcDbLine
 10
23.0987647548
 20
9.0821701786
 30
0.0
 11
22.4133653126
 21
9.7675701891
 31
0.0
  0
LINE
  5
1D7
330
1F
100
AcDbEntity
  8
SLD-0
  6
Continuous
370
    15
100
AcDbLine
 10
22.4133653126
 20
13.9891331563
 30
0.0
 11
22.4133653126
 21
9.7675701891
 31
0.0
  0
LINE
  5
1D8
330
1F
100
AcDbEntity
  8
SLD-0
  6
Continuous
370
    15
100
AcDbLine
 10
22.4133653126
 20
13.9891331563
 30
0.0
 11
22.8513644128
 21
13.9891331563
 31
0.0
  0
LINE
  5
1D9
330
1F
100
AcDbEntity
  8
SLD-0
  6
Continuous
370
    15
100
AcDbLine
 10
22.8513644128
 20
13.9891331563
 30
0.0
 11
22.8513644128
 21
17.8641328986
 31
0.0
  0
LINE
  5
1DA
330
1F
100
AcDbEntity
  8
SLD-0
  6
Continuous
370
    15
100
AcDbLine
 10
22.8513644128
 20
17.8641328986
 30
0.0
 11
22.4133653126
 21
17.8641328986
 31
0.0
  0
LINE
  5
1DB
330
1F
100
AcDbEntity
  8
SLD-0
  6
Continuous
370
    15
100
AcDbLine
 10
22.4133653126
 20
33.853133419
 30
0.0
 11
22.4133653126
 21
17.8641328986
 31
0.0
  0
LINE
  5
1DC
330
1F
100
AcDbEntity
  8
SLD-0
  6
Continuous
370
    15
100
AcDbLine
 10
22.4133653126
 20
33.853133419
 30
0.0
 11
22.8513644128
 21
33.853133419
 31
0.0
  0
LINE
  5
1DD
330
1F
100
AcDbEntity
  8
SLD-0
  6
Continuous
370
    15
100
AcDbLine
 10
22.8513644128
 20
33.853133419
 30
0.0
 11
22.8513644128
 21
37.7281322813
 31
0.0
  0
LINE
  5
1DE
330
1F
100
AcDbEntity
  8
SLD-0
  6
Continuous
370
    15
100
AcDbLine
 10
22.8513644128
 20
37.7281322813
 30
0.0
 11
22.4133653126
 21
37.7281322813
 31
0.0
  0
LINE
  5
1DF
330
1F
100
AcDbEntity
  8
SLD-0
  6
Continuous
370
    15
100
AcDbLine
 10
22.4133653126
 20
42.029895707
 30
0.0
 11
22.4133653126
 21
37.7281322813
 31
0.0
  0
LINE
  5
1E0
330
1F
100
AcDbEntity
  8
SLD-0
  6
Continuous
370
    15
100
AcDbLine
 10
22.4133653126
 20
42.029895707
 30
0.0
 11
23.0987647548
 21
42.7152951492
 31
0.0
  0
LINE
  5
1E1
330
1F
100
AcDbEntity
  8
SLD-0
  6
Continuous
370
    15
100
AcDbLine
 10
23.0987647548
 20
42.7152951492
 30
0.0
 11
23.0987647548
 21
9.0821701786
 31
0.0
  0
SPLINE
  5
1E2
330
1F
100
AcDbEntity
  8
SLD-0
  6
Continuous
370
    15
100
AcDbSpline
210
0.0
220
0.0
230
1.0
 70
     8
 71
     3
 72
    11
 73
     7
 74
     0
 42
0.00000001
 43
0.00000001
 12
1.0
 22
0.0
 32
0.0
 13
1.0
 23
0.0
 33
0.0
 40
0.0
 40
0.0
 40
0.0
 40
0.0
 40
0.2500031167797156
 40
0.4999992060751954
 40
0.7499951286049077
 40
1.0
 40
1.0
 40
1.0
 40
1.0
 10
23.16336422190881
 20
9.016058522321282
 30
0.0
 10
23.1623930892844
 20
9.02156777883536
 30
0.0
 10
23.16045085133372
 20
9.032586137000592
 30
0.0
 10
23.14551399376884
 20
9.049114350273635
 30
0.0
 10
23.12415972982735
 20
9.065642581266768
 30
0.0
 10
23.10722984750047
 20
9.076660913750503
 30
0.0
 10
23.09876475483403
 20
9.082170178593788
 30
0.0
  0
SPLINE
  5
1E3
330
1F
100
AcDbEntity
  8
SLD-0
  6
Continuous
370
    15
100
AcDbSpline
210
0.0
220
0.0
230
1.0
 70
     8
 71
     3
 72
    11
 73
     7
 74
     0
 42
0.00000001
 43
0.00000001
 12
1.0
 22
0.0
 32
0.0
 13
1.0
 23
0.0
 33
0.0
 40
0.0
 40
0.0
 40
0.0
 40
0.0
 40
0.2500127927414735
 40
0.5000061303909861
 40
0.7499994680404988
 40
1.0
 40
1.0
 40
1.0
 40
1.0
 10
23.09876475483403
 20
42.71529514919743
 30
0.0
 10
23.10722976878114
 20
42.72080515639653
 30
0.0
 10
23.12415913795856
 20
42.73182474202586
 30
0.0
 10
23.14551406447557
 20
42.74835215094411
 30
0.0
 10
23.16045083630194
 20
42.76487994793175
 30
0.0
 10
23.16239308405765
 20
42.77589794677694
 30
0.0
 10
23.16336422190881
 20
42.7814070254674
 30
0.0
  0
LINE
  5
1E4
330
1F
100
AcDbEntity
  8
SLD-0
  6
Continuous
370
    15
100
AcDbLine
 10
23.1633642219
 20
9.0160585223
 30
0.0
 11
23.1633642219
 21
42.7814070255
 31
0.0
  0
SPLINE
  5
1E5
330
1F
100
AcDbEntity
  8
SLD-0
  6
Continuous
370
    15
100
AcDbSpline
210
0.0
220
0.0
230
1.0
 70
     8
 71
     3
 72
    11
 73
     7
 74
     0
 42
0.00000001
 43
0.00000001
 12
1.0
 22
0.0
 32
0.0
 13
1.0
 23
0.0
 33
0.0
 40
0.0
 40
0.0
 40
0.0
 40
0.0
 40
0.2500173211836594
 40
0.5000113644099768
 40
0.7500124403972604
 40
1.0
 40
1.0
 40
1.0
 40
1.0
 10
23.09876475483403
 20
42.71529514919743
 30
0.0
 10
23.1028270134932
 20
42.72080511460878
 30
0.0
 10
23.11095115259338
 20
42.73182453242407
 30
0.0
 10
23.12119744079023
 20
42.74835255461185
 30
0.0
 10
23.12836749828728
 20
42.76487908705911
 30
0.0
 10
23.12929919896886
 20
42.77589781195577
 30
0.0
 10
23.12976503671613
 20
42.7814070254674
 30
0.0
  0
LINE
  5
1E6
330
1F
100
AcDbEntity
  8
SLD-0
  6
Continuous
370
    15
100
AcDbLine
 10
23.1297650367
 20
42.7814070255
 30
0.0
 11
23.1633642219
 21
42.7814070255
 31
0.0
  0
LINE
  5
1E7
330
1F
100
AcDbEntity
  8
SLD-0
  6
Continuous
370
    15
100
AcDbLine
 10
23.1297650367
 20
9.0160585223
 30
0.0
 11
23.1633642219
 21
9.0160585223
 31
0.0
  0
SPLINE
  5
1E8
330
1F
100
AcDbEntity
  8
SLD-0
  6
Continuous
370
    15
100
AcDbSpline
210
0.0
220
0.0
230
1.0
 70
     8
 71
     3
 72
    11
 73
     7
 74
     0
 42
0.00000001
 43
0.00000001
 12
1.0
 22
0.0
 32
0.0
 13
1.0
 23
0.0
 33
0.0
 40
0.0
 40
0.0
 40
0.0
 40
0.0
 40
0.2499931580126517
 40
0.5000001933314154
 40
0.7499998348505584
 40
1.0
 40
1.0
 40
1.0
 40
1.0
 10
23.12976503671613
 20
9.016058522321282
 30
0.0
 10
23.12929920440356
 20
9.021567910289587
 30
0.0
 10
23.12836751391971
 20
9.032586992056418
 30
0.0
 10
23.12119736728881
 20
9.049113995568291
 30
0.0
 10
23.1109517676962
 20
9.065642305206989
 30
0.0
 10
23.10282709529097
 20
9.07666088361841
 30
0.0
 10
23.09876475483403
 20
9.082170178593788
 30
0.0
  0
LINE
  5
1E9
330
1F
100
AcDbEntity
  8
SLD-0
  6
Continuous
370
    15
100
AcDbLine
 10
23.1297650367
 20
9.0159458103
 30
0.0
 11
23.1633642219
 21
9.0159458103
 31
0.0
  0
LINE
  5
1EA
330
1F
100
AcDbEntity
  8
SLD-0
  6
Continuous
370
    15
100
AcDbLine
 10
23.1297650367
 20
9.0160585223
 30
0.0
 11
23.1297650367
 21
9.0159458103
 31
0.0
  0
LINE
  5
1EB
330
1F
100
AcDbEntity
  8
SLD-0
  6
Continuous
370
    15
100
AcDbLine
 10
23.1633642219
 20
9.0160585223
 30
0.0
 11
23.1633642219
 21
9.0159458103
 31
0.0
  0
LINE
  5
1EC
330
1F
100
AcDbEntity
  8
SLD-0
  6
Continuous
370
    15
100
AcDbLine
 10
23.1297650367
 20
42.7815196642
 30
0.0
 11
23.1297650367
 21
42.7814070255
 31
0.0
  0
LINE
  5
1ED
330
1F
100
AcDbEntity
  8
SLD-0
  6
Continuous
370
    15
100
AcDbLine
 10
23.1297650367
 20
42.7815196642
 30
0.0
 11
23.1633642219
 21
42.7815196642
 31
0.0
  0
LINE
  5
1EE
330
1F
100
AcDbEntity
  8
SLD-0
  6
Continuous
370
    15
100
AcDbLine
 10
23.1633642219
 20
42.7815196642
 30
0.0
 11
23.1633642219
 21
42.7814070255
 31
0.0
  0
LINE
  5
1EF
330
1F
100
AcDbEntity
  8
SLD-0
  6
Continuous
370
    15
100
AcDbLine
 10
22.4133653126
 20
43.2501341974
 30
0.0
 11
23.0987647548
 21
43.2501341974
 31
0.0
  0
LINE
  5
1F0
330
1F
100
AcDbEntity
  8
SLD-0
  6
Continuous
370
    15
100
AcDbLine
 10
22.4133653126
 20
43.2501341974
 30
0.0
 11
22.4133653126
 21
43.2837333826
 31
0.0
  0
LINE
  5
1F1
330
1F
100
AcDbEntity
  8
SLD-0
  6
Continuous
370
    15
100
AcDbLine
 10
23.0987647548
 20
43.2501341974
 30
0.0
 11
23.0987647548
 21
43.2837333826
 31
0.0
  0
LINE
  5
1F2
330
1F
100
AcDbEntity
  8
SLD-0
  6
Continuous
370
    15
100
AcDbLine
 10
22.4133653126
 20
43.2837333826
 30
0.0
 11
23.0987647548
 21
43.2837333826
 31
0.0
  0
LINE
  5
1F3
330
1F
100
AcDbEntity
  8
SLD-0
  6
Continuous
370
    15
100
AcDbLine
 10
23.1297650367
 20
43.2191327422
 30
0.0
 11
23.1633642219
 21
43.2191327422
 31
0.0
  0
LINE
  5
1F4
330
1F
100
AcDbEntity
  8
SLD-0
  6
Continuous
370
    15
100
AcDbLine
 10
23.1297650367
 20
42.7815196642
 30
0.0
 11
23.1297650367
 21
43.2191327422
 31
0.0
  0
LINE
  5
1F5
330
1F
100
AcDbEntity
  8
SLD-0
  6
Continuous
370
    15
100
AcDbLine
 10
23.1633642219
 20
43.2191327422
 30
0.0
 11
23.1633642219
 21
42.7815196642
 31
0.0
  0
LINE
  5
1F6
330
1F
100
AcDbEntity
  8
SLD-0
  6
Continuous
370
    15
100
AcDbLine
 10
23.0987647548
 20
8.5473330737
 30
0.0
 11
23.0987647548
 21
8.5137330819
 31
0.0
  0
LINE
  5
1F7
330
1F
100
AcDbEntity
  8
SLD-0
  6
Continuous
370
    15
100
AcDbLine
 10
22.4133653126
 20
8.5137330819
 30
0.0
 11
23.0987647548
 21
8.5137330819
 31
0.0
  0
LINE
  5
1F8
330
1F
100
AcDbEntity
  8
SLD-0
  6
Continuous
370
    15
100
AcDbLine
 10
22.4133653126
 20
8.5473330737
 30
0.0
 11
22.4133653126
 21
8.5137330819
 31
0.0
  0
LINE
  5
1F9
330
1F
100
AcDbEntity
  8
SLD-0
  6
Continuous
370
    15
100
AcDbLine
 10
22.4133653126
 20
8.5473330737
 30
0.0
 11
23.0987647548
 21
8.5473330737
 31
0.0
  0
LINE
  5
1FA
330
1F
100
AcDbEntity
  8
SLD-0
  6
Continuous
370
    15
100
AcDbLine
 10
23.1297650367
 20
8.5783331356
 30
0.0
 11
23.1633642219
 21
8.5783331356
 31
0.0
  0
ARC
  5
1FB
330
1F
100
AcDbEntity
  8
SLD-0
  6
Continuous
370
    15
100
AcDbCircle
 10
23.098764786
 20
8.57833311
 30
0.0
 40
0.0646000000000093
100
AcDbArc
 50
270.0
 51
0.0
  0
ARC
  5
1FC
330
1F
100
AcDbEntity
  8
SLD-0
  6
Continuous
370
    15
100
AcDbCircle
 10
23.098764786
 20
8.57833311
 30
0.0
 40
0.0309999999999988
100
AcDbArc
 50
270.0
 51
0.0
  0
ARC
  5
1FD
330
1F
100
AcDbEntity
  8
SLD-0
  6
Continuous
370
    15
100
AcDbCircle
 10
23.098764786
 20
43.21913311
 30
0.0
 40
0.0309999999999988
100
AcDbArc
 50
0.0
 51
90.0
  0
ARC
  5
1FE
330
1F
100
AcDbEntity
  8
SLD-0
  6
Continuous
370
    15
100
AcDbCircle
 10
23.098764786
 20
43.21913311
 30
0.0
 40
0.0645999999999987
100
AcDbArc
 50
0.0
 51
90.0
  0
LINE
  5
1FF
330
1F
100
AcDbEntity
  8
SLD-0
  6
Continuous
370
    15
100
AcDbLine
 10
23.1297650367
 20
8.5783331356
 30
0.0
 11
23.1297650367
 21
9.0159458103
 31
0.0
  0
LINE
  5
200
330
1F
100
AcDbEntity
  8
SLD-0
  6
Continuous
370
    15
100
AcDbLine
 10
23.1633642219
 20
9.0159458103
 30
0.0
 11
23.1633642219
 21
8.5783331356
 31
0.0
  0
LINE
  5
201
330
1F
100
AcDbEntity
  8
SLD-0
  6
Continuous
370
    15
100
AcDbLine
 10
22.3319897194
 20
34.5027325281
 30
0.0
 11
22.3799902315
 21
34.5027325281
 31
0.0
  0
LINE
  5
202
330
1F
100
AcDbEntity
  8
SLD-0
  6
Continuous
370
    15
100
AcDbLine
 10
22.3319897194
 20
34.5027325281
 30
0.0
 11
22.3319897194
 21
37.6277336545
 31
0.0
  0
LINE
  5
203
330
1F
100
AcDbEntity
  8
SLD-0
  6
Continuous
370
    15
100
AcDbLine
 10
22.3319897194
 20
37.6277336545
 30
0.0
 11
22.3799902315
 21
37.6277336545
 31
0.0
  0
LINE
  5
204
330
1F
100
AcDbEntity
  8
SLD-0
  6
Continuous
370
    15
100
AcDbLine
 10
22.3799902315
 20
34.5027325281
 30
0.0
 11
22.3799902315
 21
37.6277336545
 31
0.0
  0
LINE
  5
205
330
1F
100
AcDbEntity
  8
SLD-0
  6
Continuous
370
    15
100
AcDbLine
 10
22.3169899993
 20
37.6277336545
 30
0.0
 11
22.3319897194
 21
37.6277336545
 31
0.0
  0
LINE
  5
206
330
1F
100
AcDbEntity
  8
SLD-0
  6
Continuous
370
    15
100
AcDbLine
 10
22.3319897194
 20
34.5027325281
 30
0.0
 11
22.3169899993
 21
34.5027325281
 31
0.0
  0
LINE
  5
207
330
1F
100
AcDbEntity
  8
SLD-0
  6
Continuous
370
    15
100
AcDbLine
 10
22.3169899993
 20
37.6277336545
 30
0.0
 11
22.3169899993
 21
34.5027325281
 31
0.0
  0
LINE
  5
208
330
1F
100
AcDbEntity
  8
SLD-0
  6
Continuous
370
    15
100
AcDbLine
 10
22.3169899993
 20
34.5027325281
 30
0.0
 11
20.7393653442
 21
34.5027325281
 31
0.0
  0
LINE
  5
209
330
1F
100
AcDbEntity
  8
SLD-0
  6
Continuous
370
    15
100
AcDbLine
 10
20.7393653442
 20
34.5027325281
 30
0.0
 11
20.7393653442
 21
37.6277336545
 31
0.0
  0
LINE
  5
20A
330
1F
100
AcDbEntity
  8
SLD-0
  6
Continuous
370
    15
100
AcDbLine
 10
22.3169899993
 20
37.6277336545
 30
0.0
 11
20.7393653442
 21
37.6277336545
 31
0.0
  0
LINE
  5
20B
330
1F
100
AcDbEntity
  8
SLD-0
  6
Continuous
370
    15
100
AcDbLine
 10
22.3319897194
 20
14.5897329648
 30
0.0
 11
22.3799902315
 21
14.5897329648
 31
0.0
  0
LINE
  5
20C
330
1F
100
AcDbEntity
  8
SLD-0
  6
Continuous
370
    15
100
AcDbLine
 10
22.3319897194
 20
14.5897329648
 30
0.0
 11
22.3319897194
 21
17.7147329178
 31
0.0
  0
LINE
  5
20D
330
1F
100
AcDbEntity
  8
SLD-0
  6
Continuous
370
    15
100
AcDbLine
 10
22.3799902315
 20
14.5897329648
 30
0.0
 11
22.3799902315
 21
17.7147329178
 31
0.0
  0
LINE
  5
20E
330
1F
100
AcDbEntity
  8
SLD-0
  6
Continuous
370
    15
100
AcDbLine
 10
22.3319897194
 20
17.7147329178
 30
0.0
 11
22.3799902315
 21
17.7147329178
 31
0.0
  0
LINE
  5
20F
330
1F
100
AcDbEntity
  8
SLD-0
  6
Continuous
370
    15
100
AcDbLine
 10
22.3169899993
 20
17.7147329178
 30
0.0
 11
22.3319897194
 21
17.7147329178
 31
0.0
  0
LINE
  5
210
330
1F
100
AcDbEntity
  8
SLD-0
  6
Continuous
370
    15
100
AcDbLine
 10
22.3169899993
 20
17.7147329178
 30
0.0
 11
22.3169899993
 21
14.5897329648
 31
0.0
  0
LINE
  5
211
330
1F
100
AcDbEntity
  8
SLD-0
  6
Continuous
370
    15
100
AcDbLine
 10
22.3319897194
 20
14.5897329648
 30
0.0
 11
22.3169899993
 21
14.5897329648
 31
0.0
  0
LINE
  5
212
330
1F
100
AcDbEntity
  8
SLD-0
  6
Continuous
370
    15
100
AcDbLine
 10
22.3169899993
 20
14.5897329648
 30
0.0
 11
20.7393653442
 21
14.5897329648
 31
0.0
  0
LINE
  5
213
330
1F
100
AcDbEntity
  8
SLD-0
  6
Continuous
370
    15
100
AcDbLine
 10
20.7393653442
 20
14.5897329648
 30
0.0
 11
20.7393653442
 21
17.7147329178
 31
0.0
  0
LINE
  5
214
330
1F
100
AcDbEntity
  8
SLD-0
  6
Continuous
370
    15
100
AcDbLine
 10
22.3169899993
 20
17.7147329178
 30
0.0
 11
20.7393653442
 21
17.7147329178
 31
0.0
  0
LINE
  5
215
330
1F
100
AcDbEntity
  8
SLD-0
  6
Continuous
370
    15
100
AcDbLine
 10
5.5629647432
 20
43.2104337493
 30
0.0
 11
20.0629652646
 21
43.2104337493
 31
0.0
  0
LINE
  5
216
330
1F
100
AcDbEntity
  8
SLD-0
  6
Continuous
370
    15
100
AcDbLine
 10
20.0629652646
 20
43.2104337493
 30
0.0
 11
20.0629652646
 21
43.1804319626
 31
0.0
  0
LINE
  5
217
330
1F
100
AcDbEntity
  8
SLD-0
  6
Continuous
370
    15
100
AcDbLine
 10
5.5629647432
 20
43.2104337493
 30
0.0
 11
5.5629647432
 21
43.1804319626
 31
0.0
  0
LINE
  5
218
330
1F
100
AcDbEntity
  8
SLD-0
  6
Continuous
370
    15
100
AcDbLine
 10
20.0629652646
 20
43.2178749434
 30
0.0
 11
5.5629647432
 21
43.2178749434
 31
0.0
  0
LINE
  5
219
330
1F
100
AcDbEntity
  8
SLD-0
  6
Continuous
370
    15
100
AcDbLine
 10
20.0629652646
 20
43.2104337493
 30
0.0
 11
20.0629652646
 21
43.2178749434
 31
0.0
  0
LINE
  5
21A
330
1F
100
AcDbEntity
  8
SLD-0
  6
Continuous
370
    15
100
AcDbLine
 10
5.5629647432
 20
43.2178749434
 30
0.0
 11
5.5629647432
 21
43.2104337493
 31
0.0
  0
ARC
  5
21B
330
1F
100
AcDbEntity
  8
SLD-0
  6
Continuous
370
    15
100
AcDbCircle
 10
16.9379647249
 20
45.3614099348
 30
0.0
 40
0.1258714847704396
100
AcDbArc
 50
6.7453194679
 51
173.2546805321
  0
LINE
  5
21C
330
1F
100
AcDbEntity
  8
SLD-0
  6
Continuous
370
    15
100
AcDbLine
 10
16.8129645156
 20
45.3761943303
 30
0.0
 11
16.8129645156
 21
44.512415082
 31
0.0
  0
ARC
  5
21D
330
1F
100
AcDbEntity
  8
SLD-0
  6
Continuous
370
    15
100
AcDbCircle
 10
16.9379647249
 20
44.5271985622
 30
0.0
 40
0.1258713772660646
100
AcDbArc
 50
186.7449057139
 51
353.2550942861
  0
LINE
  5
21E
330
1F
100
AcDbEntity
  8
SLD-0
  6
Continuous
370
    15
100
AcDbLine
 10
17.0629649342
 20
45.3761943303
 30
0.0
 11
17.0629649342
 21
44.512415082
 31
0.0
  0
LINE
  5
21F
330
1F
100
AcDbEntity
  8
SLD-0
  6
Continuous
370
    15
100
AcDbLine
 10
22.1879647165
 20
44.6955491798
 30
0.0
 11
20.0629652646
 21
44.6955491798
 31
0.0
  0
LINE
  5
220
330
1F
100
AcDbEntity
  8
SLD-0
  6
Continuous
370
    15
100
AcDbLine
 10
20.0629652646
 20
44.6804321278
 30
0.0
 11
20.0629652646
 21
44.6955491798
 31
0.0
  0
LINE
  5
221
330
1F
100
AcDbEntity
  8
SLD-0
  6
Continuous
370
    15
100
AcDbLine
 10
20.0629652646
 20
44.6804321278
 30
0.0
 11
20.0629652646
 21
43.2178749434
 31
0.0
  0
LINE
  5
222
330
1F
100
AcDbEntity
  8
SLD-0
  6
Continuous
370
    15
100
AcDbLine
 10
5.5629647432
 20
46.1733384016
 30
0.0
 11
5.5629647432
 21
43.2178749434
 31
0.0
  0
LINE
  5
223
330
1F
100
AcDbEntity
  8
SLD-0
  6
Continuous
370
    15
100
AcDbLine
 10
5.5629647432
 20
46.1733384016
 30
0.0
 11
22.4379651351
 21
46.1733384016
 31
0.0
  0
LINE
  5
224
330
1F
100
AcDbEntity
  8
SLD-0
  6
Continuous
370
    15
100
AcDbLine
 10
22.4379651351
 20
46.1733384016
 30
0.0
 11
22.4379651351
 21
44.9114939919
 31
0.0
  0
LINE
  5
225
330
1F
100
AcDbEntity
  8
SLD-0
  6
Continuous
370
    15
100
AcDbLine
 10
22.4379651351
 20
44.9114939919
 30
0.0
 11
22.1879647165
 21
44.6955491798
 31
0.0
  0
ARC
  5
226
330
1F
100
AcDbEntity
  8
SLD-0
  6
Continuous
370
    15
100
AcDbCircle
 10
13.9379649812
 20
45.3614112543
 30
0.0
 40
0.1258707471921361
100
AcDbArc
 50
6.7447543542
 51
173.2552456458
  0
LINE
  5
227
330
1F
100
AcDbEntity
  8
SLD-0
  6
Continuous
370
    15
100
AcDbLine
 10
13.8129653585
 20
44.512415082
 30
0.0
 11
13.8129653585
 21
45.3761943303
 31
0.0
  0
ARC
  5
228
330
1F
100
AcDbEntity
  8
SLD-0
  6
Continuous
370
    15
100
AcDbCircle
 10
13.9379649812
 20
44.5271972427
 30
0.0
 40
0.1258706396973038
100
AcDbArc
 50
186.7443405996
 51
353.2556594004
  0
LINE
  5
229
330
1F
100
AcDbEntity
  8
SLD-0
  6
Continuous
370
    15
100
AcDbLine
 10
14.0629646038
 20
45.3761943303
 30
0.0
 11
14.0629646038
 21
44.512415082
 31
0.0
  0
LINE
  5
22A
330
1F
100
AcDbEntity
  8
SLD-0
  6
Continuous
370
    15
100
AcDbLine
 10
22.1879647165
 20
44.6804321278
 30
0.0
 11
22.1879647165
 21
44.6955491798
 31
0.0
  0
LINE
  5
22B
330
1F
100
AcDbEntity
  8
SLD-0
  6
Continuous
370
    15
100
AcDbLine
 10
20.0629652646
 20
44.6804321278
 30
0.0
 11
22.1879647165
 21
44.6804321278
 31
0.0
  0
LINE
  5
22C
330
1F
100
AcDbEntity
  8
SLD-0
  6
Continuous
370
    15
100
AcDbLine
 10
22.4379651351
 20
44.8963769398
 30
0.0
 11
22.4379651351
 21
44.9114939919
 31
0.0
  0
LINE
  5
22D
330
1F
100
AcDbEntity
  8
SLD-0
  6
Continuous
370
    15
100
AcDbLine
 10
22.4379651351
 20
44.8963769398
 30
0.0
 11
22.1879647165
 21
44.6804321278
 31
0.0
  0
ARC
  5
22E
330
1F
100
AcDbEntity
  8
SLD-0
  6
Continuous
370
    15
100
AcDbCircle
 10
13.9379649812
 20
45.3462942023
 30
0.0
 40
0.1258707471921361
100
AcDbArc
 50
6.7447543542
 51
173.2552456458
  0
ARC
  5
22F
330
1F
100
AcDbEntity
  8
SLD-0
  6
Continuous
370
    15
100
AcDbCircle
 10
16.9379647249
 20
45.3462928828
 30
0.0
 40
0.1258714847704396
100
AcDbArc
 50
6.7453194679
 51
173.2546805321
  0
LINE
  5
230
330
1F
100
AcDbEntity
  8
SLD-0
  6
Continuous
370
    15
100
AcDbLine
 10
22.4379651351
 20
46.1956643303
 30
0.0
 11
22.4379651351
 21
46.1733384016
 31
0.0
  0
LINE
  5
231
330
1F
100
AcDbEntity
  8
SLD-0
  6
Continuous
370
    15
100
AcDbLine
 10
5.5629647432
 20
46.1733384016
 30
0.0
 11
5.5629647432
 21
46.1956643303
 31
0.0
  0
LINE
  5
232
330
1F
100
AcDbEntity
  8
SLD-0
  6
Continuous
370
    15
100
AcDbLine
 10
23.1123647044
 20
43.127733478
 30
0.0
 11
23.1297650367
 21
43.127733478
 31
0.0
  0
LINE
  5
233
330
1F
100
AcDbEntity
  8
SLD-0
  6
Continuous
370
    15
100
AcDbLine
 10
20.1219539165
 20
43.1154065804
 30
0.0
 11
20.1219539165
 21
8.6020585416
 31
0.0
  0
LINE
  5
234
330
1F
100
AcDbEntity
  8
SLD-0
  6
Continuous
370
    15
100
AcDbLine
 10
23.0813644225
 20
8.558733122
 30
0.0
 11
23.0813644225
 21
8.5473330737
 31
0.0
  0
LINE
  5
235
330
1F
100
AcDbEntity
  8
SLD-0
  6
Continuous
370
    15
100
AcDbLine
 10
23.1123647044
 20
8.5897331106
 30
0.0
 11
23.1297650367
 21
8.5897331106
 31
0.0
  0
LINE
  5
236
330
1F
100
AcDbEntity
  8
SLD-0
  6
Continuous
370
    15
100
AcDbLine
 10
42.1165982568
 20
59.1047670215
 30
0.0
 11
81.9000234752
 21
59.1047670215
 31
0.0
  0
LINE
  5
237
330
1F
100
AcDbEntity
  8
SLD-0
  6
Continuous
370
    15
100
AcDbLine
 10
81.9133101484
 20
61.262776652
 30
0.0
 11
42.1033115836
 21
61.262776652
 31
0.0
  0
LINE
  5
238
330
1F
100
AcDbEntity
  8
SLD-0
  6
Continuous
370
    15
100
AcDbLine
 10
42.1033115836
 20
61.7287089762
 30
0.0
 11
42.1033115836
 21
61.262776652
 31
0.0
  0
LINE
  5
239
330
1F
100
AcDbEntity
  8
SLD-0
  6
Continuous
370
    15
100
AcDbLine
 10
81.9133101484
 20
61.7287089762
 30
0.0
 11
81.9133101484
 21
61.262776652
 31
0.0
  0
LINE
  5
23A
330
1F
100
AcDbEntity
  8
SLD-0
  6
Continuous
370
    15
100
AcDbLine
 10
81.9133101484
 20
61.262776652
 30
0.0
 11
81.9133101484
 21
61.2310266188
 31
0.0
  0
LINE
  5
23B
330
1F
100
AcDbEntity
  8
SLD-0
  6
Continuous
370
    15
100
AcDbLine
 10
81.9133101484
 20
61.2310266188
 30
0.0
 11
42.1033115836
 21
61.2310266188
 31
0.0
  0
LINE
  5
23C
330
1F
100
AcDbEntity
  8
SLD-0
  6
Continuous
370
    15
100
AcDbLine
 10
42.1033115836
 20
61.2310266188
 30
0.0
 11
42.1033115836
 21
61.262776652
 31
0.0
  0
ARC
  5
23D
330
1F
100
AcDbEntity
  8
SLD-0
  6
Continuous
370
    15
100
AcDbCircle
 10
81.9189233276
 20
61.2707125359
 30
0.0
 40
0.0400809155669379
100
AcDbArc
 50
261.9494814746
 51
348.5801716615
  0
LINE
  5
23E
330
1F
100
AcDbEntity
  8
SLD-0
  6
Continuous
370
    15
100
AcDbLine
 10
81.9582107497
 20
59.1791156027
 30
0.0
 11
81.9582107497
 21
61.262776652
 31
0.0
  0
SPLINE
  5
23F
330
1F
100
AcDbEntity
  8
SLD-0
  6
Continuous
370
    15
100
AcDbSpline
210
0.0
220
0.0
230
1.0
 70
     8
 71
     3
 72
    11
 73
     7
 74
     0
 42
0.00000001
 43
0.00000001
 12
1.0
 22
0.0
 32
0.0
 13
1.0
 23
0.0
 33
0.0
 40
0.0
 40
0.0
 40
0.0
 40
0.0
 40
0.25826603131272
 40
0.5167325463466336
 40
0.7752053795077428
 40
1.0
 40
1.0
 40
1.0
 40
1.0
 10
81.95821074972929
 20
59.17911560266354
 30
0.0
 10
81.95748930880558
 20
59.17195204623996
 30
0.0
 10
81.95604586692644
 20
59.15761937255137
 30
0.0
 10
81.94497814655152
 20
59.13830264181876
 30
0.0
 10
81.92995602504682
 20
59.12316047224746
 30
0.0
 10
81.91859485954643
 20
59.11697623868455
 30
0.0
 10
81.91331014842487
 20
59.1140996070672
 30
0.0
  0
LINE
  5
240
330
1F
100
AcDbEntity
  8
SLD-0
  6
Continuous
370
    15
100
AcDbLine
 10
81.9133101484
 20
61.2310266188
 30
0.0
 11
81.9133101484
 21
59.1140996071
 31
0.0
  0
ARC
  5
241
330
1F
100
AcDbEntity
  8
SLD-0
  6
Continuous
370
    15
100
AcDbCircle
 10
42.0976984045
 20
61.2707125359
 30
0.0
 40
0.0400809155669358
100
AcDbArc
 50
191.4198283385
 51
278.0505185255
  0
LINE
  5
242
330
1F
100
AcDbEntity
  8
SLD-0
  6
Continuous
370
    15
100
AcDbLine
 10
42.1033115836
 20
61.2310266188
 30
0.0
 11
42.1033115836
 21
59.1140996071
 31
0.0
  0
SPLINE
  5
243
330
1F
100
AcDbEntity
  8
SLD-0
  6
Continuous
370
    15
100
AcDbSpline
210
0.0
220
0.0
230
1.0
 70
     8
 71
     3
 72
    11
 73
     7
 74
     0
 42
0.00000001
 43
0.00000001
 12
1.0
 22
0.0
 32
0.0
 13
1.0
 23
0.0
 33
0.0
 40
0.0
 40
0.0
 40
0.0
 40
0.0
 40
0.2582708885152336
 40
0.5167689126059608
 40
0.7752238973918782
 40
1.0
 40
1.0
 40
1.0
 40
1.0
 10
42.10331158359208
 20
59.1140996070672
 30
0.0
 10
42.09723223635931
 20
59.11747441413208
 30
0.0
 10
42.08506819542966
 20
59.12422699622602
 30
0.0
 10
42.06990670550797
 20
59.14065047280204
 30
0.0
 10
42.06013423859519
 20
59.159504427363
 30
0.0
 10
42.05895807678341
 20
59.1728895026834
 30
0.0
 10
42.05841098228765
 20
59.17911560266354
 30
0.0
  0
LINE
  5
244
330
1F
100
AcDbEntity
  8
SLD-0
  6
Continuous
370
    15
100
AcDbLine
 10
42.0584109823
 20
61.262776652
 30
0.0
 11
42.0584109823
 21
59.1791156027
 31
0.0
  0
LINE
  5
245
330
1F
100
AcDbEntity
  8
SLD-0
  6
Continuous
370
    15
100
AcDbLine
 10
81.9133101484
 20
59.1140996071
 30
0.0
 11
42.1033115836
 21
59.1140996071
 31
0.0
  0
LINE
  5
246
330
1F
100
AcDbEntity
  8
SLD-0
  6
Continuous
370
    15
100
AcDbLine
 10
42.0883118635
 20
61.262776652
 30
0.0
 11
42.0584109823
 21
61.262776652
 31
0.0
  0
ARC
  5
247
330
1F
100
AcDbEntity
  8
SLD-0
  6
Continuous
370
    15
100
AcDbCircle
 10
42.1014353784
 20
61.2654259903
 30
0.0
 40
0.0133882648394358
100
AcDbArc
 50
191.4133134349
 51
278.0558341723
  0
ARC
  5
248
330
1F
100
AcDbEntity
  8
SLD-0
  6
Continuous
370
    15
100
AcDbCircle
 10
81.9151863536
 20
61.2654259903
 30
0.0
 40
0.0133882648394485
100
AcDbArc
 50
261.9441658277
 51
348.586686565
  0
LINE
  5
249
330
1F
100
AcDbEntity
  8
SLD-0
  6
Continuous
370
    15
100
AcDbLine
 10
81.9283098685
 20
61.262776652
 30
0.0
 11
81.9582107497
 21
61.262776652
 31
0.0
  0
LINE
  5
24A
330
1F
100
AcDbEntity
  8
SLD-0
  6
Continuous
370
    15
100
AcDbLine
 10
42.0883118635
 20
61.7287089762
 30
0.0
 11
42.0883118635
 21
61.262776652
 31
0.0
  0
LINE
  5
24B
330
1F
100
AcDbEntity
  8
SLD-0
  6
Continuous
370
    15
100
AcDbLine
 10
42.0584109823
 20
61.7287089762
 30
0.0
 11
42.0584109823
 21
61.262776652
 31
0.0
  0
LINE
  5
24C
330
1F
100
AcDbEntity
  8
SLD-0
  6
Continuous
370
    15
100
AcDbLine
 10
81.9283098685
 20
61.7287089762
 30
0.0
 11
81.9283098685
 21
61.262776652
 31
0.0
  0
LINE
  5
24D
330
1F
100
AcDbEntity
  8
SLD-0
  6
Continuous
370
    15
100
AcDbLine
 10
81.9582107497
 20
61.7287089762
 30
0.0
 11
81.9582107497
 21
61.262776652
 31
0.0
  0
SPLINE
  5
24E
330
1F
100
AcDbEntity
  8
SLD-0
  6
Continuous
370
    15
100
AcDbSpline
210
0.0
220
0.0
230
1.0
 70
     8
 71
     3
 72
     9
 73
     5
 74
     0
 42
0.00000001
 43
0.00000001
 12
1.0
 22
0.0
 32
0.0
 13
1.0
 23
0.0
 33
0.0
 40
0.0
 40
0.0
 40
0.0
 40
0.0
 40
0.4999200432282249
 40
1.0
 40
1.0
 40
1.0
 40
1.0
 10
81.91331014842487
 20
59.1140996070672
 30
0.0
 10
81.91109552589192
 20
59.11142423746617
 30
0.0
 10
81.90666557241649
 20
59.10607264247162
 30
0.0
 10
81.90223774366008
 20
59.10520227491486
 30
0.0
 10
81.90002347524698
 20
59.1047670215447
 30
0.0
  0
SPLINE
  5
24F
330
1F
100
AcDbEntity
  8
SLD-0
  6
Continuous
370
    15
100
AcDbSpline
210
0.0
220
0.0
230
1.0
 70
     8
 71
     3
 72
     9
 73
     5
 74
     0
 42
0.00000001
 43
0.00000001
 12
1.0
 22
0.0
 32
0.0
 13
1.0
 23
0.0
 33
0.0
 40
0.0
 40
0.0
 40
0.0
 40
0.0
 40
0.5000799567717751
 40
1.0
 40
1.0
 40
1.0
 40
1.0
 10
42.11659825676996
 20
59.1047670215447
 30
0.0
 10
42.11438398835687
 20
59.10520227491486
 30
0.0
 10
42.10995615960047
 20
59.10607264247162
 30
0.0
 10
42.10552620612503
 20
59.11142423746618
 30
0.0
 10
42.10331158359208
 20
59.1140996070672
 30
0.0
  0
SPLINE
  5
250
330
1F
100
AcDbEntity
  8
SLD-0
  6
Continuous
370
    15
100
AcDbSpline
210
0.0
220
0.0
230
1.0
 70
     8
 71
     3
 72
    11
 73
     7
 74
     0
 42
0.00000001
 43
0.00000001
 12
1.0
 22
0.0
 32
0.0
 13
1.0
 23
0.0
 33
0.0
 40
0.0
 40
0.0
 40
0.0
 40
0.0
 40
0.2500015412151709
 40
0.5000020397666155
 40
0.7500039146550623
 40
1.0
 40
1.0
 40
1.0
 40
1.0
 10
43.7288581384729
 20
79.92470068122776
 30
0.0
 10
43.72188309590192
 20
79.92509645872836
 30
0.0
 10
43.70793303985026
 20
79.92588801207893
 30
0.0
 10
43.69023306153776
 20
79.9263924361091
 30
0.0
 10
43.67765441010437
 20
79.92581242940946
 30
0.0
 10
43.67566605198505
 20
79.9240708065679
 30
0.0
 10
43.67467188443713
 20
79.92320000523036
 30
0.0
  0
LINE
  5
251
330
1F
100
AcDbEntity
  8
SLD-0
  6
Continuous
370
    15
100
AcDbLine
 10
43.7288581385
 20
79.9247006812
 30
0.0
 11
40.5083100625
 21
64.7177082604
 31
0.0
  0
SPLINE
  5
252
330
1F
100
AcDbEntity
  8
SLD-0
  6
Continuous
370
    15
100
AcDbSpline
210
0.0
220
0.0
230
1.0
 70
     8
 71
     3
 72
    12
 73
     8
 74
     0
 42
0.00000001
 43
0.00000001
 12
1.0
 22
0.0
 32
0.0
 13
1.0
 23
0.0
 33
0.0
 40
0.0
 40
0.0
 40
0.0
 40
0.0
 40
0.2373853863192678
 40
0.4749164564521821
 40
0.7124430732309108
 40
0.9499598054373849
 40
1.0
 40
1.0
 40
1.0
 40
1.0
 10
40.46483387142643
 20
64.766771800249
 30
0.0
 10
40.46489241327487
 20
64.76360497208137
 30
0.0
 10
40.46500953289896
 20
64.75726937225832
 30
0.0
 10
40.47389498149189
 20
64.74591997819596
 30
0.0
 10
40.48757837965537
 20
64.73355974274658
 30
0.0
 10
40.50014668892976
 20
64.72390289168828
 30
0.0
 10
40.50710004982383
 20
64.71862645705002
 30
0.0
 10
40.50831006251909
 20
64.71770826036854
 30
0.0
  0
LINE
  5
253
330
1F
100
AcDbEntity
  8
SLD-0
  6
Continuous
370
    15
100
AcDbLine
 10
40.4648338714
 20
64.7667718002
 30
0.0
 11
43.6746718844
 21
79.9232000052
 31
0.0
  0
SPLINE
  5
254
330
1F
100
AcDbEntity
  8
SLD-0
  6
Continuous
370
    15
100
AcDbSpline
210
0.0
220
0.0
230
1.0
 70
     8
 71
     3
 72
    11
 73
     7
 74
     0
 42
0.00000001
 43
0.00000001
 12
1.0
 22
0.0
 32
0.0
 13
1.0
 23
0.0
 33
0.0
 40
0.0
 40
0.0
 40
0.0
 40
0.0
 40
0.2499960853449378
 40
0.4999979602333846
 40
0.7499984587848291
 40
1.0
 40
1.0
 40
1.0
 40
1.0
 10
80.34194984757981
 20
79.92320000523036
 30
0.0
 10
80.3409556800319
 20
79.9240708065679
 30
0.0
 10
80.33896732191259
 20
79.92581242940946
 30
0.0
 10
80.32638867047919
 20
79.9263924361091
 30
0.0
 10
80.30868869216668
 20
79.92588801207894
 30
0.0
 10
80.29473863611504
 20
79.92509645872836
 30
0.0
 10
80.28776359354404
 20
79.92470068122776
 30
0.0
  0
LINE
  5
255
330
1F
100
AcDbEntity
  8
SLD-0
  6
Continuous
370
    15
100
AcDbLine
 10
80.3419498476
 20
79.9232000052
 30
0.0
 11
83.5517878606
 21
64.7667718002
 31
0.0
  0
SPLINE
  5
256
330
1F
100
AcDbEntity
  8
SLD-0
  6
Continuous
370
    15
100
AcDbSpline
210
0.0
220
0.0
230
1.0
 70
     8
 71
     3
 72
    12
 73
     8
 74
     0
 42
0.00000001
 43
0.00000001
 12
1.0
 22
0.0
 32
0.0
 13
1.0
 23
0.0
 33
0.0
 40
0.0
 40
0.0
 40
0.0
 40
0.0
 40
0.2373944087527292
 40
0.4749096563903754
 40
0.7124423168272299
 40
0.9499558931462205
 40
0.9999999999999999
 40
0.9999999999999999
 40
0.9999999999999999
 40
0.9999999999999999
 10
83.50831166949786
 20
64.71770826036854
 30
0.0
 10
83.5140804209095
 20
64.72208476922548
 30
0.0
 10
83.52562086015189
 20
64.73084001467699
 30
0.0
 10
83.54030012839505
 20
64.74341735048678
 30
0.0
 10
83.55000503920573
 20
64.75493266160593
 30
0.0
 10
83.55247380269608
 20
64.76245367041619
 30
0.0
 10
83.5518895406202
 20
64.76613170603994
 30
0.0
 10
83.55178786059052
 20
64.766771800249
 30
0.0
  0
LINE
  5
257
330
1F
100
AcDbEntity
  8
SLD-0
  6
Continuous
370
    15
100
AcDbLine
 10
83.5083116695
 20
64.7177082604
 30
0.0
 11
80.2877635935
 21
79.9247006812
 31
0.0
  0
LINE
  5
258
330
1F
100
AcDbEntity
  8
SLD-0
  6
Continuous
370
    15
100
AcDbLine
 10
40.5083100625
 20
62.9647086712
 30
0.0
 11
40.5083100625
 21
62.5897086299
 31
0.0
  0
LINE
  5
259
330
1F
100
AcDbEntity
  8
SLD-0
  6
Continuous
370
    15
100
AcDbLine
 10
40.5083100625
 20
62.9647086712
 30
0.0
 11
40.5253396258
 21
62.9647086712
 31
0.0
  0
LINE
  5
25A
330
1F
100
AcDbEntity
  8
SLD-0
  6
Continuous
370
    15
100
AcDbLine
 10
40.5253396258
 20
62.9647086712
 30
0.0
 11
40.5253396258
 21
64.2777086499
 31
0.0
  0
LINE
  5
25B
330
1F
100
AcDbEntity
  8
SLD-0
  6
Continuous
370
    15
100
AcDbLine
 10
40.5253396258
 20
64.2777086499
 30
0.0
 11
40.5083100625
 21
64.2777086499
 31
0.0
  0
LINE
  5
25C
330
1F
100
AcDbEntity
  8
SLD-0
  6
Continuous
370
    15
100
AcDbLine
 10
40.5083100625
 20
64.7177082604
 30
0.0
 11
40.5083100625
 21
64.2777086499
 31
0.0
  0
LINE
  5
25D
330
1F
100
AcDbEntity
  8
SLD-0
  6
Continuous
370
    15
100
AcDbLine
 10
80.0783107598
 20
80.9137084136
 30
0.0
 11
43.9383109722
 21
80.9137084136
 31
0.0
  0
LINE
  5
25E
330
1F
100
AcDbEntity
  8
SLD-0
  6
Continuous
370
    15
100
AcDbLine
 10
80.2877635935
 20
79.9247006812
 30
0.0
 11
80.0783107598
 21
80.9137084136
 31
0.0
  0
LINE
  5
25F
330
1F
100
AcDbEntity
  8
SLD-0
  6
Continuous
370
    15
100
AcDbLine
 10
83.5083116695
 20
64.2777086499
 30
0.0
 11
83.5083116695
 21
64.7177082604
 31
0.0
  0
LINE
  5
260
330
1F
100
AcDbEntity
  8
SLD-0
  6
Continuous
370
    15
100
AcDbLine
 10
83.5083116695
 20
64.2777086499
 30
0.0
 11
83.4912821062
 21
64.2777086499
 31
0.0
  0
LINE
  5
261
330
1F
100
AcDbEntity
  8
SLD-0
  6
Continuous
370
    15
100
AcDbLine
 10
83.4912821062
 20
64.2777086499
 30
0.0
 11
83.4912821062
 21
62.9647086712
 31
0.0
  0
LINE
  5
262
330
1F
100
AcDbEntity
  8
SLD-0
  6
Continuous
370
    15
100
AcDbLine
 10
83.4912821062
 20
62.9647086712
 30
0.0
 11
83.5083116695
 21
62.9647086712
 31
0.0
  0
LINE
  5
263
330
1F
100
AcDbEntity
  8
SLD-0
  6
Continuous
370
    15
100
AcDbLine
 10
83.5083116695
 20
62.5897086299
 30
0.0
 11
83.5083116695
 21
62.9647086712
 31
0.0
  0
LINE
  5
264
330
1F
100
AcDbEntity
  8
SLD-0
  6
Continuous
370
    15
100
AcDbLine
 10
83.5083116695
 20
62.4787078855
 30
0.0
 11
83.5083116695
 21
62.5897086299
 31
0.0
  0
LINE
  5
265
330
1F
100
AcDbEntity
  8
SLD-0
  6
Continuous
370
    15
100
AcDbLine
 10
40.5083100625
 20
62.5897086299
 30
0.0
 11
40.5083100625
 21
62.4787078855
 31
0.0
  0
LINE
  5
266
330
1F
100
AcDbEntity
  8
SLD-0
  6
Continuous
370
    15
100
AcDbLine
 10
43.9383109722
 20
80.9137084136
 30
0.0
 11
43.7288581385
 21
79.9247006812
 31
0.0
  0
SPLINE
  5
267
330
1F
100
AcDbEntity
  8
SLD-0
  6
Continuous
370
    15
100
AcDbSpline
210
0.0
220
0.0
230
1.0
 70
     8
 71
     3
 72
    11
 73
     7
 74
     0
 42
0.00000001
 43
0.00000001
 12
1.0
 22
0.0
 32
0.0
 13
1.0
 23
0.0
 33
0.0
 40
0.0
 40
0.0
 40
0.0
 40
0.0
 40
0.2499992363551713
 40
0.4999979722448019
 40
0.7500048611569502
 40
1.0
 40
1.0
 40
1.0
 40
1.0
 10
80.07831075982774
 20
80.91370841362604
 30
0.0
 10
80.07725281342893
 20
80.92061405226583
 30
0.0
 10
80.07513692274917
 20
80.93442531572124
 30
0.0
 10
80.07196310845175
 20
80.95184539268914
 30
0.0
 10
80.06878905270815
 20
80.9640316762798
 30
0.0
 10
80.06667407642756
 20
80.96561617828156
 30
0.0
 10
80.06561661313826
 20
80.96640841066451
 30
0.0
  0
SPLINE
  5
268
330
1F
100
AcDbEntity
  8
SLD-0
  6
Continuous
370
    15
100
AcDbSpline
210
0.0
220
0.0
230
1.0
 70
     8
 71
     3
 72
    11
 73
     7
 74
     0
 42
0.00000001
 43
0.00000001
 12
1.0
 22
0.0
 32
0.0
 13
1.0
 23
0.0
 33
0.0
 40
0.0
 40
0.0
 40
0.0
 40
0.0
 40
0.2499951388430498
 40
0.5000020277551982
 40
0.7500007636448287
 40
1.0
 40
1.0
 40
1.0
 40
1.0
 10
43.95100511887869
 20
80.96640841066451
 30
0.0
 10
43.9499476555894
 20
80.96561617828156
 30
0.0
 10
43.9478326793088
 20
80.9640316762798
 30
0.0
 10
43.9446586235652
 20
80.95184539268914
 30
0.0
 10
43.94148480926779
 20
80.93442531572124
 30
0.0
 10
43.93936891858804
 20
80.92061405226583
 30
0.0
 10
43.93831097218922
 20
80.91370841362604
 30
0.0
  0
LINE
  5
269
330
1F
100
AcDbEntity
  8
SLD-0
  6
Continuous
370
    15
100
AcDbLine
 10
43.9510051189
 20
80.9664084107
 30
0.0
 11
80.0656166131
 21
80.9664084107
 31
0.0
  0
LINE
  5
26A
330
1F
100
AcDbEntity
  8
SLD-0
  6
Continuous
370
    15
100
AcDbLine
 10
40.455611578
 20
64.2777086499
 30
0.0
 11
40.5083100625
 21
64.2777086499
 31
0.0
  0
LINE
  5
26B
330
1F
100
AcDbEntity
  8
SLD-0
  6
Continuous
370
    15
100
AcDbLine
 10
40.455611578
 20
64.6577656995
 30
0.0
 11
40.455611578
 21
64.2777086499
 31
0.0
  0
SPLINE
  5
26C
330
1F
100
AcDbEntity
  8
SLD-0
  6
Continuous
370
    15
100
AcDbSpline
210
0.0
220
0.0
230
1.0
 70
     8
 71
     3
 72
    11
 73
     7
 74
     0
 42
0.00000001
 43
0.00000001
 12
1.0
 22
0.0
 32
0.0
 13
1.0
 23
0.0
 33
0.0
 40
0.0
 40
0.0
 40
0.0
 40
0.0
 40
0.2499969680727885
 40
0.5
 40
0.7500030319272115
 40
1.0
 40
1.0
 40
1.0
 40
1.0
 10
40.50831006251908
 20
64.71770826036854
 30
0.0
 10
40.5014046055438
 20
64.71271301667304
 30
0.0
 10
40.48759352409644
 20
64.70272240811886
 30
0.0
 10
40.47017301483399
 20
64.68773697993265
 30
0.0
 10
40.45798693226678
 20
64.67275155174644
 30
0.0
 10
40.45640335632932
 20
64.66276094319227
 30
0.0
 10
40.45561157796314
 20
64.65776569949678
 30
0.0
  0
LINE
  5
26D
330
1F
100
AcDbEntity
  8
SLD-0
  6
Continuous
370
    15
100
AcDbLine
 10
83.5610101541
 20
64.2777086499
 30
0.0
 11
83.5610101541
 21
64.6577656995
 31
0.0
  0
LINE
  5
26E
330
1F
100
AcDbEntity
  8
SLD-0
  6
Continuous
370
    15
100
AcDbLine
 10
83.5083116695
 20
64.2777086499
 30
0.0
 11
83.5610101541
 21
64.2777086499
 31
0.0
  0
SPLINE
  5
26F
330
1F
100
AcDbEntity
  8
SLD-0
  6
Continuous
370
    15
100
AcDbSpline
210
0.0
220
0.0
230
1.0
 70
     8
 71
     3
 72
    11
 73
     7
 74
     0
 42
0.00000001
 43
0.00000001
 12
1.0
 22
0.0
 32
0.0
 13
1.0
 23
0.0
 33
0.0
 40
0.0
 40
0.0
 40
0.0
 40
0.0
 40
0.2499969680727885
 40
0.5
 40
0.7500030319272115
 40
1.0
 40
1.0
 40
1.0
 40
1.0
 10
83.56101015405382
 20
64.65776569949678
 30
0.0
 10
83.56021837568764
 20
64.66276094319227
 30
0.0
 10
83.55863479975017
 20
64.67275155174644
 30
0.0
 10
83.54644871718295
 20
64.68773697993265
 30
0.0
 10
83.52902820792052
 20
64.70272240811887
 30
0.0
 10
83.51521712647316
 20
64.71271301667305
 30
0.0
 10
83.50831166949787
 20
64.71770826036854
 30
0.0
  0
LINE
  5
270
330
1F
100
AcDbEntity
  8
SLD-0
  6
Continuous
370
    15
100
AcDbLine
 10
40.455611578
 20
62.9647086712
 30
0.0
 11
40.455611578
 21
62.5897086299
 31
0.0
  0
LINE
  5
271
330
1F
100
AcDbEntity
  8
SLD-0
  6
Continuous
370
    15
100
AcDbLine
 10
40.5083100625
 20
62.9647086712
 30
0.0
 11
40.455611578
 21
62.9647086712
 31
0.0
  0
LINE
  5
272
330
1F
100
AcDbEntity
  8
SLD-0
  6
Continuous
370
    15
100
AcDbLine
 10
40.455611578
 20
62.5897086299
 30
0.0
 11
40.5083100625
 21
62.5897086299
 31
0.0
  0
LINE
  5
273
330
1F
100
AcDbEntity
  8
SLD-0
  6
Continuous
370
    15
100
AcDbLine
 10
83.5610101541
 20
62.9647086712
 30
0.0
 11
83.5083116695
 21
62.9647086712
 31
0.0
  0
LINE
  5
274
330
1F
100
AcDbEntity
  8
SLD-0
  6
Continuous
370
    15
100
AcDbLine
 10
83.5610101541
 20
62.5897086299
 30
0.0
 11
83.5610101541
 21
62.9647086712
 31
0.0
  0
LINE
  5
275
330
1F
100
AcDbEntity
  8
SLD-0
  6
Continuous
370
    15
100
AcDbLine
 10
83.5083116695
 20
62.5897086299
 30
0.0
 11
83.5610101541
 21
62.5897086299
 31
0.0
  0
LINE
  5
276
330
1F
100
AcDbEntity
  8
SLD-0
  6
Continuous
370
    15
100
AcDbLine
 10
83.5610101541
 20
62.9647086712
 30
0.0
 11
83.5610101541
 21
64.2777086499
 31
0.0
  0
LINE
  5
277
330
1F
100
AcDbEntity
  8
SLD-0
  6
Continuous
370
    15
100
AcDbLine
 10
83.5393107781
 20
62.9647086712
 30
0.0
 11
83.5393107781
 21
64.2777086499
 31
0.0
  0
LINE
  5
278
330
1F
100
AcDbEntity
  8
SLD-0
  6
Continuous
370
    15
100
AcDbLine
 10
40.477310954
 20
64.2777086499
 30
0.0
 11
40.477310954
 21
62.9647086712
 31
0.0
  0
LINE
  5
279
330
1F
100
AcDbEntity
  8
SLD-0
  6
Continuous
370
    15
100
AcDbLine
 10
40.455611578
 20
64.2777086499
 30
0.0
 11
40.455611578
 21
62.9647086712
 31
0.0
  0
LINE
  5
27A
330
1F
100
AcDbEntity
  8
SLD-0
  6
Continuous
370
    15
100
AcDbLine
 10
43.7238609695
 20
79.9249637982
 30
0.0
 11
43.9314470515
 21
80.9029506571
 31
0.0
  0
ARC
  5
27B
330
1F
100
AcDbEntity
  8
SLD-0
  6
Continuous
370
    15
100
AcDbCircle
 10
43.9829989267
 20
80.8920084121
 30
0.0
 40
0.0526999999999945
100
AcDbArc
 50
145.7170300868
 51
168.0163377337
  0
LINE
  5
27C
330
1F
100
AcDbEntity
  8
SLD-0
  6
Continuous
370
    15
100
AcDbLine
 10
40.5059681162
 20
62.4787078855
 30
0.0
 11
40.5059681162
 21
62.5897086299
 31
0.0
  0
LINE
  5
27D
330
1F
100
AcDbEntity
  8
SLD-0
  6
Continuous
370
    15
100
AcDbLine
 10
40.5059681162
 20
62.9647086712
 30
0.0
 11
40.5059681162
 21
64.2777086499
 31
0.0
  0
LINE
  5
27E
330
1F
100
AcDbEntity
  8
SLD-0
  6
Continuous
370
    15
100
AcDbLine
 10
40.5059681162
 20
64.7159670538
 30
0.0
 11
40.5059681162
 21
64.7194870132
 31
0.0
  0
LINE
  5
27F
330
1F
100
AcDbEntity
  8
SLD-0
  6
Continuous
370
    15
100
AcDbLine
 10
40.4955232236
 20
62.4787078855
 30
0.0
 11
40.4955232236
 21
61.7933084433
 31
0.0
  0
LINE
  5
280
330
1F
100
AcDbEntity
  8
SLD-0
  6
Continuous
370
    15
100
AcDbLine
 10
83.5210985084
 20
62.4787078855
 30
0.0
 11
73.1156516731
 21
62.4787078855
 31
0.0
  0
LINE
  5
281
330
1F
100
AcDbEntity
  8
SLD-0
  6
Continuous
370
    15
100
AcDbLine
 10
71.5409702906
 20
62.4787078855
 30
0.0
 11
52.4756514414
 21
62.4787078855
 31
0.0
  0
LINE
  5
282
330
1F
100
AcDbEntity
  8
SLD-0
  6
Continuous
370
    15
100
AcDbLine
 10
50.900970059
 20
62.4787078855
 30
0.0
 11
40.4955232236
 21
62.4787078855
 31
0.0
  0
LINE
  5
283
330
1F
100
AcDbEntity
  8
SLD-0
  6
Continuous
370
    15
100
AcDbLine
 10
83.5210985084
 20
62.4787078855
 30
0.0
 11
83.5210985084
 21
61.7933084433
 31
0.0
  0
LINE
  5
284
330
1F
100
AcDbEntity
  8
SLD-0
  6
Continuous
370
    15
100
AcDbLine
 10
83.5210985084
 20
61.7933084433
 30
0.0
 11
40.4955232236
 21
61.7933084433
 31
0.0
  0
LINE
  5
285
330
1F
100
AcDbEntity
  8
SLD-0
  6
Continuous
370
    15
100
AcDbLine
 10
40.4955232236
 20
61.7287089762
 30
0.0
 11
83.5210985084
 21
61.7287089762
 31
0.0
  0
LINE
  5
286
330
1F
100
AcDbEntity
  8
SLD-0
  6
Continuous
370
    15
100
AcDbLine
 10
83.5210985084
 20
61.7933084433
 30
0.0
 11
83.5210985084
 21
61.7287089762
 31
0.0
  0
LINE
  5
287
330
1F
100
AcDbEntity
  8
SLD-0
  6
Continuous
370
    15
100
AcDbLine
 10
40.4955232236
 20
61.7287089762
 30
0.0
 11
40.4955232236
 21
61.7933084433
 31
0.0
  0
LINE
  5
288
330
1F
100
AcDbEntity
  8
SLD-0
  6
Continuous
370
    15
100
AcDbLine
 10
40.4955232236
 20
61.7623081614
 30
0.0
 11
40.4954105849
 21
61.7623081614
 31
0.0
  0
LINE
  5
289
330
1F
100
AcDbEntity
  8
SLD-0
  6
Continuous
370
    15
100
AcDbLine
 10
40.4955232236
 20
61.7287089762
 30
0.0
 11
40.4954105849
 21
61.7287089762
 31
0.0
  0
LINE
  5
28A
330
1F
100
AcDbEntity
  8
SLD-0
  6
Continuous
370
    15
100
AcDbLine
 10
83.5212111471
 20
61.7623081614
 30
0.0
 11
83.5210985084
 21
61.7623081614
 31
0.0
  0
LINE
  5
28B
330
1F
100
AcDbEntity
  8
SLD-0
  6
Continuous
370
    15
100
AcDbLine
 10
83.5212111471
 20
61.7287089762
 30
0.0
 11
83.5210985084
 21
61.7287089762
 31
0.0
  0
SPLINE
  5
28C
330
1F
100
AcDbEntity
  8
SLD-0
  6
Continuous
370
    15
100
AcDbSpline
210
0.0
220
0.0
230
1.0
 70
     8
 71
     3
 72
    11
 73
     7
 74
     0
 42
0.00000001
 43
0.00000001
 12
1.0
 22
0.0
 32
0.0
 13
1.0
 23
0.0
 33
0.0
 40
0.0
 40
0.0
 40
0.0
 40
0.0
 40
0.2499875596027395
 40
0.4999886355900231
 40
0.7499826788163405
 40
1.0
 40
1.0
 40
1.0
 40
1.0
 10
83.52121114714868
 20
61.76230816140267
 30
0.0
 10
83.52527292653593
 20
61.76277399914994
 30
0.0
 10
83.53339670492369
 20
61.76370569983152
 30
0.0
 10
83.5436438127697
 20
61.77087575732858
 30
0.0
 10
83.55081452314542
 20
61.78112204552543
 30
0.0
 10
83.55174499708309
 20
61.78924618462561
 30
0.0
 10
83.55221025571097
 20
61.79330844328477
 30
0.0
  0
LINE
  5
28D
330
1F
100
AcDbEntity
  8
SLD-0
  6
Continuous
370
    15
100
AcDbLine
 10
83.5522102557
 20
61.7933084433
 30
0.0
 11
83.5858117875
 21
61.7933084433
 31
0.0
  0
SPLINE
  5
28E
330
1F
100
AcDbEntity
  8
SLD-0
  6
Continuous
370
    15
100
AcDbSpline
210
0.0
220
0.0
230
1.0
 70
     8
 71
     3
 72
    11
 73
     7
 74
     0
 42
0.00000001
 43
0.00000001
 12
1.0
 22
0.0
 32
0.0
 13
1.0
 23
0.0
 33
0.0
 40
0.0
 40
0.0
 40
0.0
 40
0.0
 40
0.2500005319595013
 40
0.4999938696090139
 40
0.7499872072585266
 40
1.0
 40
1.0
 40
1.0
 40
1.0
 10
83.52121114714865
 20
61.72870897620999
 30
0.0
 10
83.52967624651326
 20
61.72968011406115
 30
0.0
 10
83.5466062016408
 20
61.73162236181687
 30
0.0
 10
83.56796044609395
 20
61.74655913364323
 30
0.0
 10
83.58289719332078
 20
61.76791406016024
 30
0.0
 10
83.58484023093473
 20
61.78484342933766
 30
0.0
 10
83.58581178754321
 20
61.79330844328477
 30
0.0
  0
SPLINE
  5
28F
330
1F
100
AcDbEntity
  8
SLD-0
  6
Continuous
370
    15
100
AcDbSpline
210
0.0
220
0.0
230
1.0
 70
     8
 71
     3
 72
    11
 73
     7
 74
     0
 42
0.00000001
 43
0.00000001
 12
1.0
 22
0.0
 32
0.0
 13
1.0
 23
0.0
 33
0.0
 40
0.0
 40
0.0
 40
0.0
 40
0.0
 40
0.2500173211836594
 40
0.5000113644099768
 40
0.7500124403972604
 40
1.0
 40
1.0
 40
1.0
 40
1.0
 10
40.46441147630597
 20
61.79330844328477
 30
0.0
 10
40.46487673493385
 20
61.7892461846256
 30
0.0
 10
40.46580720887153
 20
61.78112204552543
 30
0.0
 10
40.47297791924725
 20
61.77087575732858
 30
0.0
 10
40.48322502709326
 20
61.76370569983152
 30
0.0
 10
40.49134880548102
 20
61.76277399914994
 30
0.0
 10
40.49541058486828
 20
61.76230816140267
 30
0.0
  0
LINE
  5
290
330
1F
100
AcDbEntity
  8
SLD-0
  6
Continuous
370
    15
100
AcDbLine
 10
40.4308099445
 20
61.7933084433
 30
0.0
 11
40.4644114763
 21
61.7933084433
 31
0.0
  0
SPLINE
  5
291
330
1F
100
AcDbEntity
  8
SLD-0
  6
Continuous
370
    15
100
AcDbSpline
210
0.0
220
0.0
230
1.0
 70
     8
 71
     3
 72
    11
 73
     7
 74
     0
 42
0.00000001
 43
0.00000001
 12
1.0
 22
0.0
 32
0.0
 13
1.0
 23
0.0
 33
0.0
 40
0.0
 40
0.0
 40
0.0
 40
0.0
 40
0.2500127927414735
 40
0.5000061303909861
 40
0.7499994680404988
 40
1.0
 40
1.0
 40
1.0
 40
1.0
 10
40.43080994447374
 20
61.79330844328477
 30
0.0
 10
40.43178150108223
 20
61.78484342933766
 30
0.0
 10
40.43372453869618
 20
61.76791406016024
 30
0.0
 10
40.44866128592301
 20
61.74655913364324
 30
0.0
 10
40.47001553037616
 20
61.73162236181685
 30
0.0
 10
40.4869454855037
 20
61.72968011406115
 30
0.0
 10
40.49541058486829
 20
61.72870897620999
 30
0.0
  0
LINE
  5
292
330
1F
100
AcDbEntity
  8
SLD-0
  6
Continuous
370
    15
100
AcDbLine
 10
40.4308099445
 20
62.4787078855
 30
0.0
 11
40.4644114763
 21
62.4787078855
 31
0.0
  0
LINE
  5
293
330
1F
100
AcDbEntity
  8
SLD-0
  6
Continuous
370
    15
100
AcDbLine
 10
40.4644114763
 20
62.4787078855
 30
0.0
 11
40.4644114763
 21
61.7933084433
 31
0.0
  0
LINE
  5
294
330
1F
100
AcDbEntity
  8
SLD-0
  6
Continuous
370
    15
100
AcDbLine
 10
40.4308099445
 20
62.4787078855
 30
0.0
 11
40.4308099445
 21
61.7933084433
 31
0.0
  0
LINE
  5
295
330
1F
100
AcDbEntity
  8
SLD-0
  6
Continuous
370
    15
100
AcDbLine
 10
83.5858117875
 20
61.7933084433
 30
0.0
 11
83.5858117875
 21
62.4787078855
 31
0.0
  0
LINE
  5
296
330
1F
100
AcDbEntity
  8
SLD-0
  6
Continuous
370
    15
100
AcDbLine
 10
83.5522102557
 20
61.7933084433
 30
0.0
 11
83.5522102557
 21
62.4787078855
 31
0.0
  0
LINE
  5
297
330
1F
100
AcDbEntity
  8
SLD-0
  6
Continuous
370
    15
100
AcDbLine
 10
83.5522102557
 20
62.4787078855
 30
0.0
 11
83.5858117875
 21
62.4787078855
 31
0.0
  0
LINE
  5
298
330
1F
100
AcDbEntity
  8
SLD-0
  6
Continuous
370
    15
100
AcDbLine
 10
40.4579676041
 20
62.5750831988
 30
0.0
 11
40.5059681162
 21
62.5750831988
 31
0.0
  0
LINE
  5
299
330
1F
100
AcDbEntity
  8
SLD-0
  6
Continuous
370
    15
100
AcDbLine
 10
40.4579676041
 20
62.5750831988
 30
0.0
 11
40.4579676041
 21
62.5897086299
 31
0.0
  0
LINE
  5
29A
330
1F
100
AcDbEntity
  8
SLD-0
  6
Continuous
370
    15
100
AcDbLine
 10
40.477310954
 20
64.152707854
 30
0.0
 11
40.5059681162
 21
64.152707854
 31
0.0
  0
LINE
  5
29B
330
1F
100
AcDbEntity
  8
SLD-0
  6
Continuous
370
    15
100
AcDbLine
 10
39.5059664417
 20
62.5600834788
 30
0.0
 11
39.5059664417
 21
62.5120829666
 31
0.0
  0
LINE
  5
29C
330
1F
100
AcDbEntity
  8
SLD-0
  6
Continuous
370
    15
100
AcDbLine
 10
39.5059664417
 20
62.5600834788
 30
0.0
 11
40.442967884
 21
62.5600834788
 31
0.0
  0
LINE
  5
29D
330
1F
100
AcDbEntity
  8
SLD-0
  6
Continuous
370
    15
100
AcDbLine
 10
40.442967884
 20
62.5600834788
 30
0.0
 11
40.442967884
 21
62.5120829666
 31
0.0
  0
LINE
  5
29E
330
1F
100
AcDbEntity
  8
SLD-0
  6
Continuous
370
    15
100
AcDbLine
 10
39.5059664417
 20
62.5120829666
 30
0.0
 11
40.442967884
 21
62.5120829666
 31
0.0
  0
ARC
  5
29F
330
1F
100
AcDbEntity
  8
SLD-0
  6
Continuous
370
    15
100
AcDbCircle
 10
40.442967536
 20
62.5750834121
 30
0.0
 40
0.0630000000000095
100
AcDbArc
 50
270.0
 51
0.0
  0
ARC
  5
2A0
330
1F
100
AcDbEntity
  8
SLD-0
  6
Continuous
370
    15
100
AcDbCircle
 10
40.442967536
 20
62.5750834121
 30
0.0
 40
0.0150000000000077
100
AcDbArc
 50
270.0
 51
0.0
  0
LINE
  5
2A1
330
1F
100
AcDbEntity
  8
SLD-0
  6
Continuous
370
    15
100
AcDbLine
 10
83.5630681569
 20
62.5750831988
 30
0.0
 11
83.5150676448
 21
62.5750831988
 31
0.0
  0
LINE
  5
2A2
330
1F
100
AcDbEntity
  8
SLD-0
  6
Continuous
370
    15
100
AcDbLine
 10
83.5630681569
 20
64.152707854
 30
0.0
 11
83.5610101541
 21
64.152707854
 31
0.0
  0
LINE
  5
2A3
330
1F
100
AcDbEntity
  8
SLD-0
  6
Continuous
370
    15
100
AcDbLine
 10
83.5393107781
 20
64.152707854
 30
0.0
 11
83.5150676448
 21
64.152707854
 31
0.0
  0
LINE
  5
2A4
330
1F
100
AcDbEntity
  8
SLD-0
  6
Continuous
370
    15
100
AcDbLine
 10
83.5630681569
 20
62.5750831988
 30
0.0
 11
83.5630681569
 21
64.152707854
 31
0.0
  0
LINE
  5
2A5
330
1F
100
AcDbEntity
  8
SLD-0
  6
Continuous
370
    15
100
AcDbLine
 10
84.5150693193
 20
62.5600834788
 30
0.0
 11
83.578067877
 21
62.5600834788
 31
0.0
  0
LINE
  5
2A6
330
1F
100
AcDbEntity
  8
SLD-0
  6
Continuous
370
    15
100
AcDbLine
 10
84.5150693193
 20
62.5120829666
 30
0.0
 11
83.578067877
 21
62.5120829666
 31
0.0
  0
LINE
  5
2A7
330
1F
100
AcDbEntity
  8
SLD-0
  6
Continuous
370
    15
100
AcDbLine
 10
83.578067877
 20
62.5600834788
 30
0.0
 11
83.578067877
 21
62.5120829666
 31
0.0
  0
LINE
  5
2A8
330
1F
100
AcDbEntity
  8
SLD-0
  6
Continuous
370
    15
100
AcDbLine
 10
84.5150693193
 20
62.5600834788
 30
0.0
 11
84.5150693193
 21
62.5120829666
 31
0.0
  0
ARC
  5
2A9
330
1F
100
AcDbEntity
  8
SLD-0
  6
Continuous
370
    15
100
AcDbCircle
 10
83.5780686474
 20
62.5750834121
 30
0.0
 40
0.0150000000000006
100
AcDbArc
 50
180.0
 51
270.0
  0
ARC
  5
2AA
330
1F
100
AcDbEntity
  8
SLD-0
  6
Continuous
370
    15
100
AcDbCircle
 10
83.5780686474
 20
62.5750834121
 30
0.0
 40
0.0630000000000024
100
AcDbArc
 50
180.0
 51
270.0
  0
LINE
  5
2AB
330
1F
100
AcDbEntity
  8
SLD-0
  6
Continuous
370
    15
100
AcDbLine
 10
72.3671804261
 20
62.454108063
 30
0.0
 11
72.3671804261
 21
79.3291084549
 31
0.0
  0
LINE
  5
2AC
330
1F
100
AcDbEntity
  8
SLD-0
  6
Continuous
370
    15
100
AcDbLine
 10
72.3671804261
 20
62.454108063
 30
0.0
 11
72.2894409508
 21
62.454108063
 31
0.0
  0
LINE
  5
2AD
330
1F
100
AcDbEntity
  8
SLD-0
  6
Continuous
370
    15
100
AcDbLine
 10
72.2894409508
 20
79.3291084549
 30
0.0
 11
72.2894409508
 21
62.454108063
 31
0.0
  0
LINE
  5
2AE
330
1F
100
AcDbEntity
  8
SLD-0
  6
Continuous
370
    15
100
AcDbLine
 10
72.2894409508
 20
79.3291084549
 30
0.0
 11
72.3671804261
 21
79.3291084549
 31
0.0
  0
LWPOLYLINE
  5
2AF
330
1F
100
AcDbEntity
  8
SLD-0
  6
Continuous
370
    15
100
AcDbPolyline
 90
       21
 70
   128
 43
0.0
 10
71.8244396559
 20
68.0791086825
 10
71.8342926088
 20
68.077569287
 10
71.8439026844
 20
68.0729909932
 10
71.8530340456
 20
68.0654840932
 10
71.8614608282
 20
68.055235145
 10
71.8689759414
 20
68.0424964121
 10
71.8753951739
 20
68.0275811711
 10
71.8805589543
 20
68.010856671
 10
71.8843405639
 20
67.9927359203
 10
71.8866484839
 20
67.973662434
 10
71.8874240483
 20
67.9541078865
 10
71.8866484839
 20
67.9345545124
 10
71.8843405639
 20
67.9154810261
 10
71.8805589543
 20
67.8973591021
 10
71.8753951739
 20
67.8806357753
 10
71.8689759414
 20
67.8657205343
 10
71.8614608282
 20
67.8529818014
 10
71.8530340456
 20
67.8427328532
 10
71.8439026844
 20
67.8352259532
 10
71.8342926088
 20
67.8306476594
 10
71.8244396559
 20
67.8291082639
  0
LINE
  5
2B0
330
1F
100
AcDbEntity
  8
SLD-0
  6
Continuous
370
    15
100
AcDbLine
 10
71.8244396559
 20
68.0791086825
 30
0.0
 11
71.3205686233
 21
68.0791086825
 31
0.0
  0
LWPOLYLINE
  5
2B1
330
1F
100
AcDbEntity
  8
SLD-0
  6
Continuous
370
    15
100
AcDbPolyline
 90
       21
 70
   128
 43
0.0
 10
71.3205686233
 20
67.8291082639
 10
71.3107162572
 20
67.8306476594
 10
71.3011055949
 20
67.8352259532
 10
71.2919748203
 20
67.8427328532
 10
71.2835480377
 20
67.8529818014
 10
71.2760323378
 20
67.8657205343
 10
71.269613692
 20
67.8806357753
 10
71.2644499116
 20
67.8973591021
 10
71.2606677153
 20
67.9154810261
 10
71.258360382
 20
67.9345545124
 10
71.2575848176
 20
67.9541078865
 10
71.258360382
 20
67.973662434
 10
71.2606677153
 20
67.9927359203
 10
71.2644499116
 20
68.010856671
 10
71.269613692
 20
68.0275811711
 10
71.2760323378
 20
68.0424964121
 10
71.2835480377
 20
68.055235145
 10
71.2919748203
 20
68.0654840932
 10
71.3011055949
 20
68.0729909932
 10
71.3107162572
 20
68.077569287
 10
71.3205686233
 20
68.0791086825
  0
LINE
  5
2B2
330
1F
100
AcDbEntity
  8
SLD-0
  6
Continuous
370
    15
100
AcDbLine
 10
71.8244396559
 20
67.8291082639
 30
0.0
 11
71.3205686233
 21
67.8291082639
 31
0.0
  0
LINE
  5
2B3
330
1F
100
AcDbEntity
  8
SLD-0
  6
Continuous
370
    15
100
AcDbLine
 10
71.4273976292
 20
62.7041084816
 30
0.0
 11
71.4273976292
 21
64.8291079335
 31
0.0
  0
LINE
  5
2B4
330
1F
100
AcDbEntity
  8
SLD-0
  6
Continuous
370
    15
100
AcDbLine
 10
71.4185795444
 20
64.8291079335
 30
0.0
 11
71.4273976292
 21
64.8291079335
 31
0.0
  0
LINE
  5
2B5
330
1F
100
AcDbEntity
  8
SLD-0
  6
Continuous
370
    15
100
AcDbLine
 10
71.4185795444
 20
64.8291079335
 30
0.0
 11
70.5654206002
 21
64.8291079335
 31
0.0
  0
LINE
  5
2B6
330
1F
100
AcDbEntity
  8
SLD-0
  6
Continuous
370
    15
100
AcDbLine
 10
70.5654206002
 20
64.8291079335
 30
0.0
 11
70.5654206002
 21
79.3291084549
 31
0.0
  0
LINE
  5
2B7
330
1F
100
AcDbEntity
  8
SLD-0
  6
Continuous
370
    15
100
AcDbLine
 10
72.2894409508
 20
62.454108063
 30
0.0
 11
71.5533652407
 21
62.454108063
 31
0.0
  0
LINE
  5
2B8
330
1F
100
AcDbEntity
  8
SLD-0
  6
Continuous
370
    15
100
AcDbLine
 10
71.5533652407
 20
62.454108063
 30
0.0
 11
71.4273976292
 21
62.7041084816
 31
0.0
  0
LWPOLYLINE
  5
2B9
330
1F
100
AcDbEntity
  8
SLD-0
  6
Continuous
370
    15
100
AcDbPolyline
 90
       21
 70
   128
 43
0.0
 10
71.8244396559
 20
71.0791078396
 10
71.8342926088
 20
71.0775696174
 10
71.8439026844
 20
71.0729901503
 10
71.8530340456
 20
71.0654844236
 10
71.8614608282
 20
71.0552354754
 10
71.8689759414
 20
71.0424967425
 10
71.8753951739
 20
71.0275815015
 10
71.8805589543
 20
71.0108570014
 10
71.8843405639
 20
70.9927350774
 10
71.8866484839
 20
70.9736627644
 10
71.8874240483
 20
70.9541082169
 10
71.8866484839
 20
70.9345536695
 10
71.8843405639
 20
70.9154813565
 10
71.8805589543
 20
70.8973594325
 10
71.8753951739
 20
70.8806349324
 10
71.8689759414
 20
70.8657196913
 10
71.8614608282
 20
70.8529809585
 10
71.8530340456
 20
70.8427320102
 10
71.8439026844
 20
70.8352262836
 10
71.8342926088
 20
70.8306468165
 10
71.8244396559
 20
70.8291085943
  0
LINE
  5
2BA
330
1F
100
AcDbEntity
  8
SLD-0
  6
Continuous
370
    15
100
AcDbLine
 10
71.3205686233
 20
71.0791078396
 30
0.0
 11
71.8244396559
 21
71.0791078396
 31
0.0
  0
LWPOLYLINE
  5
2BB
330
1F
100
AcDbEntity
  8
SLD-0
  6
Continuous
370
    15
100
AcDbPolyline
 90
       21
 70
   128
 43
0.0
 10
71.3205686233
 20
70.8291085943
 10
71.3107162572
 20
70.8306468165
 10
71.3011055949
 20
70.8352262836
 10
71.2919748203
 20
70.8427320102
 10
71.2835480377
 20
70.8529809585
 10
71.2760323378
 20
70.8657196913
 10
71.269613692
 20
70.8806349324
 10
71.2644499116
 20
70.8973594325
 10
71.2606677153
 20
70.9154813565
 10
71.258360382
 20
70.9345536695
 10
71.2575848176
 20
70.9541082169
 10
71.258360382
 20
70.9736627644
 10
71.2606677153
 20
70.9927350774
 10
71.2644499116
 20
71.0108570014
 10
71.269613692
 20
71.0275815015
 10
71.2760323378
 20
71.0424967425
 10
71.2835480377
 20
71.0552354754
 10
71.2919748203
 20
71.0654844236
 10
71.3011055949
 20
71.0729901503
 10
71.3107162572
 20
71.0775696174
 10
71.3205686233
 20
71.0791078396
  0
LINE
  5
2BC
330
1F
100
AcDbEntity
  8
SLD-0
  6
Continuous
370
    15
100
AcDbLine
 10
71.8244396559
 20
70.8291085943
 30
0.0
 11
71.3205686233
 21
70.8291085943
 31
0.0
  0
LINE
  5
2BD
330
1F
100
AcDbEntity
  8
SLD-0
  6
Continuous
370
    15
100
AcDbLine
 10
72.2894409508
 20
79.3291084549
 30
0.0
 11
70.5654206002
 21
79.3291084549
 31
0.0
  0
LINE
  5
2BE
330
1F
100
AcDbEntity
  8
SLD-0
  6
Continuous
370
    15
100
AcDbLine
 10
74.0912013634
 20
79.3291084549
 30
0.0
 11
74.0912013634
 21
64.8291079335
 31
0.0
  0
LINE
  5
2BF
330
1F
100
AcDbEntity
  8
SLD-0
  6
Continuous
370
    15
100
AcDbLine
 10
74.0912013634
 20
64.8291079335
 30
0.0
 11
73.2380418325
 21
64.8291079335
 31
0.0
  0
LINE
  5
2C0
330
1F
100
AcDbEntity
  8
SLD-0
  6
Continuous
370
    15
100
AcDbLine
 10
73.2380418325
 20
64.8291079335
 30
0.0
 11
73.2292243344
 21
64.8291079335
 31
0.0
  0
LINE
  5
2C1
330
1F
100
AcDbEntity
  8
SLD-0
  6
Continuous
370
    15
100
AcDbLine
 10
73.2292243344
 20
62.7041084816
 30
0.0
 11
73.2292243344
 21
64.8291079335
 31
0.0
  0
LINE
  5
2C2
330
1F
100
AcDbEntity
  8
SLD-0
  6
Continuous
370
    15
100
AcDbLine
 10
73.1032567229
 20
62.454108063
 30
0.0
 11
73.2292243344
 21
62.7041084816
 31
0.0
  0
LINE
  5
2C3
330
1F
100
AcDbEntity
  8
SLD-0
  6
Continuous
370
    15
100
AcDbLine
 10
73.1032567229
 20
62.454108063
 30
0.0
 11
72.3671804261
 21
62.454108063
 31
0.0
  0
LINE
  5
2C4
330
1F
100
AcDbEntity
  8
SLD-0
  6
Continuous
370
    15
100
AcDbLine
 10
72.8321823077
 20
70.8291085943
 30
0.0
 11
73.3360527536
 21
70.8291085943
 31
0.0
  0
LWPOLYLINE
  5
2C5
330
1F
100
AcDbEntity
  8
SLD-0
  6
Continuous
370
    15
100
AcDbPolyline
 90
       21
 70
   128
 43
0.0
 10
73.3360527536
 20
70.8291085943
 10
73.3459062931
 20
70.8306468165
 10
73.3555157821
 20
70.8352262836
 10
73.3646465566
 20
70.8427320102
 10
73.3730733393
 20
70.8529809585
 10
73.3805896258
 20
70.8657196913
 10
73.387007685
 20
70.8806349324
 10
73.3921714653
 20
70.8973594325
 10
73.3959542483
 20
70.9154813565
 10
73.398260995
 20
70.9345536695
 10
73.3990365594
 20
70.9541082169
 10
73.398260995
 20
70.9736627644
 10
73.3959542483
 20
70.9927350774
 10
73.3921714653
 20
71.0108570014
 10
73.387007685
 20
71.0275815015
 10
73.3805896258
 20
71.0424967425
 10
73.3730733393
 20
71.0552354754
 10
73.3646465566
 20
71.0654844236
 10
73.3555157821
 20
71.0729901503
 10
73.3459062931
 20
71.0775696174
 10
73.3360527536
 20
71.0791078396
  0
LINE
  5
2C6
330
1F
100
AcDbEntity
  8
SLD-0
  6
Continuous
370
    15
100
AcDbLine
 10
73.3360527536
 20
71.0791078396
 30
0.0
 11
72.8321823077
 21
71.0791078396
 31
0.0
  0
LWPOLYLINE
  5
2C7
330
1F
100
AcDbEntity
  8
SLD-0
  6
Continuous
370
    15
100
AcDbPolyline
 90
       21
 70
   128
 43
0.0
 10
72.8321823077
 20
71.0791078396
 10
72.8223287682
 20
71.0775696174
 10
72.8127192792
 20
71.0729901503
 10
72.8035873314
 20
71.0654844236
 10
72.7951605487
 20
71.0552354754
 10
72.7876454355
 20
71.0424967425
 10
72.7812273764
 20
71.0275815015
 10
72.7760624227
 20
71.0108570014
 10
72.772280813
 20
70.9927350774
 10
72.769972893
 20
70.9736627644
 10
72.769198502
 20
70.9541082169
 10
72.769972893
 20
70.9345536695
 10
72.772280813
 20
70.9154813565
 10
72.7760624227
 20
70.8973594325
 10
72.7812273764
 20
70.8806349324
 10
72.7876454355
 20
70.8657196913
 10
72.7951605487
 20
70.8529809585
 10
72.8035873314
 20
70.8427320102
 10
72.8127192792
 20
70.8352262836
 10
72.8223287682
 20
70.8306468165
 10
72.8321823077
 20
70.8291085943
  0
LINE
  5
2C8
330
1F
100
AcDbEntity
  8
SLD-0
  6
Continuous
370
    15
100
AcDbLine
 10
72.8321823077
 20
67.8291082639
 30
0.0
 11
73.3360527536
 21
67.8291082639
 31
0.0
  0
LWPOLYLINE
  5
2C9
330
1F
100
AcDbEntity
  8
SLD-0
  6
Continuous
370
    15
100
AcDbPolyline
 90
       21
 70
   128
 43
0.0
 10
73.3360527536
 20
67.8291082639
 10
73.3459062931
 20
67.8306476594
 10
73.3555157821
 20
67.8352259532
 10
73.3646465566
 20
67.8427328532
 10
73.3730733393
 20
67.8529818014
 10
73.3805896258
 20
67.8657205343
 10
73.387007685
 20
67.8806357753
 10
73.3921714653
 20
67.8973591021
 10
73.3959542483
 20
67.9154810261
 10
73.398260995
 20
67.9345545124
 10
73.3990365594
 20
67.9541078865
 10
73.398260995
 20
67.973662434
 10
73.3959542483
 20
67.9927359203
 10
73.3921714653
 20
68.010856671
 10
73.387007685
 20
68.0275811711
 10
73.3805896258
 20
68.0424964121
 10
73.3730733393
 20
68.055235145
 10
73.3646465566
 20
68.0654840932
 10
73.3555157821
 20
68.0729909932
 10
73.3459062931
 20
68.077569287
 10
73.3360527536
 20
68.0791086825
  0
LINE
  5
2CA
330
1F
100
AcDbEntity
  8
SLD-0
  6
Continuous
370
    15
100
AcDbLine
 10
73.3360527536
 20
68.0791086825
 30
0.0
 11
72.8321823077
 21
68.0791086825
 31
0.0
  0
LWPOLYLINE
  5
2CB
330
1F
100
AcDbEntity
  8
SLD-0
  6
Continuous
370
    15
100
AcDbPolyline
 90
       21
 70
   128
 43
0.0
 10
72.8321823077
 20
68.0791086825
 10
72.8223287682
 20
68.077569287
 10
72.8127192792
 20
68.0729909932
 10
72.8035873314
 20
68.0654840932
 10
72.7951605487
 20
68.055235145
 10
72.7876454355
 20
68.0424964121
 10
72.7812273764
 20
68.0275811711
 10
72.7760624227
 20
68.010856671
 10
72.772280813
 20
67.9927359203
 10
72.769972893
 20
67.973662434
 10
72.769198502
 20
67.9541078865
 10
72.769972893
 20
67.9345545124
 10
72.772280813
 20
67.9154810261
 10
72.7760624227
 20
67.8973591021
 10
72.7812273764
 20
67.8806357753
 10
72.7876454355
 20
67.8657205343
 10
72.7951605487
 20
67.8529818014
 10
72.8035873314
 20
67.8427328532
 10
72.8127192792
 20
67.8352259532
 10
72.8223287682
 20
67.8306476594
 10
72.8321823077
 20
67.8291082639
  0
LINE
  5
2CC
330
1F
100
AcDbEntity
  8
SLD-0
  6
Continuous
370
    15
100
AcDbLine
 10
74.0912013634
 20
79.3291084549
 30
0.0
 11
72.3671804261
 21
79.3291084549
 31
0.0
  0
LWPOLYLINE
  5
2CD
330
1F
100
AcDbEntity
  8
SLD-0
  6
Continuous
370
    15
100
AcDbPolyline
 90
       21
 70
   128
 43
0.0
 10
73.3101399863
 20
70.8291085943
 10
73.3199923525
 20
70.8306468165
 10
73.3296030148
 20
70.8352262836
 10
73.3387337893
 20
70.8427320102
 10
73.347160572
 20
70.8529809585
 10
73.3546756852
 20
70.8657196913
 10
73.3610949177
 20
70.8806349324
 10
73.366258698
 20
70.8973594325
 10
73.3700403077
 20
70.9154813565
 10
73.3723482277
 20
70.9345536695
 10
73.3731237921
 20
70.9541082169
 10
73.3723482277
 20
70.9736627644
 10
73.3700403077
 20
70.9927350774
 10
73.366258698
 20
71.0108570014
 10
73.3610949177
 20
71.0275815015
 10
73.3546756852
 20
71.0424967425
 10
73.347160572
 20
71.0552354754
 10
73.3387337893
 20
71.0654844236
 10
73.3296030148
 20
71.0729901503
 10
73.3199923525
 20
71.0775696174
 10
73.3101399863
 20
71.0791078396
  0
LWPOLYLINE
  5
2CE
330
1F
100
AcDbEntity
  8
SLD-0
  6
Continuous
370
    15
100
AcDbPolyline
 90
       21
 70
   128
 43
0.0
 10
71.3464819773
 20
70.8291085943
 10
71.3366296111
 20
70.8306468165
 10
71.3270189488
 20
70.8352262836
 10
71.3178881743
 20
70.8427320102
 10
71.3094613917
 20
70.8529809585
 10
71.3019456918
 20
70.8657196913
 10
71.295527046
 20
70.8806349324
 10
71.2903632656
 20
70.8973594325
 10
71.2865810693
 20
70.9154813565
 10
71.284273736
 20
70.9345536695
 10
71.2834981716
 20
70.9541082169
 10
71.284273736
 20
70.9736627644
 10
71.2865810693
 20
70.9927350774
 10
71.2903632656
 20
71.0108570014
 10
71.295527046
 20
71.0275815015
 10
71.3019456918
 20
71.0424967425
 10
71.3094613917
 20
71.0552354754
 10
71.3178881743
 20
71.0654844236
 10
71.3270189488
 20
71.0729901503
 10
71.3366296111
 20
71.0775696174
 10
71.3464819773
 20
71.0791078396
  0
LWPOLYLINE
  5
2CF
330
1F
100
AcDbEntity
  8
SLD-0
  6
Continuous
370
    15
100
AcDbPolyline
 90
       21
 70
   128
 43
0.0
 10
71.3464819773
 20
67.8291082639
 10
71.3366296111
 20
67.8306476594
 10
71.3270189488
 20
67.8352259532
 10
71.3178881743
 20
67.8427328532
 10
71.3094613917
 20
67.8529818014
 10
71.3019456918
 20
67.8657205343
 10
71.295527046
 20
67.8806357753
 10
71.2903632656
 20
67.8973591021
 10
71.2865810693
 20
67.9154810261
 10
71.284273736
 20
67.9345545124
 10
71.2834981716
 20
67.9541078865
 10
71.284273736
 20
67.973662434
 10
71.2865810693
 20
67.9927359203
 10
71.2903632656
 20
68.010856671
 10
71.295527046
 20
68.0275811711
 10
71.3019456918
 20
68.0424964121
 10
71.3094613917
 20
68.055235145
 10
71.3178881743
 20
68.0654840932
 10
71.3270189488
 20
68.0729909932
 10
71.3366296111
 20
68.077569287
 10
71.3464819773
 20
68.0791086825
  0
LWPOLYLINE
  5
2D0
330
1F
100
AcDbEntity
  8
SLD-0
  6
Continuous
370
    15
100
AcDbPolyline
 90
       21
 70
   128
 43
0.0
 10
73.3101399863
 20
67.8291082639
 10
73.3199923525
 20
67.8306476594
 10
73.3296030148
 20
67.8352259532
 10
73.3387337893
 20
67.8427328532
 10
73.347160572
 20
67.8529818014
 10
73.3546756852
 20
67.8657205343
 10
73.3610949177
 20
67.8806357753
 10
73.366258698
 20
67.8973591021
 10
73.3700403077
 20
67.9154810261
 10
73.3723482277
 20
67.9345545124
 10
73.3731237921
 20
67.9541078865
 10
73.3723482277
 20
67.973662434
 10
73.3700403077
 20
67.9927359203
 10
73.366258698
 20
68.010856671
 10
73.3610949177
 20
68.0275811711
 10
73.3546756852
 20
68.0424964121
 10
73.347160572
 20
68.055235145
 10
73.3387337893
 20
68.0654840932
 10
73.3296030148
 20
68.0729909932
 10
73.3199923525
 20
68.077569287
 10
73.3101399863
 20
68.0791086825
  0
LINE
  5
2D1
330
1F
100
AcDbEntity
  8
SLD-0
  6
Continuous
370
    15
100
AcDbLine
 10
70.5654206002
 20
79.3291084549
 30
0.0
 11
70.5524642166
 21
79.3291084549
 31
0.0
  0
LINE
  5
2D2
330
1F
100
AcDbEntity
  8
SLD-0
  6
Continuous
370
    15
100
AcDbLine
 10
70.5524642166
 20
64.8291079335
 30
0.0
 11
70.5654206002
 21
64.8291079335
 31
0.0
  0
LINE
  5
2D3
330
1F
100
AcDbEntity
  8
SLD-0
  6
Continuous
370
    15
100
AcDbLine
 10
70.5524642166
 20
79.3291084549
 30
0.0
 11
70.5524642166
 21
64.8291079335
 31
0.0
  0
LINE
  5
2D4
330
1F
100
AcDbEntity
  8
SLD-0
  6
Continuous
370
    15
100
AcDbLine
 10
74.1041571604
 20
79.3291084549
 30
0.0
 11
74.1041571604
 21
64.8291079335
 31
0.0
  0
LINE
  5
2D5
330
1F
100
AcDbEntity
  8
SLD-0
  6
Continuous
370
    15
100
AcDbLine
 10
74.1041571604
 20
64.8291079335
 30
0.0
 11
74.0912013634
 21
64.8291079335
 31
0.0
  0
LINE
  5
2D6
330
1F
100
AcDbEntity
  8
SLD-0
  6
Continuous
370
    15
100
AcDbLine
 10
74.0912013634
 20
79.3291084549
 30
0.0
 11
74.1041571604
 21
79.3291084549
 31
0.0
  0
LINE
  5
2D7
330
1F
100
AcDbEntity
  8
SLD-0
  6
Continuous
370
    15
100
AcDbLine
 10
74.5783109363
 20
79.3291084549
 30
0.0
 11
74.5783109363
 21
64.8291079335
 31
0.0
  0
LINE
  5
2D8
330
1F
100
AcDbEntity
  8
SLD-0
  6
Continuous
370
    15
100
AcDbLine
 10
74.5783109363
 20
64.8291079335
 30
0.0
 11
74.1041571604
 21
64.8291079335
 31
0.0
  0
LINE
  5
2D9
330
1F
100
AcDbEntity
  8
SLD-0
  6
Continuous
370
    15
100
AcDbLine
 10
74.5783109363
 20
79.3291084549
 30
0.0
 11
74.1041571604
 21
79.3291084549
 31
0.0
  0
LINE
  5
2DA
330
1F
100
AcDbEntity
  8
SLD-0
  6
Continuous
370
    15
100
AcDbLine
 10
70.5524642166
 20
64.8291079335
 30
0.0
 11
70.0783110273
 21
64.8291079335
 31
0.0
  0
LINE
  5
2DB
330
1F
100
AcDbEntity
  8
SLD-0
  6
Continuous
370
    15
100
AcDbLine
 10
70.0783110273
 20
79.3291084549
 30
0.0
 11
70.0783110273
 21
64.8291079335
 31
0.0
  0
LINE
  5
2DC
330
1F
100
AcDbEntity
  8
SLD-0
  6
Continuous
370
    15
100
AcDbLine
 10
70.5524642166
 20
79.3291084549
 30
0.0
 11
70.0783110273
 21
79.3291084549
 31
0.0
  0
LINE
  5
2DD
330
1F
100
AcDbEntity
  8
SLD-0
  6
Continuous
370
    15
100
AcDbLine
 10
51.7271807812
 20
62.454108063
 30
0.0
 11
51.7271807812
 21
79.3291084549
 31
0.0
  0
LINE
  5
2DE
330
1F
100
AcDbEntity
  8
SLD-0
  6
Continuous
370
    15
100
AcDbLine
 10
51.7271807812
 20
62.454108063
 30
0.0
 11
51.6494413059
 21
62.454108063
 31
0.0
  0
LINE
  5
2DF
330
1F
100
AcDbEntity
  8
SLD-0
  6
Continuous
370
    15
100
AcDbLine
 10
51.6494413059
 20
79.3291084549
 30
0.0
 11
51.6494413059
 21
62.454108063
 31
0.0
  0
LINE
  5
2E0
330
1F
100
AcDbEntity
  8
SLD-0
  6
Continuous
370
    15
100
AcDbLine
 10
51.6494413059
 20
79.3291084549
 30
0.0
 11
51.7271807812
 21
79.3291084549
 31
0.0
  0
LWPOLYLINE
  5
2E1
330
1F
100
AcDbEntity
  8
SLD-0
  6
Continuous
370
    15
100
AcDbPolyline
 90
       21
 70
   128
 43
0.0
 10
51.1844394243
 20
68.0791086825
 10
51.1942929638
 20
68.077569287
 10
51.2039024528
 20
68.0729909932
 10
51.2130344006
 20
68.0654840932
 10
51.2214611833
 20
68.055235145
 10
51.2289762965
 20
68.0424964121
 10
51.2353943557
 20
68.0275811711
 10
51.2405593093
 20
68.010856671
 10
51.244340919
 20
67.9927359203
 10
51.246648839
 20
67.973662434
 10
51.24742323
 20
67.9541078865
 10
51.246648839
 20
67.9345545124
 10
51.244340919
 20
67.9154810261
 10
51.2405593093
 20
67.8973591021
 10
51.2353943557
 20
67.8806357753
 10
51.2289762965
 20
67.8657205343
 10
51.2214611833
 20
67.8529818014
 10
51.2130344006
 20
67.8427328532
 10
51.2039024528
 20
67.8352259532
 10
51.1942929638
 20
67.8306476594
 10
51.1844394243
 20
67.8291082639
  0
LINE
  5
2E2
330
1F
100
AcDbEntity
  8
SLD-0
  6
Continuous
370
    15
100
AcDbLine
 10
51.1844394243
 20
68.0791086825
 30
0.0
 11
50.6805689784
 21
68.0791086825
 31
0.0
  0
LWPOLYLINE
  5
2E3
330
1F
100
AcDbEntity
  8
SLD-0
  6
Continuous
370
    15
100
AcDbPolyline
 90
       21
 70
   128
 43
0.0
 10
50.6805689784
 20
67.8291082639
 10
50.6707154389
 20
67.8306476594
 10
50.6611059499
 20
67.8352259532
 10
50.6519751754
 20
67.8427328532
 10
50.6435483927
 20
67.8529818014
 10
50.6360321062
 20
67.8657205343
 10
50.629614047
 20
67.8806357753
 10
50.6244502667
 20
67.8973591021
 10
50.6206674837
 20
67.9154810261
 10
50.618360737
 20
67.9345545124
 10
50.6175851726
 20
67.9541078865
 10
50.618360737
 20
67.973662434
 10
50.6206674837
 20
67.9927359203
 10
50.6244502667
 20
68.010856671
 10
50.629614047
 20
68.0275811711
 10
50.6360321062
 20
68.0424964121
 10
50.6435483927
 20
68.055235145
 10
50.6519751754
 20
68.0654840932
 10
50.6611059499
 20
68.0729909932
 10
50.6707154389
 20
68.077569287
 10
50.6805689784
 20
68.0791086825
  0
LINE
  5
2E4
330
1F
100
AcDbEntity
  8
SLD-0
  6
Continuous
370
    15
100
AcDbLine
 10
51.1844394243
 20
67.8291082639
 30
0.0
 11
50.6805689784
 21
67.8291082639
 31
0.0
  0
LINE
  5
2E5
330
1F
100
AcDbEntity
  8
SLD-0
  6
Continuous
370
    15
100
AcDbLine
 10
50.7873973976
 20
62.7041084816
 30
0.0
 11
50.7873973976
 21
64.8291079335
 31
0.0
  0
LINE
  5
2E6
330
1F
100
AcDbEntity
  8
SLD-0
  6
Continuous
370
    15
100
AcDbLine
 10
50.7785798995
 20
64.8291079335
 30
0.0
 11
50.7873973976
 21
64.8291079335
 31
0.0
  0
LINE
  5
2E7
330
1F
100
AcDbEntity
  8
SLD-0
  6
Continuous
370
    15
100
AcDbLine
 10
50.7785798995
 20
64.8291079335
 30
0.0
 11
49.9254203686
 21
64.8291079335
 31
0.0
  0
LINE
  5
2E8
330
1F
100
AcDbEntity
  8
SLD-0
  6
Continuous
370
    15
100
AcDbLine
 10
49.9254203686
 20
64.8291079335
 30
0.0
 11
49.9254203686
 21
79.3291084549
 31
0.0
  0
LINE
  5
2E9
330
1F
100
AcDbEntity
  8
SLD-0
  6
Continuous
370
    15
100
AcDbLine
 10
51.6494413059
 20
79.3291084549
 30
0.0
 11
49.9254203686
 21
79.3291084549
 31
0.0
  0
LINE
  5
2EA
330
1F
100
AcDbEntity
  8
SLD-0
  6
Continuous
370
    15
100
AcDbLine
 10
51.6494413059
 20
62.454108063
 30
0.0
 11
50.9133650091
 21
62.454108063
 31
0.0
  0
LINE
  5
2EB
330
1F
100
AcDbEntity
  8
SLD-0
  6
Continuous
370
    15
100
AcDbLine
 10
50.9133650091
 20
62.454108063
 30
0.0
 11
50.7873973976
 21
62.7041084816
 31
0.0
  0
LWPOLYLINE
  5
2EC
330
1F
100
AcDbEntity
  8
SLD-0
  6
Continuous
370
    15
100
AcDbPolyline
 90
       21
 70
   128
 43
0.0
 10
51.1844394243
 20
71.0791078396
 10
51.1942929638
 20
71.0775696174
 10
51.2039024528
 20
71.0729901503
 10
51.2130344006
 20
71.0654844236
 10
51.2214611833
 20
71.0552354754
 10
51.2289762965
 20
71.0424967425
 10
51.2353943557
 20
71.0275815015
 10
51.2405593093
 20
71.0108570014
 10
51.244340919
 20
70.9927350774
 10
51.246648839
 20
70.9736627644
 10
51.24742323
 20
70.9541082169
 10
51.246648839
 20
70.9345536695
 10
51.244340919
 20
70.9154813565
 10
51.2405593093
 20
70.8973594325
 10
51.2353943557
 20
70.8806349324
 10
51.2289762965
 20
70.8657196913
 10
51.2214611833
 20
70.8529809585
 10
51.2130344006
 20
70.8427320102
 10
51.2039024528
 20
70.8352262836
 10
51.1942929638
 20
70.8306468165
 10
51.1844394243
 20
70.8291085943
  0
LINE
  5
2ED
330
1F
100
AcDbEntity
  8
SLD-0
  6
Continuous
370
    15
100
AcDbLine
 10
50.6805689784
 20
71.0791078396
 30
0.0
 11
51.1844394243
 21
71.0791078396
 31
0.0
  0
LWPOLYLINE
  5
2EE
330
1F
100
AcDbEntity
  8
SLD-0
  6
Continuous
370
    15
100
AcDbPolyline
 90
       21
 70
   128
 43
0.0
 10
50.6805689784
 20
70.8291085943
 10
50.6707154389
 20
70.8306468165
 10
50.6611059499
 20
70.8352262836
 10
50.6519751754
 20
70.8427320102
 10
50.6435483927
 20
70.8529809585
 10
50.6360321062
 20
70.8657196913
 10
50.629614047
 20
70.8806349324
 10
50.6244502667
 20
70.8973594325
 10
50.6206674837
 20
70.9154813565
 10
50.618360737
 20
70.9345536695
 10
50.6175851726
 20
70.9541082169
 10
50.618360737
 20
70.9736627644
 10
50.6206674837
 20
70.9927350774
 10
50.6244502667
 20
71.0108570014
 10
50.629614047
 20
71.0275815015
 10
50.6360321062
 20
71.0424967425
 10
50.6435483927
 20
71.0552354754
 10
50.6519751754
 20
71.0654844236
 10
50.6611059499
 20
71.0729901503
 10
50.6707154389
 20
71.0775696174
 10
50.6805689784
 20
71.0791078396
  0
LINE
  5
2EF
330
1F
100
AcDbEntity
  8
SLD-0
  6
Continuous
370
    15
100
AcDbLine
 10
51.1844394243
 20
70.8291085943
 30
0.0
 11
50.6805689784
 21
70.8291085943
 31
0.0
  0
LINE
  5
2F0
330
1F
100
AcDbEntity
  8
SLD-0
  6
Continuous
370
    15
100
AcDbLine
 10
53.4512011318
 20
79.3291084549
 30
0.0
 11
53.4512011318
 21
64.8291079335
 31
0.0
  0
LINE
  5
2F1
330
1F
100
AcDbEntity
  8
SLD-0
  6
Continuous
370
    15
100
AcDbLine
 10
53.4512011318
 20
64.8291079335
 30
0.0
 11
52.5980421876
 21
64.8291079335
 31
0.0
  0
LINE
  5
2F2
330
1F
100
AcDbEntity
  8
SLD-0
  6
Continuous
370
    15
100
AcDbLine
 10
52.5980421876
 20
64.8291079335
 30
0.0
 11
52.5892241028
 21
64.8291079335
 31
0.0
  0
LINE
  5
2F3
330
1F
100
AcDbEntity
  8
SLD-0
  6
Continuous
370
    15
100
AcDbLine
 10
52.5892241028
 20
62.7041084816
 30
0.0
 11
52.5892241028
 21
64.8291079335
 31
0.0
  0
LINE
  5
2F4
330
1F
100
AcDbEntity
  8
SLD-0
  6
Continuous
370
    15
100
AcDbLine
 10
52.4632564913
 20
62.454108063
 30
0.0
 11
52.5892241028
 21
62.7041084816
 31
0.0
  0
LINE
  5
2F5
330
1F
100
AcDbEntity
  8
SLD-0
  6
Continuous
370
    15
100
AcDbLine
 10
52.4632564913
 20
62.454108063
 30
0.0
 11
51.7271807812
 21
62.454108063
 31
0.0
  0
LINE
  5
2F6
330
1F
100
AcDbEntity
  8
SLD-0
  6
Continuous
370
    15
100
AcDbLine
 10
52.1921820761
 20
70.8291085943
 30
0.0
 11
52.6960531087
 21
70.8291085943
 31
0.0
  0
LWPOLYLINE
  5
2F7
330
1F
100
AcDbEntity
  8
SLD-0
  6
Continuous
370
    15
100
AcDbPolyline
 90
       21
 70
   128
 43
0.0
 10
52.6960531087
 20
70.8291085943
 10
52.7059054749
 20
70.8306468165
 10
52.7155161372
 20
70.8352262836
 10
52.7246469117
 20
70.8427320102
 10
52.7330736943
 20
70.8529809585
 10
52.7405893942
 20
70.8657196913
 10
52.74700804
 20
70.8806349324
 10
52.7521718204
 20
70.8973594325
 10
52.7559540167
 20
70.9154813565
 10
52.75826135
 20
70.9345536695
 10
52.7590369144
 20
70.9541082169
 10
52.75826135
 20
70.9736627644
 10
52.7559540167
 20
70.9927350774
 10
52.7521718204
 20
71.0108570014
 10
52.74700804
 20
71.0275815015
 10
52.7405893942
 20
71.0424967425
 10
52.7330736943
 20
71.0552354754
 10
52.7246469117
 20
71.0654844236
 10
52.7155161372
 20
71.0729901503
 10
52.7059054749
 20
71.0775696174
 10
52.6960531087
 20
71.0791078396
  0
LINE
  5
2F8
330
1F
100
AcDbEntity
  8
SLD-0
  6
Continuous
370
    15
100
AcDbLine
 10
52.6960531087
 20
71.0791078396
 30
0.0
 11
52.1921820761
 21
71.0791078396
 31
0.0
  0
LWPOLYLINE
  5
2F9
330
1F
100
AcDbEntity
  8
SLD-0
  6
Continuous
370
    15
100
AcDbPolyline
 90
       21
 70
   128
 43
0.0
 10
52.1921820761
 20
71.0791078396
 10
52.1823291233
 20
71.0775696174
 10
52.1727190476
 20
71.0729901503
 10
52.1635876864
 20
71.0654844236
 10
52.1551609038
 20
71.0552354754
 10
52.1476457906
 20
71.0424967425
 10
52.1412265581
 20
71.0275815015
 10
52.1360627777
 20
71.0108570014
 10
52.1322811681
 20
70.9927350774
 10
52.1299732481
 20
70.9736627644
 10
52.1291976837
 20
70.9541082169
 10
52.1299732481
 20
70.9345536695
 10
52.1322811681
 20
70.9154813565
 10
52.1360627777
 20
70.8973594325
 10
52.1412265581
 20
70.8806349324
 10
52.1476457906
 20
70.8657196913
 10
52.1551609038
 20
70.8529809585
 10
52.1635876864
 20
70.8427320102
 10
52.1727190476
 20
70.8352262836
 10
52.1823291233
 20
70.8306468165
 10
52.1921820761
 20
70.8291085943
  0
LINE
  5
2FA
330
1F
100
AcDbEntity
  8
SLD-0
  6
Continuous
370
    15
100
AcDbLine
 10
52.1921820761
 20
67.8291082639
 30
0.0
 11
52.6960531087
 21
67.8291082639
 31
0.0
  0
LWPOLYLINE
  5
2FB
330
1F
100
AcDbEntity
  8
SLD-0
  6
Continuous
370
    15
100
AcDbPolyline
 90
       21
 70
   128
 43
0.0
 10
52.6960531087
 20
67.8291082639
 10
52.7059054749
 20
67.8306476594
 10
52.7155161372
 20
67.8352259532
 10
52.7246469117
 20
67.8427328532
 10
52.7330736943
 20
67.8529818014
 10
52.7405893942
 20
67.8657205343
 10
52.74700804
 20
67.8806357753
 10
52.7521718204
 20
67.8973591021
 10
52.7559540167
 20
67.9154810261
 10
52.75826135
 20
67.9345545124
 10
52.7590369144
 20
67.9541078865
 10
52.75826135
 20
67.973662434
 10
52.7559540167
 20
67.9927359203
 10
52.7521718204
 20
68.010856671
 10
52.74700804
 20
68.0275811711
 10
52.7405893942
 20
68.0424964121
 10
52.7330736943
 20
68.055235145
 10
52.7246469117
 20
68.0654840932
 10
52.7155161372
 20
68.0729909932
 10
52.7059054749
 20
68.077569287
 10
52.6960531087
 20
68.0791086825
  0
LINE
  5
2FC
330
1F
100
AcDbEntity
  8
SLD-0
  6
Continuous
370
    15
100
AcDbLine
 10
52.6960531087
 20
68.0791086825
 30
0.0
 11
52.1921820761
 21
68.0791086825
 31
0.0
  0
LWPOLYLINE
  5
2FD
330
1F
100
AcDbEntity
  8
SLD-0
  6
Continuous
370
    15
100
AcDbPolyline
 90
       21
 70
   128
 43
0.0
 10
52.1921820761
 20
68.0791086825
 10
52.1823291233
 20
68.077569287
 10
52.1727190476
 20
68.0729909932
 10
52.1635876864
 20
68.0654840932
 10
52.1551609038
 20
68.055235145
 10
52.1476457906
 20
68.0424964121
 10
52.1412265581
 20
68.0275811711
 10
52.1360627777
 20
68.010856671
 10
52.1322811681
 20
67.9927359203
 10
52.1299732481
 20
67.973662434
 10
52.1291976837
 20
67.9541078865
 10
52.1299732481
 20
67.9345545124
 10
52.1322811681
 20
67.9154810261
 10
52.1360627777
 20
67.8973591021
 10
52.1412265581
 20
67.8806357753
 10
52.1476457906
 20
67.8657205343
 10
52.1551609038
 20
67.8529818014
 10
52.1635876864
 20
67.8427328532
 10
52.1727190476
 20
67.8352259532
 10
52.1823291233
 20
67.8306476594
 10
52.1921820761
 20
67.8291082639
  0
LINE
  5
2FE
330
1F
100
AcDbEntity
  8
SLD-0
  6
Continuous
370
    15
100
AcDbLine
 10
53.4512011318
 20
79.3291084549
 30
0.0
 11
51.7271807812
 21
79.3291084549
 31
0.0
  0
LWPOLYLINE
  5
2FF
330
1F
100
AcDbEntity
  8
SLD-0
  6
Continuous
370
    15
100
AcDbPolyline
 90
       21
 70
   128
 43
0.0
 10
50.7064817457
 20
70.8291085943
 10
50.6966293795
 20
70.8306468165
 10
50.6870187172
 20
70.8352262836
 10
50.6778879427
 20
70.8427320102
 10
50.66946116
 20
70.8529809585
 10
50.6619460468
 20
70.8657196913
 10
50.6555268143
 20
70.8806349324
 10
50.650363034
 20
70.8973594325
 10
50.6465814243
 20
70.9154813565
 10
50.6442735043
 20
70.9345536695
 10
50.64349794
 20
70.9541082169
 10
50.6442735043
 20
70.9736627644
 10
50.6465814243
 20
70.9927350774
 10
50.650363034
 20
71.0108570014
 10
50.6555268143
 20
71.0275815015
 10
50.6619460468
 20
71.0424967425
 10
50.66946116
 20
71.0552354754
 10
50.6778879427
 20
71.0654844236
 10
50.6870187172
 20
71.0729901503
 10
50.6966293795
 20
71.0775696174
 10
50.7064817457
 20
71.0791078396
  0
LWPOLYLINE
  5
300
330
1F
100
AcDbEntity
  8
SLD-0
  6
Continuous
370
    15
100
AcDbPolyline
 90
       21
 70
   128
 43
0.0
 10
52.6701397547
 20
70.8291085943
 10
52.6799921209
 20
70.8306468165
 10
52.6896027832
 20
70.8352262836
 10
52.6987335577
 20
70.8427320102
 10
52.7071603404
 20
70.8529809585
 10
52.7146760402
 20
70.8657196913
 10
52.7210946861
 20
70.8806349324
 10
52.7262584664
 20
70.8973594325
 10
52.7300406627
 20
70.9154813565
 10
52.7323479961
 20
70.9345536695
 10
52.7331235604
 20
70.9541082169
 10
52.7323479961
 20
70.9736627644
 10
52.7300406627
 20
70.9927350774
 10
52.7262584664
 20
71.0108570014
 10
52.7210946861
 20
71.0275815015
 10
52.7146760402
 20
71.0424967425
 10
52.7071603404
 20
71.0552354754
 10
52.6987335577
 20
71.0654844236
 10
52.6896027832
 20
71.0729901503
 10
52.6799921209
 20
71.0775696174
 10
52.6701397547
 20
71.0791078396
  0
LWPOLYLINE
  5
301
330
1F
100
AcDbEntity
  8
SLD-0
  6
Continuous
370
    15
100
AcDbPolyline
 90
       21
 70
   128
 43
0.0
 10
52.6701397547
 20
67.8291082639
 10
52.6799921209
 20
67.8306476594
 10
52.6896027832
 20
67.8352259532
 10
52.6987335577
 20
67.8427328532
 10
52.7071603404
 20
67.8529818014
 10
52.7146760402
 20
67.8657205343
 10
52.7210946861
 20
67.8806357753
 10
52.7262584664
 20
67.8973591021
 10
52.7300406627
 20
67.9154810261
 10
52.7323479961
 20
67.9345545124
 10
52.7331235604
 20
67.9541078865
 10
52.7323479961
 20
67.973662434
 10
52.7300406627
 20
67.9927359203
 10
52.7262584664
 20
68.010856671
 10
52.7210946861
 20
68.0275811711
 10
52.7146760402
 20
68.0424964121
 10
52.7071603404
 20
68.055235145
 10
52.6987335577
 20
68.0654840932
 10
52.6896027832
 20
68.0729909932
 10
52.6799921209
 20
68.077569287
 10
52.6701397547
 20
68.0791086825
  0
LWPOLYLINE
  5
302
330
1F
100
AcDbEntity
  8
SLD-0
  6
Continuous
370
    15
100
AcDbPolyline
 90
       21
 70
   128
 43
0.0
 10
50.7064817457
 20
67.8291082639
 10
50.6966293795
 20
67.8306476594
 10
50.6870187172
 20
67.8352259532
 10
50.6778879427
 20
67.8427328532
 10
50.66946116
 20
67.8529818014
 10
50.6619460468
 20
67.8657205343
 10
50.6555268143
 20
67.8806357753
 10
50.650363034
 20
67.8973591021
 10
50.6465814243
 20
67.9154810261
 10
50.6442735043
 20
67.9345545124
 10
50.64349794
 20
67.9541078865
 10
50.6442735043
 20
67.973662434
 10
50.6465814243
 20
67.9927359203
 10
50.650363034
 20
68.010856671
 10
50.6555268143
 20
68.0275811711
 10
50.6619460468
 20
68.0424964121
 10
50.66946116
 20
68.055235145
 10
50.6778879427
 20
68.0654840932
 10
50.6870187172
 20
68.0729909932
 10
50.6966293795
 20
68.077569287
 10
50.7064817457
 20
68.0791086825
  0
LINE
  5
303
330
1F
100
AcDbEntity
  8
SLD-0
  6
Continuous
370
    15
100
AcDbLine
 10
49.9254203686
 20
79.3291084549
 30
0.0
 11
49.9124645716
 21
79.3291084549
 31
0.0
  0
LINE
  5
304
330
1F
100
AcDbEntity
  8
SLD-0
  6
Continuous
370
    15
100
AcDbLine
 10
49.9124645716
 20
64.8291079335
 30
0.0
 11
49.9254203686
 21
64.8291079335
 31
0.0
  0
LINE
  5
305
330
1F
100
AcDbEntity
  8
SLD-0
  6
Continuous
370
    15
100
AcDbLine
 10
49.9124645716
 20
79.3291084549
 30
0.0
 11
49.9124645716
 21
64.8291079335
 31
0.0
  0
LINE
  5
306
330
1F
100
AcDbEntity
  8
SLD-0
  6
Continuous
370
    15
100
AcDbLine
 10
53.4641575155
 20
79.3291084549
 30
0.0
 11
53.4641575155
 21
64.8291079335
 31
0.0
  0
LINE
  5
307
330
1F
100
AcDbEntity
  8
SLD-0
  6
Continuous
370
    15
100
AcDbLine
 10
53.4641575155
 20
64.8291079335
 30
0.0
 11
53.4512011318
 21
64.8291079335
 31
0.0
  0
LINE
  5
308
330
1F
100
AcDbEntity
  8
SLD-0
  6
Continuous
370
    15
100
AcDbLine
 10
53.4512011318
 20
79.3291084549
 30
0.0
 11
53.4641575155
 21
79.3291084549
 31
0.0
  0
LINE
  5
309
330
1F
100
AcDbEntity
  8
SLD-0
  6
Continuous
370
    15
100
AcDbLine
 10
49.9124645716
 20
64.8291079335
 30
0.0
 11
49.4383107957
 21
64.8291079335
 31
0.0
  0
LINE
  5
30A
330
1F
100
AcDbEntity
  8
SLD-0
  6
Continuous
370
    15
100
AcDbLine
 10
49.4383107957
 20
79.3291084549
 30
0.0
 11
49.4383107957
 21
64.8291079335
 31
0.0
  0
LINE
  5
30B
330
1F
100
AcDbEntity
  8
SLD-0
  6
Continuous
370
    15
100
AcDbLine
 10
49.9124645716
 20
79.3291084549
 30
0.0
 11
49.4383107957
 21
79.3291084549
 31
0.0
  0
LINE
  5
30C
330
1F
100
AcDbEntity
  8
SLD-0
  6
Continuous
370
    15
100
AcDbLine
 10
53.9383107047
 20
79.3291084549
 30
0.0
 11
53.9383107047
 21
64.8291079335
 31
0.0
  0
LINE
  5
30D
330
1F
100
AcDbEntity
  8
SLD-0
  6
Continuous
370
    15
100
AcDbLine
 10
53.9383107047
 20
64.8291079335
 30
0.0
 11
53.4641575155
 21
64.8291079335
 31
0.0
  0
LINE
  5
30E
330
1F
100
AcDbEntity
  8
SLD-0
  6
Continuous
370
    15
100
AcDbLine
 10
53.9383107047
 20
79.3291084549
 30
0.0
 11
53.4641575155
 21
79.3291084549
 31
0.0
  0
LINE
  5
30F
330
1F
100
AcDbEntity
  8
SLD-0
  6
Continuous
370
    15
100
AcDbLine
 10
80.2927208696
 20
79.9249616715
 30
0.0
 11
80.0848391111
 21
80.9029653602
 31
0.0
  0
LWPOLYLINE
  5
310
330
1F
100
AcDbEntity
  8
SLD-0
  6
Continuous
370
    15
100
AcDbPolyline
 90
        3
 70
   128
 43
0.0
 10
80.0784034521
 20
80.9192519004
 10
80.0822390344
 20
80.9115367912
 10
80.0848391111
 20
80.9029653602
  0
LINE
  5
311
330
1F
100
AcDbEntity
  8
SLD-0
  6
Continuous
370
    15
100
AcDbLine
 10
83.5150676448
 20
62.4787078855
 30
0.0
 11
83.5150676448
 21
62.5897086299
 31
0.0
  0
LINE
  5
312
330
1F
100
AcDbEntity
  8
SLD-0
  6
Continuous
370
    15
100
AcDbLine
 10
83.5150676448
 20
62.9647086712
 30
0.0
 11
83.5150676448
 21
64.2777086499
 31
0.0
  0
LINE
  5
313
330
1F
100
AcDbEntity
  8
SLD-0
  6
Continuous
370
    15
100
AcDbLine
 10
83.5150676448
 20
64.7126864517
 30
0.0
 11
83.5150676448
 21
64.7229307067
 31
0.0
  0
LINE
  5
314
330
1F
100
AcDbEntity
  8
SLD-0
  6
Continuous
370
    15
100
AcDbLine
 10
83.4933682688
 20
62.9647086712
 30
0.0
 11
83.4933682688
 21
64.2777086499
 31
0.0
  0
LINE
  5
315
330
1F
100
AcDbEntity
  8
SLD-0
  6
Continuous
370
    15
100
AcDbLine
 10
43.9358352675
 20
80.9020192887
 30
0.0
 11
43.9314470515
 21
80.9029506571
 31
0.0
  0
LINE
  5
316
330
1F
100
AcDbEntity
  8
SLD-0
  6
Continuous
370
    15
100
AcDbLine
 10
80.0807688648
 20
80.9021001927
 30
0.0
 11
80.0848391111
 21
80.9029653602
 31
0.0
  0
DIMENSION
  5
317
330
1F
100
AcDbEntity
  8
DIM
100
AcDbDimension
  2
_D_4
 10
39.505967536
 20
55.6046681772
 30
0.0
 11
34.4416740465
 21
55.6046681772
 31
0.0
 70
   160
  1
<>
 71
     2
 42
-1.0
  3
SLDDIMSTYLE1
100
AcDbAlignedDimension
 13
40.430810866
 23
61.7933084121
 33
0.0
 14
39.505967536
 24
62.5120834121
 34
0.0
100
AcDbRotatedDimension
  0
DIMENSION
  5
326
330
1F
100
AcDbEntity
  8
DIM
100
AcDbDimension
  2
_D_5
 10
83.585810866
 20
55.6046681772
 30
0.0
 11
62.0826428635
 21
55.6046681772
 31
0.0
 70
   160
  1
<>
 71
     2
 42
-1.0
  3
SLDDIMSTYLE0
100
AcDbAlignedDimension
 13
40.430810866
 23
61.7933084121
 33
0.0
 14
83.585810866
 24
61.7933084121
 34
0.0
100
AcDbRotatedDimension
  0
DIMENSION
  5
335
330
1F
100
AcDbEntity
  8
DIM
100
AcDbDimension
  2
_D_6
 10
80.078310866
 20
85.1399975088
 30
0.0
 11
61.2234703048
 21
85.1399975088
 31
0.0
 70
   160
  1
<>
 71
     2
 42
-1.0
  3
SLDDIMSTYLE0
100
AcDbAlignedDimension
 13
43.938310866
 23
80.9137084121
 33
0.0
 14
80.078310866
 24
80.9137084121
 34
0.0
100
AcDbRotatedDimension
  0
DIMENSION
  5
344
330
1F
100
AcDbEntity
  8
DIM
100
AcDbDimension
  2
_D_7
 10
36.005967536
 20
80.9664084121
 30
0.0
 11
36.005967536
 21
73.2052399919
 31
0.0
 70
   160
  1
<>
 71
     2
 42
-1.0
  3
SLDDIMSTYLE0
100
AcDbAlignedDimension
 13
40.4955235644
 23
61.7287084121
 33
0.0
 14
43.9510056693
 24
80.9664084121
 34
0.0
 50
90.0
100
AcDbRotatedDimension
  0
LINE
  5
353
330
1F
100
AcDbEntity
  8
SLD-0
  6
Continuous
370
    15
100
AcDbLine
 10
114.2803488122
 20
46.1956643303
 30
0.0
 11
97.4053484203
 21
46.1956643303
 31
0.0
  0
LWPOLYLINE
  5
354
330
1F
100
AcDbEntity
  8
SLD-0
  6
Continuous
370
    15
100
AcDbPolyline
 90
        9
 70
   128
 43
0.0
 10
96.1822669761
 20
38.8048104035
 10
96.1828771024
 20
38.8042002772
 10
96.1846840149
 20
38.8023933647
 10
96.187619661
 20
38.7994600653
 10
96.1915667087
 20
38.7955130175
 10
96.1963773198
 20
38.7907000598
 10
96.2018661097
 20
38.7852112699
 10
96.2078242276
 20
38.7792554987
 10
96.2140170094
 20
38.7730627169
  0
LINE
  5
355
330
1F
100
AcDbEntity
  8
SLD-0
  6
Continuous
370
    15
100
AcDbLine
 10
94.13035596
 20
36.6894016675
 30
0.0
 11
96.2140170094
 21
38.7730627169
 31
0.0
  0
SPLINE
  5
356
330
1F
100
AcDbEntity
  8
SLD-0
  6
Continuous
370
    15
100
AcDbSpline
210
0.0
220
0.0
230
1.0
 70
     8
 71
     3
 72
    11
 73
     7
 74
     0
 42
0.00000001
 43
0.00000001
 12
1.0
 22
0.0
 32
0.0
 13
1.0
 23
0.0
 33
0.0
 40
0.0
 40
0.0
 40
0.0
 40
0.0
 40
0.25826603131272
 40
0.5167325463466336
 40
0.7752053795077428
 40
1.0
 40
1.0
 40
1.0
 40
1.0
 10
94.1303559599948
 20
36.68940166749981
 30
0.0
 10
94.12319240357122
 20
36.69083492280644
 30
0.0
 10
94.10885972988264
 20
36.69370254601029
 30
0.0
 10
94.08954299915004
 20
36.69582995793256
 30
0.0
 10
94.07440082957872
 20
36.69450705950864
 30
0.0
 10
94.06821659601582
 20
36.68998626508985
 30
0.0
 10
94.06533996439846
 20
36.68788339170573
 30
0.0
  0
LINE
  5
357
330
1F
100
AcDbEntity
  8
SLD-0
  6
Continuous
370
    15
100
AcDbLine
 10
96.1822669761
 20
38.8048104035
 30
0.0
 11
94.0653399644
 21
36.6878833917
 31
0.0
  0
SPLINE
  5
358
330
1F
100
AcDbEntity
  8
SLD-0
  6
Continuous
370
    15
100
AcDbSpline
210
0.0
220
0.0
230
1.0
 70
     8
 71
     3
 72
     9
 73
     5
 74
     0
 42
0.00000001
 43
0.00000001
 12
1.0
 22
0.0
 32
0.0
 13
1.0
 23
0.0
 33
0.0
 40
0.0
 40
0.0
 40
0.0
 40
0.0
 40
0.4999968492360747
 40
1.0
 40
1.0
 40
1.0
 40
1.0
 10
94.1303559599948
 20
36.68940166749981
 30
0.0
 10
94.12194558539377
 20
36.68672335303842
 30
0.0
 10
94.1051247301946
 20
36.68136669036046
 30
0.0
 10
94.09269706071386
 20
36.67161726121687
 30
0.0
 10
94.08648318681682
 20
36.66674251592693
 30
0.0
  0
LINE
  5
359
330
1F
100
AcDbEntity
  8
SLD-0
  6
Continuous
370
    15
100
AcDbLine
 10
94.0864831868
 20
36.6667425159
 30
0.0
 11
94.0653399644
 21
36.6878833917
 31
0.0
  0
LINE
  5
35A
330
1F
100
AcDbEntity
  8
SLD-0
  6
Continuous
370
    15
100
AcDbLine
 10
96.6799493335
 20
38.7730627169
 30
0.0
 11
96.2140170094
 21
38.7730627169
 31
0.0
  0
LINE
  5
35B
330
1F
100
AcDbEntity
  8
SLD-0
  6
Continuous
370
    15
100
AcDbLine
 10
96.6799493335
 20
36.6894016675
 30
0.0
 11
94.13035596
 21
36.6894016675
 31
0.0
  0
LINE
  5
35C
330
1F
100
AcDbEntity
  8
SLD-0
  6
Continuous
370
    15
100
AcDbLine
 10
94.0892663013
 20
36.6639570548
 30
0.0
 11
94.1104095238
 21
36.642816179
 31
0.0
  0
SPLINE
  5
35D
330
1F
100
AcDbEntity
  8
SLD-0
  6
Continuous
370
    15
100
AcDbSpline
210
0.0
220
0.0
230
1.0
 70
     8
 71
     3
 72
    15
 73
    11
 74
     0
 42
0.00000001
 43
0.00000001
 12
1.0
 22
0.0
 32
0.0
 13
1.0
 23
0.0
 33
0.0
 40
0.0
 40
0.0
 40
0.0
 40
0.0
 40
0.1249779457406301
 40
0.249995869206578
 40
0.3749957933689163
 40
0.4999835468364559
 40
0.6249869463909056
 40
0.749986870553244
 40
0.8749867947155823
 40
1.0
 40
1.0
 40
1.0
 40
1.0
 10
94.06533996439846
 20
36.68788339170573
 30
0.0
 10
94.06273026088193
 20
36.68459597003705
 30
0.0
 10
94.0575100190615
 20
36.67802007512504
 30
0.0
 10
94.05521911768928
 20
36.66530716070802
 30
0.0
 10
94.05765743529373
 20
36.65284623236424
 30
0.0
 10
94.06475306221722
 20
36.64222944390389
 30
0.0
 10
94.07537236047472
 20
36.63513088929385
 30
0.0
 10
94.08783274007037
 20
36.63269304487944
 30
0.0
 10
94.10054547843707
 20
36.63498451591775
 30
0.0
 10
94.10712139220519
 20
36.64020553218462
 30
0.0
 10
94.11040952375107
 20
36.64281617899268
 30
0.0
  0
SPLINE
  5
35E
330
1F
100
AcDbEntity
  8
SLD-0
  6
Continuous
370
    15
100
AcDbSpline
210
0.0
220
0.0
230
1.0
 70
     8
 71
     3
 72
     9
 73
     5
 74
     0
 42
0.00000001
 43
0.00000001
 12
1.0
 22
0.0
 32
0.0
 13
1.0
 23
0.0
 33
0.0
 40
0.0
 40
0.0
 40
0.0
 40
0.0
 40
0.5000022876539012
 40
1.0
 40
1.0
 40
1.0
 40
1.0
 10
94.08648318681682
 20
36.66674251592693
 30
0.0
 10
94.08625125742375
 20
36.66558190605014
 30
0.0
 10
94.08578740075988
 20
36.66326069691678
 30
0.0
 10
94.08810667134556
 20
36.6637249361946
 30
0.0
 10
94.08926630133271
 20
36.66395705477149
 30
0.0
  0
LINE
  5
35F
330
1F
100
AcDbEntity
  8
SLD-0
  6
Continuous
370
    15
100
AcDbLine
 10
96.2140170094
 20
38.8179609715
 30
0.0
 11
96.2140170094
 21
38.7880624369
 31
0.0
  0
LINE
  5
360
330
1F
100
AcDbEntity
  8
SLD-0
  6
Continuous
370
    15
100
AcDbLine
 10
96.6799493335
 20
38.8179609715
 30
0.0
 11
96.2140170094
 21
38.8179609715
 31
0.0
  0
LINE
  5
361
330
1F
100
AcDbEntity
  8
SLD-0
  6
Continuous
370
    15
100
AcDbLine
 10
96.6799493335
 20
38.7880624369
 30
0.0
 11
96.2140170094
 21
38.7880624369
 31
0.0
  0
ARC
  5
362
330
1F
100
AcDbEntity
  8
SLD-0
  6
Continuous
370
    15
100
AcDbCircle
 10
96.2140170682
 20
38.7730620126
 30
0.0
 40
0.0150000000000006
100
AcDbArc
 50
90.0
 51
135.0
  0
ARC
  5
363
330
1F
100
AcDbEntity
  8
SLD-0
  6
Continuous
370
    15
100
AcDbCircle
 10
96.2140170682
 20
38.7730620126
 30
0.0
 40
0.0448999999999984
100
AcDbArc
 50
90.0
 51
135.0
  0
LINE
  5
364
330
1F
100
AcDbEntity
  8
SLD-0
  6
Continuous
370
    15
100
AcDbLine
 10
94.1104095238
 20
36.642816179
 30
0.0
 11
94.1569950123
 21
36.6894016675
 31
0.0
  0
LINE
  5
365
330
1F
100
AcDbEntity
  8
SLD-0
  6
Continuous
370
    15
100
AcDbLine
 10
94.0892663013
 20
36.6639570548
 30
0.0
 11
94.1041721558
 21
36.6788629092
 31
0.0
  0
LINE
  5
366
330
1F
100
AcDbEntity
  8
SLD-0
  6
Continuous
370
    15
100
AcDbLine
 10
99.2289490073
 20
43.127733478
 30
0.0
 11
99.6090060568
 21
43.127733478
 31
0.0
  0
LINE
  5
367
330
1F
100
AcDbEntity
  8
SLD-0
  6
Continuous
370
    15
100
AcDbLine
 10
99.2289490073
 20
43.1804319626
 30
0.0
 11
99.2289490073
 21
43.127733478
 31
0.0
  0
LINE
  5
368
330
1F
100
AcDbEntity
  8
SLD-0
  6
Continuous
370
    15
100
AcDbLine
 10
99.2289490073
 20
43.1804319626
 30
0.0
 11
99.6689486177
 21
43.1804319626
 31
0.0
  0
SPLINE
  5
369
330
1F
100
AcDbEntity
  8
SLD-0
  6
Continuous
370
    15
100
AcDbSpline
210
0.0
220
0.0
230
1.0
 70
     8
 71
     3
 72
    11
 73
     7
 74
     0
 42
0.00000001
 43
0.00000001
 12
1.0
 22
0.0
 32
0.0
 13
1.0
 23
0.0
 33
0.0
 40
0.0
 40
0.0
 40
0.0
 40
0.0
 40
0.2499969680727885
 40
0.5
 40
0.7500030319272115
 40
1.0
 40
1.0
 40
1.0
 40
1.0
 10
99.60900605682804
 20
43.127733478008
 30
0.0
 10
99.61400130052354
 20
43.13463893498329
 30
0.0
 10
99.62399190907772
 20
43.14845001643066
 30
0.0
 10
99.63897733726394
 20
43.16587052569309
 30
0.0
 10
99.65396276545013
 20
43.17805660826029
 30
0.0
 10
99.66395337400431
 20
43.17964018419778
 30
0.0
 10
99.6689486176998
 20
43.18043196256394
 30
0.0
  0
LINE
  5
36A
330
1F
100
AcDbEntity
  8
SLD-0
  6
Continuous
370
    15
100
AcDbLine
 10
99.2289490073
 20
43.1107039147
 30
0.0
 11
99.2289490073
 21
43.127733478
 31
0.0
  0
LINE
  5
36B
330
1F
100
AcDbEntity
  8
SLD-0
  6
Continuous
370
    15
100
AcDbLine
 10
99.6090060568
 20
43.127733478
 30
0.0
 11
99.0150058788
 21
42.5337332999
 31
0.0
  0
LINE
  5
36C
330
1F
100
AcDbEntity
  8
SLD-0
  6
Continuous
370
    15
100
AcDbLine
 10
99.0150058788
 20
42.5337332999
 30
0.0
 11
97.5409489872
 21
42.5337332999
 31
0.0
  0
LINE
  5
36D
330
1F
100
AcDbEntity
  8
SLD-0
  6
Continuous
370
    15
100
AcDbLine
 10
97.5409489872
 20
42.5337332999
 30
0.0
 11
97.5409489872
 21
43.127733478
 31
0.0
  0
LINE
  5
36E
330
1F
100
AcDbEntity
  8
SLD-0
  6
Continuous
370
    15
100
AcDbLine
 10
97.5409489872
 20
43.127733478
 30
0.0
 11
97.9159490285
 21
43.127733478
 31
0.0
  0
LINE
  5
36F
330
1F
100
AcDbEntity
  8
SLD-0
  6
Continuous
370
    15
100
AcDbLine
 10
97.9159490285
 20
43.127733478
 30
0.0
 11
97.9159490285
 21
43.1107039147
 31
0.0
  0
LINE
  5
370
330
1F
100
AcDbEntity
  8
SLD-0
  6
Continuous
370
    15
100
AcDbLine
 10
97.9159490285
 20
43.1107039147
 30
0.0
 11
99.2289490073
 21
43.1107039147
 31
0.0
  0
LINE
  5
371
330
1F
100
AcDbEntity
  8
SLD-0
  6
Continuous
370
    15
100
AcDbLine
 10
99.6689486177
 20
43.1587325866
 30
0.0
 11
99.6689486177
 21
43.1804319626
 31
0.0
  0
SPLINE
  5
372
330
1F
100
AcDbEntity
  8
SLD-0
  6
Continuous
370
    15
100
AcDbSpline
210
0.0
220
0.0
230
1.0
 70
     8
 71
     3
 72
    11
 73
     7
 74
     0
 42
0.00000001
 43
0.00000001
 12
1.0
 22
0.0
 32
0.0
 13
1.0
 23
0.0
 33
0.0
 40
0.0
 40
0.0
 40
0.0
 40
0.0
 40
0.2499968800611305
 40
0.4999965516235394
 40
0.7500068525069019
 40
1.0
 40
1.0
 40
1.0
 40
1.0
 10
99.60900605682804
 20
43.127733478008
 30
0.0
 10
99.61400126388482
 20
43.13179520667578
 30
0.0
 10
99.62399173377553
 20
43.13991870936517
 30
0.0
 10
99.63897779317455
 20
43.150166567848
 30
0.0
 10
99.65396231681085
 20
43.15733638609694
 30
0.0
 10
99.66395329832216
 20
43.15826719705682
 30
0.0
 10
99.6689486176998
 20
43.15873258657032
 30
0.0
  0
LINE
  5
373
330
1F
100
AcDbEntity
  8
SLD-0
  6
Continuous
370
    15
100
AcDbLine
 10
97.5409489872
 20
43.1804319626
 30
0.0
 11
97.9159490285
 21
43.1804319626
 31
0.0
  0
LINE
  5
374
330
1F
100
AcDbEntity
  8
SLD-0
  6
Continuous
370
    15
100
AcDbLine
 10
97.9159490285
 20
43.127733478
 30
0.0
 11
97.9159490285
 21
43.1804319626
 31
0.0
  0
LINE
  5
375
330
1F
100
AcDbEntity
  8
SLD-0
  6
Continuous
370
    15
100
AcDbLine
 10
97.5409489872
 20
43.1804319626
 30
0.0
 11
97.5409489872
 21
43.127733478
 31
0.0
  0
SPLINE
  5
376
330
1F
100
AcDbEntity
  8
SLD-0
  6
Continuous
370
    15
100
AcDbSpline
210
0.0
220
0.0
230
1.0
 70
     8
 71
     3
 72
    11
 73
     7
 74
     0
 42
0.00000001
 43
0.00000001
 12
1.0
 22
0.0
 32
0.0
 13
1.0
 23
0.0
 33
0.0
 40
0.0
 40
0.0
 40
0.0
 40
0.0
 40
0.2499960853449378
 40
0.4999979602333846
 40
0.7499984587848291
 40
1.0
 40
1.0
 40
1.0
 40
1.0
 10
114.8744403625616
 20
43.127733478008
 30
0.0
 10
114.8753111638992
 20
43.13463893496731
 30
0.0
 10
114.8770527867407
 20
43.14845000880621
 30
0.0
 10
114.8776327934404
 20
43.16587047540595
 30
0.0
 10
114.8771283694102
 20
43.1780567359686
 30
0.0
 10
114.8763368160596
 20
43.17964021926481
 30
0.0
 10
114.875941038559
 20
43.18043196256394
 30
0.0
  0
LINE
  5
377
330
1F
100
AcDbEntity
  8
SLD-0
  6
Continuous
370
    15
100
AcDbLine
 10
114.8744403626
 20
43.127733478
 30
0.0
 11
99.7180121576
 21
43.127733478
 31
0.0
  0
SPLINE
  5
378
330
1F
100
AcDbEntity
  8
SLD-0
  6
Continuous
370
    15
100
AcDbSpline
210
0.0
220
0.0
230
1.0
 70
     8
 71
     3
 72
    12
 73
     8
 74
     0
 42
0.00000001
 43
0.00000001
 12
1.0
 22
0.0
 32
0.0
 13
1.0
 23
0.0
 33
0.0
 40
0.0
 40
0.0
 40
0.0
 40
0.0
 40
0.2373944087527292
 40
0.4749096563903754
 40
0.7124423168272299
 40
0.9499558931462205
 40
0.9999999999999999
 40
0.9999999999999999
 40
0.9999999999999999
 40
0.9999999999999999
 10
99.6689486176998
 20
43.18043196256394
 30
0.0
 10
99.67332512655676
 20
43.17971866458888
 30
0.0
 10
99.68208037200826
 20
43.17829170555467
 30
0.0
 10
99.69465770781805
 20
43.16724562411558
 30
0.0
 10
99.7061730189372
 20
43.15129942865721
 30
0.0
 10
99.71369402774747
 20
43.13700430946894
 30
0.0
 10
99.71737206337122
 20
43.12910773162265
 30
0.0
 10
99.71801215758026
 20
43.127733478008
 30
0.0
  0
LINE
  5
379
330
1F
100
AcDbEntity
  8
SLD-0
  6
Continuous
370
    15
100
AcDbLine
 10
99.6689486177
 20
43.1804319626
 30
0.0
 11
114.8759410386
 21
43.1804319626
 31
0.0
  0
LINE
  5
37A
330
1F
100
AcDbEntity
  8
SLD-0
  6
Continuous
370
    15
100
AcDbLine
 10
99.7180121576
 20
43.127733478
 30
0.0
 11
99.7135159962
 21
43.127733478
 31
0.0
  0
SPLINE
  5
37B
330
1F
100
AcDbEntity
  8
SLD-0
  6
Continuous
370
    15
100
AcDbSpline
210
0.0
220
0.0
230
1.0
 70
     8
 71
     3
 72
    11
 73
     7
 74
     0
 42
0.00000001
 43
0.00000001
 12
1.0
 22
0.0
 32
0.0
 13
1.0
 23
0.0
 33
0.0
 40
0.0
 40
0.0
 40
0.0
 40
0.0
 40
0.2752228487380866
 40
0.5508085079087808
 40
0.8263834798110496
 40
1.0
 40
1.0
 40
1.0
 40
1.0
 10
99.6689486176998
 20
43.15873258657032
 30
0.0
 10
99.67337712929458
 20
43.15816625056254
 30
0.0
 10
99.68223999033594
 20
43.15703283197887
 30
0.0
 10
99.69500096892764
 20
43.14839475101492
 30
0.0
 10
99.70545172362667
 20
43.13782469265941
 30
0.0
 10
99.71126796643756
 20
43.13054654646203
 30
0.0
 10
99.71351599618697
 20
43.127733478008
 30
0.0
  0
LINE
  5
37C
330
1F
100
AcDbEntity
  8
SLD-0
  6
Continuous
370
    15
100
AcDbLine
 10
100.0960041643
 20
42.5337332999
 30
0.0
 11
99.7180121576
 21
43.127733478
 31
0.0
  0
LINE
  5
37D
330
1F
100
AcDbEntity
  8
SLD-0
  6
Continuous
370
    15
100
AcDbLine
 10
114.8744403626
 20
43.127733478
 30
0.0
 11
114.7513721709
 21
42.5337332999
 31
0.0
  0
LINE
  5
37E
330
1F
100
AcDbEntity
  8
SLD-0
  6
Continuous
370
    15
100
AcDbLine
 10
100.0960041643
 20
42.5337332999
 30
0.0
 11
114.7513721709
 21
42.5337332999
 31
0.0
  0
LINE
  5
37F
330
1F
100
AcDbEntity
  8
SLD-0
  6
Continuous
370
    15
100
AcDbLine
 10
100.0960041643
 20
42.5337332999
 30
0.0
 11
100.0915080029
 21
42.5337332999
 31
0.0
  0
LINE
  5
380
330
1F
100
AcDbEntity
  8
SLD-0
  6
Continuous
370
    15
100
AcDbLine
 10
100.0915080029
 20
42.5337332999
 30
0.0
 11
99.7135159962
 21
43.127733478
 31
0.0
  0
ARC
  5
381
330
1F
100
AcDbEntity
  8
SLD-0
  6
Continuous
370
    15
100
AcDbCircle
 10
96.7619487694
 20
43.12773311
 30
0.0
 40
0.0527000000000086
100
AcDbArc
 50
90.0
 51
156.6941617933
  0
LINE
  5
382
330
1F
100
AcDbEntity
  8
SLD-0
  6
Continuous
370
    15
100
AcDbLine
 10
96.7619491329
 20
43.1587325866
 30
0.0
 11
96.7619491329
 21
43.1804319626
 31
0.0
  0
ARC
  5
383
330
1F
100
AcDbEntity
  8
SLD-0
  6
Continuous
370
    15
100
AcDbCircle
 10
96.7619487694
 20
43.12773311
 30
0.0
 40
0.0310000000000059
100
AcDbArc
 50
90.0
 51
180.0
  0
LINE
  5
384
330
1F
100
AcDbEntity
  8
SLD-0
  6
Continuous
370
    15
100
AcDbLine
 10
96.7619491329
 20
43.1804319626
 30
0.0
 11
97.5409489872
 21
43.1804319626
 31
0.0
  0
LINE
  5
385
330
1F
100
AcDbEntity
  8
SLD-0
  6
Continuous
370
    15
100
AcDbLine
 10
96.7619491329
 20
43.1587325866
 30
0.0
 11
97.5409489872
 21
43.1587325866
 31
0.0
  0
LINE
  5
386
330
1F
100
AcDbEntity
  8
SLD-0
  6
Continuous
370
    15
100
AcDbLine
 10
96.7309488511
 20
43.127733478
 30
0.0
 11
96.7309488511
 21
42.7346783919
 31
0.0
  0
LINE
  5
387
330
1F
100
AcDbEntity
  8
SLD-0
  6
Continuous
370
    15
100
AcDbLine
 10
99.2289490073
 20
43.1804319626
 30
0.0
 11
97.9159490285
 21
43.1804319626
 31
0.0
  0
LINE
  5
388
330
1F
100
AcDbEntity
  8
SLD-0
  6
Continuous
370
    15
100
AcDbLine
 10
99.2289490073
 20
43.1587325866
 30
0.0
 11
97.9159490285
 21
43.1587325866
 31
0.0
  0
LINE
  5
389
330
1F
100
AcDbEntity
  8
SLD-0
  6
Continuous
370
    15
100
AcDbLine
 10
115.864948771
 20
43.1804319626
 30
0.0
 11
115.864948771
 21
43.1587325866
 31
0.0
  0
LINE
  5
38A
330
1F
100
AcDbEntity
  8
SLD-0
  6
Continuous
370
    15
100
AcDbLine
 10
114.8759410386
 20
43.1804319626
 30
0.0
 11
115.864948771
 21
43.1804319626
 31
0.0
  0
LINE
  5
38B
330
1F
100
AcDbEntity
  8
SLD-0
  6
Continuous
370
    15
100
AcDbLine
 10
114.8759410386
 20
43.1587325866
 30
0.0
 11
115.864948771
 21
43.1587325866
 31
0.0
  0
SPLINE
  5
38C
330
1F
100
AcDbEntity
  8
SLD-0
  6
Continuous
370
    15
100
AcDbSpline
210
0.0
220
0.0
230
1.0
 70
     8
 71
     3
 72
    11
 73
     7
 74
     0
 42
0.00000001
 43
0.00000001
 12
1.0
 22
0.0
 32
0.0
 13
1.0
 23
0.0
 33
0.0
 40
0.0
 40
0.0
 40
0.0
 40
0.0
 40
0.2499992363551713
 40
0.4999979722448019
 40
0.7500048611569502
 40
1.0
 40
1.0
 40
1.0
 40
1.0
 10
115.8649487709573
 20
43.18043196256394
 30
0.0
 10
115.8718544095971
 20
43.17964023129957
 30
0.0
 10
115.8856656730525
 20
43.17805677035577
 30
0.0
 10
115.9030857500204
 20
43.1658701909012
 30
0.0
 10
115.9152720336111
 20
43.14845030578159
 30
0.0
 10
115.9168565356128
 20
43.13463897907695
 30
0.0
 10
115.9176487679958
 20
43.127733478008
 30
0.0
  0
LINE
  5
38D
330
1F
100
AcDbEntity
  8
SLD-0
  6
Continuous
370
    15
100
AcDbLine
 10
115.917648768
 20
43.127733478
 30
0.0
 11
115.8959487687
 21
43.127733478
 31
0.0
  0
SPLINE
  5
38E
330
1F
100
AcDbEntity
  8
SLD-0
  6
Continuous
370
    15
100
AcDbSpline
210
0.0
220
0.0
230
1.0
 70
     8
 71
     3
 72
    11
 73
     7
 74
     0
 42
0.00000001
 43
0.00000001
 12
1.0
 22
0.0
 32
0.0
 13
1.0
 23
0.0
 33
0.0
 40
0.0
 40
0.0
 40
0.0
 40
0.0
 40
0.2499975498011081
 40
0.5000089375013148
 40
0.7500208454855215
 40
1.0
 40
1.0
 40
1.0
 40
1.0
 10
115.8649487709573
 20
43.15873258657032
 30
0.0
 10
115.8690109701697
 20
43.15826722615517
 30
0.0
 10
115.877135593446
 20
43.1573364795662
 30
0.0
 10
115.8873820694914
 20
43.15016621990654
 30
0.0
 10
115.8945505232561
 20
43.13991954243328
 30
0.0
 10
115.8954827072246
 20
43.13179532208231
 30
0.0
 10
115.895948768676
 20
43.127733478008
 30
0.0
  0
LINE
  5
38F
330
1F
100
AcDbEntity
  8
SLD-0
  6
Continuous
370
    15
100
AcDbLine
 10
115.917648768
 20
42.5337332999
 30
0.0
 11
115.8959487687
 21
42.5337332999
 31
0.0
  0
LINE
  5
390
330
1F
100
AcDbEntity
  8
SLD-0
  6
Continuous
370
    15
100
AcDbLine
 10
115.917648768
 20
42.5337332999
 30
0.0
 11
115.917648768
 21
43.127733478
 31
0.0
  0
LINE
  5
391
330
1F
100
AcDbEntity
  8
SLD-0
  6
Continuous
370
    15
100
AcDbLine
 10
115.8959487687
 20
42.9750986546
 30
0.0
 11
115.8959487687
 21
43.127733478
 31
0.0
  0
LINE
  5
392
330
1F
100
AcDbEntity
  8
SLD-0
  6
Continuous
370
    15
100
AcDbLine
 10
96.7759491845
 20
43.127733478
 30
0.0
 11
96.7759491845
 21
43.1256332356
 31
0.0
  0
LINE
  5
393
330
1F
100
AcDbEntity
  8
SLD-0
  6
Continuous
370
    15
100
AcDbLine
 10
96.7759491845
 20
9.1135701959
 30
0.0
 11
96.7759491845
 21
8.5897331106
 31
0.0
  0
LINE
  5
394
330
1F
100
AcDbEntity
  8
SLD-0
  6
Continuous
370
    15
100
AcDbLine
 10
96.7759491845
 20
43.127733478
 30
0.0
 11
96.7767106691
 21
43.127733478
 31
0.0
  0
LINE
  5
395
330
1F
100
AcDbEntity
  8
SLD-0
  6
Continuous
370
    15
100
AcDbLine
 10
96.7759491845
 20
8.5897331106
 30
0.0
 11
96.7767106691
 21
8.5897331106
 31
0.0
  0
LINE
  5
396
330
1F
100
AcDbEntity
  8
SLD-0
  6
Continuous
370
    15
100
AcDbLine
 10
99.6689486177
 20
8.5370330861
 30
0.0
 11
99.2289490073
 21
8.5370330861
 31
0.0
  0
LINE
  5
397
330
1F
100
AcDbEntity
  8
SLD-0
  6
Continuous
370
    15
100
AcDbLine
 10
99.2289490073
 20
8.5897331106
 30
0.0
 11
99.2289490073
 21
8.5370330861
 31
0.0
  0
LINE
  5
398
330
1F
100
AcDbEntity
  8
SLD-0
  6
Continuous
370
    15
100
AcDbLine
 10
99.6090060568
 20
8.5897331106
 30
0.0
 11
99.2289490073
 21
8.5897331106
 31
0.0
  0
SPLINE
  5
399
330
1F
100
AcDbEntity
  8
SLD-0
  6
Continuous
370
    15
100
AcDbSpline
210
0.0
220
0.0
230
1.0
 70
     8
 71
     3
 72
    11
 73
     7
 74
     0
 42
0.00000001
 43
0.00000001
 12
1.0
 22
0.0
 32
0.0
 13
1.0
 23
0.0
 33
0.0
 40
0.0
 40
0.0
 40
0.0
 40
0.0
 40
0.2499978582590685
 40
0.5000019039461413
 40
0.750001103561304
 40
1.0
 40
1.0
 40
1.0
 40
1.0
 10
99.6689486176998
 20
8.537033086064
 30
0.0
 10
99.66395336437151
 20
8.537825306988616
 30
0.0
 10
99.6539627340828
 20
8.539409768445255
 30
0.0
 10
99.63897754228155
 20
8.551596180247198
 30
0.0
 10
99.62399168060013
 20
8.569016221025176
 30
0.0
 10
99.61400126273284
 20
8.58282748353467
 30
0.0
 10
99.60900605682804
 20
8.589733110602152
 30
0.0
  0
LINE
  5
39A
330
1F
100
AcDbEntity
  8
SLD-0
  6
Continuous
370
    15
100
AcDbLine
 10
97.9159490285
 20
8.6067615006
 30
0.0
 11
97.9159490285
 21
8.5897331106
 31
0.0
  0
LINE
  5
39B
330
1F
100
AcDbEntity
  8
SLD-0
  6
Continuous
370
    15
100
AcDbLine
 10
97.9159490285
 20
8.5897331106
 30
0.0
 11
97.5409489872
 21
8.5897331106
 31
0.0
  0
LINE
  5
39C
330
1F
100
AcDbEntity
  8
SLD-0
  6
Continuous
370
    15
100
AcDbLine
 10
97.5409489872
 20
9.1837331053
 30
0.0
 11
97.5409489872
 21
8.5897331106
 31
0.0
  0
LINE
  5
39D
330
1F
100
AcDbEntity
  8
SLD-0
  6
Continuous
370
    15
100
AcDbLine
 10
99.0150058788
 20
9.1837331053
 30
0.0
 11
97.5409489872
 21
9.1837331053
 31
0.0
  0
LINE
  5
39E
330
1F
100
AcDbEntity
  8
SLD-0
  6
Continuous
370
    15
100
AcDbLine
 10
99.2289490073
 20
8.5897331106
 30
0.0
 11
99.2289490073
 21
8.6067615006
 31
0.0
  0
LINE
  5
39F
330
1F
100
AcDbEntity
  8
SLD-0
  6
Continuous
370
    15
100
AcDbLine
 10
99.2289490073
 20
8.6067615006
 30
0.0
 11
97.9159490285
 21
8.6067615006
 31
0.0
  0
LINE
  5
3A0
330
1F
100
AcDbEntity
  8
SLD-0
  6
Continuous
370
    15
100
AcDbLine
 10
99.0150058788
 20
9.1837331053
 30
0.0
 11
99.6090060568
 21
8.5897331106
 31
0.0
  0
SPLINE
  5
3A1
330
1F
100
AcDbEntity
  8
SLD-0
  6
Continuous
370
    15
100
AcDbSpline
210
0.0
220
0.0
230
1.0
 70
     8
 71
     3
 72
    11
 73
     7
 74
     0
 42
0.00000001
 43
0.00000001
 12
1.0
 22
0.0
 32
0.0
 13
1.0
 23
0.0
 33
0.0
 40
0.0
 40
0.0
 40
0.0
 40
0.0
 40
0.2499947238999971
 40
0.5000008478500252
 40
0.749996019287248
 40
1.0
 40
1.0
 40
1.0
 40
1.0
 10
99.6689486176998
 20
8.558733122049999
 30
0.0
 10
99.6639533245092
 20
8.559199125625355
 30
0.0
 10
99.65396251033681
 20
8.56013115402637
 30
0.0
 10
99.63897783020998
 20
8.567299501638685
 30
0.0
 10
99.6239913204896
 20
8.57754688155883
 30
0.0
 10
99.61400120338578
 20
8.585670986542643
 30
0.0
 10
99.60900605682804
 20
8.589733110602152
 30
0.0
  0
LINE
  5
3A2
330
1F
100
AcDbEntity
  8
SLD-0
  6
Continuous
370
    15
100
AcDbLine
 10
99.6689486177
 20
8.5370330861
 30
0.0
 11
99.6689486177
 21
8.558733122
 31
0.0
  0
LINE
  5
3A3
330
1F
100
AcDbEntity
  8
SLD-0
  6
Continuous
370
    15
100
AcDbLine
 10
97.9159490285
 20
8.5370330861
 30
0.0
 11
97.9159490285
 21
8.5897331106
 31
0.0
  0
LINE
  5
3A4
330
1F
100
AcDbEntity
  8
SLD-0
  6
Continuous
370
    15
100
AcDbLine
 10
97.9159490285
 20
8.5370330861
 30
0.0
 11
97.5409489872
 21
8.5370330861
 31
0.0
  0
LINE
  5
3A5
330
1F
100
AcDbEntity
  8
SLD-0
  6
Continuous
370
    15
100
AcDbLine
 10
97.5409489872
 20
8.5897331106
 30
0.0
 11
97.5409489872
 21
8.5370330861
 31
0.0
  0
SPLINE
  5
3A6
330
1F
100
AcDbEntity
  8
SLD-0
  6
Continuous
370
    15
100
AcDbSpline
210
0.0
220
0.0
230
1.0
 70
     8
 71
     3
 72
    11
 73
     7
 74
     0
 42
0.00000001
 43
0.00000001
 12
1.0
 22
0.0
 32
0.0
 13
1.0
 23
0.0
 33
0.0
 40
0.0
 40
0.0
 40
0.0
 40
0.0
 40
0.2500028724170223
 40
0.5000048870915187
 40
0.7500010307757027
 40
1.0
 40
1.0
 40
1.0
 40
1.0
 10
114.875941038559
 20
8.537033086064
 30
0.0
 10
114.8763368150213
 20
8.537825277733747
 30
0.0
 10
114.8771283665881
 20
8.539409658355288
 30
0.0
 10
114.8776328013143
 20
8.551596125157987
 30
0.0
 10
114.8770527540863
 20
8.569016368052678
 30
0.0
 10
114.8753111630172
 20
8.582827503736128
 30
0.0
 10
114.8744403625616
 20
8.589733110602152
 30
0.0
  0
LINE
  5
3A7
330
1F
100
AcDbEntity
  8
SLD-0
  6
Continuous
370
    15
100
AcDbLine
 10
114.8759410386
 20
8.5370330861
 30
0.0
 11
99.6689486177
 21
8.5370330861
 31
0.0
  0
SPLINE
  5
3A8
330
1F
100
AcDbEntity
  8
SLD-0
  6
Continuous
370
    15
100
AcDbSpline
210
0.0
220
0.0
230
1.0
 70
     8
 71
     3
 72
    12
 73
     8
 74
     0
 42
0.00000001
 43
0.00000001
 12
1.0
 22
0.0
 32
0.0
 13
1.0
 23
0.0
 33
0.0
 40
0.0
 40
0.0
 40
0.0
 40
0.0
 40
0.2373944394421012
 40
0.4749148851614073
 40
0.7124406762152833
 40
0.9499590253943149
 40
0.9999999999999999
 40
0.9999999999999999
 40
0.9999999999999999
 40
0.9999999999999999
 10
99.71801215758026
 20
8.589733110602152
 30
0.0
 10
99.71484542615067
 20
8.583182544782062
 30
0.0
 10
99.70851028242632
 20
8.5700779361758
 30
0.0
 10
99.69715998376788
 20
8.553110419072427
 30
0.0
 10
99.68480008396827
 20
8.54123093636703
 30
0.0
 10
99.67514320481845
 20
8.537261060026212
 30
0.0
 10
99.66986681350168
 20
8.537066877619598
 30
0.0
 10
99.6689486176998
 20
8.537033086064
 30
0.0
  0
LINE
  5
3A9
330
1F
100
AcDbEntity
  8
SLD-0
  6
Continuous
370
    15
100
AcDbLine
 10
99.7180121576
 20
8.5897331106
 30
0.0
 11
114.8744403626
 21
8.5897331106
 31
0.0
  0
LINE
  5
3AA
330
1F
100
AcDbEntity
  8
SLD-0
  6
Continuous
370
    15
100
AcDbLine
 10
99.7180121576
 20
8.5897331106
 30
0.0
 11
99.7135159962
 21
8.5897331106
 31
0.0
  0
SPLINE
  5
3AB
330
1F
100
AcDbEntity
  8
SLD-0
  6
Continuous
370
    15
100
AcDbSpline
210
0.0
220
0.0
230
1.0
 70
     8
 71
     3
 72
    11
 73
     7
 74
     0
 42
0.00000001
 43
0.00000001
 12
1.0
 22
0.0
 32
0.0
 13
1.0
 23
0.0
 33
0.0
 40
0.0
 40
0.0
 40
0.0
 40
0.0
 40
0.2752276105344323
 40
0.5508005377810968
 40
0.8263739267890015
 40
1.0
 40
1.0
 40
1.0
 40
1.0
 10
99.71351599618697
 20
8.589733110602152
 30
0.0
 10
99.7098971166235
 20
8.585259883963358
 30
0.0
 10
99.70265481703784
 20
8.576307818313113
 30
0.0
 10
99.69035735830698
 20
8.565430741858908
 30
0.0
 10
99.6789342935715
 20
8.5595511277701
 30
0.0
 10
99.67173234057456
 20
8.558961158816262
 30
0.0
 10
99.6689486176998
 20
8.558733122049999
 30
0.0
  0
LINE
  5
3AC
330
1F
100
AcDbEntity
  8
SLD-0
  6
Continuous
370
    15
100
AcDbLine
 10
99.7180121576
 20
8.5897331106
 30
0.0
 11
100.0960041643
 21
9.1837331053
 31
0.0
  0
LINE
  5
3AD
330
1F
100
AcDbEntity
  8
SLD-0
  6
Continuous
370
    15
100
AcDbLine
 10
100.0960041643
 20
9.1837331053
 30
0.0
 11
114.7513721709
 21
9.1837331053
 31
0.0
  0
LINE
  5
3AE
330
1F
100
AcDbEntity
  8
SLD-0
  6
Continuous
370
    15
100
AcDbLine
 10
114.7513721709
 20
9.1837331053
 30
0.0
 11
114.8744403626
 21
8.5897331106
 31
0.0
  0
LINE
  5
3AF
330
1F
100
AcDbEntity
  8
SLD-0
  6
Continuous
370
    15
100
AcDbLine
 10
99.7135159962
 20
8.5897331106
 30
0.0
 11
100.0915080029
 21
9.1837331053
 31
0.0
  0
LINE
  5
3B0
330
1F
100
AcDbEntity
  8
SLD-0
  6
Continuous
370
    15
100
AcDbLine
 10
100.0960041643
 20
9.1837331053
 30
0.0
 11
100.0915080029
 21
9.1837331053
 31
0.0
  0
LINE
  5
3B1
330
1F
100
AcDbEntity
  8
SLD-0
  6
Continuous
370
    15
100
AcDbLine
 10
97.5409489872
 20
8.558733122
 30
0.0
 11
96.7619491329
 21
8.558733122
 31
0.0
  0
LINE
  5
3B2
330
1F
100
AcDbEntity
  8
SLD-0
  6
Continuous
370
    15
100
AcDbLine
 10
97.5409489872
 20
8.5370330861
 30
0.0
 11
97.4299482428
 21
8.5370330861
 31
0.0
  0
ARC
  5
3B3
330
1F
100
AcDbEntity
  8
SLD-0
  6
Continuous
370
    15
100
AcDbCircle
 10
96.7619487694
 20
8.58973311
 30
0.0
 40
0.0310000000000059
100
AcDbArc
 50
180.0
 51
270.0
  0
LINE
  5
3B4
330
1F
100
AcDbEntity
  8
SLD-0
  6
Continuous
370
    15
100
AcDbLine
 10
96.7284813596
 20
9.058733116
 30
0.0
 11
96.7309488511
 21
9.058733116
 31
0.0
  0
LINE
  5
3B5
330
1F
100
AcDbEntity
  8
SLD-0
  6
Continuous
370
    15
100
AcDbLine
 10
96.7309488511
 20
9.058733116
 30
0.0
 11
96.7309488511
 21
8.5897331106
 31
0.0
  0
LINE
  5
3B6
330
1F
100
AcDbEntity
  8
SLD-0
  6
Continuous
370
    15
100
AcDbLine
 10
97.9159490285
 20
8.558733122
 30
0.0
 11
99.2289490073
 21
8.558733122
 31
0.0
  0
LINE
  5
3B7
330
1F
100
AcDbEntity
  8
SLD-0
  6
Continuous
370
    15
100
AcDbLine
 10
97.9159490285
 20
8.5370330861
 30
0.0
 11
99.2289490073
 21
8.5370330861
 31
0.0
  0
LINE
  5
3B8
330
1F
100
AcDbEntity
  8
SLD-0
  6
Continuous
370
    15
100
AcDbLine
 10
115.864948771
 20
8.5370330861
 30
0.0
 11
115.864948771
 21
8.558733122
 31
0.0
  0
LINE
  5
3B9
330
1F
100
AcDbEntity
  8
SLD-0
  6
Continuous
370
    15
100
AcDbLine
 10
115.864948771
 20
8.558733122
 30
0.0
 11
114.8759410386
 21
8.558733122
 31
0.0
  0
LINE
  5
3BA
330
1F
100
AcDbEntity
  8
SLD-0
  6
Continuous
370
    15
100
AcDbLine
 10
115.864948771
 20
8.5370330861
 30
0.0
 11
114.8759410386
 21
8.5370330861
 31
0.0
  0
LINE
  5
3BB
330
1F
100
AcDbEntity
  8
SLD-0
  6
Continuous
370
    15
100
AcDbLine
 10
115.8959487687
 20
8.5897331106
 30
0.0
 11
115.917648768
 21
8.5897331106
 31
0.0
  0
SPLINE
  5
3BC
330
1F
100
AcDbEntity
  8
SLD-0
  6
Continuous
370
    15
100
AcDbSpline
210
0.0
220
0.0
230
1.0
 70
     8
 71
     3
 72
    11
 73
     7
 74
     0
 42
0.00000001
 43
0.00000001
 12
1.0
 22
0.0
 32
0.0
 13
1.0
 23
0.0
 33
0.0
 40
0.0
 40
0.0
 40
0.0
 40
0.0
 40
0.249998022713696
 40
0.4999991804296381
 40
0.7499994324390767
 40
1.0
 40
1.0
 40
1.0
 40
1.0
 10
115.9176487679958
 20
8.589733110602152
 30
0.0
 10
115.9168565878725
 20
8.58282745962487
 30
0.0
 10
115.9152722176918
 20
8.569016071072696
 30
0.0
 10
115.903085481418
 20
8.551596409666601
 30
0.0
 10
115.8856657063479
 20
8.539409623968
 30
0.0
 10
115.8718544189929
 20
8.537825265698629
 30
0.0
 10
115.8649487709573
 20
8.537033086064
 30
0.0
  0
SPLINE
  5
3BD
330
1F
100
AcDbEntity
  8
SLD-0
  6
Continuous
370
    15
100
AcDbSpline
210
0.0
220
0.0
230
1.0
 70
     8
 71
     3
 72
    11
 73
     7
 74
     0
 42
0.00000001
 43
0.00000001
 12
1.0
 22
0.0
 32
0.0
 13
1.0
 23
0.0
 33
0.0
 40
0.0
 40
0.0
 40
0.0
 40
0.0
 40
0.2499959955301977
 40
0.4999972307923506
 40
0.7499987119174927
 40
1.0
 40
1.0
 40
1.0
 40
1.0
 10
115.895948768676
 20
8.589733110602152
 30
0.0
 10
115.8954827787732
 20
8.585670928720438
 30
0.0
 10
115.8945507892009
 20
8.577546479816668
 30
0.0
 10
115.8873820983125
 20
8.567299784109473
 30
0.0
 10
115.8771352265142
 20
8.560130996987903
 30
0.0
 10
115.8690109217641
 20
8.559199080242703
 30
0.0
 10
115.8649487709573
 20
8.558733122049999
 30
0.0
  0
LINE
  5
3BE
330
1F
100
AcDbEntity
  8
SLD-0
  6
Continuous
370
    15
100
AcDbLine
 10
115.917648768
 20
8.5897331106
 30
0.0
 11
115.917648768
 21
9.1837331053
 31
0.0
  0
LINE
  5
3BF
330
1F
100
AcDbEntity
  8
SLD-0
  6
Continuous
370
    15
100
AcDbLine
 10
115.8959487687
 20
8.5897331106
 30
0.0
 11
115.8959487687
 21
8.742366834
 31
0.0
  0
LINE
  5
3C0
330
1F
100
AcDbEntity
  8
SLD-0
  6
Continuous
370
    15
100
AcDbLine
 10
115.8959487687
 20
9.1837331053
 30
0.0
 11
115.917648768
 21
9.1837331053
 31
0.0
  0
LINE
  5
3C1
330
1F
100
AcDbEntity
  8
SLD-0
  6
Continuous
370
    15
100
AcDbLine
 10
96.7699488272
 20
43.1256332356
 30
0.0
 11
96.7699488272
 21
42.6898951226
 31
0.0
  0
LINE
  5
3C2
330
1F
100
AcDbEntity
  8
SLD-0
  6
Continuous
370
    15
100
AcDbLine
 10
96.7767106691
 20
43.1256332356
 30
0.0
 11
96.7699488272
 21
43.1256332356
 31
0.0
  0
LINE
  5
3C3
330
1F
100
AcDbEntity
  8
SLD-0
  6
Continuous
370
    15
100
AcDbLine
 10
96.9919491426
 20
37.7281322813
 30
0.0
 11
97.4299482428
 21
37.7281322813
 31
0.0
  0
LINE
  5
3C4
330
1F
100
AcDbEntity
  8
SLD-0
  6
Continuous
370
    15
100
AcDbLine
 10
96.9919491426
 20
33.853133419
 30
0.0
 11
96.9919491426
 21
37.7281322813
 31
0.0
  0
LINE
  5
3C5
330
1F
100
AcDbEntity
  8
SLD-0
  6
Continuous
370
    15
100
AcDbLine
 10
97.4299482428
 20
33.853133419
 30
0.0
 11
96.9919491426
 21
33.853133419
 31
0.0
  0
LINE
  5
3C6
330
1F
100
AcDbEntity
  8
SLD-0
  6
Continuous
370
    15
100
AcDbLine
 10
97.4299482428
 20
17.8641328986
 30
0.0
 11
97.4299482428
 21
33.853133419
 31
0.0
  0
LINE
  5
3C7
330
1F
100
AcDbEntity
  8
SLD-0
  6
Continuous
370
    15
100
AcDbLine
 10
96.9919491426
 20
17.8641328986
 30
0.0
 11
97.4299482428
 21
17.8641328986
 31
0.0
  0
LINE
  5
3C8
330
1F
100
AcDbEntity
  8
SLD-0
  6
Continuous
370
    15
100
AcDbLine
 10
96.9919491426
 20
13.9891331563
 30
0.0
 11
96.9919491426
 21
17.8641328986
 31
0.0
  0
LINE
  5
3C9
330
1F
100
AcDbEntity
  8
SLD-0
  6
Continuous
370
    15
100
AcDbLine
 10
97.4299482428
 20
13.9891331563
 30
0.0
 11
96.9919491426
 21
13.9891331563
 31
0.0
  0
LINE
  5
3CA
330
1F
100
AcDbEntity
  8
SLD-0
  6
Continuous
370
    15
100
AcDbLine
 10
97.4299482428
 20
9.7675701891
 30
0.0
 11
97.4299482428
 21
13.9891331563
 31
0.0
  0
LINE
  5
3CB
330
1F
100
AcDbEntity
  8
SLD-0
  6
Continuous
370
    15
100
AcDbLine
 10
97.4299482428
 20
9.7675701891
 30
0.0
 11
96.7445488006
 21
9.0821701786
 31
0.0
  0
LINE
  5
3CC
330
1F
100
AcDbEntity
  8
SLD-0
  6
Continuous
370
    15
100
AcDbLine
 10
96.7445488006
 20
9.0821701786
 30
0.0
 11
96.7445488006
 21
42.7152951492
 31
0.0
  0
LINE
  5
3CD
330
1F
100
AcDbEntity
  8
SLD-0
  6
Continuous
370
    15
100
AcDbLine
 10
97.4299482428
 20
37.7281322813
 30
0.0
 11
97.4299482428
 21
42.029895707
 31
0.0
  0
LINE
  5
3CE
330
1F
100
AcDbEntity
  8
SLD-0
  6
Continuous
370
    15
100
AcDbLine
 10
96.7445488006
 20
42.7152951492
 30
0.0
 11
97.4299482428
 21
42.029895707
 31
0.0
  0
SPLINE
  5
3CF
330
1F
100
AcDbEntity
  8
SLD-0
  6
Continuous
370
    15
100
AcDbSpline
210
0.0
220
0.0
230
1.0
 70
     8
 71
     3
 72
    11
 73
     7
 74
     0
 42
0.00000001
 43
0.00000001
 12
1.0
 22
0.0
 32
0.0
 13
1.0
 23
0.0
 33
0.0
 40
0.0
 40
0.0
 40
0.0
 40
0.0
 40
0.2500048713950923
 40
0.5000007939248047
 40
0.7499968832202845
 40
1.0
 40
1.0
 40
1.0
 40
1.0
 10
96.74454880061603
 20
9.082170178593788
 30
0.0
 10
96.7360837079496
 20
9.076660913750503
 30
0.0
 10
96.71915382562271
 20
9.065642581266768
 30
0.0
 10
96.69779956168124
 20
9.049114350273635
 30
0.0
 10
96.68286270411636
 20
9.032586137000592
 30
0.0
 10
96.68092046616569
 20
9.02156777883536
 30
0.0
 10
96.67994933354124
 20
9.016058522321282
 30
0.0
  0
LINE
  5
3D0
330
1F
100
AcDbEntity
  8
SLD-0
  6
Continuous
370
    15
100
AcDbLine
 10
96.6799493335
 20
42.7814070255
 30
0.0
 11
96.6799493335
 21
9.0160585223
 31
0.0
  0
SPLINE
  5
3D1
330
1F
100
AcDbEntity
  8
SLD-0
  6
Continuous
370
    15
100
AcDbSpline
210
0.0
220
0.0
230
1.0
 70
     8
 71
     3
 72
    11
 73
     7
 74
     0
 42
0.00000001
 43
0.00000001
 12
1.0
 22
0.0
 32
0.0
 13
1.0
 23
0.0
 33
0.0
 40
0.0
 40
0.0
 40
0.0
 40
0.0
 40
0.2500005319595013
 40
0.4999938696090139
 40
0.7499872072585266
 40
1.0
 40
1.0
 40
1.0
 40
1.0
 10
96.67994933354124
 20
42.7814070254674
 30
0.0
 10
96.68092047139243
 20
42.77589794677692
 30
0.0
 10
96.68286271914813
 20
42.76487994793174
 30
0.0
 10
96.6977994909745
 20
42.74835215094411
 30
0.0
 10
96.71915441749152
 20
42.73182474202587
 30
0.0
 10
96.73608378666893
 20
42.72080515639653
 30
0.0
 10
96.74454880061603
 20
42.71529514919743
 30
0.0
  0
SPLINE
  5
3D2
330
1F
100
AcDbEntity
  8
SLD-0
  6
Continuous
370
    15
100
AcDbSpline
210
0.0
220
0.0
230
1.0
 70
     8
 71
     3
 72
    11
 73
     7
 74
     0
 42
0.00000001
 43
0.00000001
 12
1.0
 22
0.0
 32
0.0
 13
1.0
 23
0.0
 33
0.0
 40
0.0
 40
0.0
 40
0.0
 40
0.0
 40
0.2499875596027395
 40
0.4999886355900231
 40
0.7499826788163405
 40
1.0
 40
1.0
 40
1.0
 40
1.0
 10
96.71354851873393
 20
42.7814070254674
 30
0.0
 10
96.7140143564812
 20
42.77589781195577
 30
0.0
 10
96.71494605716278
 20
42.76487908705912
 30
0.0
 10
96.72211611465984
 20
42.74835255461185
 30
0.0
 10
96.7323624028567
 20
42.73182453242407
 30
0.0
 10
96.74048654195688
 20
42.72080511460878
 30
0.0
 10
96.74454880061603
 20
42.71529514919743
 30
0.0
  0
LINE
  5
3D3
330
1F
100
AcDbEntity
  8
SLD-0
  6
Continuous
370
    15
100
AcDbLine
 10
96.7135485187
 20
42.7814070255
 30
0.0
 11
96.6799493335
 21
42.7814070255
 31
0.0
  0
SPLINE
  5
3D4
330
1F
100
AcDbEntity
  8
SLD-0
  6
Continuous
370
    15
100
AcDbSpline
210
0.0
220
0.0
230
1.0
 70
     8
 71
     3
 72
    11
 73
     7
 74
     0
 42
0.00000001
 43
0.00000001
 12
1.0
 22
0.0
 32
0.0
 13
1.0
 23
0.0
 33
0.0
 40
0.0
 40
0.0
 40
0.0
 40
0.0
 40
0.2500001651494415
 40
0.4999998066685846
 40
0.7500068419873483
 40
1.0
 40
1.0
 40
1.0
 40
1.0
 10
96.74454880061603
 20
9.082170178593788
 30
0.0
 10
96.74048646015909
 20
9.07666088361841
 30
0.0
 10
96.73236178775386
 20
9.065642305206989
 30
0.0
 10
96.72211618816127
 20
9.049113995568291
 30
0.0
 10
96.71494604153035
 20
9.032586992056418
 30
0.0
 10
96.71401435104652
 20
9.021567910289587
 30
0.0
 10
96.71354851873393
 20
9.016058522321282
 30
0.0
  0
LINE
  5
3D5
330
1F
100
AcDbEntity
  8
SLD-0
  6
Continuous
370
    15
100
AcDbLine
 10
96.7135485187
 20
9.0160585223
 30
0.0
 11
96.6799493335
 21
9.0160585223
 31
0.0
  0
LINE
  5
3D6
330
1F
100
AcDbEntity
  8
SLD-0
  6
Continuous
370
    15
100
AcDbLine
 10
96.6799493335
 20
42.7814070255
 30
0.0
 11
96.6799493335
 21
42.7815196642
 31
0.0
  0
LINE
  5
3D7
330
1F
100
AcDbEntity
  8
SLD-0
  6
Continuous
370
    15
100
AcDbLine
 10
96.7135485187
 20
42.7815196642
 30
0.0
 11
96.6799493335
 21
42.7815196642
 31
0.0
  0
LINE
  5
3D8
330
1F
100
AcDbEntity
  8
SLD-0
  6
Continuous
370
    15
100
AcDbLine
 10
96.7135485187
 20
42.7814070255
 30
0.0
 11
96.7135485187
 21
42.7815196642
 31
0.0
  0
LINE
  5
3D9
330
1F
100
AcDbEntity
  8
SLD-0
  6
Continuous
370
    15
100
AcDbLine
 10
96.7135485187
 20
9.0159458103
 30
0.0
 11
96.6799493335
 21
9.0159458103
 31
0.0
  0
LINE
  5
3DA
330
1F
100
AcDbEntity
  8
SLD-0
  6
Continuous
370
    15
100
AcDbLine
 10
96.6799493335
 20
9.0159458103
 30
0.0
 11
96.6799493335
 21
9.0160585223
 31
0.0
  0
LINE
  5
3DB
330
1F
100
AcDbEntity
  8
SLD-0
  6
Continuous
370
    15
100
AcDbLine
 10
96.7135485187
 20
9.0159458103
 30
0.0
 11
96.7135485187
 21
9.0160585223
 31
0.0
  0
LINE
  5
3DC
330
1F
100
AcDbEntity
  8
SLD-0
  6
Continuous
370
    15
100
AcDbLine
 10
97.4299482428
 20
8.5473330737
 30
0.0
 11
97.4299482428
 21
8.5137330819
 31
0.0
  0
LINE
  5
3DD
330
1F
100
AcDbEntity
  8
SLD-0
  6
Continuous
370
    15
100
AcDbLine
 10
96.7445488006
 20
8.5473330737
 30
0.0
 11
96.7445488006
 21
8.5137330819
 31
0.0
  0
LINE
  5
3DE
330
1F
100
AcDbEntity
  8
SLD-0
  6
Continuous
370
    15
100
AcDbLine
 10
97.4299482428
 20
8.5473330737
 30
0.0
 11
96.7445488006
 21
8.5473330737
 31
0.0
  0
LINE
  5
3DF
330
1F
100
AcDbEntity
  8
SLD-0
  6
Continuous
370
    15
100
AcDbLine
 10
97.4299482428
 20
8.5137330819
 30
0.0
 11
96.7445488006
 21
8.5137330819
 31
0.0
  0
ARC
  5
3E0
330
1F
100
AcDbEntity
  8
SLD-0
  6
Continuous
370
    15
100
AcDbCircle
 10
96.7445487694
 20
8.57833311
 30
0.0
 40
0.0645999999999987
100
AcDbArc
 50
180.0
 51
270.0
  0
LINE
  5
3E1
330
1F
100
AcDbEntity
  8
SLD-0
  6
Continuous
370
    15
100
AcDbLine
 10
96.7135485187
 20
8.5783331356
 30
0.0
 11
96.6799493335
 21
8.5783331356
 31
0.0
  0
ARC
  5
3E2
330
1F
100
AcDbEntity
  8
SLD-0
  6
Continuous
370
    15
100
AcDbCircle
 10
96.7445487694
 20
8.57833311
 30
0.0
 40
0.0310000000000059
100
AcDbArc
 50
180.0
 51
270.0
  0
LINE
  5
3E3
330
1F
100
AcDbEntity
  8
SLD-0
  6
Continuous
370
    15
100
AcDbLine
 10
96.6799493335
 20
8.5783331356
 30
0.0
 11
96.6799493335
 21
9.0159458103
 31
0.0
  0
LINE
  5
3E4
330
1F
100
AcDbEntity
  8
SLD-0
  6
Continuous
370
    15
100
AcDbLine
 10
96.7135485187
 20
9.0159458103
 30
0.0
 11
96.7135485187
 21
8.5783331356
 31
0.0
  0
LINE
  5
3E5
330
1F
100
AcDbEntity
  8
SLD-0
  6
Continuous
370
    15
100
AcDbLine
 10
96.7135485187
 20
43.2191327422
 30
0.0
 11
96.6799493335
 21
43.2191327422
 31
0.0
  0
LINE
  5
3E6
330
1F
100
AcDbEntity
  8
SLD-0
  6
Continuous
370
    15
100
AcDbLine
 10
96.6799493335
 20
42.7815196642
 30
0.0
 11
96.6799493335
 21
43.2191327422
 31
0.0
  0
LINE
  5
3E7
330
1F
100
AcDbEntity
  8
SLD-0
  6
Continuous
370
    15
100
AcDbLine
 10
96.7135485187
 20
43.2191327422
 30
0.0
 11
96.7135485187
 21
42.7815196642
 31
0.0
  0
LINE
  5
3E8
330
1F
100
AcDbEntity
  8
SLD-0
  6
Continuous
370
    15
100
AcDbLine
 10
96.7445488006
 20
43.2501341974
 30
0.0
 11
96.7445488006
 21
43.2837333826
 31
0.0
  0
LINE
  5
3E9
330
1F
100
AcDbEntity
  8
SLD-0
  6
Continuous
370
    15
100
AcDbLine
 10
97.4299482428
 20
43.2501341974
 30
0.0
 11
96.7445488006
 21
43.2501341974
 31
0.0
  0
LINE
  5
3EA
330
1F
100
AcDbEntity
  8
SLD-0
  6
Continuous
370
    15
100
AcDbLine
 10
97.4299482428
 20
43.2501341974
 30
0.0
 11
97.4299482428
 21
43.2837333826
 31
0.0
  0
LINE
  5
3EB
330
1F
100
AcDbEntity
  8
SLD-0
  6
Continuous
370
    15
100
AcDbLine
 10
97.4299482428
 20
43.2837333826
 30
0.0
 11
96.7445488006
 21
43.2837333826
 31
0.0
  0
ARC
  5
3EC
330
1F
100
AcDbEntity
  8
SLD-0
  6
Continuous
370
    15
100
AcDbCircle
 10
96.7445487694
 20
43.21913311
 30
0.0
 40
0.0310000000000059
100
AcDbArc
 50
90.0
 51
180.0
  0
ARC
  5
3ED
330
1F
100
AcDbEntity
  8
SLD-0
  6
Continuous
370
    15
100
AcDbCircle
 10
96.7445487694
 20
43.21913311
 30
0.0
 40
0.0646000000000129
100
AcDbArc
 50
90.0
 51
180.0
  0
LINE
  5
3EE
330
1F
100
AcDbEntity
  8
SLD-0
  6
Continuous
370
    15
100
AcDbLine
 10
97.5113238361
 20
17.2147332539
 30
0.0
 11
97.4633233239
 21
17.2147332539
 31
0.0
  0
LINE
  5
3EF
330
1F
100
AcDbEntity
  8
SLD-0
  6
Continuous
370
    15
100
AcDbLine
 10
97.5113238361
 20
17.2147332539
 30
0.0
 11
97.5113238361
 21
14.0897330075
 31
0.0
  0
LINE
  5
3F0
330
1F
100
AcDbEntity
  8
SLD-0
  6
Continuous
370
    15
100
AcDbLine
 10
97.5113238361
 20
14.0897330075
 30
0.0
 11
97.4633233239
 21
14.0897330075
 31
0.0
  0
LINE
  5
3F1
330
1F
100
AcDbEntity
  8
SLD-0
  6
Continuous
370
    15
100
AcDbLine
 10
97.4633233239
 20
17.2147332539
 30
0.0
 11
97.4633233239
 21
14.0897330075
 31
0.0
  0
LINE
  5
3F2
330
1F
100
AcDbEntity
  8
SLD-0
  6
Continuous
370
    15
100
AcDbLine
 10
97.5263235562
 20
14.0897330075
 30
0.0
 11
97.5113238361
 21
14.0897330075
 31
0.0
  0
LINE
  5
3F3
330
1F
100
AcDbEntity
  8
SLD-0
  6
Continuous
370
    15
100
AcDbLine
 10
97.5263235562
 20
14.0897330075
 30
0.0
 11
97.5263235562
 21
17.2147332539
 31
0.0
  0
LINE
  5
3F4
330
1F
100
AcDbEntity
  8
SLD-0
  6
Continuous
370
    15
100
AcDbLine
 10
97.5113238361
 20
17.2147332539
 30
0.0
 11
97.5263235562
 21
17.2147332539
 31
0.0
  0
LINE
  5
3F5
330
1F
100
AcDbEntity
  8
SLD-0
  6
Continuous
370
    15
100
AcDbLine
 10
97.5263235562
 20
17.2147332539
 30
0.0
 11
99.1039482113
 21
17.2147332539
 31
0.0
  0
LINE
  5
3F6
330
1F
100
AcDbEntity
  8
SLD-0
  6
Continuous
370
    15
100
AcDbLine
 10
97.5263235562
 20
14.0897330075
 30
0.0
 11
99.1039482113
 21
14.0897330075
 31
0.0
  0
LINE
  5
3F7
330
1F
100
AcDbEntity
  8
SLD-0
  6
Continuous
370
    15
100
AcDbLine
 10
99.1039482113
 20
17.2147332539
 30
0.0
 11
99.1039482113
 21
14.0897330075
 31
0.0
  0
LINE
  5
3F8
330
1F
100
AcDbEntity
  8
SLD-0
  6
Continuous
370
    15
100
AcDbLine
 10
97.5113238361
 20
37.1277328172
 30
0.0
 11
97.4633233239
 21
37.1277328172
 31
0.0
  0
LINE
  5
3F9
330
1F
100
AcDbEntity
  8
SLD-0
  6
Continuous
370
    15
100
AcDbLine
 10
97.5113238361
 20
37.1277328172
 30
0.0
 11
97.5113238361
 21
34.0027340374
 31
0.0
  0
LINE
  5
3FA
330
1F
100
AcDbEntity
  8
SLD-0
  6
Continuous
370
    15
100
AcDbLine
 10
97.4633233239
 20
37.1277328172
 30
0.0
 11
97.4633233239
 21
34.0027340374
 31
0.0
  0
LINE
  5
3FB
330
1F
100
AcDbEntity
  8
SLD-0
  6
Continuous
370
    15
100
AcDbLine
 10
97.5113238361
 20
34.0027340374
 30
0.0
 11
97.4633233239
 21
34.0027340374
 31
0.0
  0
LINE
  5
3FC
330
1F
100
AcDbEntity
  8
SLD-0
  6
Continuous
370
    15
100
AcDbLine
 10
97.5263235562
 20
34.0027340374
 30
0.0
 11
97.5263235562
 21
37.1277328172
 31
0.0
  0
LINE
  5
3FD
330
1F
100
AcDbEntity
  8
SLD-0
  6
Continuous
370
    15
100
AcDbLine
 10
97.5263235562
 20
34.0027340374
 30
0.0
 11
97.5113238361
 21
34.0027340374
 31
0.0
  0
LINE
  5
3FE
330
1F
100
AcDbEntity
  8
SLD-0
  6
Continuous
370
    15
100
AcDbLine
 10
97.5113238361
 20
37.1277328172
 30
0.0
 11
97.5263235562
 21
37.1277328172
 31
0.0
  0
LINE
  5
3FF
330
1F
100
AcDbEntity
  8
SLD-0
  6
Continuous
370
    15
100
AcDbLine
 10
99.1039482113
 20
37.1277328172
 30
0.0
 11
99.1039482113
 21
34.0027340374
 31
0.0
  0
LINE
  5
400
330
1F
100
AcDbEntity
  8
SLD-0
  6
Continuous
370
    15
100
AcDbLine
 10
97.5263235562
 20
34.0027340374
 30
0.0
 11
99.1039482113
 21
34.0027340374
 31
0.0
  0
LINE
  5
401
330
1F
100
AcDbEntity
  8
SLD-0
  6
Continuous
370
    15
100
AcDbLine
 10
97.5263235562
 20
37.1277328172
 30
0.0
 11
99.1039482113
 21
37.1277328172
 31
0.0
  0
LINE
  5
402
330
1F
100
AcDbEntity
  8
SLD-0
  6
Continuous
370
    15
100
AcDbLine
 10
99.7803482908
 20
43.2104337493
 30
0.0
 11
99.7803482908
 21
43.1804319626
 31
0.0
  0
LINE
  5
403
330
1F
100
AcDbEntity
  8
SLD-0
  6
Continuous
370
    15
100
AcDbLine
 10
114.2803488122
 20
43.2104337493
 30
0.0
 11
114.2803488122
 21
43.1804319626
 31
0.0
  0
LINE
  5
404
330
1F
100
AcDbEntity
  8
SLD-0
  6
Continuous
370
    15
100
AcDbLine
 10
114.2803488122
 20
43.2104337493
 30
0.0
 11
99.7803482908
 21
43.2104337493
 31
0.0
  0
LINE
  5
405
330
1F
100
AcDbEntity
  8
SLD-0
  6
Continuous
370
    15
100
AcDbLine
 10
99.7803482908
 20
43.2104337493
 30
0.0
 11
99.7803482908
 21
43.2178749434
 31
0.0
  0
LINE
  5
406
330
1F
100
AcDbEntity
  8
SLD-0
  6
Continuous
370
    15
100
AcDbLine
 10
114.2803488122
 20
43.2178749434
 30
0.0
 11
99.7803482908
 21
43.2178749434
 31
0.0
  0
LINE
  5
407
330
1F
100
AcDbEntity
  8
SLD-0
  6
Continuous
370
    15
100
AcDbLine
 10
114.2803488122
 20
43.2178749434
 30
0.0
 11
114.2803488122
 21
43.2104337493
 31
0.0
  0
LINE
  5
408
330
1F
100
AcDbEntity
  8
SLD-0
  6
Continuous
370
    15
100
AcDbLine
 10
97.4053484203
 20
46.1733384016
 30
0.0
 11
114.2803488122
 21
46.1733384016
 31
0.0
  0
LINE
  5
409
330
1F
100
AcDbEntity
  8
SLD-0
  6
Continuous
370
    15
100
AcDbLine
 10
99.7803482908
 20
43.2178749434
 30
0.0
 11
99.7803482908
 21
44.6804321278
 31
0.0
  0
LINE
  5
40A
330
1F
100
AcDbEntity
  8
SLD-0
  6
Continuous
370
    15
100
AcDbLine
 10
99.7803482908
 20
44.6804321278
 30
0.0
 11
99.7803482908
 21
44.6955491798
 31
0.0
  0
LINE
  5
40B
330
1F
100
AcDbEntity
  8
SLD-0
  6
Continuous
370
    15
100
AcDbLine
 10
97.655348839
 20
44.6955491798
 30
0.0
 11
99.7803482908
 21
44.6955491798
 31
0.0
  0
LINE
  5
40C
330
1F
100
AcDbEntity
  8
SLD-0
  6
Continuous
370
    15
100
AcDbLine
 10
97.4053484203
 20
44.9114939919
 30
0.0
 11
97.655348839
 21
44.6955491798
 31
0.0
  0
LINE
  5
40D
330
1F
100
AcDbEntity
  8
SLD-0
  6
Continuous
370
    15
100
AcDbLine
 10
97.4053484203
 20
44.9114939919
 30
0.0
 11
97.4053484203
 21
46.1733384016
 31
0.0
  0
LINE
  5
40E
330
1F
100
AcDbEntity
  8
SLD-0
  6
Continuous
370
    15
100
AcDbLine
 10
105.7803489516
 20
45.3761943303
 30
0.0
 11
105.7803489516
 21
44.512415082
 31
0.0
  0
ARC
  5
40F
330
1F
100
AcDbEntity
  8
SLD-0
  6
Continuous
370
    15
100
AcDbCircle
 10
105.9053485743
 20
44.5271972427
 30
0.0
 40
0.1258706396972968
100
AcDbArc
 50
186.7443405996
 51
353.2556594005
  0
LINE
  5
410
330
1F
100
AcDbEntity
  8
SLD-0
  6
Continuous
370
    15
100
AcDbLine
 10
106.0303481969
 20
44.512415082
 30
0.0
 11
106.0303481969
 21
45.3761943303
 31
0.0
  0
ARC
  5
411
330
1F
100
AcDbEntity
  8
SLD-0
  6
Continuous
370
    15
100
AcDbCircle
 10
105.9053485743
 20
45.3614112543
 30
0.0
 40
0.1258707471921291
100
AcDbArc
 50
6.7447543542
 51
173.2552456458
  0
LINE
  5
412
330
1F
100
AcDbEntity
  8
SLD-0
  6
Continuous
370
    15
100
AcDbLine
 10
102.7803486212
 20
45.3761943303
 30
0.0
 11
102.7803486212
 21
44.512415082
 31
0.0
  0
ARC
  5
413
330
1F
100
AcDbEntity
  8
SLD-0
  6
Continuous
370
    15
100
AcDbCircle
 10
102.9053488305
 20
44.5271985622
 30
0.0
 40
0.1258713772660937
100
AcDbArc
 50
186.7449057139
 51
353.2550942861
  0
LINE
  5
414
330
1F
100
AcDbEntity
  8
SLD-0
  6
Continuous
370
    15
100
AcDbLine
 10
103.0303490398
 20
44.512415082
 30
0.0
 11
103.0303490398
 21
45.3761943303
 31
0.0
  0
ARC
  5
415
330
1F
100
AcDbEntity
  8
SLD-0
  6
Continuous
370
    15
100
AcDbCircle
 10
102.9053488305
 20
45.3614099348
 30
0.0
 40
0.1258714847704687
100
AcDbArc
 50
6.7453194679
 51
173.2546805321
  0
LINE
  5
416
330
1F
100
AcDbEntity
  8
SLD-0
  6
Continuous
370
    15
100
AcDbLine
 10
114.2803488122
 20
43.2178749434
 30
0.0
 11
114.2803488122
 21
46.1733384016
 31
0.0
  0
LINE
  5
417
330
1F
100
AcDbEntity
  8
SLD-0
  6
Continuous
370
    15
100
AcDbLine
 10
97.655348839
 20
44.6804321278
 30
0.0
 11
97.655348839
 21
44.6955491798
 31
0.0
  0
LINE
  5
418
330
1F
100
AcDbEntity
  8
SLD-0
  6
Continuous
370
    15
100
AcDbLine
 10
97.655348839
 20
44.6804321278
 30
0.0
 11
99.7803482908
 21
44.6804321278
 31
0.0
  0
LINE
  5
419
330
1F
100
AcDbEntity
  8
SLD-0
  6
Continuous
370
    15
100
AcDbLine
 10
97.4053484203
 20
44.8963769398
 30
0.0
 11
97.4053484203
 21
44.9114939919
 31
0.0
  0
LINE
  5
41A
330
1F
100
AcDbEntity
  8
SLD-0
  6
Continuous
370
    15
100
AcDbLine
 10
97.4053484203
 20
44.8963769398
 30
0.0
 11
97.655348839
 21
44.6804321278
 31
0.0
  0
ARC
  5
41B
330
1F
100
AcDbEntity
  8
SLD-0
  6
Continuous
370
    15
100
AcDbCircle
 10
105.9053485743
 20
45.3462942023
 30
0.0
 40
0.1258707471921275
100
AcDbArc
 50
6.7447543542
 51
173.2552456458
  0
ARC
  5
41C
330
1F
100
AcDbEntity
  8
SLD-0
  6
Continuous
370
    15
100
AcDbCircle
 10
102.9053488305
 20
45.3462928828
 30
0.0
 40
0.1258714847704687
100
AcDbArc
 50
6.7453194679
 51
173.2546805321
  0
LINE
  5
41D
330
1F
100
AcDbEntity
  8
SLD-0
  6
Continuous
370
    15
100
AcDbLine
 10
97.4053484203
 20
46.1733384016
 30
0.0
 11
97.4053484203
 21
46.1956643303
 31
0.0
  0
LINE
  5
41E
330
1F
100
AcDbEntity
  8
SLD-0
  6
Continuous
370
    15
100
AcDbLine
 10
114.2803488122
 20
46.1956643303
 30
0.0
 11
114.2803488122
 21
46.1733384016
 31
0.0
  0
LINE
  5
41F
330
1F
100
AcDbEntity
  8
SLD-0
  6
Continuous
370
    15
100
AcDbLine
 10
99.7135359426
 20
43.127733478
 30
0.0
 11
99.710708242
 21
43.127733478
 31
0.0
  0
LINE
  5
420
330
1F
100
AcDbEntity
  8
SLD-0
  6
Continuous
370
    15
100
AcDbLine
 10
99.710708242
 20
8.5897328173
 30
0.0
 11
99.7135359426
 21
8.5897328173
 31
0.0
  0
LINE
  5
421
330
1F
100
AcDbEntity
  8
SLD-0
  6
Continuous
370
    15
100
AcDbLine
 10
99.710708242
 20
43.127733478
 30
0.0
 11
99.710708242
 21
8.5897328173
 31
0.0
  0
LINE
  5
422
330
1F
100
AcDbEntity
  8
SLD-0
  6
Continuous
370
    15
100
AcDbLine
 10
99.710708242
 20
8.5897328173
 30
0.0
 11
99.6090060568
 21
8.5897328173
 31
0.0
  0
LINE
  5
423
330
1F
100
AcDbEntity
  8
SLD-0
  6
Continuous
370
    15
100
AcDbLine
 10
99.2289490073
 20
8.5897328173
 30
0.0
 11
97.9159490285
 21
8.5897328173
 31
0.0
  0
LINE
  5
424
330
1F
100
AcDbEntity
  8
SLD-0
  6
Continuous
370
    15
100
AcDbLine
 10
97.5409489872
 20
8.5897328173
 30
0.0
 11
96.7767106691
 21
8.5897328173
 31
0.0
  0
LINE
  5
425
330
1F
100
AcDbEntity
  8
SLD-0
  6
Continuous
370
    15
100
AcDbLine
 10
96.7767106691
 20
8.5897328173
 30
0.0
 11
96.7767106691
 21
9.1143321571
 31
0.0
  0
LINE
  5
426
330
1F
100
AcDbEntity
  8
SLD-0
  6
Continuous
370
    15
100
AcDbLine
 10
96.7767106691
 20
42.6831344541
 30
0.0
 11
96.7767106691
 21
43.127733478
 31
0.0
  0
LINE
  5
427
330
1F
100
AcDbEntity
  8
SLD-0
  6
Continuous
370
    15
100
AcDbLine
 10
96.7767106691
 20
43.127733478
 30
0.0
 11
97.5409489872
 21
43.127733478
 31
0.0
  0
LINE
  5
428
330
1F
100
AcDbEntity
  8
SLD-0
  6
Continuous
370
    15
100
AcDbLine
 10
97.9159490285
 20
43.127733478
 30
0.0
 11
99.2289490073
 21
43.127733478
 31
0.0
  0
LINE
  5
429
330
1F
100
AcDbEntity
  8
SLD-0
  6
Continuous
370
    15
100
AcDbLine
 10
99.6090060568
 20
43.127733478
 30
0.0
 11
99.710708242
 21
43.127733478
 31
0.0
  0
LWPOLYLINE
  5
42A
330
1F
100
AcDbEntity
  8
SLD-0
  6
Continuous
370
    15
100
AcDbPolyline
 90
      108
 70
   128
 43
0.0
 10
110.7186823569
 20
18.713733164
 10
110.7689121766
 20
18.7122248614
 10
110.8189683451
 20
18.7077058203
 10
110.8686789708
 20
18.7001907071
 10
110.9178727492
 20
18.6897065082
 10
110.9663795488
 20
18.6762884232
 10
111.0140327583
 20
18.6599833849
 10
111.0606675263
 20
18.6408471259
 10
111.1061236945
 20
18.6189459389
 10
111.1502440381
 20
18.594355503
 10
111.1928769056
 20
18.5671597105
 10
111.2338750453
 20
18.5374530137
 10
111.2730970723
 20
18.505338078
 10
111.3104080546
 20
18.4709251956
 10
111.3456792204
 20
18.434332285
 10
111.378788838
 20
18.3956866514
 10
111.4096230951
 20
18.3551214667
 10
111.4380758064
 20
18.3127757692
 10
111.4640481197
 20
18.2687962239
 10
111.4874514493
 20
18.2233336024
 10
111.5082042496
 20
18.1765457163
 10
111.526235828
 20
18.1285933102
 10
111.5414831185
 20
18.0796412357
 10
111.5538944951
 20
18.0298590375
 10
111.563426545
 20
17.9794180202
 10
111.5700464152
 20
17.9284918351
 10
111.5737318126
 20
17.8772564803
 10
111.5744695374
 20
17.8258885404
 10
111.5722569497
 20
17.7745640133
 10
111.5671022625
 20
17.7234612437
 10
111.5590227825
 20
17.6727562294
 10
111.548046376
 20
17.6226226219
 10
111.5342108825
 20
17.5732346591
 10
111.5175644081
 20
17.5247612991
 10
111.4981638589
 20
17.4773709132
 10
111.4760761141
 20
17.4312254196
 10
111.4513777327
 20
17.3864855631
 10
111.4241534872
 20
17.3433038753
 10
111.3944972432
 20
17.301830541
 10
111.362511666
 20
17.2622081188
 10
111.3283064611
 20
17.2245727135
 10
111.2919995472
 20
17.1890545638
 10
111.2537164695
 20
17.1557762816
 10
111.2135892264
 20
17.1248522655
 10
111.171755683
 20
17.096388701
 10
111.1283604509
 20
17.0704841469
 10
111.0835528352
 20
17.0472283622
 10
111.0374874207
 20
17.026700546
 10
110.9903228989
 20
17.0089722708
 10
110.9422226545
 20
16.9941045493
 10
110.8933509524
 20
16.9821484207
 10
110.843877924
 20
16.9731449514
 10
110.7939725271
 20
16.9671252343
 10
110.7438078266
 20
16.9641103891
 10
110.6935568872
 20
16.9641103891
 10
110.6433921867
 20
16.9671252343
 10
110.5934873765
 20
16.9731449514
 10
110.5440137614
 20
16.9821484207
 10
110.4951426459
 20
16.9941045493
 10
110.4470418149
 20
17.0089722708
 10
110.3998772931
 20
17.026700546
 10
110.3538121719
 20
17.0472283622
 10
110.3090048495
 20
17.0704841469
 10
110.2656090308
 20
17.096388701
 10
110.2237760741
 20
17.1248522655
 10
110.1836485377
 20
17.1557762816
 10
110.1453654599
 20
17.1890545638
 10
110.1090588393
 20
17.2245727135
 10
110.0748536345
 20
17.2622081188
 10
110.042867764
 20
17.301830541
 10
110.0132115199
 20
17.3433038753
 10
109.9859869811
 20
17.3864855631
 10
109.9612885997
 20
17.4312254196
 10
109.9392014415
 20
17.4773709132
 10
109.919800599
 20
17.5247612991
 10
109.9031541246
 20
17.5732346591
 10
109.8893189244
 20
17.6226226219
 10
109.8783425179
 20
17.6727562294
 10
109.8702630379
 20
17.7234612437
 10
109.8651080575
 20
17.7745640133
 10
109.862895763
 20
17.8258885404
 10
109.8636331945
 20
17.8772564803
 10
109.8673185919
 20
17.9284918351
 10
109.8739384621
 20
17.9794180202
 10
109.883470512
 20
18.0298590375
 10
109.8958818886
 20
18.0796412357
 10
109.9111291792
 20
18.1285933102
 10
109.9291607575
 20
18.1765457163
 10
109.9499138511
 20
18.2233336024
 10
109.9733168874
 20
18.2687962239
 10
109.9992894941
 20
18.3127757692
 10
110.027741912
 20
18.3551214667
 10
110.0585761692
 20
18.3956866514
 10
110.0916854934
 20
18.434332285
 10
110.1269566592
 20
18.4709251956
 10
110.1642676415
 20
18.505338078
 10
110.2034899618
 20
18.5374530137
 10
110.2444881015
 20
18.5671597105
 10
110.2871206757
 20
18.594355503
 10
110.331241606
 20
18.6189459389
 10
110.3766971875
 20
18.6408471259
 10
110.4233325421
 20
18.6599833849
 10
110.4709857516
 20
18.6762884232
 10
110.5194925513
 20
18.6897065082
 10
110.568685743
 20
18.7001907071
 10
110.6183963687
 20
18.7077058203
 10
110.6684531238
 20
18.7122248614
 10
110.7186823569
 20
18.713733164
  0
LINE
  5
42B
330
1F
100
AcDbEntity
  8
SLD-0
  6
Continuous
370
    15
100
AcDbLine
 10
115.8542057176
 20
8.5897328173
 30
0.0
 11
114.8744404359
 21
8.5897328173
 31
0.0
  0
LINE
  5
42C
330
1F
100
AcDbEntity
  8
SLD-0
  6
Continuous
370
    15
100
AcDbLine
 10
115.8542057176
 20
43.127733478
 30
0.0
 11
115.8542057176
 21
8.5897328173
 31
0.0
  0
LINE
  5
42D
330
1F
100
AcDbEntity
  8
SLD-0
  6
Continuous
370
    15
100
AcDbLine
 10
114.8744404359
 20
43.127733478
 30
0.0
 11
115.8542057176
 21
43.127733478
 31
0.0
  0
LWPOLYLINE
  5
42E
330
1F
100
AcDbEntity
  8
SLD-0
  6
Continuous
370
    15
100
AcDbPolyline
 90
       55
 70
   128
 43
0.0
 10
110.7164266496
 20
18.7137302307
 10
110.7644001754
 20
18.7122248614
 10
110.8144569305
 20
18.7077058203
 10
110.8641675562
 20
18.7001907071
 10
110.913360748
 20
18.6897065082
 10
110.9618675476
 20
18.6762884232
 10
111.0095207571
 20
18.6599833849
 10
111.0561561117
 20
18.6408471259
 10
111.1016119866
 20
18.6189459389
 10
111.1457323302
 20
18.594355503
 10
111.1883651977
 20
18.5671597105
 10
111.2293633375
 20
18.5374530137
 10
111.2685853644
 20
18.505338078
 10
111.3058963467
 20
18.4709251956
 10
111.3411675126
 20
18.434332285
 10
111.3742774234
 20
18.3956866514
 10
111.4051116805
 20
18.3551214667
 10
111.4335640985
 20
18.3127757692
 10
111.4595364118
 20
18.2687962239
 10
111.4829397415
 20
18.2233336024
 10
111.5036925417
 20
18.1765457163
 10
111.5217241201
 20
18.1285933102
 10
111.536971704
 20
18.0796412357
 10
111.5493827872
 20
18.0298590375
 10
111.5589148371
 20
17.9794180202
 10
111.5655347073
 20
17.9284918351
 10
111.5692201047
 20
17.8772564803
 10
111.5699578296
 20
17.8258885404
 10
111.5677452418
 20
17.7745640133
 10
111.5625905547
 20
17.7234612437
 10
111.5545110747
 20
17.6727562294
 10
111.5435346681
 20
17.6226226219
 10
111.5296991746
 20
17.5732346591
 10
111.5130527003
 20
17.5247612991
 10
111.493652151
 20
17.4773709132
 10
111.4715644062
 20
17.4312254196
 10
111.4468660249
 20
17.3864855631
 10
111.4196417794
 20
17.3433038753
 10
111.3899858286
 20
17.301830541
 10
111.3579999581
 20
17.2622081188
 10
111.3237947533
 20
17.2245727135
 10
111.2874878393
 20
17.1890545638
 10
111.2492047616
 20
17.1557762816
 10
111.2090775185
 20
17.1248522655
 10
111.1672439751
 20
17.096388701
 10
111.123848743
 20
17.0704841469
 10
111.0790411273
 20
17.0472283622
 10
111.0329760062
 20
17.026700546
 10
110.9858114843
 20
17.0089722708
 10
110.9377106533
 20
16.9941045493
 10
110.8888395379
 20
16.9821484207
 10
110.8393659228
 20
16.9731449514
 10
110.7894611126
 20
16.9671252343
 10
110.7392964121
 20
16.9641103891
 10
110.7164266496
 20
16.9637361001
  0
LINE
  5
42F
330
1F
100
AcDbEntity
  8
SLD-0
  6
Continuous
370
    15
100
AcDbLine
 10
115.8959487687
 20
43.127733478
 30
0.0
 11
115.8542057176
 21
43.127733478
 31
0.0
  0
LINE
  5
430
330
1F
100
AcDbEntity
  8
SLD-0
  6
Continuous
370
    15
100
AcDbLine
 10
115.8959487687
 20
42.9750986546
 30
0.0
 11
115.8959487687
 21
8.742366834
 31
0.0
  0
LINE
  5
431
330
1F
100
AcDbEntity
  8
SLD-0
  6
Continuous
370
    15
100
AcDbLine
 10
115.8542057176
 20
8.5897328173
 30
0.0
 11
115.8959487687
 21
8.5897328173
 31
0.0
  0
LINE
  5
432
330
1F
100
AcDbEntity
  8
SLD-0
  6
Continuous
370
    15
100
AcDbLine
 10
96.7309488511
 20
43.127733478
 30
0.0
 11
96.7135485187
 21
43.127733478
 31
0.0
  0
LINE
  5
433
330
1F
100
AcDbEntity
  8
SLD-0
  6
Continuous
370
    15
100
AcDbLine
 10
96.7619491329
 20
8.558733122
 30
0.0
 11
96.7619491329
 21
8.5473330737
 31
0.0
  0
LINE
  5
434
330
1F
100
AcDbEntity
  8
SLD-0
  6
Continuous
370
    15
100
AcDbLine
 10
96.7309488511
 20
8.5897331106
 30
0.0
 11
96.7135485187
 21
8.5897331106
 31
0.0
  0
LINE
  5
435
330
1F
100
AcDbEntity
  8
SLD-0
  6
Continuous
370
    15
100
AcDbLine
 10
99.7216647021
 20
43.1149278659
 30
0.0
 11
99.7216647021
 21
8.602537916
 31
0.0
  0
DIMENSION
  5
436
330
1F
100
AcDbEntity
  8
DIM
100
AcDbDimension
  2
_D_8
 10
90.5559085345
 20
8.51373311
 30
0.0
 11
90.5559085345
 21
25.89873311
 31
0.0
 70
   160
  1
<>
 71
     2
 42
-1.0
  3
SLDDIMSTYLE0
100
AcDbAlignedDimension
 13
96.7445487694
 23
43.28373311
 33
0.0
 14
96.7445487694
 24
8.51373311
 34
0.0
 50
90.0
100
AcDbRotatedDimension
  0
DIMENSION
  5
445
330
1F
100
AcDbEntity
  8
DIM
100
AcDbDimension
  2
_D_9
 10
120.0912378661
 20
46.1956635871
 30
0.0
 11
120.0912378661
 21
44.5961653021
 31
0.0
 70
   160
  1
<>
 71
     2
 42
-1.0
  3
SLDDIMSTYLE1
100
AcDbAlignedDimension
 13
114.8759410284
 23
43.18043311
 33
0.0
 14
114.2803487694
 24
46.1956635871
 34
0.0
 50
90.0
100
AcDbRotatedDimension
  0
ENDSEC
  0
SECTION
  2
OBJECTS
  0
DICTIONARY
  5
C
330
0
100
AcDbDictionary
281
     1
  3
ACAD_GROUP
350
D
  3
ACAD_LAYOUT
350
1A
  3
ACAD_MLINESTYLE
350
17
  3
ACAD_PLOTSETTINGS
350
19
  3
ACAD_PLOTSTYLENAME
350
E
  0
DICTIONARY
  5
D
102
{ACAD_REACTORS
330
C
102
}
330
C
100
AcDbDictionary
281
     1
  0
DICTIONARY
  5
1A
102
{ACAD_REACTORS
330
C
102
}
330
C
100
AcDbDictionary
281
     1
  3
Layout1
350
1E
  3
Layout2
350
26
  3
Model
350
22
  0
DICTIONARY
  5
17
102
{ACAD_REACTORS
330
C
102
}
330
C
100
AcDbDictionary
281
     1
  3
Standard
350
18
  0
DICTIONARY
  5
19
102
{ACAD_REACTORS
330
C
102
}
330
C
100
AcDbDictionary
281
     1
  0
ACDBDICTIONARYWDFLT
  5
E
102
{ACAD_REACTORS
330
C
102
}
330
C
100
AcDbDictionary
281
     1
  3
Normal
350
F
100
AcDbDictionaryWithDefault
340
F
  0
LAYOUT
  5
1E
102
{ACAD_REACTORS
330
1A
102
}
330
1A
100
AcDbPlotSettings
  1

  2
none_device
  4

  6

 40
0.0
 41
0.0
 42
0.0
 43
0.0
 44
0.0
 45
0.0
 46
0.0
 47
0.0
 48
0.0
 49
0.0
140
0.0
141
0.0
142
1.0
143
1.0
 70
   688
 72
     0
 73
     0
 74
     5
  7

 75
    16
147
1.0
148
0.0
149
0.0
100
AcDbLayout
  1
Layout1
 70
     1
 71
     1
 10
0.0
 20
0.0
 11
12.0
 21
9.0
 12
0.0
 22
0.0
 32
0.0
 14
1.0000000000E+20
 24
1.0000000000E+20
 34
1.0000000000E+20
 15
-1.0000000000E+20
 25
-1.0000000000E+20
 35
-1.0000000000E+20
146
0.0
 13
0.0
 23
0.0
 33
0.0
 16
1.0
 26
0.0
 36
0.0
 17
0.0
 27
1.0
 37
0.0
 76
     0
330
1B
  0
LAYOUT
  5
26
102
{ACAD_REACTORS
330
1A
102
}
330
1A
100
AcDbPlotSettings
  1

  2
none_device
  4

  6

 40
0.0
 41
0.0
 42
0.0
 43
0.0
 44
0.0
 45
0.0
 46
0.0
 47
0.0
 48
0.0
 49
0.0
140
0.0
141
0.0
142
1.0
143
1.0
 70
   688
 72
     0
 73
     0
 74
     5
  7

 75
    16
147
1.0
148
0.0
149
0.0
100
AcDbLayout
  1
Layout2
 70
     1
 71
     2
 10
0.0
 20
0.0
 11
0.0
 21
0.0
 12
0.0
 22
0.0
 32
0.0
 14
0.0
 24
0.0
 34
0.0
 15
0.0
 25
0.0
 35
0.0
146
0.0
 13
0.0
 23
0.0
 33
0.0
 16
1.0
 26
0.0
 36
0.0
 17
0.0
 27
1.0
 37
0.0
 76
     0
330
23
  0
LAYOUT
  5
22
102
{ACAD_REACTORS
330
1A
102
}
330
1A
100
AcDbPlotSettings
  1

  2
none_device
  4

  6

 40
0.0
 41
0.0
 42
0.0
 43
0.0
 44
0.0
 45
0.0
 46
0.0
 47
0.0
 48
0.0
 49
0.0
140
0.0
141
0.0
142
1.0
143
1.0
 70
  1712
 72
     0
 73
     0
 74
     0
  7

 75
     0
147
1.0
148
0.0
149
0.0
100
AcDbLayout
  1
Model
 70
     1
 71
     0
 10
0.0
 20
0.0
 11
125.0
 21
90.0
 12
0.0
 22
0.0
 32
0.0
 14
0.0
 24
0.0
 34
0.0
 15
125.0
 25
90.0
 35
0.0
146
0.0
 13
0.0
 23
0.0
 33
0.0
 16
1.0
 26
0.0
 36
0.0
 17
0.0
 27
1.0
 37
0.0
 76
     0
330
1F
331
29
  0
MLINESTYLE
  5
18
102
{ACAD_REACTORS
330
17
102
}
330
17
100
AcDbMlineStyle
  2
Standard
 70
     0
  3

 62
   256
 51
90.0
 52
90.0
 71
     2
 49
0.5
 62
   256
  6
BYLAYER
 49
-0.5
 62
   256
  6
BYLAYER
  0
ACDBPLACEHOLDER
  5
F
102
{ACAD_REACTORS
330
E
102
}
330
E
  0
ENDSEC
  0
EOF
