  0
SECTION
  2
HEADER
  9
$ACADVER
  1
AC1018
  9
$ACADMAINTVER
 70
     0
  9
$DWGCODEPAGE
  3
ANSI_1252
  9
$INSBASE
 10
0.0
 20
0.0
 30
0.0
  9
$EXTMIN
 10
0.0
 20
0.0
 30
0.0
  9
$EXTMAX
 10
130.0
 20
90.0
 30
0.0
  9
$LIMMIN
 10
0.0
 20
0.0
  9
$LIMMAX
 10
130.0
 20
90.0
  9
$ORTHOMODE
 70
     0
  9
$REGENMODE
 70
     1
  9
$FILLMODE
 70
     1
  9
$QTEXTMODE
 70
     0
  9
$MIRRTEXT
 70
     1
  9
$LTSCALE
 40
1.0
  9
$ATTMODE
 70
     1
  9
$TEXTSIZE
 40
0.1388888889
  9
$TRACEWID
 40
0.05
  9
$TEXTSTYLE
  7
Standard
  9
$CLAYER
  8
0
  9
$CELTYPE
  6
ByLayer
  9
$CECOLOR
 62
   256
  9
$CELTSCALE
 40
1.0
  9
$DISPSILH
 70
     0
  9
$DIMSCALE
 40
1.0
  9
$DIMASZ
 40
1.0
  9
$DIMEXO
 40
0.0393700787
  9
$DIMDLI
 40
0.38
  9
$DIMRND
 40
0.0
  9
$DIMDLE
 40
0.0
  9
$DIMEXE
 40
0.0393700787
  9
$DIMTP
 40
0.0
  9
$DIMTM
 40
0.0
  9
$DIMTXT
 40
1.5
  9
$DIMCEN
 40
0.09
  9
$DIMTSZ
 40
0.0
  9
$DIMTOL
 70
     0
  9
$DIMLIM
 70
     0
  9
$DIMTIH
 70
     1
  9
$DIMTOH
 70
     1
  9
$DIMSE1
 70
     0
  9
$DIMSE2
 70
     0
  9
$DIMTAD
 70
     0
  9
$DIMZIN
 70
     0
  9
$DIMBLK
  1

  9
$DIMASO
 70
     1
  9
$DIMSHO
 70
     1
  9
$DIMPOST
  1

  9
$DIMAPOST
  1

  9
$DIMALT
 70
     0
  9
$DIMALTD
 70
     2
  9
$DIMALTF
 40
25.4
  9
$DIMLFAC
 40
1.0
  9
$DIMTOFL
 70
     0
  9
$DIMTVP
 40
0.0
  9
$DIMTIX
 70
     0
  9
$DIMSOXD
 70
     0
  9
$DIMSAH
 70
     0
  9
$DIMBLK1
  1

  9
$DIMBLK2
  1

  9
$DIMSTYLE
  2
Standard
  9
$DIMCLRD
 70
     0
  9
$DIMCLRE
 70
     0
  9
$DIMCLRT
 70
     0
  9
$DIMTFAC
 40
1.0
  9
$DIMGAP
 40
0.06
  9
$DIMJUST
 70
     0
  9
$DIMSD1
 70
     0
  9
$DIMSD2
 70
     0
  9
$DIMTOLJ
 70
     1
  9
$DIMTZIN
 70
     0
  9
$DIMALTZ
 70
     0
  9
$DIMALTTZ
 70
     0
  9
$DIMUPT
 70
     0
  9
$DIMDEC
 70
     3
  9
$DIMTDEC
 70
     2
  9
$DIMALTU
 70
     2
  9
$DIMALTTD
 70
     2
  9
$DIMTXSTY
  7
Standard
  9
$DIMAUNIT
 70
     0
  9
$DIMADEC
 70
     2
  9
$DIMALTRND
 40
0.0
  9
$DIMAZIN
 70
     0
  9
$DIMDSEP
 70
    46
  9
$DIMATFIT
 70
     3
  9
$DIMFRAC
 70
     0
  9
$DIMLDRBLK
  1

  9
$DIMLUNIT
 70
     2
  9
$DIMLWD
 70
    -2
  9
$DIMLWE
 70
    -2
  9
$DIMTMOVE
 70
     0
  9
$LUNITS
 70
     2
  9
$LUPREC
 70
     3
  9
$SKETCHINC
 40
0.1
  9
$FILLETRAD
 40
0.5
  9
$AUNITS
 70
     0
  9
$AUPREC
 70
     2
  9
$MENU
  1
.
  9
$ELEVATION
 40
0.0
  9
$PELEVATION
 40
0.0
  9
$THICKNESS
 40
0.0
  9
$LIMCHECK
 70
     0
  9
$CHAMFERA
 40
0.5
  9
$CHAMFERB
 40
0.5
  9
$CHAMFERC
 40
1.0
  9
$CHAMFERD
 40
0.0
  9
$SKPOLY
 70
     0
  9
$TDCREATE
 40
2456575.544319074
  9
$TDUCREATE
 40
2456575.752652408
  9
$TDUPDATE
 40
2456575.544320521
  9
$TDUUPDATE
 40
2456575.752653854
  9
$TDINDWG
 40
0.0000000116
  9
$TDUSRTIMER
 40
0.0000000116
  9
$USRTIMER
 70
     1
  9
$ANGBASE
 50
0.0
  9
$ANGDIR
 70
     0
  9
$PDMODE
 70
     0
  9
$PDSIZE
 40
-1.0
  9
$PLINEWID
 40
0.0
  9
$SPLFRAME
 70
     0
  9
$SPLINETYPE
 70
     6
  9
$SPLINESEGS
 70
     8
  9
$HANDSEED
  5
549
  9
$SURFTAB1
 70
     6
  9
$SURFTAB2
 70
     6
  9
$SURFTYPE
 70
     6
  9
$SURFU
 70
     6
  9
$SURFV
 70
     6
  9
$UCSBASE
  2

  9
$UCSNAME
  2

  9
$UCSORG
 10
0.0
 20
0.0
 30
0.0
  9
$UCSXDIR
 10
1.0
 20
0.0
 30
0.0
  9
$UCSYDIR
 10
0.0
 20
1.0
 30
0.0
  9
$UCSORTHOREF
  2

  9
$UCSORTHOVIEW
 70
     0
  9
$UCSORGTOP
 10
0.0
 20
0.0
 30
0.0
  9
$UCSORGBOTTOM
 10
0.0
 20
0.0
 30
0.0
  9
$UCSORGLEFT
 10
0.0
 20
0.0
 30
0.0
  9
$UCSORGRIGHT
 10
0.0
 20
0.0
 30
0.0
  9
$UCSORGFRONT
 10
0.0
 20
0.0
 30
0.0
  9
$UCSORGBACK
 10
0.0
 20
0.0
 30
0.0
  9
$PUCSBASE
  2

  9
$PUCSNAME
  2

  9
$PUCSORG
 10
0.0
 20
0.0
 30
0.0
  9
$PUCSXDIR
 10
1.0
 20
0.0
 30
0.0
  9
$PUCSYDIR
 10
0.0
 20
1.0
 30
0.0
  9
$PUCSORTHOREF
  2

  9
$PUCSORTHOVIEW
 70
     0
  9
$PUCSORGTOP
 10
0.0
 20
0.0
 30
0.0
  9
$PUCSORGBOTTOM
 10
0.0
 20
0.0
 30
0.0
  9
$PUCSORGLEFT
 10
0.0
 20
0.0
 30
0.0
  9
$PUCSORGRIGHT
 10
0.0
 20
0.0
 30
0.0
  9
$PUCSORGFRONT
 10
0.0
 20
0.0
 30
0.0
  9
$PUCSORGBACK
 10
0.0
 20
0.0
 30
0.0
  9
$USERI1
 70
     0
  9
$USERI2
 70
     0
  9
$USERI3
 70
     0
  9
$USERI4
 70
     0
  9
$USERI5
 70
     0
  9
$USERR1
 40
0.0
  9
$USERR2
 40
0.0
  9
$USERR3
 40
0.0
  9
$USERR4
 40
0.0
  9
$USERR5
 40
0.0
  9
$WORLDVIEW
 70
     1
  9
$SHADEDGE
 70
     3
  9
$SHADEDIF
 70
    70
  9
$TILEMODE
 70
     1
  9
$MAXACTVP
 70
    64
  9
$PINSBASE
 10
0.0
 20
0.0
 30
0.0
  9
$PLIMCHECK
 70
     0
  9
$PEXTMIN
 10
1.0000000000E+20
 20
1.0000000000E+20
 30
1.0000000000E+20
  9
$PEXTMAX
 10
-1.0000000000E+20
 20
-1.0000000000E+20
 30
-1.0000000000E+20
  9
$PLIMMIN
 10
0.0
 20
0.0
  9
$PLIMMAX
 10
12.0
 20
9.0
  9
$UNITMODE
 70
     0
  9
$VISRETAIN
 70
     1
  9
$PLINEGEN
 70
     0
  9
$PSLTSCALE
 70
     1
  9
$TREEDEPTH
 70
  3020
  9
$CMLSTYLE
  2
Standard
  9
$CMLJUST
 70
     0
  9
$CMLSCALE
 40
1.0
  9
$PROXYGRAPHICS
 70
     1
  9
$MEASUREMENT
 70
     0
  9
$CELWEIGHT
370
    -1
  9
$ENDCAPS
280
     0
  9
$JOINSTYLE
280
     0
  9
$LWDISPLAY
290
     1
  9
$INSUNITS
 70
     1
  9
$HYPERLINKBASE
  1

  9
$STYLESHEET
  1

  9
$XEDIT
290
     1
  9
$CEPSNTYPE
380
     0
  9
$PSTYLEMODE
290
     1
  9
$FINGERPRINTGUID
  2
{0DA13124-16CD-4334-8948-1C5F223339CC}
  9
$VERSIONGUID
  2
{FAEB1C32-E019-11D5-929B-00C0DF256EC4}
  9
$EXTNAMES
290
     1
  9
$PSVPSCALE
 40
0.0
  9
$OLESTARTUP
290
     0
  9
$SORTENTS
280
   127
  9
$INDEXCTL
280
     0
  9
$HIDETEXT
280
     1
  9
$XCLIPFRAME
290
     0
  9
$HALOGAP
280
     0
  9
$OBSCOLOR
 70
   257
  9
$OBSLTYPE
280
     0
  9
$INTERSECTIONDISPLAY
280
     0
  9
$INTERSECTIONCOLOR
 70
   257
  9
$DIMASSOC
280
     2
  9
$PROJECTNAME
  1

  0
ENDSEC
  0
SECTION
  2
CLASSES
  0
CLASS
  1
ACDBDICTIONARYWDFLT
  2
AcDbDictionaryWithDefault
  3
ObjectDBX Classes
 90
        0
 91
        4
280
     0
281
     0
  0
CLASS
  1
VISUALSTYLE
  2
AcDbVisualStyle
  3
ObjectDBX Classes
 90
     4095
 91
        4
280
     0
281
     0
  0
CLASS
  1
MATERIAL
  2
AcDbMaterial
  3
ObjectDBX Classes
 90
     1153
 91
        4
280
     0
281
     0
  0
ENDSEC
  0
SECTION
  2
TABLES
  0
TABLE
  2
VPORT
  5
8
330
0
100
AcDbSymbolTable
 70
     1
  0
VPORT
  5
29
330
8
100
AcDbSymbolTableRecord
100
AcDbViewportTableRecord
  2
*Active
 70
     0
 10
0.0
 20
0.0
 11
1.0
 21
1.0
 12
65.0
 22
45.0
 13
0.0
 23
0.0
 14
0.5
 24
0.5
 15
0.5
 25
0.5
 16
0.0
 26
0.0
 36
1.0
 17
0.0
 27
0.0
 37
0.0
 40
90.0
 41
1.4444444444
 42
50.0
 43
0.0
 44
0.0
 50
0.0
 51
0.0
 71
     0
 72
  2000
 73
     1
 74
     3
 75
     0
 76
     0
 77
     0
 78
     0
281
     0
 65
     1
110
0.0
120
0.0
130
0.0
111
1.0
121
0.0
131
0.0
112
0.0
122
1.0
132
0.0
 79
     0
146
0.0
  0
ENDTAB
  0
TABLE
  2
LTYPE
  5
5
330
0
100
AcDbSymbolTable
 70
     6
  0
LTYPE
  5
14
330
5
100
AcDbSymbolTableRecord
100
AcDbLinetypeTableRecord
  2
ByBlock
 70
     0
  3

 72
    65
 73
     0
 40
0.0
  0
LTYPE
  5
15
330
5
100
AcDbSymbolTableRecord
100
AcDbLinetypeTableRecord
  2
ByLayer
 70
     0
  3

 72
    65
 73
     0
 40
0.0
  0
LTYPE
  5
16
330
5
100
AcDbSymbolTableRecord
100
AcDbLinetypeTableRecord
  2
Continuous
 70
     0
  3
Solid line
 72
    65
 73
     0
 40
0.0
  0
LTYPE
  5
3F
330
5
100
AcDbSymbolTableRecord
100
AcDbLinetypeTableRecord
  2
HIDDEN
 70
     0
  3
Hidden __ __ __ __ __ __ __ __ __ __ __ __ __ __
 72
    65
 73
     2
 40
0.075
 49
0.05
 74
     0
 49
-0.025
 74
     0
  0
LTYPE
  5
40
330
5
100
AcDbSymbolTableRecord
100
AcDbLinetypeTableRecord
  2
PHANTOM
 70
     0
  3
Phantom ______  __  __  ______  __  __  ______
 72
    65
 73
     6
 40
0.5
 49
0.25
 74
     0
 49
-0.05
 74
     0
 49
0.05
 74
     0
 49
-0.05
 74
     0
 49
0.05
 74
     0
 49
-0.05
 74
     0
  0
LTYPE
  5
41
330
5
100
AcDbSymbolTableRecord
100
AcDbLinetypeTableRecord
  2
CENTER
 70
     0
  3
Center ____ _ ____ _ ____ _ ____ _ ____ _ ____
 72
    65
 73
     4
 40
0.4
 49
0.25
 74
     0
 49
-0.05
 74
     0
 49
0.05
 74
     0
 49
-0.05
 74
     0
  0
LTYPE
  5
42
330
5
100
AcDbSymbolTableRecord
100
AcDbLinetypeTableRecord
  2
CENTERX2
 70
     0
  3
Center (2x) ________  __  ________  __  _____
 72
    65
 73
     4
 40
0.8
 49
0.5
 74
     0
 49
-0.1
 74
     0
 49
0.1
 74
     0
 49
-0.1
 74
     0
  0
LTYPE
  5
43
330
5
100
AcDbSymbolTableRecord
100
AcDbLinetypeTableRecord
  2
DOT2
 70
     0
  3
Dot (.5x) ........................................
 72
    65
 73
     2
 40
0.025
 49
0.0
 74
     0
 49
-0.025
 74
     0
  0
ENDTAB
  0
TABLE
  2
LAYER
  5
2
330
0
100
AcDbSymbolTable
 70
     4
  0
LAYER
  5
10
330
2
100
AcDbSymbolTableRecord
100
AcDbLayerTableRecord
  2
0
 70
     0
 62
     7
  6
Continuous
370
    -3
390
F
  0
LAYER
  5
44
330
2
100
AcDbSymbolTableRecord
100
AcDbLayerTableRecord
  2
SLD-0
 70
     0
 62
     7
  6
Continuous
370
    -3
390
F
  0
LAYER
  5
45
330
2
100
AcDbSymbolTableRecord
100
AcDbLayerTableRecord
  2
DIM
 70
     0
 62
   100
  6
Continuous
370
    -3
390
F
  0
LAYER
  5
46
330
2
100
AcDbSymbolTableRecord
100
AcDbLayerTableRecord
  2
NOTES
 70
     0
 62
     1
  6
Continuous
370
    -3
390
F
  0
ENDTAB
  0
TABLE
  2
STYLE
  5
3
330
0
100
AcDbSymbolTable
 70
     2
  0
STYLE
  5
11
330
3
100
AcDbSymbolTableRecord
100
AcDbTextStyleTableRecord
  2
Standard
 70
     0
 40
0.0
 41
1.0
 50
0.0
 71
     0
 42
0.1388888889
  3
txt
  4

  0
STYLE
  5
4A
330
3
100
AcDbSymbolTableRecord
100
AcDbTextStyleTableRecord
  2
SLDTEXTSTYLE0
 70
     0
 40
0.0
 41
0.75
 50
0.0
 71
     0
 42
0.2
  3
TXT
  4

  0
ENDTAB
  0
TABLE
  2
VIEW
  5
6
330
0
100
AcDbSymbolTable
 70
     0
  0
ENDTAB
  0
TABLE
  2
UCS
  5
7
330
0
100
AcDbSymbolTable
 70
     0
  0
ENDTAB
  0
TABLE
  2
APPID
  5
9
330
0
100
AcDbSymbolTable
 70
     1
  0
APPID
  5
12
330
9
100
AcDbSymbolTableRecord
100
AcDbRegAppTableRecord
  2
ACAD
 70
     0
  0
ENDTAB
  0
TABLE
  2
DIMSTYLE
  5
A
330
0
100
AcDbSymbolTable
 70
     3
100
AcDbDimStyleTable
  0
DIMSTYLE
105
27
330
A
100
AcDbSymbolTableRecord
100
AcDbDimStyleTableRecord
  2
Standard
 70
     0
178
     0
340
11
  0
DIMSTYLE
105
140
102
{ACAD_REACTORS
330
13F
330
14D
330
15C
330
16B
330
290
330
29F
330
2AE
330
3F7
102
}
330
A
100
AcDbSymbolTableRecord
100
AcDbDimStyleTableRecord
  2
SLDDIMSTYLE0
 70
     0
 41
1.0
 44
0.0
 45
0.000000001
 78
    12
 79
     3
140
1.5
147
0.375
173
     1
178
     0
271
     3
272
     2
276
     2
277
     5
284
    12
340
4A
  0
DIMSTYLE
105
282
102
{ACAD_REACTORS
330
281
330
406
102
}
330
A
100
AcDbSymbolTableRecord
100
AcDbDimStyleTableRecord
  2
SLDDIMSTYLE1
 70
     0
 41
1.0
 44
0.0
 45
0.000000001
 78
    12
 79
     3
140
1.5
147
0.375
172
     1
173
     1
178
     0
271
     3
272
     2
276
     2
277
     5
284
    12
289
     0
340
4A
  0
ENDTAB
  0
TABLE
  2
BLOCK_RECORD
  5
1
330
0
100
AcDbSymbolTable
 70
    12
  0
BLOCK_RECORD
  5
1F
330
1
100
AcDbSymbolTableRecord
100
AcDbBlockTableRecord
  2
*Model_Space
340
22
  0
BLOCK_RECORD
  5
1B
330
1
100
AcDbSymbolTableRecord
100
AcDbBlockTableRecord
  2
*Paper_Space
340
1E
  0
BLOCK_RECORD
  5
23
330
1
100
AcDbSymbolTableRecord
100
AcDbBlockTableRecord
  2
*Paper_Space0
340
26
  0
BLOCK_RECORD
  5
47
330
1
100
AcDbSymbolTableRecord
100
AcDbBlockTableRecord
  2
SW_NOTE_0
340
0
102
{BLKREFS
331
4F
102
}
  0
BLOCK_RECORD
  5
141
330
1
100
AcDbSymbolTableRecord
100
AcDbBlockTableRecord
  2
_D
340
0
  0
BLOCK_RECORD
  5
14E
330
1
100
AcDbSymbolTableRecord
100
AcDbBlockTableRecord
  2
_D_1
340
0
  0
BLOCK_RECORD
  5
15D
330
1
100
AcDbSymbolTableRecord
100
AcDbBlockTableRecord
  2
_D_2
340
0
  0
BLOCK_RECORD
  5
16C
330
1
100
AcDbSymbolTableRecord
100
AcDbBlockTableRecord
  2
_D_3
340
0
  0
BLOCK_RECORD
  5
283
330
1
100
AcDbSymbolTableRecord
100
AcDbBlockTableRecord
  2
_D_4
340
0
  0
BLOCK_RECORD
  5
291
330
1
100
AcDbSymbolTableRecord
100
AcDbBlockTableRecord
  2
_D_5
340
0
  0
BLOCK_RECORD
  5
2A0
330
1
100
AcDbSymbolTableRecord
100
AcDbBlockTableRecord
  2
_D_6
340
0
  0
BLOCK_RECORD
  5
2AF
330
1
100
AcDbSymbolTableRecord
100
AcDbBlockTableRecord
  2
_D_7
340
0
  0
BLOCK_RECORD
  5
3F8
330
1
100
AcDbSymbolTableRecord
100
AcDbBlockTableRecord
  2
_D_8
340
0
  0
BLOCK_RECORD
  5
407
330
1
100
AcDbSymbolTableRecord
100
AcDbBlockTableRecord
  2
_D_9
340
0
  0
ENDTAB
  0
ENDSEC
  0
SECTION
  2
BLOCKS
  0
BLOCK
  5
20
330
1F
100
AcDbEntity
  8
0
100
AcDbBlockBegin
  2
*Model_Space
 70
     0
 10
0.0
 20
0.0
 30
0.0
  3
*Model_Space
  1

  0
ENDBLK
  5
21
330
1F
100
AcDbEntity
  8
0
100
AcDbBlockEnd
  0
BLOCK
  5
1C
330
1B
100
AcDbEntity
 67
     1
  8
0
100
AcDbBlockBegin
  2
*Paper_Space
 70
     0
 10
0.0
 20
0.0
 30
0.0
  3
*Paper_Space
  1

  0
ENDBLK
  5
1D
330
1B
100
AcDbEntity
 67
     1
  8
0
100
AcDbBlockEnd
  0
BLOCK
  5
24
330
23
100
AcDbEntity
  8
0
100
AcDbBlockBegin
  2
*Paper_Space0
 70
     0
 10
0.0
 20
0.0
 30
0.0
  3
*Paper_Space0
  1

  0
ENDBLK
  5
25
330
23
100
AcDbEntity
  8
0
100
AcDbBlockEnd
  0
BLOCK
  5
48
330
47
100
AcDbEntity
  8
0
100
AcDbBlockBegin
  2
SW_NOTE_0
 70
     0
 10
0.0
 20
0.0
 30
0.0
  3
SW_NOTE_0
  1

  0
MTEXT
  5
4B
330
47
100
AcDbEntity
  8
NOTES
 62
     0
100
AcDbMText
 10
0.0
 20
2.5781354795
 30
0.0
 40
2.0
 41
0.0
 71
     1
 72
     1
  1
OP42FP32MN
  7
SLDTEXTSTYLE0
 73
     1
 44
1.0
  0
MTEXT
  5
4C
330
47
100
AcDbEntity
  8
NOTES
 62
     0
100
AcDbMText
 10
0.0
 20
-0.0079757121
 30
0.0
 40
2.0
 41
0.0
 71
     1
 72
     1
  1
OP42FP32MP
  7
SLDTEXTSTYLE0
 73
     1
 44
1.0
  0
MTEXT
  5
4D
330
47
100
AcDbEntity
  8
NOTES
 62
     0
100
AcDbMText
 10
0.0
 20
-2.5940869038
 30
0.0
 40
2.0
 41
0.0
 71
     1
 72
     1
  1
OP42FP72MN
  7
SLDTEXTSTYLE0
 73
     1
 44
1.0
  0
MTEXT
  5
4E
330
47
100
AcDbEntity
  8
NOTES
 62
     0
100
AcDbMText
 10
0.0
 20
-5.1801980955
 30
0.0
 40
2.0
 41
0.0
 71
     1
 72
     1
  1
OP42FP72MP
  7
SLDTEXTSTYLE0
 73
     1
 44
1.0
  0
ENDBLK
  5
49
330
47
100
AcDbEntity
  8
0
100
AcDbBlockEnd
  0
BLOCK
  5
142
330
141
100
AcDbEntity
  8
0
100
AcDbBlockBegin
  2
_D
 70
     0
 10
0.0
 20
0.0
 30
0.0
  3
_D
  1

  0
SOLID
  5
144
330
141
100
AcDbEntity
  8
DIM
100
AcDbTrace
 10
45.4126564634
 20
27.2044935827
 30
0.0
 11
46.4126564634
 21
27.0169935827
 31
0.0
 12
46.4126564634
 22
27.3919935827
 32
0.0
 13
46.4126564634
 23
27.3919935827
 33
0.0
  0
SOLID
  5
145
330
141
100
AcDbEntity
  8
DIM
100
AcDbTrace
 10
85.5418564634
 20
27.2044935827
 30
0.0
 11
84.5418564634
 21
27.3919935827
 31
0.0
 12
84.5418564634
 22
27.0169935827
 32
0.0
 13
84.5418564634
 23
27.0169935827
 33
0.0
  0
LINE
  5
146
330
141
100
AcDbEntity
  8
DIM
100
AcDbLine
 10
66.5668397978
 20
28.7044936013
 30
0.0
 11
64.7668397755
 21
25.7044935642
 31
0.0
  0
LINE
  5
147
330
141
100
AcDbEntity
  8
DIM
100
AcDbLine
 10
45.4126564634
 20
27.2044935827
 30
0.0
 11
62.3418397773
 21
27.2044935827
 31
0.0
  0
LINE
  5
148
330
141
100
AcDbEntity
  8
DIM
100
AcDbLine
 10
85.5418564634
 20
27.2044935827
 30
0.0
 11
68.6126731495
 21
27.2044935827
 31
0.0
  0
MTEXT
  5
149
330
141
100
AcDbEntity
  8
DIM
100
AcDbMText
 10
62.3418397773
 20
28.0641369722
 30
-10.575155905
 40
1.5
 41
0.0
 71
     1
 72
     1
  1
40
  7
SLDTEXTSTYLE0
 73
     1
 44
1.0
  0
MTEXT
  5
14A
330
141
100
AcDbEntity
  8
DIM
100
AcDbMText
 10
64.5585064502
 20
29.1380952291
 30
-10.575155905
 40
1.5
 41
0.0
 71
     1
 72
     1
  1
1
  7
SLDTEXTSTYLE0
 73
     1
 44
1.0
  0
MTEXT
  5
14B
330
141
100
AcDbEntity
  8
DIM
100
AcDbMText
 10
65.6668397867
 20
27.1985118353
 30
-10.575155905
 40
1.5
 41
0.0
 71
     1
 72
     1
  1
8
  7
SLDTEXTSTYLE0
 73
     1
 44
1.0
  0
MTEXT
  5
14C
330
141
100
AcDbEntity
  8
DIM
100
AcDbMText
 10
66.7751731231
 20
28.0641369722
 30
-10.575155905
 40
1.5
 41
0.0
 71
     1
 72
     1
  1
"
  7
SLDTEXTSTYLE0
 73
     1
 44
1.0
  0
ENDBLK
  5
143
330
141
100
AcDbEntity
  8
0
100
AcDbBlockEnd
  0
BLOCK
  5
14F
330
14E
100
AcDbEntity
  8
0
100
AcDbBlockBegin
  2
_D_1
 70
     0
 10
0.0
 20
0.0
 30
0.0
  3
_D_1
  1

  0
SOLID
  5
151
330
14E
100
AcDbEntity
  8
DIM
100
AcDbTrace
 10
43.9102564634
 20
4.0790158787
 30
0.0
 11
44.9102564634
 21
3.8915158787
 31
0.0
 12
44.9102564634
 22
4.2665158787
 32
0.0
 13
44.9102564634
 23
4.2665158787
 33
0.0
  0
SOLID
  5
152
330
14E
100
AcDbEntity
  8
DIM
100
AcDbTrace
 10
87.0442564634
 20
4.0790158787
 30
0.0
 11
86.0442564634
 21
4.2665158787
 31
0.0
 12
86.0442564634
 22
3.8915158787
 32
0.0
 13
86.0442564634
 23
3.8915158787
 33
0.0
  0
LINE
  5
153
330
14E
100
AcDbEntity
  8
DIM
100
AcDbLine
 10
66.5668397978
 20
5.5790158973
 30
0.0
 11
64.7668397755
 21
2.5790158602
 31
0.0
  0
LINE
  5
154
330
14E
100
AcDbEntity
  8
DIM
100
AcDbLine
 10
43.9102564634
 20
8.1067452094
 30
0.0
 11
43.9102564634
 21
4.0396458
 31
0.0
  0
LINE
  5
155
330
14E
100
AcDbEntity
  8
DIM
100
AcDbLine
 10
87.0442564634
 20
8.1067452094
 30
0.0
 11
87.0442564634
 21
4.0396458
 31
0.0
  0
LINE
  5
156
330
14E
100
AcDbEntity
  8
DIM
100
AcDbLine
 10
43.9102564634
 20
4.0790158787
 30
0.0
 11
62.3418397773
 21
4.0790158787
 31
0.0
  0
LINE
  5
157
330
14E
100
AcDbEntity
  8
DIM
100
AcDbLine
 10
87.0442564634
 20
4.0790158787
 30
0.0
 11
68.6126731495
 21
4.0790158787
 31
0.0
  0
MTEXT
  5
158
330
14E
100
AcDbEntity
  8
DIM
100
AcDbMText
 10
62.3418397773
 20
4.9386592682
 30
-10.575155905
 40
1.5
 41
0.0
 71
     1
 72
     1
  1
43
  7
SLDTEXTSTYLE0
 73
     1
 44
1.0
  0
MTEXT
  5
159
330
14E
100
AcDbEntity
  8
DIM
100
AcDbMText
 10
64.5585064502
 20
6.012617525
 30
-10.575155905
 40
1.5
 41
0.0
 71
     1
 72
     1
  1
1
  7
SLDTEXTSTYLE0
 73
     1
 44
1.0
  0
MTEXT
  5
15A
330
14E
100
AcDbEntity
  8
DIM
100
AcDbMText
 10
65.6668397867
 20
4.0730341313
 30
-10.575155905
 40
1.5
 41
0.0
 71
     1
 72
     1
  1
8
  7
SLDTEXTSTYLE0
 73
     1
 44
1.0
  0
MTEXT
  5
15B
330
14E
100
AcDbEntity
  8
DIM
100
AcDbMText
 10
66.7751731231
 20
4.9386592682
 30
-10.575155905
 40
1.5
 41
0.0
 71
     1
 72
     1
  1
"
  7
SLDTEXTSTYLE0
 73
     1
 44
1.0
  0
ENDBLK
  5
150
330
14E
100
AcDbEntity
  8
0
100
AcDbBlockEnd
  0
BLOCK
  5
15E
330
15D
100
AcDbEntity
  8
0
100
AcDbBlockBegin
  2
_D_2
 70
     0
 10
0.0
 20
0.0
 30
0.0
  3
_D_2
  1

  0
SOLID
  5
160
330
15D
100
AcDbEntity
  8
DIM
100
AcDbTrace
 10
34.4749131334
 20
8.0791152882
 30
0.0
 11
34.6624131334
 21
9.0791152882
 31
0.0
 12
34.2874131334
 22
9.0791152882
 32
0.0
 13
34.2874131334
 23
9.0791152882
 33
0.0
  0
SOLID
  5
161
330
15D
100
AcDbEntity
  8
DIM
100
AcDbTrace
 10
34.4749131334
 20
46.8073457653
 30
0.0
 11
34.2874131334
 21
45.8073457653
 31
0.0
 12
34.6624131334
 22
45.8073457653
 32
0.0
 13
34.6624131334
 23
45.8073457653
 33
0.0
  0
LINE
  5
162
330
15D
100
AcDbEntity
  8
DIM
100
AcDbLine
 10
35.5644964678
 20
28.9432305453
 30
0.0
 11
33.7644964455
 21
25.9432305082
 31
0.0
  0
LINE
  5
163
330
15D
100
AcDbEntity
  8
DIM
100
AcDbLine
 10
43.9378863847
 20
8.0791152882
 30
0.0
 11
34.4355430547
 21
8.0791152882
 31
0.0
  0
LINE
  5
164
330
15D
100
AcDbEntity
  8
DIM
100
AcDbLine
 10
55.1178863847
 20
46.8073457653
 30
0.0
 11
34.4355430547
 21
46.8073457653
 31
0.0
  0
LINE
  5
165
330
15D
100
AcDbEntity
  8
DIM
100
AcDbLine
 10
34.4749131334
 20
8.0791152882
 30
0.0
 11
34.4749131334
 21
25.503647133
 31
0.0
  0
LINE
  5
166
330
15D
100
AcDbEntity
  8
DIM
100
AcDbLine
 10
34.4749131334
 20
46.8073457653
 30
0.0
 11
34.4749131334
 21
29.3828139205
 31
0.0
  0
MTEXT
  5
167
330
15D
100
AcDbEntity
  8
DIM
100
AcDbMText
 10
31.3394964473
 20
28.3028739162
 30
-10.575155905
 40
1.5
 41
0.0
 71
     1
 72
     1
  1
38
  7
SLDTEXTSTYLE0
 73
     1
 44
1.0
  0
MTEXT
  5
168
330
15D
100
AcDbEntity
  8
DIM
100
AcDbMText
 10
33.5561631202
 20
29.3768321731
 30
-10.575155905
 40
1.5
 41
0.0
 71
     1
 72
     1
  1
3
  7
SLDTEXTSTYLE0
 73
     1
 44
1.0
  0
MTEXT
  5
169
330
15D
100
AcDbEntity
  8
DIM
100
AcDbMText
 10
34.6644964567
 20
27.4372487793
 30
-10.575155905
 40
1.5
 41
0.0
 71
     1
 72
     1
  1
4
  7
SLDTEXTSTYLE0
 73
     1
 44
1.0
  0
MTEXT
  5
16A
330
15D
100
AcDbEntity
  8
DIM
100
AcDbMText
 10
35.7728297931
 20
28.3028739162
 30
-10.575155905
 40
1.5
 41
0.0
 71
     1
 72
     1
  1
"
  7
SLDTEXTSTYLE0
 73
     1
 44
1.0
  0
ENDBLK
  5
15F
330
15D
100
AcDbEntity
  8
0
100
AcDbBlockEnd
  0
BLOCK
  5
16D
330
16C
100
AcDbEntity
  8
0
100
AcDbBlockBegin
  2
_D_3
 70
     0
 10
0.0
 20
0.0
 30
0.0
  3
_D_3
  1

  0
SOLID
  5
16F
330
16C
100
AcDbEntity
  8
DIM
100
AcDbTrace
 10
38.9749131334
 20
15.1761152882
 30
0.0
 11
39.1624131334
 21
16.1761152882
 31
0.0
 12
38.7874131334
 22
16.1761152882
 32
0.0
 13
38.7874131334
 23
16.1761152882
 33
0.0
  0
SOLID
  5
170
330
16C
100
AcDbEntity
  8
DIM
100
AcDbTrace
 10
38.9749131334
 20
39.5545152882
 30
0.0
 11
38.7874131334
 21
38.5545152882
 31
0.0
 12
39.1624131334
 22
38.5545152882
 32
0.0
 13
39.1624131334
 23
38.5545152882
 33
0.0
  0
LINE
  5
171
330
16C
100
AcDbEntity
  8
DIM
100
AcDbLine
 10
40.0644964678
 20
23.8797340202
 30
0.0
 11
38.2644964455
 21
20.8797339831
 31
0.0
  0
LINE
  5
172
330
16C
100
AcDbEntity
  8
DIM
100
AcDbLine
 10
45.3732863847
 20
15.1761152882
 30
0.0
 11
38.9355430547
 21
15.1761152882
 31
0.0
  0
LINE
  5
173
330
16C
100
AcDbEntity
  8
DIM
100
AcDbLine
 10
45.3732863847
 20
39.5545152882
 30
0.0
 11
38.9355430547
 21
39.5545152882
 31
0.0
  0
LINE
  5
174
330
16C
100
AcDbEntity
  8
DIM
100
AcDbLine
 10
38.9749131334
 20
15.1761152882
 30
0.0
 11
38.9749131334
 21
20.4401506079
 31
0.0
  0
LINE
  5
175
330
16C
100
AcDbEntity
  8
DIM
100
AcDbLine
 10
38.9749131334
 20
39.5545152882
 30
0.0
 11
38.9749131334
 21
24.3193173954
 31
0.0
  0
MTEXT
  5
176
330
16C
100
AcDbEntity
  8
DIM
100
AcDbMText
 10
35.8394964473
 20
23.2393773911
 30
-10.575155905
 40
1.5
 41
0.0
 71
     1
 72
     1
  1
24
  7
SLDTEXTSTYLE0
 73
     1
 44
1.0
  0
MTEXT
  5
177
330
16C
100
AcDbEntity
  8
DIM
100
AcDbMText
 10
38.0561631202
 20
24.313335648
 30
-10.575155905
 40
1.5
 41
0.0
 71
     1
 72
     1
  1
3
  7
SLDTEXTSTYLE0
 73
     1
 44
1.0
  0
MTEXT
  5
178
330
16C
100
AcDbEntity
  8
DIM
100
AcDbMText
 10
39.1644964567
 20
22.3737522542
 30
-10.575155905
 40
1.5
 41
0.0
 71
     1
 72
     1
  1
8
  7
SLDTEXTSTYLE0
 73
     1
 44
1.0
  0
MTEXT
  5
179
330
16C
100
AcDbEntity
  8
DIM
100
AcDbMText
 10
40.2728297931
 20
23.2393773911
 30
-10.575155905
 40
1.5
 41
0.0
 71
     1
 72
     1
  1
"
  7
SLDTEXTSTYLE0
 73
     1
 44
1.0
  0
ENDBLK
  5
16E
330
16C
100
AcDbEntity
  8
0
100
AcDbBlockEnd
  0
BLOCK
  5
284
330
283
100
AcDbEntity
  8
0
100
AcDbBlockBegin
  2
_D_4
 70
     0
 10
0.0
 20
0.0
 30
0.0
  3
_D_4
  1

  0
SOLID
  5
286
330
283
100
AcDbEntity
  8
DIM
100
AcDbTrace
 10
42.9749131334
 20
56.1098301427
 30
0.0
 11
41.9749131334
 21
56.2973301427
 31
0.0
 12
41.9749131334
 22
55.9223301427
 32
0.0
 13
41.9749131334
 23
55.9223301427
 33
0.0
  0
SOLID
  5
287
330
283
100
AcDbEntity
  8
DIM
100
AcDbTrace
 10
43.8997564634
 20
56.1098301427
 30
0.0
 11
44.8997564634
 21
55.9223301427
 31
0.0
 12
44.8997564634
 22
56.2973301427
 32
0.0
 13
44.8997564634
 23
56.2973301427
 33
0.0
  0
LINE
  5
288
330
283
100
AcDbEntity
  8
DIM
100
AcDbLine
 10
38.9561631313
 20
57.6098301613
 30
0.0
 11
37.1561631091
 21
54.6098301242
 31
0.0
  0
LINE
  5
289
330
283
100
AcDbEntity
  8
DIM
100
AcDbLine
 10
42.9749131334
 20
63.4809640485
 30
0.0
 11
42.9749131334
 21
56.070460064
 31
0.0
  0
LINE
  5
28A
330
283
100
AcDbEntity
  8
DIM
100
AcDbLine
 10
43.8997564634
 20
62.7578890485
 30
0.0
 11
43.8997564634
 21
56.070460064
 31
0.0
  0
LINE
  5
28B
330
283
100
AcDbEntity
  8
DIM
100
AcDbLine
 10
42.9749131334
 20
56.1098301427
 30
0.0
 11
42.1103298195
 21
56.1098301427
 31
0.0
  0
LINE
  5
28C
330
283
100
AcDbEntity
  8
DIM
100
AcDbLine
 10
43.8997564634
 20
56.1098301427
 30
0.0
 11
45.8997564634
 21
56.1098301427
 31
0.0
  0
MTEXT
  5
28D
330
283
100
AcDbEntity
  8
DIM
100
AcDbMText
 10
35.8394964473
 20
58.0434317891
 30
-18.268828526
 40
1.5
 41
0.0
 71
     1
 72
     1
  1
15
  7
SLDTEXTSTYLE0
 73
     1
 44
1.0
  0
MTEXT
  5
28E
330
283
100
AcDbEntity
  8
DIM
100
AcDbMText
 10
38.0561631202
 20
56.1038483953
 30
-18.268828526
 40
1.5
 41
0.0
 71
     1
 72
     1
  1
16
  7
SLDTEXTSTYLE0
 73
     1
 44
1.0
  0
MTEXT
  5
28F
330
283
100
AcDbEntity
  8
DIM
100
AcDbMText
 10
40.2728297931
 20
56.9694735322
 30
-18.268828526
 40
1.5
 41
0.0
 71
     1
 72
     1
  1
"
  7
SLDTEXTSTYLE0
 73
     1
 44
1.0
  0
ENDBLK
  5
285
330
283
100
AcDbEntity
  8
0
100
AcDbBlockEnd
  0
BLOCK
  5
292
330
291
100
AcDbEntity
  8
0
100
AcDbBlockBegin
  2
_D_5
 70
     0
 10
0.0
 20
0.0
 30
0.0
  3
_D_5
  1

  0
SOLID
  5
294
330
291
100
AcDbEntity
  8
DIM
100
AcDbTrace
 10
43.8997564634
 20
56.1098301427
 30
0.0
 11
44.8997564634
 21
55.9223301427
 31
0.0
 12
44.8997564634
 22
56.2973301427
 32
0.0
 13
44.8997564634
 23
56.2973301427
 33
0.0
  0
SOLID
  5
295
330
291
100
AcDbEntity
  8
DIM
100
AcDbTrace
 10
87.0547564634
 20
56.1098301427
 30
0.0
 11
86.0547564634
 21
56.2973301427
 31
0.0
 12
86.0547564634
 22
55.9223301427
 32
0.0
 13
86.0547564634
 23
55.9223301427
 33
0.0
  0
LINE
  5
296
330
291
100
AcDbEntity
  8
DIM
100
AcDbLine
 10
66.5668397978
 20
57.6098301613
 30
0.0
 11
64.7668397755
 21
54.6098301242
 31
0.0
  0
LINE
  5
297
330
291
100
AcDbEntity
  8
DIM
100
AcDbLine
 10
43.8997564634
 20
62.7578890485
 30
0.0
 11
43.8997564634
 21
56.070460064
 31
0.0
  0
LINE
  5
298
330
291
100
AcDbEntity
  8
DIM
100
AcDbLine
 10
87.0547564634
 20
62.7578890485
 30
0.0
 11
87.0547564634
 21
56.070460064
 31
0.0
  0
LINE
  5
299
330
291
100
AcDbEntity
  8
DIM
100
AcDbLine
 10
43.8997564634
 20
56.1098301427
 30
0.0
 11
62.3418397773
 21
56.1098301427
 31
0.0
  0
LINE
  5
29A
330
291
100
AcDbEntity
  8
DIM
100
AcDbLine
 10
87.0547564634
 20
56.1098301427
 30
0.0
 11
68.6126731495
 21
56.1098301427
 31
0.0
  0
MTEXT
  5
29B
330
291
100
AcDbEntity
  8
DIM
100
AcDbMText
 10
62.3418397773
 20
56.9694735322
 30
-18.268828526
 40
1.5
 41
0.0
 71
     1
 72
     1
  1
43
  7
SLDTEXTSTYLE0
 73
     1
 44
1.0
  0
MTEXT
  5
29C
330
291
100
AcDbEntity
  8
DIM
100
AcDbMText
 10
64.5585064502
 20
58.0434317891
 30
-18.268828526
 40
1.5
 41
0.0
 71
     1
 72
     1
  1
1
  7
SLDTEXTSTYLE0
 73
     1
 44
1.0
  0
MTEXT
  5
29D
330
291
100
AcDbEntity
  8
DIM
100
AcDbMText
 10
65.6668397867
 20
56.1038483953
 30
-18.268828526
 40
1.5
 41
0.0
 71
     1
 72
     1
  1
8
  7
SLDTEXTSTYLE0
 73
     1
 44
1.0
  0
MTEXT
  5
29E
330
291
100
AcDbEntity
  8
DIM
100
AcDbMText
 10
66.7751731231
 20
56.9694735322
 30
-18.268828526
 40
1.5
 41
0.0
 71
     1
 72
     1
  1
"
  7
SLDTEXTSTYLE0
 73
     1
 44
1.0
  0
ENDBLK
  5
293
330
291
100
AcDbEntity
  8
0
100
AcDbBlockEnd
  0
BLOCK
  5
2A1
330
2A0
100
AcDbEntity
  8
0
100
AcDbBlockBegin
  2
_D_6
 70
     0
 10
0.0
 20
0.0
 30
0.0
  3
_D_6
  1

  0
SOLID
  5
2A3
330
2A0
100
AcDbEntity
  8
DIM
100
AcDbTrace
 10
38.9749131334
 20
62.7326591272
 30
0.0
 11
39.1624131334
 21
63.7326591272
 31
0.0
 12
38.7874131334
 22
63.7326591272
 32
0.0
 13
38.7874131334
 23
63.7326591272
 33
0.0
  0
SOLID
  5
2A4
330
2A0
100
AcDbEntity
  8
DIM
100
AcDbTrace
 10
38.9749131334
 20
82.0006591272
 30
0.0
 11
38.7874131334
 21
81.0006591272
 31
0.0
 12
39.1624131334
 22
81.0006591272
 32
0.0
 13
39.1624131334
 23
81.0006591272
 33
0.0
  0
LINE
  5
2A5
330
2A0
100
AcDbEntity
  8
DIM
100
AcDbLine
 10
40.0644964678
 20
73.8666591457
 30
0.0
 11
38.2644964455
 21
70.8666591087
 31
0.0
  0
LINE
  5
2A6
330
2A0
100
AcDbEntity
  8
DIM
100
AcDbLine
 10
43.925099083
 20
62.7326591272
 30
0.0
 11
38.9355430547
 21
62.7326591272
 31
0.0
  0
LINE
  5
2A7
330
2A0
100
AcDbEntity
  8
DIM
100
AcDbLine
 10
47.3678863847
 20
82.0006591272
 30
0.0
 11
38.9355430547
 21
82.0006591272
 31
0.0
  0
LINE
  5
2A8
330
2A0
100
AcDbEntity
  8
DIM
100
AcDbLine
 10
38.9749131334
 20
62.7326591272
 30
0.0
 11
38.9749131334
 21
70.4270757334
 31
0.0
  0
LINE
  5
2A9
330
2A0
100
AcDbEntity
  8
DIM
100
AcDbLine
 10
38.9749131334
 20
82.0006591272
 30
0.0
 11
38.9749131334
 21
74.306242521
 31
0.0
  0
MTEXT
  5
2AA
330
2A0
100
AcDbEntity
  8
DIM
100
AcDbMText
 10
35.8394964473
 20
73.2263025167
 30
-18.268828526
 40
1.5
 41
0.0
 71
     1
 72
     1
  1
19
  7
SLDTEXTSTYLE0
 73
     1
 44
1.0
  0
MTEXT
  5
2AB
330
2A0
100
AcDbEntity
  8
DIM
100
AcDbMText
 10
38.0561631202
 20
74.3002607735
 30
-18.268828526
 40
1.5
 41
0.0
 71
     1
 72
     1
  1
1
  7
SLDTEXTSTYLE0
 73
     1
 44
1.0
  0
MTEXT
  5
2AC
330
2A0
100
AcDbEntity
  8
DIM
100
AcDbMText
 10
39.1644964567
 20
72.3606773798
 30
-18.268828526
 40
1.5
 41
0.0
 71
     1
 72
     1
  1
4
  7
SLDTEXTSTYLE0
 73
     1
 44
1.0
  0
MTEXT
  5
2AD
330
2A0
100
AcDbEntity
  8
DIM
100
AcDbMText
 10
40.2728297931
 20
73.2263025167
 30
-18.268828526
 40
1.5
 41
0.0
 71
     1
 72
     1
  1
"
  7
SLDTEXTSTYLE0
 73
     1
 44
1.0
  0
ENDBLK
  5
2A2
330
2A0
100
AcDbEntity
  8
0
100
AcDbBlockEnd
  0
BLOCK
  5
2B0
330
2AF
100
AcDbEntity
  8
0
100
AcDbBlockBegin
  2
_D_7
 70
     0
 10
0.0
 20
0.0
 30
0.0
  3
_D_7
  1

  0
SOLID
  5
2B2
330
2AF
100
AcDbEntity
  8
DIM
100
AcDbTrace
 10
47.4072564634
 20
86.5759022858
 30
0.0
 11
48.4072564634
 21
86.3884022858
 31
0.0
 12
48.4072564634
 22
86.7634022858
 32
0.0
 13
48.4072564634
 23
86.7634022858
 33
0.0
  0
SOLID
  5
2B3
330
2AF
100
AcDbEntity
  8
DIM
100
AcDbTrace
 10
83.5472564634
 20
86.5759022858
 30
0.0
 11
82.5472564634
 21
86.7634022858
 31
0.0
 12
82.5472564634
 22
86.3884022858
 32
0.0
 13
82.5472564634
 23
86.3884022858
 33
0.0
  0
LINE
  5
2B4
330
2AF
100
AcDbEntity
  8
DIM
100
AcDbLine
 10
66.5668397978
 20
88.0759023044
 30
0.0
 11
64.7668397755
 21
85.0759022673
 31
0.0
  0
LINE
  5
2B5
330
2AF
100
AcDbEntity
  8
DIM
100
AcDbLine
 10
47.4072564634
 20
82.0400292059
 30
0.0
 11
47.4072564634
 21
86.6152723646
 31
0.0
  0
LINE
  5
2B6
330
2AF
100
AcDbEntity
  8
DIM
100
AcDbLine
 10
83.5472564634
 20
82.0400292059
 30
0.0
 11
83.5472564634
 21
86.6152723646
 31
0.0
  0
LINE
  5
2B7
330
2AF
100
AcDbEntity
  8
DIM
100
AcDbLine
 10
47.4072564634
 20
86.5759022858
 30
0.0
 11
62.3418397773
 21
86.5759022858
 31
0.0
  0
LINE
  5
2B8
330
2AF
100
AcDbEntity
  8
DIM
100
AcDbLine
 10
83.5472564634
 20
86.5759022858
 30
0.0
 11
68.6126731495
 21
86.5759022858
 31
0.0
  0
MTEXT
  5
2B9
330
2AF
100
AcDbEntity
  8
DIM
100
AcDbMText
 10
62.3418397773
 20
87.4355456753
 30
-18.268828526
 40
1.5
 41
0.0
 71
     1
 72
     1
  1
36
  7
SLDTEXTSTYLE0
 73
     1
 44
1.0
  0
MTEXT
  5
2BA
330
2AF
100
AcDbEntity
  8
DIM
100
AcDbMText
 10
64.5585064502
 20
88.5095039322
 30
-18.268828526
 40
1.5
 41
0.0
 71
     1
 72
     1
  1
1
  7
SLDTEXTSTYLE0
 73
     1
 44
1.0
  0
MTEXT
  5
2BB
330
2AF
100
AcDbEntity
  8
DIM
100
AcDbMText
 10
65.6668397867
 20
86.5699205384
 30
-18.268828526
 40
1.5
 41
0.0
 71
     1
 72
     1
  1
8
  7
SLDTEXTSTYLE0
 73
     1
 44
1.0
  0
MTEXT
  5
2BC
330
2AF
100
AcDbEntity
  8
DIM
100
AcDbMText
 10
66.7751731231
 20
87.4355456753
 30
-18.268828526
 40
1.5
 41
0.0
 71
     1
 72
     1
  1
"
  7
SLDTEXTSTYLE0
 73
     1
 44
1.0
  0
ENDBLK
  5
2B1
330
2AF
100
AcDbEntity
  8
0
100
AcDbBlockEnd
  0
BLOCK
  5
3F9
330
3F8
100
AcDbEntity
  8
0
100
AcDbBlockBegin
  2
_D_8
 70
     0
 10
0.0
 20
0.0
 30
0.0
  3
_D_8
  1

  0
SOLID
  5
3FB
330
3F8
100
AcDbEntity
  8
DIM
100
AcDbTrace
 10
97.7505672689
 20
43.8851152882
 30
0.0
 11
97.5630672689
 21
42.8851152882
 31
0.0
 12
97.9380672689
 22
42.8851152882
 32
0.0
 13
97.9380672689
 23
42.8851152882
 33
0.0
  0
SOLID
  5
3FC
330
3F8
100
AcDbEntity
  8
DIM
100
AcDbTrace
 10
97.7505672689
 20
8.0791152882
 30
0.0
 11
97.9380672689
 21
9.0791152882
 31
0.0
 12
97.5630672689
 22
9.0791152882
 32
0.0
 13
97.5630672689
 23
9.0791152882
 33
0.0
  0
LINE
  5
3FD
330
3F8
100
AcDbEntity
  8
DIM
100
AcDbLine
 10
98.8401505299
 20
27.4821153067
 30
0.0
 11
97.0401505077
 21
24.4821152696
 31
0.0
  0
LINE
  5
3FE
330
3F8
100
AcDbEntity
  8
DIM
100
AcDbLine
 10
104.3986261746
 20
43.8851152882
 30
0.0
 11
97.7111971902
 21
43.8851152882
 31
0.0
  0
LINE
  5
3FF
330
3F8
100
AcDbEntity
  8
DIM
100
AcDbLine
 10
104.4010261746
 20
8.0791152882
 30
0.0
 11
97.7111971902
 21
8.0791152882
 31
0.0
  0
LINE
  5
400
330
3F8
100
AcDbEntity
  8
DIM
100
AcDbLine
 10
97.7505672689
 20
43.8851152882
 30
0.0
 11
97.7505672689
 21
27.9216986819
 31
0.0
  0
LINE
  5
401
330
3F8
100
AcDbEntity
  8
DIM
100
AcDbLine
 10
97.7505672689
 20
8.0791152882
 30
0.0
 11
97.7505672689
 21
24.0425318944
 31
0.0
  0
MTEXT
  5
402
330
3F8
100
AcDbEntity
  8
DIM
100
AcDbMText
 10
93.5068171731
 20
26.8417586776
 30
0.0039370079
 40
1.5
 41
0.0
 71
     1
 72
     1
  1
35
  7
SLDTEXTSTYLE0
 73
     1
 44
1.0
  0
MTEXT
  5
403
330
3F8
100
AcDbEntity
  8
DIM
100
AcDbMText
 10
95.7234838459
 20
27.9157169345
 30
0.0039370079
 40
1.5
 41
0.0
 71
     1
 72
     1
  1
13
  7
SLDTEXTSTYLE0
 73
     1
 44
1.0
  0
MTEXT
  5
404
330
3F8
100
AcDbEntity
  8
DIM
100
AcDbMText
 10
97.9401505188
 20
25.9761335407
 30
0.0039370079
 40
1.5
 41
0.0
 71
     1
 72
     1
  1
16
  7
SLDTEXTSTYLE0
 73
     1
 44
1.0
  0
MTEXT
  5
405
330
3F8
100
AcDbEntity
  8
DIM
100
AcDbMText
 10
100.156817045
 20
26.8417586776
 30
0.0039370079
 40
1.5
 41
0.0
 71
     1
 72
     1
  1
"
  7
SLDTEXTSTYLE0
 73
     1
 44
1.0
  0
ENDBLK
  5
3FA
330
3F8
100
AcDbEntity
  8
0
100
AcDbBlockEnd
  0
BLOCK
  5
408
330
407
100
AcDbEntity
  8
0
100
AcDbBlockBegin
  2
_D_9
 70
     0
 10
0.0
 20
0.0
 30
0.0
  3
_D_9
  1

  0
SOLID
  5
40A
330
407
100
AcDbEntity
  8
DIM
100
AcDbTrace
 10
128.216639412
 20
43.7921152882
 30
0.0
 11
128.029139412
 21
42.7921152882
 31
0.0
 12
128.404139412
 22
42.7921152882
 32
0.0
 13
128.404139412
 23
42.7921152882
 33
0.0
  0
SOLID
  5
40B
330
407
100
AcDbEntity
  8
DIM
100
AcDbTrace
 10
128.216639412
 20
46.8073457653
 30
0.0
 11
128.404139412
 21
47.8073457653
 31
0.0
 12
128.029139412
 22
47.8073457653
 32
0.0
 13
128.029139412
 23
47.8073457653
 33
0.0
  0
LINE
  5
40C
330
407
100
AcDbEntity
  8
DIM
100
AcDbLine
 10
123.6020663321
 20
43.7921152882
 30
0.0
 11
128.2560094907
 21
43.7921152882
 31
0.0
  0
LINE
  5
40D
330
407
100
AcDbEntity
  8
DIM
100
AcDbLine
 10
122.0174663321
 20
46.8073457653
 30
0.0
 11
128.2560094907
 21
46.8073457653
 31
0.0
  0
LINE
  5
40E
330
407
100
AcDbEntity
  8
DIM
100
AcDbLine
 10
128.216639412
 20
43.7921152882
 30
0.0
 11
128.216639412
 21
41.7921152882
 31
0.0
  0
LINE
  5
40F
330
407
100
AcDbEntity
  8
DIM
100
AcDbLine
 10
128.216639412
 20
46.8073457653
 30
0.0
 11
128.216639412
 21
48.8073457653
 31
0.0
  0
MTEXT
  5
410
330
407
100
AcDbEntity
  8
DIM
100
AcDbMText
 10
126.7437226939
 20
46.0427071373
 30
0.0039370079
 40
1.5
 41
0.0
 71
     1
 72
     1
  1
3"
  7
SLDTEXTSTYLE0
 73
     1
 44
1.0
  0
ENDBLK
  5
409
330
407
100
AcDbEntity
  8
0
100
AcDbBlockEnd
  0
ENDSEC
  0
SECTION
  2
ENTITIES
  0
INSERT
  5
4F
330
1F
100
AcDbEntity
  8
NOTES
100
AcDbBlockReference
  2
SW_NOTE_0
 10
2.7822246456
 20
84.6098539852
 30
0.0
  0
LINE
  5
50
330
1F
100
AcDbEntity
  8
SLD-0
  6
Continuous
370
    15
100
AcDbLine
 10
45.6121195472
 20
37.3024395313
 30
0.0
 11
85.3423933796
 21
37.3024395313
 31
0.0
  0
SPLINE
  5
51
330
1F
100
AcDbEntity
  8
SLD-0
  6
Continuous
370
    15
100
AcDbSpline
210
0.0
220
0.0
230
1.0
 70
     8
 71
     3
 72
    11
 73
     7
 74
     0
 42
0.00000001
 43
0.00000001
 12
1.0
 22
0.0
 32
0.0
 13
1.0
 23
0.0
 33
0.0
 40
0.0
 40
0.0
 40
0.0
 40
0.0
 40
0.332888531215581
 40
0.5430803218127351
 40
0.7123222011163808
 40
1.0
 40
1.0
 40
1.0
 40
1.0
 10
45.54230702030763
 20
37.35835995195656
 30
0.0
 10
45.54326339194337
 20
37.35830132002862
 30
0.0
 10
45.54482363378715
 20
37.35820566684951
 30
0.0
 10
45.55052660614891
 20
37.35627761104684
 30
0.0
 10
45.55735437398866
 20
37.35277259125289
 30
0.0
 10
45.56188132682934
 20
37.34824809567417
 30
0.0
 10
45.5647315079247
 20
37.34539946167725
 30
0.0
  0
SPLINE
  5
52
330
1F
100
AcDbEntity
  8
SLD-0
  6
Continuous
370
    15
100
AcDbSpline
210
0.0
220
0.0
230
1.0
 70
     8
 71
     3
 72
    11
 73
     7
 74
     0
 42
0.00000001
 43
0.00000001
 12
1.0
 22
0.0
 32
0.0
 13
1.0
 23
0.0
 33
0.0
 40
0.0
 40
0.0
 40
0.0
 40
0.0
 40
0.2876777988836192
 40
0.4569196781872649
 40
0.667111468784419
 40
1.0
 40
1.0
 40
1.0
 40
1.0
 10
85.38978141888306
 20
37.34539946167725
 30
0.0
 10
85.39263159997842
 20
37.34824809567417
 30
0.0
 10
85.3971585528191
 20
37.35277259125289
 30
0.0
 10
85.40398632065884
 20
37.35627761104684
 30
0.0
 10
85.40968929302062
 20
37.35820566684951
 30
0.0
 10
85.41124953486438
 20
37.35830132002862
 30
0.0
 10
85.41220590650013
 20
37.35835995195656
 30
0.0
  0
LINE
  5
53
330
1F
100
AcDbEntity
  8
SLD-0
  6
Continuous
370
    15
100
AcDbLine
 10
86.9772572669
 20
9.048115291
 30
0.0
 11
43.9772556599
 21
9.048115291
 31
0.0
  0
LINE
  5
54
330
1F
100
AcDbEntity
  8
SLD-0
  6
Continuous
370
    15
100
AcDbLine
 10
86.9772572669
 20
9.1151152878
 30
0.0
 11
86.9772572669
 21
9.048115291
 31
0.0
  0
LINE
  5
55
330
1F
100
AcDbEntity
  8
SLD-0
  6
Continuous
370
    15
100
AcDbLine
 10
43.9772556599
 20
9.048115291
 30
0.0
 11
43.9772556599
 21
9.1151152878
 31
0.0
  0
LINE
  5
56
330
1F
100
AcDbEntity
  8
SLD-0
  6
Continuous
370
    15
100
AcDbLine
 10
86.9772572669
 20
8.146115261
 30
0.0
 11
43.9772556599
 21
8.146115261
 31
0.0
  0
LINE
  5
57
330
1F
100
AcDbEntity
  8
SLD-0
  6
Continuous
370
    15
100
AcDbLine
 10
86.9772572669
 20
8.146115261
 30
0.0
 11
86.9772572669
 21
9.048115291
 31
0.0
  0
LINE
  5
58
330
1F
100
AcDbEntity
  8
SLD-0
  6
Continuous
370
    15
100
AcDbLine
 10
43.9772556599
 20
9.048115291
 30
0.0
 11
43.9772556599
 21
8.146115261
 31
0.0
  0
LINE
  5
59
330
1F
100
AcDbEntity
  8
SLD-0
  6
Continuous
370
    15
100
AcDbLine
 10
43.9772556599
 20
8.079115255
 30
0.0
 11
43.9772556599
 21
8.146115261
 31
0.0
  0
LINE
  5
5A
330
1F
100
AcDbEntity
  8
SLD-0
  6
Continuous
370
    15
100
AcDbLine
 10
86.9772572669
 20
8.146115261
 30
0.0
 11
86.9772572669
 21
8.079115255
 31
0.0
  0
LINE
  5
5B
330
1F
100
AcDbEntity
  8
SLD-0
  6
Continuous
370
    15
100
AcDbLine
 10
43.9772556599
 20
8.079115255
 30
0.0
 11
86.9772572669
 21
8.079115255
 31
0.0
  0
LINE
  5
5C
330
1F
100
AcDbEntity
  8
SLD-0
  6
Continuous
370
    15
100
AcDbLine
 10
43.9462565514
 20
8.146115261
 30
0.0
 11
43.9102567539
 21
8.146115261
 31
0.0
  0
ARC
  5
5D
330
1F
100
AcDbEntity
  8
SLD-0
  6
Continuous
370
    15
100
AcDbCircle
 10
43.9772564634
 20
8.1461152882
 30
0.0
 40
0.0309999999999988
100
AcDbArc
 50
180.0
 51
270.0
  0
ARC
  5
5E
330
1F
100
AcDbEntity
  8
SLD-0
  6
Continuous
370
    15
100
AcDbCircle
 10
43.9772564634
 20
8.1461152882
 30
0.0
 40
0.0670000000000002
100
AcDbArc
 50
180.0
 51
270.0
  0
LINE
  5
5F
330
1F
100
AcDbEntity
  8
SLD-0
  6
Continuous
370
    15
100
AcDbLine
 10
87.0082563755
 20
8.146115261
 30
0.0
 11
87.0442561729
 21
8.146115261
 31
0.0
  0
LINE
  5
60
330
1F
100
AcDbEntity
  8
SLD-0
  6
Continuous
370
    15
100
AcDbLine
 10
87.0442561729
 20
9.1151152878
 30
0.0
 11
87.0082563755
 21
9.1151152878
 31
0.0
  0
LINE
  5
61
330
1F
100
AcDbEntity
  8
SLD-0
  6
Continuous
370
    15
100
AcDbLine
 10
87.0082563755
 20
8.146115261
 30
0.0
 11
87.0082563755
 21
9.1151152878
 31
0.0
  0
LINE
  5
62
330
1F
100
AcDbEntity
  8
SLD-0
  6
Continuous
370
    15
100
AcDbLine
 10
87.0442561729
 20
8.146115261
 30
0.0
 11
87.0442561729
 21
9.1151152878
 31
0.0
  0
ARC
  5
63
330
1F
100
AcDbEntity
  8
SLD-0
  6
Continuous
370
    15
100
AcDbCircle
 10
86.9772564634
 20
8.1461152882
 30
0.0
 40
0.0670000000000073
100
AcDbArc
 50
270.0
 51
0.0
  0
ARC
  5
64
330
1F
100
AcDbEntity
  8
SLD-0
  6
Continuous
370
    15
100
AcDbCircle
 10
86.9772564634
 20
8.1461152882
 30
0.0
 40
0.0310000000000059
100
AcDbArc
 50
270.0
 51
360.0
  0
LINE
  5
65
330
1F
100
AcDbEntity
  8
SLD-0
  6
Continuous
370
    15
100
AcDbLine
 10
43.9102567539
 20
9.1151152878
 30
0.0
 11
43.9462565514
 21
9.1151152878
 31
0.0
  0
LINE
  5
66
330
1F
100
AcDbEntity
  8
SLD-0
  6
Continuous
370
    15
100
AcDbLine
 10
43.9462565514
 20
8.146115261
 30
0.0
 11
43.9462565514
 21
9.1151152878
 31
0.0
  0
LINE
  5
67
330
1F
100
AcDbEntity
  8
SLD-0
  6
Continuous
370
    15
100
AcDbLine
 10
43.9102567539
 20
8.146115261
 30
0.0
 11
43.9102567539
 21
9.1151152878
 31
0.0
  0
ARC
  5
68
330
1F
100
AcDbEntity
  8
SLD-0
  6
Continuous
370
    15
100
AcDbCircle
 10
86.9664541752
 20
8.1459300737
 30
0.0
 40
0.0309683190989545
100
AcDbArc
 50
290.4165845464
 51
0.342624809
  0
ARC
  5
69
330
1F
100
AcDbEntity
  8
SLD-0
  6
Continuous
370
    15
100
AcDbCircle
 10
43.9879671216
 20
8.1458668142
 30
0.0
 40
0.0308771349547056
100
AcDbArc
 50
179.5389758696
 51
249.7018147751
  0
LINE
  5
6A
330
1F
100
AcDbEntity
  8
SLD-0
  6
Continuous
370
    15
100
AcDbLine
 10
43.9570909862
 20
8.146115261
 30
0.0
 11
43.9570909862
 21
9.1151152878
 31
0.0
  0
LINE
  5
6B
330
1F
100
AcDbEntity
  8
SLD-0
  6
Continuous
370
    15
100
AcDbLine
 10
43.9570909862
 20
9.1151152878
 30
0.0
 11
43.964468821
 21
9.1151152878
 31
0.0
  0
LINE
  5
6C
330
1F
100
AcDbEntity
  8
SLD-0
  6
Continuous
370
    15
100
AcDbLine
 10
43.9462565514
 20
9.1151152878
 30
0.0
 11
43.9570909862
 21
9.1151152878
 31
0.0
  0
LINE
  5
6D
330
1F
100
AcDbEntity
  8
SLD-0
  6
Continuous
370
    15
100
AcDbLine
 10
86.9974219406
 20
9.1151152878
 30
0.0
 11
86.9900441058
 21
9.1151152878
 31
0.0
  0
LINE
  5
6E
330
1F
100
AcDbEntity
  8
SLD-0
  6
Continuous
370
    15
100
AcDbLine
 10
86.9974219406
 20
9.1151152878
 30
0.0
 11
86.9974219406
 21
8.146115261
 31
0.0
  0
LINE
  5
6F
330
1F
100
AcDbEntity
  8
SLD-0
  6
Continuous
370
    15
100
AcDbLine
 10
87.0082563755
 20
9.1151152878
 30
0.0
 11
86.9974219406
 21
9.1151152878
 31
0.0
  0
SPLINE
  5
70
330
1F
100
AcDbEntity
  8
SLD-0
  6
Continuous
370
    15
100
AcDbSpline
210
0.0
220
0.0
230
1.0
 70
     8
 71
     3
 72
    13
 73
     9
 74
     0
 42
0.00000001
 43
0.00000001
 12
1.0
 22
0.0
 32
0.0
 13
1.0
 23
0.0
 33
0.0
 40
0.0
 40
0.0
 40
0.0
 40
0.0
 40
0.1666668045400014
 40
0.3333289753460418
 40
0.4999911461520823
 40
0.6666710246539581
 40
0.8333378291939595
 40
1.0
 40
1.0
 40
1.0
 40
1.0
 10
85.38225574582027
 20
37.35684402280204
 30
0.0
 10
85.38004133050394
 20
37.35355545416472
 30
0.0
 10
85.37561256143732
 20
37.34697840832013
 30
0.0
 10
85.36896889479816
 20
37.33427144954968
 30
0.0
 10
85.36232612154103
 20
37.32179092800013
 30
0.0
 10
85.35567956190633
 20
37.31124480404722
 30
0.0
 10
85.34903699012537
 20
37.30387797060911
 30
0.0
 10
85.34460789594965
 20
37.30291900661764
 30
0.0
 10
85.34239337964706
 20
37.30243953128736
 30
0.0
  0
SPLINE
  5
71
330
1F
100
AcDbEntity
  8
SLD-0
  6
Continuous
370
    15
100
AcDbSpline
210
0.0
220
0.0
230
1.0
 70
     8
 71
     3
 72
    13
 73
     9
 74
     0
 42
0.00000001
 43
0.00000001
 12
1.0
 22
0.0
 32
0.0
 13
1.0
 23
0.0
 33
0.0
 40
0.0
 40
0.0
 40
0.0
 40
0.0
 40
0.1666621708060405
 40
0.3333289753460418
 40
0.5000088538479177
 40
0.6666710246539581
 40
0.8333331954599985
 40
1.0
 40
1.0
 40
1.0
 40
1.0
 10
45.6121195471607
 20
37.30243953128736
 30
0.0
 10
45.6099050308581
 20
37.30291900661764
 30
0.0
 10
45.60547593668239
 20
37.30387797060911
 30
0.0
 10
45.59883336490143
 20
37.31124480404721
 30
0.0
 10
45.59218680526671
 20
37.32179092800013
 30
0.0
 10
45.5855440320096
 20
37.33427144954969
 30
0.0
 10
45.57890036537042
 20
37.34697840832015
 30
0.0
 10
45.57447159630379
 20
37.35355545416473
 30
0.0
 10
45.57225718098749
 20
37.35684402280204
 30
0.0
  0
LINE
  5
72
330
1F
100
AcDbEntity
  8
SLD-0
  6
Continuous
370
    15
100
AcDbLine
 10
85.3822557458
 20
37.3568440228
 30
0.0
 11
45.572257181
 21
37.3568440228
 31
0.0
  0
LINE
  5
73
330
1F
100
AcDbEntity
  8
SLD-0
  6
Continuous
370
    15
100
AcDbLine
 10
85.3822557458
 20
37.3357008004
 30
0.0
 11
85.3822557458
 21
37.3568440228
 31
0.0
  0
LINE
  5
74
330
1F
100
AcDbEntity
  8
SLD-0
  6
Continuous
370
    15
100
AcDbLine
 10
85.3822557458
 20
37.3357008004
 30
0.0
 11
85.3689690726
 21
37.3343092431
 31
0.0
  0
LINE
  5
75
330
1F
100
AcDbEntity
  8
SLD-0
  6
Continuous
370
    15
100
AcDbLine
 10
45.5855438542
 20
37.3343092431
 30
0.0
 11
45.572257181
 21
37.3357008004
 31
0.0
  0
LINE
  5
76
330
1F
100
AcDbEntity
  8
SLD-0
  6
Continuous
370
    15
100
AcDbLine
 10
45.572257181
 20
37.3357008004
 30
0.0
 11
45.572257181
 21
37.3568440228
 31
0.0
  0
ARC
  5
77
330
1F
100
AcDbEntity
  8
SLD-0
  6
Continuous
370
    15
100
AcDbCircle
 10
45.5666406404
 20
39.4340869383
 30
0.0
 40
0.0400772601162458
100
AcDbArc
 50
81.9438887399
 51
168.5817717427
  0
LINE
  5
78
330
1F
100
AcDbEntity
  8
SLD-0
  6
Continuous
370
    15
100
AcDbLine
 10
45.572257181
 20
39.4737686879
 30
0.0
 11
45.572257181
 21
37.3568440228
 31
0.0
  0
SPLINE
  5
79
330
1F
100
AcDbEntity
  8
SLD-0
  6
Continuous
370
    15
100
AcDbSpline
210
0.0
220
0.0
230
1.0
 70
     8
 71
     3
 72
    11
 73
     7
 74
     0
 42
0.00000001
 43
0.00000001
 12
1.0
 22
0.0
 32
0.0
 13
1.0
 23
0.0
 33
0.0
 40
0.0
 40
0.0
 40
0.0
 40
0.0
 40
0.2582634593861957
 40
0.5167414318933885
 40
0.7751966606334798
 40
1.0
 40
1.0
 40
1.0
 40
1.0
 10
45.57225718098749
 20
37.35684402280204
 30
0.0
 10
45.56617791674365
 20
37.35919817610046
 30
0.0
 10
45.55401433883107
 20
37.36390843805241
 30
0.0
 10
45.53885162402472
 20
37.36468055491182
 30
0.0
 10
45.52907954901667
 20
37.36228845230124
 30
0.0
 10
45.52790360707676
 20
37.35960721577187
 30
0.0
 10
45.52735657968307
 20
37.35835995195656
 30
0.0
  0
LINE
  5
7A
330
1F
100
AcDbEntity
  8
SLD-0
  6
Continuous
370
    15
100
AcDbLine
 10
45.5273565797
 20
39.4420210013
 30
0.0
 11
45.5273565797
 21
37.358359952
 31
0.0
  0
LINE
  5
7B
330
1F
100
AcDbEntity
  8
SLD-0
  6
Continuous
370
    15
100
AcDbLine
 10
85.3822557458
 20
39.4737686879
 30
0.0
 11
45.572257181
 21
39.4737686879
 31
0.0
  0
LINE
  5
7C
330
1F
100
AcDbEntity
  8
SLD-0
  6
Continuous
370
    15
100
AcDbLine
 10
85.3822557458
 20
39.4737686879
 30
0.0
 11
85.3822557458
 21
37.3568440228
 31
0.0
  0
LINE
  5
7D
330
1F
100
AcDbEntity
  8
SLD-0
  6
Continuous
370
    15
100
AcDbLine
 10
45.572257181
 20
37.3357008004
 30
0.0
 11
45.5643184994
 21
37.3458242034
 31
0.0
  0
LINE
  5
7E
330
1F
100
AcDbEntity
  8
SLD-0
  6
Continuous
370
    15
100
AcDbLine
 10
45.5423070203
 20
37.358359952
 30
0.0
 11
45.5273565797
 21
37.358359952
 31
0.0
  0
LINE
  5
7F
330
1F
100
AcDbEntity
  8
SLD-0
  6
Continuous
370
    15
100
AcDbLine
 10
85.3901944274
 20
37.3458242034
 30
0.0
 11
85.3822557458
 21
37.3357008004
 31
0.0
  0
SPLINE
  5
80
330
1F
100
AcDbEntity
  8
SLD-0
  6
Continuous
370
    15
100
AcDbSpline
210
0.0
220
0.0
230
1.0
 70
     8
 71
     3
 72
    11
 73
     7
 74
     0
 42
0.00000001
 43
0.00000001
 12
1.0
 22
0.0
 32
0.0
 13
1.0
 23
0.0
 33
0.0
 40
0.0
 40
0.0
 40
0.0
 40
0.0
 40
0.2582975151661717
 40
0.5167611153887499
 40
0.7752138868728923
 40
1.0
 40
1.0
 40
1.0
 40
1.0
 10
85.4271563471247
 20
37.35835995195656
 30
0.0
 10
85.42643501571989
 20
37.35979441926293
 30
0.0
 10
85.42499188909488
 20
37.36266427623679
 30
0.0
 10
85.41392434512053
 20
37.36478749267812
 30
0.0
 10
85.39890119799168
 20
37.36346472048935
 30
0.0
 10
85.38754039891417
 20
37.3589459837555
 30
0.0
 10
85.38225574582027
 20
37.35684402280204
 30
0.0
  0
LINE
  5
81
330
1F
100
AcDbEntity
  8
SLD-0
  6
Continuous
370
    15
100
AcDbLine
 10
85.4271563471
 20
37.358359952
 30
0.0
 11
85.4122059065
 21
37.358359952
 31
0.0
  0
ARC
  5
82
330
1F
100
AcDbEntity
  8
SLD-0
  6
Continuous
370
    15
100
AcDbCircle
 10
85.3878722865
 20
39.4340869383
 30
0.0
 40
0.0400772601162347
100
AcDbArc
 50
11.4182282573
 51
98.0561112601
  0
LINE
  5
83
330
1F
100
AcDbEntity
  8
SLD-0
  6
Continuous
370
    15
100
AcDbLine
 10
85.4271563471
 20
37.358359952
 30
0.0
 11
85.4271563471
 21
39.4420210013
 31
0.0
  0
LINE
  5
84
330
1F
100
AcDbEntity
  8
SLD-0
  6
Continuous
370
    15
100
AcDbLine
 10
85.3822557458
 20
39.4869216026
 30
0.0
 11
45.572257181
 21
39.4869216026
 31
0.0
  0
LINE
  5
85
330
1F
100
AcDbEntity
  8
SLD-0
  6
Continuous
370
    15
100
AcDbLine
 10
85.3822557458
 20
39.4869216026
 30
0.0
 11
85.3822557458
 21
39.4737686879
 31
0.0
  0
LINE
  5
86
330
1F
100
AcDbEntity
  8
SLD-0
  6
Continuous
370
    15
100
AcDbLine
 10
45.572257181
 20
39.4737686879
 30
0.0
 11
45.572257181
 21
39.4869216026
 31
0.0
  0
LINE
  5
87
330
1F
100
AcDbEntity
  8
SLD-0
  6
Continuous
370
    15
100
AcDbLine
 10
87.9796008877
 20
37.7394143233
 30
0.0
 11
87.0547573849
 21
37.7394143233
 31
0.0
  0
LINE
  5
88
330
1F
100
AcDbEntity
  8
SLD-0
  6
Continuous
370
    15
100
AcDbLine
 10
87.9796008877
 20
37.7394143233
 30
0.0
 11
87.9796008877
 21
34.6144155436
 31
0.0
  0
LINE
  5
89
330
1F
100
AcDbEntity
  8
SLD-0
  6
Continuous
370
    15
100
AcDbLine
 10
87.9796008877
 20
34.6144155436
 30
0.0
 11
87.0547573849
 21
34.6144155436
 31
0.0
  0
CIRCLE
  5
8A
330
1F
100
AcDbEntity
  8
SLD-0
  6
Continuous
370
    15
100
AcDbCircle
 10
87.7925997934
 20
36.1769152882
 30
0.0
 40
0.09375
  0
LINE
  5
8B
330
1F
100
AcDbEntity
  8
SLD-0
  6
Continuous
370
    15
100
AcDbLine
 10
42.9749120391
 20
15.2014150575
 30
0.0
 11
42.9749120391
 21
18.3264150106
 31
0.0
  0
CIRCLE
  5
8C
330
1F
100
AcDbEntity
  8
SLD-0
  6
Continuous
370
    15
100
AcDbCircle
 10
43.1619131334
 20
16.7639152882
 30
0.0
 40
0.09375
  0
LINE
  5
8D
330
1F
100
AcDbEntity
  8
SLD-0
  6
Continuous
370
    15
100
AcDbLine
 10
42.9749120391
 20
18.3264150106
 30
0.0
 11
43.8997555419
 21
18.3264150106
 31
0.0
  0
LINE
  5
8E
330
1F
100
AcDbEntity
  8
SLD-0
  6
Continuous
370
    15
100
AcDbLine
 10
42.9749120391
 20
15.2014150575
 30
0.0
 11
43.8997555419
 21
15.2014150575
 31
0.0
  0
CIRCLE
  5
8F
330
1F
100
AcDbEntity
  8
SLD-0
  6
Continuous
370
    15
100
AcDbCircle
 10
43.1619131334
 20
36.6769152882
 30
0.0
 40
0.09375
  0
LINE
  5
90
330
1F
100
AcDbEntity
  8
SLD-0
  6
Continuous
370
    15
100
AcDbLine
 10
42.9749120391
 20
38.2394151606
 30
0.0
 11
43.8997555419
 21
38.2394151606
 31
0.0
  0
LINE
  5
91
330
1F
100
AcDbEntity
  8
SLD-0
  6
Continuous
370
    15
100
AcDbLine
 10
42.9749120391
 20
35.1144163809
 30
0.0
 11
43.8997555419
 21
35.1144163809
 31
0.0
  0
LINE
  5
92
330
1F
100
AcDbEntity
  8
SLD-0
  6
Continuous
370
    15
100
AcDbLine
 10
42.9749120391
 20
35.1144163809
 30
0.0
 11
42.9749120391
 21
38.2394151606
 31
0.0
  0
LINE
  5
93
330
1F
100
AcDbEntity
  8
SLD-0
  6
Continuous
370
    15
100
AcDbLine
 10
87.9796008877
 20
17.8264153466
 30
0.0
 11
87.0547573849
 21
17.8264153466
 31
0.0
  0
LINE
  5
94
330
1F
100
AcDbEntity
  8
SLD-0
  6
Continuous
370
    15
100
AcDbLine
 10
87.9796008877
 20
17.8264153466
 30
0.0
 11
87.9796008877
 21
14.7014153936
 31
0.0
  0
LINE
  5
95
330
1F
100
AcDbEntity
  8
SLD-0
  6
Continuous
370
    15
100
AcDbLine
 10
87.9796008877
 20
14.7014153936
 30
0.0
 11
87.0547573849
 21
14.7014153936
 31
0.0
  0
CIRCLE
  5
96
330
1F
100
AcDbEntity
  8
SLD-0
  6
Continuous
370
    15
100
AcDbCircle
 10
87.7925997934
 20
16.2639152882
 30
0.0
 40
0.09375
  0
SPLINE
  5
97
330
1F
100
AcDbEntity
  8
SLD-0
  6
Continuous
370
    15
100
AcDbSpline
210
0.0
220
0.0
230
1.0
 70
     8
 71
     3
 72
    11
 73
     7
 74
     0
 42
0.00000001
 43
0.00000001
 12
1.0
 22
0.0
 32
0.0
 13
1.0
 23
0.0
 33
0.0
 40
0.0
 40
0.0
 40
0.0
 40
0.0
 40
0.2499977547309094
 40
0.4999945423958539
 40
0.7499960180601559
 40
1.0
 40
1.0
 40
1.0
 40
1.0
 10
87.05475738493863
 20
9.68355235702881
 30
0.0
 10
87.0537857362114
 20
9.678043053964892
 30
0.0
 10
87.05184244251556
 20
9.667024469148684
 30
0.0
 10
87.0369058027482
 20
9.650496360011632
 30
0.0
 10
87.0155520815485
 20
9.633968507063933
 30
0.0
 10
86.9986218851664
 20
9.62294998793561
 30
0.0
 10
86.99015674454407
 20
9.617440700756305
 30
0.0
  0
LINE
  5
98
330
1F
100
AcDbEntity
  8
SLD-0
  6
Continuous
370
    15
100
AcDbLine
 10
86.9901567445
 20
43.3827891306
 30
0.0
 11
86.9901567445
 21
9.6174407008
 31
0.0
  0
SPLINE
  5
99
330
1F
100
AcDbEntity
  8
SLD-0
  6
Continuous
370
    15
100
AcDbSpline
210
0.0
220
0.0
230
1.0
 70
     8
 71
     3
 72
    11
 73
     7
 74
     0
 42
0.00000001
 43
0.00000001
 12
1.0
 22
0.0
 32
0.0
 13
1.0
 23
0.0
 33
0.0
 40
0.0
 40
0.0
 40
0.0
 40
0.0
 40
0.2500013970332862
 40
0.5000001210054152
 40
0.7499943237038185
 40
1.0
 40
1.0
 40
1.0
 40
1.0
 10
86.99015674454407
 20
43.38278913056993
 30
0.0
 10
86.99862188391222
 20
43.37728002121479
 30
0.0
 10
87.01555207213774
 20
43.36626186140891
 30
0.0
 10
87.03690580874445
 20
43.34973442473754
 30
0.0
 10
87.05184266066573
 20
43.33320713767193
 30
0.0
 10
87.05378579531782
 20
43.32218729971543
 30
0.0
 10
87.05475738493863
 20
43.31667725429997
 30
0.0
  0
LINE
  5
9A
330
1F
100
AcDbEntity
  8
SLD-0
  6
Continuous
370
    15
100
AcDbLine
 10
87.0547573849
 20
9.683552357
 30
0.0
 11
87.0547573849
 21
43.3166772543
 31
0.0
  0
LINE
  5
9B
330
1F
100
AcDbEntity
  8
SLD-0
  6
Continuous
370
    15
100
AcDbLine
 10
43.964468821
 20
43.8205148473
 30
0.0
 11
43.964468821
 21
43.3829017693
 31
0.0
  0
LINE
  5
9C
330
1F
100
AcDbEntity
  8
SLD-0
  6
Continuous
370
    15
100
AcDbLine
 10
43.964468821
 20
43.8205148473
 30
0.0
 11
86.9900441058
 21
43.8205148473
 31
0.0
  0
LINE
  5
9D
330
1F
100
AcDbEntity
  8
SLD-0
  6
Continuous
370
    15
100
AcDbLine
 10
86.9900441058
 20
43.3829017693
 30
0.0
 11
86.9900441058
 21
43.8205148473
 31
0.0
  0
LINE
  5
9E
330
1F
100
AcDbEntity
  8
SLD-0
  6
Continuous
370
    15
100
AcDbLine
 10
86.9901567445
 20
43.3827891306
 30
0.0
 11
86.9900441058
 21
43.3829017693
 31
0.0
  0
LINE
  5
9F
330
1F
100
AcDbEntity
  8
SLD-0
  6
Continuous
370
    15
100
AcDbLine
 10
86.9900441058
 20
9.6173279887
 30
0.0
 11
86.9901567445
 21
9.6174407008
 31
0.0
  0
LINE
  5
A0
330
1F
100
AcDbEntity
  8
SLD-0
  6
Continuous
370
    15
100
AcDbLine
 10
86.9900441058
 20
9.1797152883
 30
0.0
 11
86.9900441058
 21
9.6173279887
 31
0.0
  0
LINE
  5
A1
330
1F
100
AcDbEntity
  8
SLD-0
  6
Continuous
370
    15
100
AcDbLine
 10
86.9900441058
 20
9.1797152883
 30
0.0
 11
43.964468821
 21
9.1797152883
 31
0.0
  0
LINE
  5
A2
330
1F
100
AcDbEntity
  8
SLD-0
  6
Continuous
370
    15
100
AcDbLine
 10
43.964468821
 20
9.6173279887
 30
0.0
 11
43.964468821
 21
9.1797152883
 31
0.0
  0
LINE
  5
A3
330
1F
100
AcDbEntity
  8
SLD-0
  6
Continuous
370
    15
100
AcDbLine
 10
43.9643561823
 20
9.6174407008
 30
0.0
 11
43.964468821
 21
9.6173279887
 31
0.0
  0
LINE
  5
A4
330
1F
100
AcDbEntity
  8
SLD-0
  6
Continuous
370
    15
100
AcDbLine
 10
43.9643561823
 20
9.6174407008
 30
0.0
 11
43.9643561823
 21
43.3827891306
 31
0.0
  0
LINE
  5
A5
330
1F
100
AcDbEntity
  8
SLD-0
  6
Continuous
370
    15
100
AcDbLine
 10
43.964468821
 20
43.3829017693
 30
0.0
 11
43.9643561823
 21
43.3827891306
 31
0.0
  0
LINE
  5
A6
330
1F
100
AcDbEntity
  8
SLD-0
  6
Continuous
370
    15
100
AcDbLine
 10
85.5418553954
 20
38.9287663438
 30
0.0
 11
85.5418553954
 21
15.8016150573
 31
0.0
  0
LINE
  5
A7
330
1F
100
AcDbEntity
  8
SLD-0
  6
Continuous
370
    15
100
AcDbLine
 10
85.5418553954
 20
38.9287663438
 30
0.0
 11
85.5418553954
 21
39.5545142085
 31
0.0
  0
LINE
  5
A8
330
1F
100
AcDbEntity
  8
SLD-0
  6
Continuous
370
    15
100
AcDbLine
 10
85.5418553954
 20
39.5545142085
 30
0.0
 11
84.9161075308
 21
39.5545142085
 31
0.0
  0
LINE
  5
A9
330
1F
100
AcDbEntity
  8
SLD-0
  6
Continuous
370
    15
100
AcDbLine
 10
46.038405396
 20
39.5545142085
 30
0.0
 11
84.9161075308
 21
39.5545142085
 31
0.0
  0
LINE
  5
AA
330
1F
100
AcDbEntity
  8
SLD-0
  6
Continuous
370
    15
100
AcDbLine
 10
46.038405396
 20
39.5545142085
 30
0.0
 11
45.4126575314
 21
39.5545142085
 31
0.0
  0
LINE
  5
AB
330
1F
100
AcDbEntity
  8
SLD-0
  6
Continuous
370
    15
100
AcDbLine
 10
45.4126575314
 20
39.5545142085
 30
0.0
 11
45.4126575314
 21
38.9287663438
 31
0.0
  0
LINE
  5
AC
330
1F
100
AcDbEntity
  8
SLD-0
  6
Continuous
370
    15
100
AcDbLine
 10
45.4126575314
 20
15.8016150573
 30
0.0
 11
45.4126575314
 21
38.9287663438
 31
0.0
  0
LINE
  5
AD
330
1F
100
AcDbEntity
  8
SLD-0
  6
Continuous
370
    15
100
AcDbLine
 10
45.4126575314
 20
15.8016150573
 30
0.0
 11
45.4126575314
 21
15.1761153498
 31
0.0
  0
LINE
  5
AE
330
1F
100
AcDbEntity
  8
SLD-0
  6
Continuous
370
    15
100
AcDbLine
 10
45.4126575314
 20
15.1761153498
 30
0.0
 11
46.4131566935
 21
15.1761153498
 31
0.0
  0
LINE
  5
AF
330
1F
100
AcDbEntity
  8
SLD-0
  6
Continuous
370
    15
100
AcDbLine
 10
84.5413562333
 20
15.1761153498
 30
0.0
 11
46.4131566935
 21
15.1761153498
 31
0.0
  0
LINE
  5
B0
330
1F
100
AcDbEntity
  8
SLD-0
  6
Continuous
370
    15
100
AcDbLine
 10
84.5413562333
 20
15.1761153498
 30
0.0
 11
85.5418553954
 21
15.1761153498
 31
0.0
  0
LINE
  5
B1
330
1F
100
AcDbEntity
  8
SLD-0
  6
Continuous
370
    15
100
AcDbLine
 10
85.5418553954
 20
15.1761153498
 30
0.0
 11
85.5418553954
 21
15.8016150573
 31
0.0
  0
SPLINE
  5
B2
330
1F
100
AcDbEntity
  8
SLD-0
  6
Continuous
370
    15
100
AcDbSpline
210
0.0
220
0.0
230
1.0
 70
     8
 71
     3
 72
    11
 73
     7
 74
     0
 42
0.00000001
 43
0.00000001
 12
1.0
 22
0.0
 32
0.0
 13
1.0
 23
0.0
 33
0.0
 40
0.0
 40
0.0
 40
0.0
 40
0.0
 40
0.2500039819398441
 40
0.5000054576041462
 40
0.7500022452690907
 40
1.0
 40
1.0
 40
1.0
 40
1.0
 10
43.96435618226369
 20
9.617440700756305
 30
0.0
 10
43.95589104164137
 20
9.62294998793561
 30
0.0
 10
43.93896084525925
 20
9.633968507063933
 30
0.0
 10
43.91760712405956
 20
9.650496360011632
 30
0.0
 10
43.90267048429219
 20
9.667024469148684
 30
0.0
 10
43.90072719059636
 20
9.678043053964892
 30
0.0
 10
43.89975554186913
 20
9.68355235702881
 30
0.0
  0
LINE
  5
B3
330
1F
100
AcDbEntity
  8
SLD-0
  6
Continuous
370
    15
100
AcDbLine
 10
43.8997555419
 20
43.3166772543
 30
0.0
 11
43.8997555419
 21
9.683552357
 31
0.0
  0
SPLINE
  5
B4
330
1F
100
AcDbEntity
  8
SLD-0
  6
Continuous
370
    15
100
AcDbSpline
210
0.0
220
0.0
230
1.0
 70
     8
 71
     3
 72
    11
 73
     7
 74
     0
 42
0.00000001
 43
0.00000001
 12
1.0
 22
0.0
 32
0.0
 13
1.0
 23
0.0
 33
0.0
 40
0.0
 40
0.0
 40
0.0
 40
0.0
 40
0.2500056762961815
 40
0.4999998789945847
 40
0.7499986029667137
 40
1.0
 40
1.0
 40
1.0
 40
1.0
 10
43.89975554186914
 20
43.31667725429997
 30
0.0
 10
43.90072713148993
 20
43.32218729971544
 30
0.0
 10
43.90267026614202
 20
43.33320713767193
 30
0.0
 10
43.91760711806331
 20
43.34973442473754
 30
0.0
 10
43.93896085467001
 20
43.36626186140891
 30
0.0
 10
43.95589104289553
 20
43.37728002121478
 30
0.0
 10
43.96435618226369
 20
43.38278913056993
 30
0.0
  0
LINE
  5
B5
330
1F
100
AcDbEntity
  8
SLD-0
  6
Continuous
370
    15
100
AcDbLine
 10
85.4772571017
 20
15.8016150573
 30
0.0
 11
85.4772571017
 21
38.9287663438
 31
0.0
  0
LINE
  5
B6
330
1F
100
AcDbEntity
  8
SLD-0
  6
Continuous
370
    15
100
AcDbLine
 10
85.4772571017
 20
38.9287663438
 30
0.0
 11
85.5418553954
 21
38.9287663438
 31
0.0
  0
LINE
  5
B7
330
1F
100
AcDbEntity
  8
SLD-0
  6
Continuous
370
    15
100
AcDbLine
 10
85.5418553954
 20
15.8016150573
 30
0.0
 11
85.4772571017
 21
15.8016150573
 31
0.0
  0
LINE
  5
B8
330
1F
100
AcDbEntity
  8
SLD-0
  6
Continuous
370
    15
100
AcDbLine
 10
84.9161075308
 20
39.5545142085
 30
0.0
 11
84.9161075308
 21
39.4899159147
 31
0.0
  0
LINE
  5
B9
330
1F
100
AcDbEntity
  8
SLD-0
  6
Continuous
370
    15
100
AcDbLine
 10
84.9161075308
 20
39.4899159147
 30
0.0
 11
46.038405396
 21
39.4899159147
 31
0.0
  0
LINE
  5
BA
330
1F
100
AcDbEntity
  8
SLD-0
  6
Continuous
370
    15
100
AcDbLine
 10
46.038405396
 20
39.4899159147
 30
0.0
 11
46.038405396
 21
39.5545142085
 31
0.0
  0
LINE
  5
BB
330
1F
100
AcDbEntity
  8
SLD-0
  6
Continuous
370
    15
100
AcDbLine
 10
84.5413562333
 20
15.2407154035
 30
0.0
 11
84.5413562333
 21
15.1761153498
 31
0.0
  0
LINE
  5
BC
330
1F
100
AcDbEntity
  8
SLD-0
  6
Continuous
370
    15
100
AcDbLine
 10
84.5413562333
 20
15.2407154035
 30
0.0
 11
46.4131566935
 21
15.2407154035
 31
0.0
  0
LINE
  5
BD
330
1F
100
AcDbEntity
  8
SLD-0
  6
Continuous
370
    15
100
AcDbLine
 10
46.4131566935
 20
15.1761153498
 30
0.0
 11
46.4131566935
 21
15.2407154035
 31
0.0
  0
LINE
  5
BE
330
1F
100
AcDbEntity
  8
SLD-0
  6
Continuous
370
    15
100
AcDbLine
 10
86.9900441058
 20
43.8851154877
 30
0.0
 11
43.964468821
 21
43.8851154877
 31
0.0
  0
LINE
  5
BF
330
1F
100
AcDbEntity
  8
SLD-0
  6
Continuous
370
    15
100
AcDbLine
 10
86.9900441058
 20
43.8851154877
 30
0.0
 11
86.9900441058
 21
43.8205148473
 31
0.0
  0
LINE
  5
C0
330
1F
100
AcDbEntity
  8
SLD-0
  6
Continuous
370
    15
100
AcDbLine
 10
43.964468821
 20
43.8205148473
 30
0.0
 11
43.964468821
 21
43.8851154877
 31
0.0
  0
SPLINE
  5
C1
330
1F
100
AcDbEntity
  8
SLD-0
  6
Continuous
370
    15
100
AcDbSpline
210
0.0
220
0.0
230
1.0
 70
    24
 71
     3
 72
    11
 73
     7
 74
     0
 42
0.00000001
 43
0.00000001
 12
1.0
 22
0.0
 32
0.0
 13
1.0
 23
0.0
 33
0.0
 40
0.0
 40
0.0
 40
0.0
 40
0.0
 40
0.2499957386082451
 40
0.5000078047835959
 40
0.7500134052301316
 40
1.0
 40
1.0
 40
1.0
 40
1.0
 10
45.47725582511792
 20
15.80161505731309
 30
0.0
 10
45.47628531159616
 20
15.80161505731309
 30
0.0
 10
45.47434422116705
 20
15.80161505731309
 30
0.0
 10
45.45940375026512
 20
15.80161505731309
 30
0.0
 10
45.43805131084626
 20
15.80161505731309
 30
0.0
 10
45.42112191001754
 20
15.80161505731309
 30
0.0
 10
45.41265753136292
 20
15.80161505731309
 30
0.0
  0
LINE
  5
C2
330
1F
100
AcDbEntity
  8
SLD-0
  6
Continuous
370
    15
100
AcDbLine
 10
45.4126575314
 20
38.9287663438
 30
0.0
 11
45.4772558251
 21
38.9287663438
 31
0.0
  0
LINE
  5
C3
330
1F
100
AcDbEntity
  8
SLD-0
  6
Continuous
370
    15
100
AcDbLine
 10
45.4772558251
 20
38.9287663438
 30
0.0
 11
45.4772558251
 21
15.8016150573
 31
0.0
  0
LINE
  5
C4
330
1F
100
AcDbEntity
  8
SLD-0
  6
Continuous
370
    15
100
AcDbLine
 10
43.964468821
 20
9.1151152878
 30
0.0
 11
86.9900441058
 21
9.1151152878
 31
0.0
  0
LINE
  5
C5
330
1F
100
AcDbEntity
  8
SLD-0
  6
Continuous
370
    15
100
AcDbLine
 10
86.9900441058
 20
9.1797152883
 30
0.0
 11
86.9900441058
 21
9.1151152878
 31
0.0
  0
LINE
  5
C6
330
1F
100
AcDbEntity
  8
SLD-0
  6
Continuous
370
    15
100
AcDbLine
 10
43.964468821
 20
9.1151152878
 30
0.0
 11
43.964468821
 21
9.1797152883
 31
0.0
  0
SPLINE
  5
C7
330
1F
100
AcDbEntity
  8
SLD-0
  6
Continuous
370
    15
100
AcDbSpline
210
0.0
220
0.0
230
1.0
 70
     8
 71
     3
 72
    10
 73
     6
 74
     0
 42
0.00000001
 43
0.00000001
 12
1.0
 22
0.0
 32
0.0
 13
1.0
 23
0.0
 33
0.0
 40
0.0
 40
0.0
 40
0.0
 40
0.0
 40
0.1702362921134507
 40
0.585113952411149
 40
1.0
 40
1.0
 40
1.0
 40
1.0
 10
45.54409515965089
 20
39.46621720180973
 30
0.0
 10
45.54537260407435
 20
39.46919765830283
 30
0.0
 10
45.54976326922758
 20
39.47944169414863
 30
0.0
 10
45.56507922382026
 20
39.49072927200395
 30
0.0
 10
45.57918533339471
 20
39.49280587655591
 30
0.0
 10
45.58623845947455
 20
39.49384418932708
 30
0.0
  0
LINE
  5
C8
330
1F
100
AcDbEntity
  8
SLD-0
  6
Continuous
370
    15
100
AcDbLine
 10
45.5862384595
 20
39.4938441893
 30
0.0
 11
45.5862384595
 21
39.4869216026
 31
0.0
  0
LINE
  5
C9
330
1F
100
AcDbEntity
  8
SLD-0
  6
Continuous
370
    15
100
AcDbLine
 10
45.5862384595
 20
39.4938441893
 30
0.0
 11
46.038405396
 21
39.4938441893
 31
0.0
  0
LINE
  5
CA
330
1F
100
AcDbEntity
  8
SLD-0
  6
Continuous
370
    15
100
AcDbLine
 10
62.9772563836
 20
39.4869216026
 30
0.0
 11
62.9772563836
 21
39.4899159147
 31
0.0
  0
LINE
  5
CB
330
1F
100
AcDbEntity
  8
SLD-0
  6
Continuous
370
    15
100
AcDbLine
 10
85.3682744673
 20
39.4938441893
 30
0.0
 11
85.3682744673
 21
39.4869216026
 31
0.0
  0
LINE
  5
CC
330
1F
100
AcDbEntity
  8
SLD-0
  6
Continuous
370
    15
100
AcDbLine
 10
67.9772565432
 20
39.4869216026
 30
0.0
 11
67.9772565432
 21
39.4899159147
 31
0.0
  0
LINE
  5
CD
330
1F
100
AcDbEntity
  8
SLD-0
  6
Continuous
370
    15
100
AcDbLine
 10
84.9161075308
 20
39.4938441893
 30
0.0
 11
85.3682744673
 21
39.4938441893
 31
0.0
  0
SPLINE
  5
CE
330
1F
100
AcDbEntity
  8
SLD-0
  6
Continuous
370
    15
100
AcDbSpline
210
0.0
220
0.0
230
1.0
 70
     8
 71
     3
 72
    10
 73
     6
 74
     0
 42
0.00000001
 43
0.00000001
 12
1.0
 22
0.0
 32
0.0
 13
1.0
 23
0.0
 33
0.0
 40
0.0
 40
0.0
 40
0.0
 40
0.0
 40
0.4135426460546022
 40
0.8270769319761108
 40
1.0
 40
1.0
 40
1.0
 40
1.0
 10
85.3682744673332
 20
39.49384418932708
 30
0.0
 10
85.37532887774502
 20
39.49280683679326
 30
0.0
 10
85.38943755595749
 20
39.49073215269659
 30
0.0
 10
85.4047877365121
 20
39.47939629716514
 30
0.0
 10
85.4091991486562
 20
39.46909143356194
 30
0.0
 10
85.4104998995414
 20
39.46605293704067
 30
0.0
  0
ARC
  5
CF
330
1F
100
AcDbEntity
  8
SLD-0
  6
Continuous
370
    15
100
AcDbCircle
 10
46.0799584711
 20
38.6744152554
 30
0.0
 40
0.5559191876246474
100
AcDbArc
 50
173.7376097942
 51
186.2623902058
  0
LINE
  5
D0
330
1F
100
AcDbEntity
  8
SLD-0
  6
Continuous
370
    15
100
AcDbLine
 10
45.4772558251
 20
16.5878155751
 30
0.0
 11
45.524125257
 21
16.5878155751
 31
0.0
  0
LINE
  5
D1
330
1F
100
AcDbEntity
  8
SLD-0
  6
Continuous
370
    15
100
AcDbLine
 10
45.524125257
 20
16.5878155751
 30
0.0
 11
45.524125257
 21
17.6728154677
 31
0.0
  0
LINE
  5
D2
330
1F
100
AcDbEntity
  8
SLD-0
  6
Continuous
370
    15
100
AcDbLine
 10
45.524125257
 20
17.6728154677
 30
0.0
 11
45.4772558251
 21
17.6728154677
 31
0.0
  0
LINE
  5
D3
330
1F
100
AcDbEntity
  8
SLD-0
  6
Continuous
370
    15
100
AcDbLine
 10
45.4947805293
 20
16.5878155751
 30
0.0
 11
45.4947805293
 21
17.6728154677
 31
0.0
  0
ARC
  5
D4
330
1F
100
AcDbEntity
  8
SLD-0
  6
Continuous
370
    15
100
AcDbCircle
 10
84.8745544557
 20
38.6744152554
 30
0.0
 40
0.5559191876246616
100
AcDbArc
 50
353.7376097942
 51
6.2623902058
  0
LINE
  5
D5
330
1F
100
AcDbEntity
  8
SLD-0
  6
Continuous
370
    15
100
AcDbLine
 10
45.537257052
 20
15.1761153498
 30
0.0
 11
45.537257052
 21
15.2068152618
 31
0.0
  0
LINE
  5
D6
330
1F
100
AcDbEntity
  8
SLD-0
  6
Continuous
370
    15
100
AcDbLine
 10
45.537257052
 20
15.2068152618
 30
0.0
 11
46.4131566935
 21
15.2068152618
 31
0.0
  0
LINE
  5
D7
330
1F
100
AcDbEntity
  8
SLD-0
  6
Continuous
370
    15
100
AcDbLine
 10
84.5413562333
 20
15.2068152618
 30
0.0
 11
85.4172558748
 21
15.2068152618
 31
0.0
  0
LINE
  5
D8
330
1F
100
AcDbEntity
  8
SLD-0
  6
Continuous
370
    15
100
AcDbLine
 10
85.4172558748
 20
15.2068152618
 30
0.0
 11
85.4172558748
 21
15.1761153498
 31
0.0
  0
LINE
  5
D9
330
1F
100
AcDbEntity
  8
SLD-0
  6
Continuous
370
    15
100
AcDbLine
 10
45.4902914079
 20
39.4326438297
 30
0.0
 11
45.5273565797
 21
39.4326438297
 31
0.0
  0
LINE
  5
DA
330
1F
100
AcDbEntity
  8
SLD-0
  6
Continuous
370
    15
100
AcDbLine
 10
45.4902914079
 20
39.4602450041
 30
0.0
 11
45.5354900324
 21
39.4602450041
 31
0.0
  0
LINE
  5
DB
330
1F
100
AcDbEntity
  8
SLD-0
  6
Continuous
370
    15
100
AcDbLine
 10
45.4902914079
 20
39.4602450041
 30
0.0
 11
45.4902914079
 21
39.4326438297
 31
0.0
  0
LINE
  5
DC
330
1F
100
AcDbEntity
  8
SLD-0
  6
Continuous
370
    15
100
AcDbLine
 10
85.4190228944
 20
39.4602450041
 30
0.0
 11
85.4642215189
 21
39.4602450041
 31
0.0
  0
LINE
  5
DD
330
1F
100
AcDbEntity
  8
SLD-0
  6
Continuous
370
    15
100
AcDbLine
 10
85.4271563471
 20
39.4326438297
 30
0.0
 11
85.4642215189
 21
39.4326438297
 31
0.0
  0
LINE
  5
DE
330
1F
100
AcDbEntity
  8
SLD-0
  6
Continuous
370
    15
100
AcDbLine
 10
85.4642215189
 20
39.4602450041
 30
0.0
 11
85.4642215189
 21
39.4326438297
 31
0.0
  0
LINE
  5
DF
330
1F
100
AcDbEntity
  8
SLD-0
  6
Continuous
370
    15
100
AcDbLine
 10
75.8361260235
 20
46.7850199077
 30
0.0
 11
75.8102132562
 21
46.7699028557
 31
0.0
  0
ARC
  5
E0
330
1F
100
AcDbEntity
  8
SLD-0
  6
Continuous
370
    15
100
AcDbCircle
 10
75.7972564634
 20
46.7623457653
 30
0.0
 40
0.0150000000000053
100
AcDbArc
 50
30.2564371635
 51
149.7435628365
  0
LINE
  5
E1
330
1F
100
AcDbEntity
  8
SLD-0
  6
Continuous
370
    15
100
AcDbLine
 10
75.7842993156
 20
46.7699028557
 30
0.0
 11
75.7583865482
 21
46.7850199077
 31
0.0
  0
ARC
  5
E2
330
1F
100
AcDbEntity
  8
SLD-0
  6
Continuous
370
    15
100
AcDbCircle
 10
75.7972564634
 20
46.7623457653
 30
0.0
 40
0.0449999999999966
100
AcDbArc
 50
30.2564371635
 51
149.7435628365
  0
LINE
  5
E3
330
1F
100
AcDbEntity
  8
SLD-0
  6
Continuous
370
    15
100
AcDbLine
 10
75.0482241921
 20
45.5080607926
 30
0.0
 11
75.0223108381
 21
45.523175498
 31
0.0
  0
LINE
  5
E4
330
1F
100
AcDbEntity
  8
SLD-0
  6
Continuous
370
    15
100
AcDbLine
 10
75.7583865482
 20
46.7850199077
 30
0.0
 11
75.0223108381
 21
45.523175498
 31
0.0
  0
LINE
  5
E5
330
1F
100
AcDbEntity
  8
SLD-0
  6
Continuous
370
    15
100
AcDbLine
 10
75.7842993156
 20
46.7699028557
 30
0.0
 11
75.0482241921
 21
45.5080607926
 31
0.0
  0
LINE
  5
E6
330
1F
100
AcDbEntity
  8
SLD-0
  6
Continuous
370
    15
100
AcDbLine
 10
74.9222565806
 20
45.2921159805
 30
0.0
 11
74.8963432266
 21
45.3072306859
 31
0.0
  0
LINE
  5
E7
330
1F
100
AcDbEntity
  8
SLD-0
  6
Continuous
370
    15
100
AcDbLine
 10
75.0223108381
 20
45.523175498
 30
0.0
 11
74.8963432266
 21
45.3072306859
 31
0.0
  0
LINE
  5
E8
330
1F
100
AcDbEntity
  8
SLD-0
  6
Continuous
370
    15
100
AcDbLine
 10
75.0482241921
 20
45.5080607926
 30
0.0
 11
74.9222565806
 21
45.2921159805
 31
0.0
  0
LINE
  5
E9
330
1F
100
AcDbEntity
  8
SLD-0
  6
Continuous
370
    15
100
AcDbLine
 10
76.5462883797
 20
45.5080607926
 30
0.0
 11
76.5722023203
 21
45.523175498
 31
0.0
  0
LINE
  5
EA
330
1F
100
AcDbEntity
  8
SLD-0
  6
Continuous
370
    15
100
AcDbLine
 10
76.5462883797
 20
45.5080607926
 30
0.0
 11
75.8102132562
 21
46.7699028557
 31
0.0
  0
LINE
  5
EB
330
1F
100
AcDbEntity
  8
SLD-0
  6
Continuous
370
    15
100
AcDbLine
 10
76.5722023203
 20
45.523175498
 30
0.0
 11
75.8361260235
 21
46.7850199077
 31
0.0
  0
LINE
  5
EC
330
1F
100
AcDbEntity
  8
SLD-0
  6
Continuous
370
    15
100
AcDbLine
 10
76.6722559911
 20
45.2921159805
 30
0.0
 11
76.6981699318
 21
45.3072306859
 31
0.0
  0
LINE
  5
ED
330
1F
100
AcDbEntity
  8
SLD-0
  6
Continuous
370
    15
100
AcDbLine
 10
76.5462883797
 20
45.5080607926
 30
0.0
 11
76.6722559911
 21
45.2921159805
 31
0.0
  0
LINE
  5
EE
330
1F
100
AcDbEntity
  8
SLD-0
  6
Continuous
370
    15
100
AcDbLine
 10
76.5722023203
 20
45.523175498
 30
0.0
 11
76.6981699318
 21
45.3072306859
 31
0.0
  0
LINE
  5
EF
330
1F
100
AcDbEntity
  8
SLD-0
  6
Continuous
370
    15
100
AcDbLine
 10
74.9134384958
 20
45.2769989285
 30
0.0
 11
74.8875251418
 21
45.2921159805
 31
0.0
  0
LINE
  5
F0
330
1F
100
AcDbEntity
  8
SLD-0
  6
Continuous
370
    15
100
AcDbLine
 10
74.8875251418
 20
45.2921159805
 30
0.0
 11
74.0667756365
 21
43.8851154877
 31
0.0
  0
LINE
  5
F1
330
1F
100
AcDbEntity
  8
SLD-0
  6
Continuous
370
    15
100
AcDbLine
 10
74.1015064887
 20
43.8851154877
 30
0.0
 11
74.9134384958
 21
45.2769989285
 31
0.0
  0
LINE
  5
F2
330
1F
100
AcDbEntity
  8
SLD-0
  6
Continuous
370
    15
100
AcDbLine
 10
76.7069874299
 20
45.2921159805
 30
0.0
 11
76.6810746626
 21
45.2769989285
 31
0.0
  0
LINE
  5
F3
330
1F
100
AcDbEntity
  8
SLD-0
  6
Continuous
370
    15
100
AcDbLine
 10
76.6810746626
 20
45.2769989285
 30
0.0
 11
76.6722559911
 21
45.2921159805
 31
0.0
  0
LINE
  5
F4
330
1F
100
AcDbEntity
  8
SLD-0
  6
Continuous
370
    15
100
AcDbLine
 10
76.7069874299
 20
45.2921159805
 30
0.0
 11
76.6981699318
 21
45.3072306859
 31
0.0
  0
LINE
  5
F5
330
1F
100
AcDbEntity
  8
SLD-0
  6
Continuous
370
    15
100
AcDbLine
 10
74.8875251418
 20
45.2921159805
 30
0.0
 11
74.8963432266
 21
45.3072306859
 31
0.0
  0
LINE
  5
F6
330
1F
100
AcDbEntity
  8
SLD-0
  6
Continuous
370
    15
100
AcDbLine
 10
74.9222565806
 20
45.2921159805
 30
0.0
 11
74.9134384958
 21
45.2769989285
 31
0.0
  0
LINE
  5
F7
330
1F
100
AcDbEntity
  8
SLD-0
  6
Continuous
370
    15
100
AcDbLine
 10
77.4930060831
 20
43.8851154877
 30
0.0
 11
76.6810746626
 21
45.2769989285
 31
0.0
  0
LINE
  5
F8
330
1F
100
AcDbEntity
  8
SLD-0
  6
Continuous
370
    15
100
AcDbLine
 10
77.5277375219
 20
43.8851154877
 30
0.0
 11
76.7069874299
 21
45.2921159805
 31
0.0
  0
LINE
  5
F9
330
1F
100
AcDbEntity
  8
SLD-0
  6
Continuous
370
    15
100
AcDbLine
 10
56.0322563462
 20
45.2921159805
 30
0.0
 11
56.0581697002
 21
45.3072306859
 31
0.0
  0
LINE
  5
FA
330
1F
100
AcDbEntity
  8
SLD-0
  6
Continuous
370
    15
100
AcDbLine
 10
55.9062887347
 20
45.5080607926
 30
0.0
 11
56.0322563462
 21
45.2921159805
 31
0.0
  0
LINE
  5
FB
330
1F
100
AcDbEntity
  8
SLD-0
  6
Continuous
370
    15
100
AcDbLine
 10
55.9062887347
 20
45.5080607926
 30
0.0
 11
55.9322020887
 21
45.523175498
 31
0.0
  0
LINE
  5
FC
330
1F
100
AcDbEntity
  8
SLD-0
  6
Continuous
370
    15
100
AcDbLine
 10
55.9322020887
 20
45.523175498
 30
0.0
 11
56.0581697002
 21
45.3072306859
 31
0.0
  0
LINE
  5
FD
330
1F
100
AcDbEntity
  8
SLD-0
  6
Continuous
370
    15
100
AcDbLine
 10
55.1442996706
 20
46.7699028557
 30
0.0
 11
55.1183869033
 21
46.7850199077
 31
0.0
  0
LINE
  5
FE
330
1F
100
AcDbEntity
  8
SLD-0
  6
Continuous
370
    15
100
AcDbLine
 10
55.1442996706
 20
46.7699028557
 30
0.0
 11
54.4082245471
 21
45.5080607926
 31
0.0
  0
LINE
  5
FF
330
1F
100
AcDbEntity
  8
SLD-0
  6
Continuous
370
    15
100
AcDbLine
 10
54.4082245471
 20
45.5080607926
 30
0.0
 11
54.3823106065
 21
45.523175498
 31
0.0
  0
LINE
  5
100
330
1F
100
AcDbEntity
  8
SLD-0
  6
Continuous
370
    15
100
AcDbLine
 10
55.1183869033
 20
46.7850199077
 30
0.0
 11
54.3823106065
 21
45.523175498
 31
0.0
  0
LINE
  5
101
330
1F
100
AcDbEntity
  8
SLD-0
  6
Continuous
370
    15
100
AcDbLine
 10
54.4082245471
 20
45.5080607926
 30
0.0
 11
54.2822569357
 21
45.2921159805
 31
0.0
  0
LINE
  5
102
330
1F
100
AcDbEntity
  8
SLD-0
  6
Continuous
370
    15
100
AcDbLine
 10
54.2822569357
 20
45.2921159805
 30
0.0
 11
54.256342995
 21
45.3072306859
 31
0.0
  0
LINE
  5
103
330
1F
100
AcDbEntity
  8
SLD-0
  6
Continuous
370
    15
100
AcDbLine
 10
54.3823106065
 20
45.523175498
 30
0.0
 11
54.256342995
 21
45.3072306859
 31
0.0
  0
LINE
  5
104
330
1F
100
AcDbEntity
  8
SLD-0
  6
Continuous
370
    15
100
AcDbLine
 10
55.1961263786
 20
46.7850199077
 30
0.0
 11
55.1702136112
 21
46.7699028557
 31
0.0
  0
ARC
  5
105
330
1F
100
AcDbEntity
  8
SLD-0
  6
Continuous
370
    15
100
AcDbCircle
 10
55.1572564634
 20
46.7623457653
 30
0.0
 40
0.0450000000000088
100
AcDbArc
 50
30.2564371635
 51
149.7435628365
  0
ARC
  5
106
330
1F
100
AcDbEntity
  8
SLD-0
  6
Continuous
370
    15
100
AcDbCircle
 10
55.1572564634
 20
46.7623457653
 30
0.0
 40
0.0149999999999956
100
AcDbArc
 50
30.2564371635
 51
149.7435628364
  0
LINE
  5
107
330
1F
100
AcDbEntity
  8
SLD-0
  6
Continuous
370
    15
100
AcDbLine
 10
55.9062887347
 20
45.5080607926
 30
0.0
 11
55.1702136112
 21
46.7699028557
 31
0.0
  0
LINE
  5
108
330
1F
100
AcDbEntity
  8
SLD-0
  6
Continuous
370
    15
100
AcDbLine
 10
55.9322020887
 20
45.523175498
 30
0.0
 11
55.1961263786
 21
46.7850199077
 31
0.0
  0
LINE
  5
109
330
1F
100
AcDbEntity
  8
SLD-0
  6
Continuous
370
    15
100
AcDbLine
 10
56.066987785
 20
45.2921159805
 30
0.0
 11
56.041074431
 21
45.2769989285
 31
0.0
  0
LINE
  5
10A
330
1F
100
AcDbEntity
  8
SLD-0
  6
Continuous
370
    15
100
AcDbLine
 10
56.8530064381
 20
43.8851154877
 30
0.0
 11
56.041074431
 21
45.2769989285
 31
0.0
  0
LINE
  5
10B
330
1F
100
AcDbEntity
  8
SLD-0
  6
Continuous
370
    15
100
AcDbLine
 10
56.8877372903
 20
43.8851154877
 30
0.0
 11
56.066987785
 21
45.2921159805
 31
0.0
  0
LINE
  5
10C
330
1F
100
AcDbEntity
  8
SLD-0
  6
Continuous
370
    15
100
AcDbLine
 10
56.041074431
 20
45.2769989285
 30
0.0
 11
56.0322563462
 21
45.2921159805
 31
0.0
  0
LINE
  5
10D
330
1F
100
AcDbEntity
  8
SLD-0
  6
Continuous
370
    15
100
AcDbLine
 10
56.066987785
 20
45.2921159805
 30
0.0
 11
56.0581697002
 21
45.3072306859
 31
0.0
  0
LINE
  5
10E
330
1F
100
AcDbEntity
  8
SLD-0
  6
Continuous
370
    15
100
AcDbLine
 10
54.2734382642
 20
45.2769989285
 30
0.0
 11
54.2475254969
 21
45.2921159805
 31
0.0
  0
LINE
  5
10F
330
1F
100
AcDbEntity
  8
SLD-0
  6
Continuous
370
    15
100
AcDbLine
 10
54.2475254969
 20
45.2921159805
 30
0.0
 11
53.4267754049
 21
43.8851154877
 31
0.0
  0
LINE
  5
110
330
1F
100
AcDbEntity
  8
SLD-0
  6
Continuous
370
    15
100
AcDbLine
 10
53.4615068437
 20
43.8851154877
 30
0.0
 11
54.2734382642
 21
45.2769989285
 31
0.0
  0
LINE
  5
111
330
1F
100
AcDbEntity
  8
SLD-0
  6
Continuous
370
    15
100
AcDbLine
 10
54.2475254969
 20
45.2921159805
 30
0.0
 11
54.256342995
 21
45.3072306859
 31
0.0
  0
LINE
  5
112
330
1F
100
AcDbEntity
  8
SLD-0
  6
Continuous
370
    15
100
AcDbLine
 10
54.2822569357
 20
45.2921159805
 30
0.0
 11
54.2734382642
 21
45.2769989285
 31
0.0
  0
ARC
  5
113
330
1F
100
AcDbEntity
  8
SLD-0
  6
Continuous
370
    15
100
AcDbCircle
 10
43.9772564634
 20
43.7394152882
 30
0.0
 40
0.0310000000000037
100
AcDbArc
 50
114.3615754613
 51
180.0
  0
LINE
  5
114
330
1F
100
AcDbEntity
  8
SLD-0
  6
Continuous
370
    15
100
AcDbLine
 10
43.9462565514
 20
43.7394149841
 30
0.0
 11
43.9245571754
 21
43.7394149841
 31
0.0
  0
ARC
  5
115
330
1F
100
AcDbEntity
  8
SLD-0
  6
Continuous
370
    15
100
AcDbCircle
 10
43.9772564634
 20
43.7394152882
 30
0.0
 40
0.0527000000000132
100
AcDbArc
 50
104.0426024304
 51
179.9999999999
  0
LINE
  5
116
330
1F
100
AcDbEntity
  8
SLD-0
  6
Continuous
370
    15
100
AcDbLine
 10
87.0082563755
 20
43.7394149841
 30
0.0
 11
87.0299557514
 21
43.7394149841
 31
0.0
  0
LINE
  5
117
330
1F
100
AcDbEntity
  8
SLD-0
  6
Continuous
370
    15
100
AcDbLine
 10
87.0299557514
 20
43.3543713255
 30
0.0
 11
87.0299557514
 21
43.7394149841
 31
0.0
  0
LINE
  5
118
330
1F
100
AcDbEntity
  8
SLD-0
  6
Continuous
370
    15
100
AcDbLine
 10
87.0082563755
 20
43.370689857
 30
0.0
 11
87.0082563755
 21
43.7394149841
 31
0.0
  0
LINE
  5
119
330
1F
100
AcDbEntity
  8
SLD-0
  6
Continuous
370
    15
100
AcDbLine
 10
43.9245571754
 20
43.3543713255
 30
0.0
 11
43.9245571754
 21
43.7394149841
 31
0.0
  0
LINE
  5
11A
330
1F
100
AcDbEntity
  8
SLD-0
  6
Continuous
370
    15
100
AcDbLine
 10
43.9462565514
 20
43.370689857
 30
0.0
 11
43.9462565514
 21
43.7394149841
 31
0.0
  0
ARC
  5
11B
330
1F
100
AcDbEntity
  8
SLD-0
  6
Continuous
370
    15
100
AcDbCircle
 10
86.9772564634
 20
43.7394152882
 30
0.0
 40
0.0527000000000015
100
AcDbArc
 50
360.0
 51
75.9573975696
  0
ARC
  5
11C
330
1F
100
AcDbEntity
  8
SLD-0
  6
Continuous
370
    15
100
AcDbCircle
 10
86.9772564634
 20
43.7394152882
 30
0.0
 40
0.0310000000000059
100
AcDbArc
 50
0.0
 51
65.6384245387
  0
LINE
  5
11D
330
1F
100
AcDbEntity
  8
SLD-0
  6
Continuous
370
    15
100
AcDbLine
 10
43.9462565514
 20
43.7394149841
 30
0.0
 11
43.9550071703
 21
43.7394149841
 31
0.0
  0
SPLINE
  5
11E
330
1F
100
AcDbEntity
  8
SLD-0
  6
Continuous
370
    15
100
AcDbSpline
210
0.0
220
0.0
230
1.0
 70
     8
 71
     3
 72
    10
 73
     6
 74
     0
 42
0.00000001
 43
0.00000001
 12
1.0
 22
0.0
 32
0.0
 13
1.0
 23
0.0
 33
0.0
 40
0.0
 40
0.0
 40
0.0
 40
0.0
 40
0.4253404683648004
 40
0.8511705357832082
 40
1.0
 40
1.0
 40
1.0
 40
1.0
 10
43.95500717026427
 20
43.73941498413097
 30
0.0
 10
43.95485375221195
 20
43.74381871932857
 30
0.0
 10
43.95454673951154
 20
43.75263125875608
 30
0.0
 10
43.95902326459507
 20
43.76197073143262
 30
0.0
 10
43.96334861147598
 20
43.7645411849496
 30
0.0
 10
43.96446882096248
 20
43.7652068995139
 30
0.0
  0
LINE
  5
11F
330
1F
100
AcDbEntity
  8
SLD-0
  6
Continuous
370
    15
100
AcDbLine
 10
87.0082563755
 20
43.7394149841
 30
0.0
 11
86.9995057565
 21
43.7394149841
 31
0.0
  0
SPLINE
  5
120
330
1F
100
AcDbEntity
  8
SLD-0
  6
Continuous
370
    15
100
AcDbSpline
210
0.0
220
0.0
230
1.0
 70
     8
 71
     3
 72
    10
 73
     6
 74
     0
 42
0.00000001
 43
0.00000001
 12
1.0
 22
0.0
 32
0.0
 13
1.0
 23
0.0
 33
0.0
 40
0.0
 40
0.0
 40
0.0
 40
0.0
 40
0.3057575645269909
 40
0.7316732449169457
 40
1.0
 40
1.0
 40
1.0
 40
1.0
 10
86.99004410584527
 20
43.76528903189843
 30
0.0
 10
86.99215676708211
 20
43.76354168555507
 30
0.0
 10
86.99721233358935
 20
43.75936031208349
 30
0.0
 10
87.00034084853687
 20
43.74943697236214
 30
0.0
 10
86.99973854762695
 20
43.74220872364386
 30
0.0
 10
86.99950575654348
 20
43.73941498413097
 30
0.0
  0
LINE
  5
121
330
1F
100
AcDbEntity
  8
SLD-0
  6
Continuous
370
    15
100
AcDbLine
 10
43.9550071703
 20
43.7394149841
 30
0.0
 11
43.964468821
 21
43.6692082218
 31
0.0
  0
LINE
  5
122
330
1F
100
AcDbEntity
  8
SLD-0
  6
Continuous
370
    15
100
AcDbLine
 10
43.9462565514
 20
43.6468236271
 30
0.0
 11
43.964468821
 21
43.5116806549
 31
0.0
  0
LINE
  5
123
330
1F
100
AcDbEntity
  8
SLD-0
  6
Continuous
370
    15
100
AcDbLine
 10
86.9900441058
 20
43.6692082218
 30
0.0
 11
86.9995057565
 21
43.7394149841
 31
0.0
  0
LINE
  5
124
330
1F
100
AcDbEntity
  8
SLD-0
  6
Continuous
370
    15
100
AcDbLine
 10
86.9900441058
 20
43.5116806549
 30
0.0
 11
87.0082563755
 21
43.6468236271
 31
0.0
  0
ARC
  5
125
330
1F
100
AcDbEntity
  8
SLD-0
  6
Continuous
370
    15
100
AcDbCircle
 10
86.9772564634
 20
9.2014152882
 30
0.0
 40
0.0310000000000012
100
AcDbArc
 50
294.3615754613
 51
0.0
  0
LINE
  5
126
330
1F
100
AcDbEntity
  8
SLD-0
  6
Continuous
370
    15
100
AcDbLine
 10
87.0082563755
 20
9.2014152882
 30
0.0
 11
87.0299557514
 21
9.2014152882
 31
0.0
  0
ARC
  5
127
330
1F
100
AcDbEntity
  8
SLD-0
  6
Continuous
370
    15
100
AcDbCircle
 10
86.9772564634
 20
9.2014152882
 30
0.0
 40
0.0527000000000157
100
AcDbArc
 50
284.0426024304
 51
359.9999999999
  0
LINE
  5
128
330
1F
100
AcDbEntity
  8
SLD-0
  6
Continuous
370
    15
100
AcDbLine
 10
87.0299557514
 20
9.6458600825
 30
0.0
 11
87.0299557514
 21
9.2014152882
 31
0.0
  0
LINE
  5
129
330
1F
100
AcDbEntity
  8
SLD-0
  6
Continuous
370
    15
100
AcDbLine
 10
87.0082563755
 20
9.629541771
 30
0.0
 11
87.0082563755
 21
9.2014152882
 31
0.0
  0
LINE
  5
12A
330
1F
100
AcDbEntity
  8
SLD-0
  6
Continuous
370
    15
100
AcDbLine
 10
43.9462565514
 20
9.629541771
 30
0.0
 11
43.9462565514
 21
9.2014152882
 31
0.0
  0
LINE
  5
12B
330
1F
100
AcDbEntity
  8
SLD-0
  6
Continuous
370
    15
100
AcDbLine
 10
43.9462565514
 20
9.2014152882
 30
0.0
 11
43.9245571754
 21
9.2014152882
 31
0.0
  0
LINE
  5
12C
330
1F
100
AcDbEntity
  8
SLD-0
  6
Continuous
370
    15
100
AcDbLine
 10
43.9245571754
 20
9.6458600825
 30
0.0
 11
43.9245571754
 21
9.2014152882
 31
0.0
  0
ARC
  5
12D
330
1F
100
AcDbEntity
  8
SLD-0
  6
Continuous
370
    15
100
AcDbCircle
 10
43.9772564634
 20
9.2014152882
 30
0.0
 40
0.0527000000000011
100
AcDbArc
 50
180.0
 51
255.9573975696
  0
ARC
  5
12E
330
1F
100
AcDbEntity
  8
SLD-0
  6
Continuous
370
    15
100
AcDbCircle
 10
43.9772564634
 20
9.2014152882
 30
0.0
 40
0.0310000000000009
100
AcDbArc
 50
180.0
 51
245.6384245387
  0
LINE
  5
12F
330
1F
100
AcDbEntity
  8
SLD-0
  6
Continuous
370
    15
100
AcDbLine
 10
87.0082563755
 20
9.2014152882
 30
0.0
 11
86.9995057565
 21
9.2014152882
 31
0.0
  0
SPLINE
  5
130
330
1F
100
AcDbEntity
  8
SLD-0
  6
Continuous
370
    15
100
AcDbSpline
210
0.0
220
0.0
230
1.0
 70
     8
 71
     3
 72
    10
 73
     6
 74
     0
 42
0.00000001
 43
0.00000001
 12
1.0
 22
0.0
 32
0.0
 13
1.0
 23
0.0
 33
0.0
 40
0.0
 40
0.0
 40
0.0
 40
0.0
 40
0.4253241259100765
 40
0.8511628507543588
 40
1.0
 40
1.0
 40
1.0
 40
1.0
 10
86.99950575654348
 20
9.201415288175706
 30
0.0
 10
86.99965915293507
 20
9.197011905754874
 30
0.0
 10
86.99996613131225
 20
9.188199813268334
 30
0.0
 10
86.99548954685494
 20
9.17886069193513
 30
0.0
 10
86.99116431224118
 20
9.176289286357115
 30
0.0
 10
86.99004410584527
 20
9.175623309772675
 30
0.0
  0
LINE
  5
131
330
1F
100
AcDbEntity
  8
SLD-0
  6
Continuous
370
    15
100
AcDbLine
 10
43.9462565514
 20
9.2014152882
 30
0.0
 11
43.9550071703
 21
9.2014152882
 31
0.0
  0
SPLINE
  5
132
330
1F
100
AcDbEntity
  8
SLD-0
  6
Continuous
370
    15
100
AcDbSpline
210
0.0
220
0.0
230
1.0
 70
     8
 71
     3
 72
    10
 73
     6
 74
     0
 42
0.00000001
 43
0.00000001
 12
1.0
 22
0.0
 32
0.0
 13
1.0
 23
0.0
 33
0.0
 40
0.0
 40
0.0
 40
0.0
 40
0.0
 40
0.3057760070112593
 40
0.7316621436454682
 40
1.0
 40
1.0
 40
1.0
 40
1.0
 10
43.96446882096248
 20
9.17554058098878
 30
0.0
 10
43.96235618231663
 20
9.17728862797383
 30
0.0
 10
43.95730105148575
 20
9.181471362311868
 30
0.0
 10
43.95417198336611
 20
9.191392697505004
 30
0.0
 10
43.95477434131717
 20
9.19862124382673
 30
0.0
 10
43.95500717026428
 20
9.201415288175706
 30
0.0
  0
LINE
  5
133
330
1F
100
AcDbEntity
  8
SLD-0
  6
Continuous
370
    15
100
AcDbLine
 10
86.9995057565
 20
9.2014152882
 30
0.0
 11
86.9900441058
 21
9.271623469
 31
0.0
  0
LINE
  5
134
330
1F
100
AcDbEntity
  8
SLD-0
  6
Continuous
370
    15
100
AcDbLine
 10
87.0082563755
 20
9.2940062304
 30
0.0
 11
86.9900441058
 21
9.4291487809
 31
0.0
  0
LINE
  5
135
330
1F
100
AcDbEntity
  8
SLD-0
  6
Continuous
370
    15
100
AcDbLine
 10
43.964468821
 20
9.271623469
 30
0.0
 11
43.9550071703
 21
9.2014152882
 31
0.0
  0
LINE
  5
136
330
1F
100
AcDbEntity
  8
SLD-0
  6
Continuous
370
    15
100
AcDbLine
 10
43.964468821
 20
9.4291487809
 30
0.0
 11
43.9462565514
 21
9.2940062304
 31
0.0
  0
LINE
  5
137
330
1F
100
AcDbEntity
  8
SLD-0
  6
Continuous
370
    15
100
AcDbLine
 10
86.9974219406
 20
8.146115261
 30
0.0
 11
86.9772572669
 21
8.146115261
 31
0.0
  0
LINE
  5
138
330
1F
100
AcDbEntity
  8
SLD-0
  6
Continuous
370
    15
100
AcDbLine
 10
43.9772556599
 20
8.146115261
 30
0.0
 11
43.9570909862
 21
8.146115261
 31
0.0
  0
LINE
  5
139
330
1F
100
AcDbEntity
  8
SLD-0
  6
Continuous
370
    15
100
AcDbLine
 10
87.0082563755
 20
8.146115261
 30
0.0
 11
86.9974219406
 21
8.146115261
 31
0.0
  0
LINE
  5
13A
330
1F
100
AcDbEntity
  8
SLD-0
  6
Continuous
370
    15
100
AcDbLine
 10
43.9570909862
 20
8.146115261
 30
0.0
 11
43.9462565514
 21
8.146115261
 31
0.0
  0
LINE
  5
13B
330
1F
100
AcDbEntity
  8
SLD-0
  6
Continuous
370
    15
100
AcDbLine
 10
43.9550071703
 20
43.7394149841
 30
0.0
 11
43.964468821
 21
43.7394149841
 31
0.0
  0
LINE
  5
13C
330
1F
100
AcDbEntity
  8
SLD-0
  6
Continuous
370
    15
100
AcDbLine
 10
86.9900441058
 20
43.7394149841
 30
0.0
 11
86.9995057565
 21
43.7394149841
 31
0.0
  0
LINE
  5
13D
330
1F
100
AcDbEntity
  8
SLD-0
  6
Continuous
370
    15
100
AcDbLine
 10
86.9995057565
 20
9.2014152882
 30
0.0
 11
86.9900441058
 21
9.2014152882
 31
0.0
  0
LINE
  5
13E
330
1F
100
AcDbEntity
  8
SLD-0
  6
Continuous
370
    15
100
AcDbLine
 10
43.964468821
 20
9.2014152882
 30
0.0
 11
43.9550071703
 21
9.2014152882
 31
0.0
  0
DIMENSION
  5
13F
330
1F
100
AcDbEntity
  8
DIM
100
AcDbDimension
  2
_D
 10
85.5418564634
 20
27.2044935827
 30
0.0
 11
65.4772564634
 21
27.2044935827
 31
0.0
 70
   160
  1
<>
 71
     2
 42
-1.0
  3
SLDDIMSTYLE0
100
AcDbAlignedDimension
 13
45.4126564634
 23
15.1761152882
 33
0.0
 14
85.5418564634
 24
15.1761152882
 34
0.0
 50
0.0
100
AcDbRotatedDimension
  0
DIMENSION
  5
14D
330
1F
100
AcDbEntity
  8
DIM
100
AcDbDimension
  2
_D_1
 10
87.0442564634
 20
4.0790158787
 30
0.0
 11
65.4772564634
 21
4.0790158787
 31
0.0
 70
   160
  1
<>
 71
     2
 42
-1.0
  3
SLDDIMSTYLE0
100
AcDbAlignedDimension
 13
43.9102564634
 23
8.1461152882
 33
0.0
 14
87.0442564634
 24
8.1461152882
 34
0.0
 50
0.0
100
AcDbRotatedDimension
  0
DIMENSION
  5
15C
330
1F
100
AcDbEntity
  8
DIM
100
AcDbDimension
  2
_D_2
 10
34.4749131334
 20
46.8073457653
 30
0.0
 11
34.4749131334
 21
27.4432305267
 31
0.0
 70
   160
  1
<>
 71
     2
 42
-1.0
  3
SLDDIMSTYLE0
100
AcDbAlignedDimension
 13
43.9772564634
 23
8.0791152882
 33
0.0
 14
55.1572564634
 24
46.8073457653
 34
0.0
 50
90.0
100
AcDbRotatedDimension
  0
DIMENSION
  5
16B
330
1F
100
AcDbEntity
  8
DIM
100
AcDbDimension
  2
_D_3
 10
38.9749131334
 20
39.5545152882
 30
0.0
 11
38.9749131334
 21
22.3797340017
 31
0.0
 70
   160
  1
<>
 71
     2
 42
-1.0
  3
SLDDIMSTYLE0
100
AcDbAlignedDimension
 13
45.4126564634
 23
15.1761152882
 33
0.0
 14
45.4126564634
 24
39.5545152882
 34
0.0
 50
90.0
100
AcDbRotatedDimension
  0
LINE
  5
17A
330
1F
100
AcDbEntity
  8
SLD-0
  6
Continuous
370
    15
100
AcDbLine
 10
45.5855438542
 20
60.1099280083
 30
0.0
 11
85.3689690726
 21
60.1099280083
 31
0.0
  0
LINE
  5
17B
330
1F
100
AcDbEntity
  8
SLD-0
  6
Continuous
370
    15
100
AcDbLine
 10
83.790575893
 20
80.934364136
 30
0.0
 11
83.5802876556
 21
81.9273124153
 31
0.0
  0
LINE
  5
17C
330
1F
100
AcDbEntity
  8
SLD-0
  6
Continuous
370
    15
100
AcDbLine
 10
83.6155071955
 20
81.9347710894
 30
0.0
 11
83.5802876556
 21
81.9273124153
 31
0.0
  0
LINE
  5
17D
330
1F
100
AcDbEntity
  8
SLD-0
  6
Continuous
370
    15
100
AcDbLine
 10
87.0326403071
 20
65.799521055
 30
0.0
 11
83.6155071955
 21
81.9347710894
 31
0.0
  0
LINE
  5
17E
330
1F
100
AcDbEntity
  8
SLD-0
  6
Continuous
370
    15
100
AcDbLine
 10
87.0326403071
 20
65.799521055
 30
0.0
 11
87.0162795361
 21
65.7960562417
 31
0.0
  0
LINE
  5
17F
330
1F
100
AcDbEntity
  8
SLD-0
  6
Continuous
370
    15
100
AcDbLine
 10
43.9218726197
 20
65.799521055
 30
0.0
 11
43.9382333907
 21
65.7960562417
 31
0.0
  0
LINE
  5
180
330
1F
100
AcDbEntity
  8
SLD-0
  6
Continuous
370
    15
100
AcDbLine
 10
47.1639370338
 20
80.934364136
 30
0.0
 11
47.3742252712
 21
81.9273124153
 31
0.0
  0
LINE
  5
181
330
1F
100
AcDbEntity
  8
SLD-0
  6
Continuous
370
    15
100
AcDbLine
 10
43.9218726197
 20
65.799521055
 30
0.0
 11
47.3390057314
 21
81.9347710894
 31
0.0
  0
LINE
  5
182
330
1F
100
AcDbEntity
  8
SLD-0
  6
Continuous
370
    15
100
AcDbLine
 10
47.3390057314
 20
81.9347710894
 30
0.0
 11
47.3742252712
 21
81.9273124153
 31
0.0
  0
LINE
  5
183
330
1F
100
AcDbEntity
  8
SLD-0
  6
Continuous
370
    15
100
AcDbLine
 10
43.9333570737
 20
62.7996591763
 30
0.0
 11
43.9462565514
 21
62.7996591763
 31
0.0
  0
LINE
  5
184
330
1F
100
AcDbEntity
  8
SLD-0
  6
Continuous
370
    15
100
AcDbLine
 10
43.9462565514
 20
62.7996591763
 30
0.0
 11
43.9462565514
 21
63.53051772
 31
0.0
  0
LINE
  5
185
330
1F
100
AcDbEntity
  8
SLD-0
  6
Continuous
370
    15
100
AcDbLine
 10
43.9462565514
 20
65.7014784542
 30
0.0
 11
43.9462565514
 21
65.737658943
 31
0.0
  0
LINE
  5
186
330
1F
100
AcDbEntity
  8
SLD-0
  6
Continuous
370
    15
100
AcDbLine
 10
43.9102567539
 20
65.737658943
 30
0.0
 11
43.9462565514
 21
65.737658943
 31
0.0
  0
LINE
  5
187
330
1F
100
AcDbEntity
  8
SLD-0
  6
Continuous
370
    15
100
AcDbLine
 10
43.9102567539
 20
63.4826591796
 30
0.0
 11
43.9102567539
 21
63.5203344777
 31
0.0
  0
LINE
  5
188
330
1F
100
AcDbEntity
  8
SLD-0
  6
Continuous
370
    15
100
AcDbLine
 10
43.9102567539
 20
63.5683338165
 30
0.0
 11
43.9102567539
 21
65.737658943
 31
0.0
  0
LINE
  5
189
330
1F
100
AcDbEntity
  8
SLD-0
  6
Continuous
370
    15
100
AcDbLine
 10
87.0211558531
 20
62.7996591763
 30
0.0
 11
87.0082563755
 21
62.7996591763
 31
0.0
  0
LINE
  5
18A
330
1F
100
AcDbEntity
  8
SLD-0
  6
Continuous
370
    15
100
AcDbLine
 10
87.0442561729
 20
65.737658943
 30
0.0
 11
87.0082563755
 21
65.737658943
 31
0.0
  0
LINE
  5
18B
330
1F
100
AcDbEntity
  8
SLD-0
  6
Continuous
370
    15
100
AcDbLine
 10
87.0442561729
 20
63.4826591796
 30
0.0
 11
87.0442561729
 21
63.5203344777
 31
0.0
  0
LINE
  5
18C
330
1F
100
AcDbEntity
  8
SLD-0
  6
Continuous
370
    15
100
AcDbLine
 10
87.0442561729
 20
63.5683338165
 30
0.0
 11
87.0442561729
 21
65.737658943
 31
0.0
  0
LINE
  5
18D
330
1F
100
AcDbEntity
  8
SLD-0
  6
Continuous
370
    15
100
AcDbLine
 10
87.0082563755
 20
62.7996591763
 30
0.0
 11
87.0082563755
 21
63.53051772
 31
0.0
  0
LINE
  5
18E
330
1F
100
AcDbEntity
  8
SLD-0
  6
Continuous
370
    15
100
AcDbLine
 10
87.0082563755
 20
65.7014784542
 30
0.0
 11
87.0082563755
 21
65.737658943
 31
0.0
  0
LINE
  5
18F
330
1F
100
AcDbEntity
  8
SLD-0
  6
Continuous
370
    15
100
AcDbLine
 10
47.4072565696
 20
82.0006591297
 30
0.0
 11
83.5472563572
 21
82.0006591297
 31
0.0
  0
LINE
  5
190
330
1F
100
AcDbEntity
  8
SLD-0
  6
Continuous
370
    15
100
AcDbLine
 10
83.5472563572
 20
82.0006591297
 30
0.0
 11
83.5472563572
 21
81.964659126
 31
0.0
  0
LINE
  5
191
330
1F
100
AcDbEntity
  8
SLD-0
  6
Continuous
370
    15
100
AcDbLine
 10
47.4072565696
 20
81.964659126
 30
0.0
 11
47.4151142921
 21
81.964659126
 31
0.0
  0
LINE
  5
192
330
1F
100
AcDbEntity
  8
SLD-0
  6
Continuous
370
    15
100
AcDbLine
 10
83.5393986347
 20
81.964659126
 30
0.0
 11
83.5472563572
 21
81.964659126
 31
0.0
  0
LINE
  5
193
330
1F
100
AcDbEntity
  8
SLD-0
  6
Continuous
370
    15
100
AcDbLine
 10
47.4072565696
 20
82.0006591297
 30
0.0
 11
47.4072565696
 21
81.964659126
 31
0.0
  0
LINE
  5
194
330
1F
100
AcDbEntity
  8
SLD-0
  6
Continuous
370
    15
100
AcDbLine
 10
43.9462565514
 20
62.7996591763
 30
0.0
 11
43.964468821
 21
62.7996591763
 31
0.0
  0
SPLINE
  5
195
330
1F
100
AcDbEntity
  8
SLD-0
  6
Continuous
370
    15
100
AcDbSpline
210
0.0
220
0.0
230
1.0
 70
     8
 71
     3
 72
    11
 73
     7
 74
     0
 42
0.00000001
 43
0.00000001
 12
1.0
 22
0.0
 32
0.0
 13
1.0
 23
0.0
 33
0.0
 40
0.0
 40
0.0
 40
0.0
 40
0.0
 40
0.2188894413845642
 40
0.4792684216606863
 40
0.739627649951999
 40
1.0
 40
1.0
 40
1.0
 40
1.0
 10
43.97536661507024
 20
65.72396278117252
 30
0.0
 10
43.97195900419722
 20
65.72496211470686
 30
0.0
 10
43.96449788467309
 20
65.72715020108816
 30
0.0
 10
43.95483033110438
 20
65.73052570299646
 30
0.0
 10
43.94765410484668
 20
65.73409375702522
 30
0.0
 10
43.94672241034284
 20
65.7364705276801
 30
0.0
 10
43.94625655135217
 20
65.73765894295329
 30
0.0
  0
LINE
  5
196
330
1F
100
AcDbEntity
  8
SLD-0
  6
Continuous
370
    15
100
AcDbLine
 10
86.9900441058
 20
62.7996591763
 30
0.0
 11
87.0082563755
 21
62.7996591763
 31
0.0
  0
SPLINE
  5
197
330
1F
100
AcDbEntity
  8
SLD-0
  6
Continuous
370
    15
100
AcDbSpline
210
0.0
220
0.0
230
1.0
 70
     8
 71
     3
 72
    11
 73
     7
 74
     0
 42
0.00000001
 43
0.00000001
 12
1.0
 22
0.0
 32
0.0
 13
1.0
 23
0.0
 33
0.0
 40
0.0
 40
0.0
 40
0.0
 40
0.0
 40
0.2604128562555342
 40
0.5208125887130245
 40
0.7812320762281466
 40
1.0
 40
1.0
 40
1.0
 40
1.0
 10
87.00825637545559
 20
65.73765894295329
 30
0.0
 10
87.0077905195779
 20
65.73647052600549
 30
0.0
 10
87.00685883129985
 20
65.73409375200148
 30
0.0
 10
86.9996825583493
 20
65.73052572309085
 30
0.0
 10
86.99001720588217
 20
65.72715084069596
 30
0.0
 10
86.98255853063226
 20
65.72496366132609
 30
0.0
 10
86.9791533516562
 20
65.72396512781208
 30
0.0
  0
SPLINE
  5
198
330
1F
100
AcDbEntity
  8
SLD-0
  6
Continuous
370
    15
100
AcDbSpline
210
0.0
220
0.0
230
1.0
 70
     8
 71
     3
 72
    11
 73
     7
 74
     0
 42
0.00000001
 43
0.00000001
 12
1.0
 22
0.0
 32
0.0
 13
1.0
 23
0.0
 33
0.0
 40
0.0
 40
0.0
 40
0.0
 40
0.0
 40
0.2500020173653574
 40
0.4999970581981844
 40
0.7500020978140766
 40
1.0
 40
1.0
 40
1.0
 40
1.0
 10
47.40725656958463
 20
81.93365912714795
 30
0.0
 10
47.39917242202959
 20
81.93425931847332
 30
0.0
 10
47.38300435251497
 20
81.93545968437522
 30
0.0
 10
47.36191243743473
 20
81.93659113141793
 30
0.0
 10
47.34584573534052
 20
81.93665797541792
 30
0.0
 10
47.34167447279066
 20
81.93531775147004
 30
0.0
 10
47.33958887128765
 20
81.93464764906179
 30
0.0
  0
ARC
  5
199
330
1F
100
AcDbEntity
  8
SLD-0
  6
Continuous
370
    15
100
AcDbCircle
 10
47.3572974971
 20
81.8470166613
 30
0.0
 40
0.0820606948888605
100
AcDbArc
 50
77.9035565673
 51
78.0953510038
  0
SPLINE
  5
19A
330
1F
100
AcDbEntity
  8
SLD-0
  6
Continuous
370
    15
100
AcDbSpline
210
0.0
220
0.0
230
1.0
 70
     8
 71
     3
 72
    11
 73
     7
 74
     0
 42
0.00000001
 43
0.00000001
 12
1.0
 22
0.0
 32
0.0
 13
1.0
 23
0.0
 33
0.0
 40
0.0
 40
0.0
 40
0.0
 40
0.0
 40
0.2500103105469512
 40
0.4999977111363533
 40
0.7500002678732274
 40
1.0
 40
1.0
 40
1.0
 40
1.0
 10
47.40725656958463
 20
81.93365912714795
 30
0.0
 10
47.40339488310281
 20
81.93336507445773
 30
0.0
 10
47.39567186400887
 20
81.93277699602312
 30
0.0
 10
47.38554965416841
 20
81.93158505715412
 30
0.0
 10
47.3777526856685
 20
81.92990076732534
 30
0.0
 10
47.37558019872817
 20
81.92813711962799
 30
0.0
 10
47.37449396139441
 20
81.92725530076092
 30
0.0
  0
LINE
  5
19B
330
1F
100
AcDbEntity
  8
SLD-0
  6
Continuous
370
    15
100
AcDbLine
 10
83.5472563572
 20
81.9336591271
 30
0.0
 11
83.5472563572
 21
81.964659126
 31
0.0
  0
LINE
  5
19C
330
1F
100
AcDbEntity
  8
SLD-0
  6
Continuous
370
    15
100
AcDbLine
 10
47.4072565696
 20
81.964659126
 30
0.0
 11
47.4072565696
 21
81.9336591271
 31
0.0
  0
SPLINE
  5
19D
330
1F
100
AcDbEntity
  8
SLD-0
  6
Continuous
370
    15
100
AcDbSpline
210
0.0
220
0.0
230
1.0
 70
     8
 71
     3
 72
    11
 73
     7
 74
     0
 42
0.00000001
 43
0.00000001
 12
1.0
 22
0.0
 32
0.0
 13
1.0
 23
0.0
 33
0.0
 40
0.0
 40
0.0
 40
0.0
 40
0.0
 40
0.2499979021859234
 40
0.5000029418018155
 40
0.7499979826346426
 40
1.0
 40
1.0
 40
1.0
 40
1.0
 10
83.6149240555201
 20
81.93464764906179
 30
0.0
 10
83.6128384540171
 20
81.93531775147004
 30
0.0
 10
83.60866719146723
 20
81.93665797541792
 30
0.0
 10
83.59260048937303
 20
81.93659113141793
 30
0.0
 10
83.57150857429276
 20
81.93545968437522
 30
0.0
 10
83.55534050477817
 20
81.93425931847332
 30
0.0
 10
83.54725635722313
 20
81.93365912714795
 30
0.0
  0
SPLINE
  5
19E
330
1F
100
AcDbEntity
  8
SLD-0
  6
Continuous
370
    15
100
AcDbSpline
210
0.0
220
0.0
230
1.0
 70
     8
 71
     3
 72
    11
 73
     7
 74
     0
 42
0.00000001
 43
0.00000001
 12
1.0
 22
0.0
 32
0.0
 13
1.0
 23
0.0
 33
0.0
 40
0.0
 40
0.0
 40
0.0
 40
0.0
 40
0.2499997321267727
 40
0.5000022888636466
 40
0.7499896894530488
 40
1.0
 40
1.0
 40
1.0
 40
1.0
 10
83.58001896541336
 20
81.92725530076092
 30
0.0
 10
83.5789327280796
 20
81.92813711962799
 30
0.0
 10
83.57676024113925
 20
81.92990076732534
 30
0.0
 10
83.56896327263934
 20
81.93158505715412
 30
0.0
 10
83.55884106279889
 20
81.93277699602312
 30
0.0
 10
83.55111804370496
 20
81.93336507445773
 30
0.0
 10
83.54725635722313
 20
81.93365912714795
 30
0.0
  0
ARC
  5
19F
330
1F
100
AcDbEntity
  8
SLD-0
  6
Continuous
370
    15
100
AcDbCircle
 10
83.5972154295
 20
81.847016662
 30
0.0
 40
0.0820606941292309
100
AcDbArc
 50
101.9046489954
 51
102.0964434336
  0
LINE
  5
1A0
330
1F
100
AcDbEntity
  8
SLD-0
  6
Continuous
370
    15
100
AcDbLine
 10
85.3822557458
 20
62.2679388121
 30
0.0
 11
45.572257181
 21
62.2679388121
 31
0.0
  0
LINE
  5
1A1
330
1F
100
AcDbEntity
  8
SLD-0
  6
Continuous
370
    15
100
AcDbLine
 10
45.572257181
 20
62.732659097
 30
0.0
 11
45.572257181
 21
62.2679388121
 31
0.0
  0
LINE
  5
1A2
330
1F
100
AcDbEntity
  8
SLD-0
  6
Continuous
370
    15
100
AcDbLine
 10
85.3822557458
 20
62.732659097
 30
0.0
 11
85.3822557458
 21
62.2679388121
 31
0.0
  0
LINE
  5
1A3
330
1F
100
AcDbEntity
  8
SLD-0
  6
Continuous
370
    15
100
AcDbLine
 10
85.3822557458
 20
62.2361899522
 30
0.0
 11
45.572257181
 21
62.2361899522
 31
0.0
  0
LINE
  5
1A4
330
1F
100
AcDbEntity
  8
SLD-0
  6
Continuous
370
    15
100
AcDbLine
 10
45.572257181
 20
62.2361899522
 30
0.0
 11
45.572257181
 21
62.2679388121
 31
0.0
  0
LINE
  5
1A5
330
1F
100
AcDbEntity
  8
SLD-0
  6
Continuous
370
    15
100
AcDbLine
 10
85.3822557458
 20
62.2679388121
 30
0.0
 11
85.3822557458
 21
62.2361899522
 31
0.0
  0
ARC
  5
1A6
330
1F
100
AcDbEntity
  8
SLD-0
  6
Continuous
370
    15
100
AcDbCircle
 10
85.3878706058
 20
62.2758737854
 30
0.0
 40
0.0400790876685981
100
AcDbArc
 50
261.9466850031
 51
348.5809718308
  0
LINE
  5
1A7
330
1F
100
AcDbEntity
  8
SLD-0
  6
Continuous
370
    15
100
AcDbLine
 10
85.4271563471
 20
60.1842789361
 30
0.0
 11
85.4271563471
 21
62.2679388121
 31
0.0
  0
SPLINE
  5
1A8
330
1F
100
AcDbEntity
  8
SLD-0
  6
Continuous
370
    15
100
AcDbSpline
210
0.0
220
0.0
230
1.0
 70
     8
 71
     3
 72
    11
 73
     7
 74
     0
 42
0.00000001
 43
0.00000001
 12
1.0
 22
0.0
 32
0.0
 13
1.0
 23
0.0
 33
0.0
 40
0.0
 40
0.0
 40
0.0
 40
0.0
 40
0.2582975151661717
 40
0.5167611153887499
 40
0.7752138868728923
 40
1.0
 40
1.0
 40
1.0
 40
1.0
 10
85.4271563471247
 20
60.18427893607302
 30
0.0
 10
85.42643501571989
 20
60.17711465962653
 30
0.0
 10
85.42499188909488
 20
60.16278150011062
 30
0.0
 10
85.41392434512053
 20
60.14346348517619
 30
0.0
 10
85.39890119799168
 20
60.12832413468085
 30
0.0
 10
85.38754039891417
 20
60.1221397183192
 30
0.0
 10
85.38225574582027
 20
60.11926294047668
 30
0.0
  0
LINE
  5
1A9
330
1F
100
AcDbEntity
  8
SLD-0
  6
Continuous
370
    15
100
AcDbLine
 10
85.3822557458
 20
62.2361899522
 30
0.0
 11
85.3822557458
 21
60.1192629405
 31
0.0
  0
ARC
  5
1AA
330
1F
100
AcDbEntity
  8
SLD-0
  6
Continuous
370
    15
100
AcDbCircle
 10
45.566642321
 20
62.2758737854
 30
0.0
 40
0.0400790876686161
100
AcDbArc
 50
191.4190281693
 51
278.0533149968
  0
LINE
  5
1AB
330
1F
100
AcDbEntity
  8
SLD-0
  6
Continuous
370
    15
100
AcDbLine
 10
45.572257181
 20
62.2361899522
 30
0.0
 11
45.572257181
 21
60.1192629405
 31
0.0
  0
SPLINE
  5
1AC
330
1F
100
AcDbEntity
  8
SLD-0
  6
Continuous
370
    15
100
AcDbSpline
210
0.0
220
0.0
230
1.0
 70
     8
 71
     3
 72
    11
 73
     7
 74
     0
 42
0.00000001
 43
0.00000001
 12
1.0
 22
0.0
 32
0.0
 13
1.0
 23
0.0
 33
0.0
 40
0.0
 40
0.0
 40
0.0
 40
0.0
 40
0.2582634593861957
 40
0.5167414318933885
 40
0.7751966606334798
 40
1.0
 40
1.0
 40
1.0
 40
1.0
 10
45.57225718098749
 20
60.11926294047668
 30
0.0
 10
45.56617791674365
 20
60.12263790131394
 30
0.0
 10
45.55401433883107
 20
60.1293906262243
 30
0.0
 10
45.53885162402472
 20
60.14581153559625
 30
0.0
 10
45.52907954901667
 20
60.16466617323059
 30
0.0
 10
45.52790360707676
 20
60.17805205882592
 30
0.0
 10
45.52735657968307
 20
60.18427893607302
 30
0.0
  0
LINE
  5
1AD
330
1F
100
AcDbEntity
  8
SLD-0
  6
Continuous
370
    15
100
AcDbLine
 10
45.5273565797
 20
62.2679388121
 30
0.0
 11
45.5273565797
 21
60.1842789361
 31
0.0
  0
LINE
  5
1AE
330
1F
100
AcDbEntity
  8
SLD-0
  6
Continuous
370
    15
100
AcDbLine
 10
85.3822557458
 20
60.1192629405
 30
0.0
 11
45.572257181
 21
60.1192629405
 31
0.0
  0
LINE
  5
1AF
330
1F
100
AcDbEntity
  8
SLD-0
  6
Continuous
370
    15
100
AcDbLine
 10
45.5572574609
 20
62.2679388121
 30
0.0
 11
45.5273565797
 21
62.2679388121
 31
0.0
  0
ARC
  5
1B0
330
1F
100
AcDbEntity
  8
SLD-0
  6
Continuous
370
    15
100
AcDbCircle
 10
45.5703809758
 20
62.2705881504
 30
0.0
 40
0.0133882648394364
100
AcDbArc
 50
191.413313435
 51
278.0558341723
  0
ARC
  5
1B1
330
1F
100
AcDbEntity
  8
SLD-0
  6
Continuous
370
    15
100
AcDbCircle
 10
85.384131951
 20
62.2705881504
 30
0.0
 40
0.0133882648394243
100
AcDbArc
 50
261.9441658276
 51
348.5866865651
  0
LINE
  5
1B2
330
1F
100
AcDbEntity
  8
SLD-0
  6
Continuous
370
    15
100
AcDbLine
 10
85.3972554659
 20
62.2679388121
 30
0.0
 11
85.4271563471
 21
62.2679388121
 31
0.0
  0
LINE
  5
1B3
330
1F
100
AcDbEntity
  8
SLD-0
  6
Continuous
370
    15
100
AcDbLine
 10
45.5572574609
 20
62.732659097
 30
0.0
 11
45.5572574609
 21
62.2679388121
 31
0.0
  0
LINE
  5
1B4
330
1F
100
AcDbEntity
  8
SLD-0
  6
Continuous
370
    15
100
AcDbLine
 10
45.5273565797
 20
62.732659097
 30
0.0
 11
45.5273565797
 21
62.2679388121
 31
0.0
  0
LINE
  5
1B5
330
1F
100
AcDbEntity
  8
SLD-0
  6
Continuous
370
    15
100
AcDbLine
 10
85.3972554659
 20
62.732659097
 30
0.0
 11
85.3972554659
 21
62.2679388121
 31
0.0
  0
LINE
  5
1B6
330
1F
100
AcDbEntity
  8
SLD-0
  6
Continuous
370
    15
100
AcDbLine
 10
85.4271563471
 20
62.732659097
 30
0.0
 11
85.4271563471
 21
62.2679388121
 31
0.0
  0
SPLINE
  5
1B7
330
1F
100
AcDbEntity
  8
SLD-0
  6
Continuous
370
    15
100
AcDbSpline
210
0.0
220
0.0
230
1.0
 70
     8
 71
     3
 72
     9
 73
     5
 74
     0
 42
0.00000001
 43
0.00000001
 12
1.0
 22
0.0
 32
0.0
 13
1.0
 23
0.0
 33
0.0
 40
0.0
 40
0.0
 40
0.0
 40
0.0
 40
0.5000069506918144
 40
1.0
 40
1.0
 40
1.0
 40
1.0
 10
85.38225574582027
 20
60.11926294047668
 30
0.0
 10
85.38004131568297
 20
60.11658659849036
 30
0.0
 10
85.37561251697483
 20
60.11123398892639
 30
0.0
 10
85.37118353356354
 20
60.11036333115076
 30
0.0
 10
85.3689690726424
 20
60.10992800831461
 30
0.0
  0
SPLINE
  5
1B8
330
1F
100
AcDbEntity
  8
SLD-0
  6
Continuous
370
    15
100
AcDbSpline
210
0.0
220
0.0
230
1.0
 70
     8
 71
     3
 72
     9
 73
     5
 74
     0
 42
0.00000001
 43
0.00000001
 12
1.0
 22
0.0
 32
0.0
 13
1.0
 23
0.0
 33
0.0
 40
0.0
 40
0.0
 40
0.0
 40
0.0
 40
0.4999930493081856
 40
1.0
 40
1.0
 40
1.0
 40
1.0
 10
45.58554385416536
 20
60.10992800831461
 30
0.0
 10
45.58332939324421
 20
60.11036333115075
 30
0.0
 10
45.57890040983292
 20
60.11123398892639
 30
0.0
 10
45.57447161112476
 20
60.11658659849035
 30
0.0
 10
45.57225718098749
 20
60.11926294047668
 30
0.0
  0
LINE
  5
1B9
330
1F
100
AcDbEntity
  8
SLD-0
  6
Continuous
370
    15
100
AcDbLine
 10
87.0275997253
 20
63.5833347099
 30
0.0
 11
86.9795992132
 21
63.5833347099
 31
0.0
  0
LINE
  5
1BA
330
1F
100
AcDbEntity
  8
SLD-0
  6
Continuous
370
    15
100
AcDbLine
 10
87.0082563755
 20
65.160959365
 30
0.0
 11
86.9795992132
 21
65.160959365
 31
0.0
  0
LINE
  5
1BB
330
1F
100
AcDbEntity
  8
SLD-0
  6
Continuous
370
    15
100
AcDbLine
 10
87.0275997253
 20
63.5833347099
 30
0.0
 11
87.0275997253
 21
63.5979589676
 31
0.0
  0
LINE
  5
1BC
330
1F
100
AcDbEntity
  8
SLD-0
  6
Continuous
370
    15
100
AcDbLine
 10
87.0425994454
 20
63.5683338165
 30
0.0
 11
87.0425994454
 21
63.5203344777
 31
0.0
  0
ARC
  5
1BD
330
1F
100
AcDbEntity
  8
SLD-0
  6
Continuous
370
    15
100
AcDbCircle
 10
87.0425997934
 20
63.5833341272
 30
0.0
 40
0.0150000000000006
100
AcDbArc
 50
180.0
 51
270.0
  0
ARC
  5
1BE
330
1F
100
AcDbEntity
  8
SLD-0
  6
Continuous
370
    15
100
AcDbCircle
 10
87.0425997934
 20
63.5833341272
 30
0.0
 40
0.0630000000000024
100
AcDbArc
 50
180.0
 51
270.0
  0
LINE
  5
1BF
330
1F
100
AcDbEntity
  8
SLD-0
  6
Continuous
370
    15
100
AcDbLine
 10
87.9796008877
 20
63.5683338165
 30
0.0
 11
87.9796008877
 21
63.5203344777
 31
0.0
  0
LINE
  5
1C0
330
1F
100
AcDbEntity
  8
SLD-0
  6
Continuous
370
    15
100
AcDbLine
 10
87.9796008877
 20
63.5203344777
 30
0.0
 11
87.0425994454
 21
63.5203344777
 31
0.0
  0
LINE
  5
1C1
330
1F
100
AcDbEntity
  8
SLD-0
  6
Continuous
370
    15
100
AcDbLine
 10
87.9796008877
 20
63.5683338165
 30
0.0
 11
87.0425994454
 21
63.5683338165
 31
0.0
  0
LINE
  5
1C2
330
1F
100
AcDbEntity
  8
SLD-0
  6
Continuous
370
    15
100
AcDbLine
 10
43.9269132015
 20
63.5833347099
 30
0.0
 11
43.9749137136
 21
63.5833347099
 31
0.0
  0
LINE
  5
1C3
330
1F
100
AcDbEntity
  8
SLD-0
  6
Continuous
370
    15
100
AcDbLine
 10
43.9462565514
 20
65.160959365
 30
0.0
 11
43.9749137136
 21
65.160959365
 31
0.0
  0
LINE
  5
1C4
330
1F
100
AcDbEntity
  8
SLD-0
  6
Continuous
370
    15
100
AcDbLine
 10
43.9269132015
 20
63.5833347099
 30
0.0
 11
43.9269132015
 21
63.5979589676
 31
0.0
  0
LINE
  5
1C5
330
1F
100
AcDbEntity
  8
SLD-0
  6
Continuous
370
    15
100
AcDbLine
 10
42.9749120391
 20
63.5683338165
 30
0.0
 11
42.9749120391
 21
63.5203344777
 31
0.0
  0
LINE
  5
1C6
330
1F
100
AcDbEntity
  8
SLD-0
  6
Continuous
370
    15
100
AcDbLine
 10
42.9749120391
 20
63.5683338165
 30
0.0
 11
43.9119134814
 21
63.5683338165
 31
0.0
  0
LINE
  5
1C7
330
1F
100
AcDbEntity
  8
SLD-0
  6
Continuous
370
    15
100
AcDbLine
 10
43.9119134814
 20
63.5683338165
 30
0.0
 11
43.9119134814
 21
63.5203344777
 31
0.0
  0
LINE
  5
1C8
330
1F
100
AcDbEntity
  8
SLD-0
  6
Continuous
370
    15
100
AcDbLine
 10
42.9749120391
 20
63.5203344777
 30
0.0
 11
43.9119134814
 21
63.5203344777
 31
0.0
  0
ARC
  5
1C9
330
1F
100
AcDbEntity
  8
SLD-0
  6
Continuous
370
    15
100
AcDbCircle
 10
43.9119131334
 20
63.5833341272
 30
0.0
 40
0.0629999999999953
100
AcDbArc
 50
270.0
 51
0.0
  0
ARC
  5
1CA
330
1F
100
AcDbEntity
  8
SLD-0
  6
Continuous
370
    15
100
AcDbCircle
 10
43.9119131334
 20
63.5833341272
 30
0.0
 40
0.0150000000000006
100
AcDbArc
 50
270.0
 51
0.0
  0
LINE
  5
1CB
330
1F
100
AcDbEntity
  8
SLD-0
  6
Continuous
370
    15
100
AcDbLine
 10
86.9900441058
 20
63.4826591796
 30
0.0
 11
86.9900441058
 21
62.797258564
 31
0.0
  0
LINE
  5
1CC
330
1F
100
AcDbEntity
  8
SLD-0
  6
Continuous
370
    15
100
AcDbLine
 10
86.9900441058
 20
62.797258564
 30
0.0
 11
43.964468821
 21
62.797258564
 31
0.0
  0
LINE
  5
1CD
330
1F
100
AcDbEntity
  8
SLD-0
  6
Continuous
370
    15
100
AcDbLine
 10
43.964468821
 20
63.4826591796
 30
0.0
 11
43.964468821
 21
62.797258564
 31
0.0
  0
LINE
  5
1CE
330
1F
100
AcDbEntity
  8
SLD-0
  6
Continuous
370
    15
100
AcDbLine
 10
86.9900441058
 20
63.4826591796
 30
0.0
 11
76.5824301488
 21
63.4826591796
 31
0.0
  0
LINE
  5
1CF
330
1F
100
AcDbEntity
  8
SLD-0
  6
Continuous
370
    15
100
AcDbLine
 10
75.0120824229
 20
63.4826591796
 30
0.0
 11
55.9424305039
 21
63.4826591796
 31
0.0
  0
LINE
  5
1D0
330
1F
100
AcDbEntity
  8
SLD-0
  6
Continuous
370
    15
100
AcDbLine
 10
54.372082778
 20
63.4826591796
 30
0.0
 11
43.964468821
 21
63.4826591796
 31
0.0
  0
LINE
  5
1D1
330
1F
100
AcDbEntity
  8
SLD-0
  6
Continuous
370
    15
100
AcDbLine
 10
86.9900441058
 20
62.797258564
 30
0.0
 11
86.9900441058
 21
62.732659097
 31
0.0
  0
LINE
  5
1D2
330
1F
100
AcDbEntity
  8
SLD-0
  6
Continuous
370
    15
100
AcDbLine
 10
43.964468821
 20
62.732659097
 30
0.0
 11
86.9900441058
 21
62.732659097
 31
0.0
  0
LINE
  5
1D3
330
1F
100
AcDbEntity
  8
SLD-0
  6
Continuous
370
    15
100
AcDbLine
 10
43.964468821
 20
62.732659097
 30
0.0
 11
43.964468821
 21
62.797258564
 31
0.0
  0
LINE
  5
1D4
330
1F
100
AcDbEntity
  8
SLD-0
  6
Continuous
370
    15
100
AcDbLine
 10
86.9901567445
 20
62.7662594555
 30
0.0
 11
86.9900441058
 21
62.7662594555
 31
0.0
  0
LINE
  5
1D5
330
1F
100
AcDbEntity
  8
SLD-0
  6
Continuous
370
    15
100
AcDbLine
 10
86.9901567445
 20
62.732659097
 30
0.0
 11
86.9900441058
 21
62.732659097
 31
0.0
  0
LINE
  5
1D6
330
1F
100
AcDbEntity
  8
SLD-0
  6
Continuous
370
    15
100
AcDbLine
 10
43.964468821
 20
62.7662594555
 30
0.0
 11
43.9643561823
 21
62.7662594555
 31
0.0
  0
LINE
  5
1D7
330
1F
100
AcDbEntity
  8
SLD-0
  6
Continuous
370
    15
100
AcDbLine
 10
43.964468821
 20
62.732659097
 30
0.0
 11
43.9643561823
 21
62.732659097
 31
0.0
  0
SPLINE
  5
1D8
330
1F
100
AcDbEntity
  8
SLD-0
  6
Continuous
370
    15
100
AcDbSpline
210
0.0
220
0.0
230
1.0
 70
     8
 71
     3
 72
    11
 73
     7
 74
     0
 42
0.00000001
 43
0.00000001
 12
1.0
 22
0.0
 32
0.0
 13
1.0
 23
0.0
 33
0.0
 40
0.0
 40
0.0
 40
0.0
 40
0.0
 40
0.2499890499104661
 40
0.499986916969648
 40
0.7499894833452365
 40
1.0
 40
1.0
 40
1.0
 40
1.0
 10
86.99015674454407
 20
62.76625945548039
 30
0.0
 10
86.99421849910401
 20
62.76672543873239
 30
0.0
 10
87.00234215148251
 20
62.76765742167167
 30
0.0
 10
87.01258968186025
 20
62.7748252645407
 30
0.0
 10
87.01975992746871
 20
62.78507371859347
 30
0.0
 10
87.02069053962819
 20
62.79319690583969
 30
0.0
 10
87.02115585310638
 20
62.79725856404271
 30
0.0
  0
LINE
  5
1D9
330
1F
100
AcDbEntity
  8
SLD-0
  6
Continuous
370
    15
100
AcDbLine
 10
87.0211558531
 20
62.797258564
 30
0.0
 11
87.0547573849
 21
62.797258564
 31
0.0
  0
SPLINE
  5
1DA
330
1F
100
AcDbEntity
  8
SLD-0
  6
Continuous
370
    15
100
AcDbSpline
210
0.0
220
0.0
230
1.0
 70
     8
 71
     3
 72
    11
 73
     7
 74
     0
 42
0.00000001
 43
0.00000001
 12
1.0
 22
0.0
 32
0.0
 13
1.0
 23
0.0
 33
0.0
 40
0.0
 40
0.0
 40
0.0
 40
0.0
 40
0.2500013970332862
 40
0.5000001210054152
 40
0.7499943237038185
 40
1.0
 40
1.0
 40
1.0
 40
1.0
 10
86.99015674454407
 20
62.73265909696794
 30
0.0
 10
86.99862188391222
 20
62.73363013920595
 30
0.0
 10
87.01555207213774
 20
62.73557221329941
 30
0.0
 10
87.03690580874445
 20
62.75051061806442
 30
0.0
 10
87.05184266066573
 20
62.77186513247617
 30
0.0
 10
87.05378579531782
 20
62.78879395736416
 30
0.0
 10
87.05475738493863
 20
62.79725856404271
 30
0.0
  0
SPLINE
  5
1DB
330
1F
100
AcDbEntity
  8
SLD-0
  6
Continuous
370
    15
100
AcDbSpline
210
0.0
220
0.0
230
1.0
 70
     8
 71
     3
 72
    11
 73
     7
 74
     0
 42
0.00000001
 43
0.00000001
 12
1.0
 22
0.0
 32
0.0
 13
1.0
 23
0.0
 33
0.0
 40
0.0
 40
0.0
 40
0.0
 40
0.0
 40
0.2500056762961815
 40
0.4999998789945847
 40
0.7499986029667137
 40
1.0
 40
1.0
 40
1.0
 40
1.0
 10
43.89975554186914
 20
62.79725856404271
 30
0.0
 10
43.90072713148993
 20
62.78879395736415
 30
0.0
 10
43.90267026614202
 20
62.77186513247617
 30
0.0
 10
43.91760711806331
 20
62.75051061806443
 30
0.0
 10
43.93896085467001
 20
62.73557221329941
 30
0.0
 10
43.95589104289553
 20
62.73363013920596
 30
0.0
 10
43.96435618226369
 20
62.73265909696794
 30
0.0
  0
LINE
  5
1DC
330
1F
100
AcDbEntity
  8
SLD-0
  6
Continuous
370
    15
100
AcDbLine
 10
43.8997555419
 20
62.797258564
 30
0.0
 11
43.9333570737
 21
62.797258564
 31
0.0
  0
SPLINE
  5
1DD
330
1F
100
AcDbEntity
  8
SLD-0
  6
Continuous
370
    15
100
AcDbSpline
210
0.0
220
0.0
230
1.0
 70
     8
 71
     3
 72
    11
 73
     7
 74
     0
 42
0.00000001
 43
0.00000001
 12
1.0
 22
0.0
 32
0.0
 13
1.0
 23
0.0
 33
0.0
 40
0.0
 40
0.0
 40
0.0
 40
0.0
 40
0.2500105166547634
 40
0.5000130830303519
 40
0.7500109500895339
 40
1.0
 40
1.0
 40
1.0
 40
1.0
 10
43.93335707370137
 20
62.79725856404271
 30
0.0
 10
43.93382238717955
 20
62.79319690583969
 30
0.0
 10
43.93475299933905
 20
62.78507371859347
 30
0.0
 10
43.94192324494751
 20
62.7748252645407
 30
0.0
 10
43.95217077532526
 20
62.76765742167168
 30
0.0
 10
43.96029442770376
 20
62.76672543873239
 30
0.0
 10
43.96435618226369
 20
62.76625945548039
 30
0.0
  0
LINE
  5
1DE
330
1F
100
AcDbEntity
  8
SLD-0
  6
Continuous
370
    15
100
AcDbLine
 10
87.0547573849
 20
62.797258564
 30
0.0
 11
87.0547573849
 21
63.4826591796
 31
0.0
  0
LINE
  5
1DF
330
1F
100
AcDbEntity
  8
SLD-0
  6
Continuous
370
    15
100
AcDbLine
 10
87.0211558531
 20
63.4826591796
 30
0.0
 11
87.0547573849
 21
63.4826591796
 31
0.0
  0
LINE
  5
1E0
330
1F
100
AcDbEntity
  8
SLD-0
  6
Continuous
370
    15
100
AcDbLine
 10
87.0211558531
 20
62.797258564
 30
0.0
 11
87.0211558531
 21
63.4826591796
 31
0.0
  0
LINE
  5
1E1
330
1F
100
AcDbEntity
  8
SLD-0
  6
Continuous
370
    15
100
AcDbLine
 10
43.8997555419
 20
63.4826591796
 30
0.0
 11
43.9333570737
 21
63.4826591796
 31
0.0
  0
LINE
  5
1E2
330
1F
100
AcDbEntity
  8
SLD-0
  6
Continuous
370
    15
100
AcDbLine
 10
43.9333570737
 20
63.4826591796
 30
0.0
 11
43.9333570737
 21
62.797258564
 31
0.0
  0
LINE
  5
1E3
330
1F
100
AcDbEntity
  8
SLD-0
  6
Continuous
370
    15
100
AcDbLine
 10
43.8997555419
 20
63.4826591796
 30
0.0
 11
43.8997555419
 21
62.797258564
 31
0.0
  0
LINE
  5
1E4
330
1F
100
AcDbEntity
  8
SLD-0
  6
Continuous
370
    15
100
AcDbLine
 10
75.8361260235
 20
63.4623595741
 30
0.0
 11
75.8361260235
 21
80.337359086
 31
0.0
  0
LINE
  5
1E5
330
1F
100
AcDbEntity
  8
SLD-0
  6
Continuous
370
    15
100
AcDbLine
 10
75.8361260235
 20
63.4623595741
 30
0.0
 11
75.7583865482
 21
63.4623595741
 31
0.0
  0
LINE
  5
1E6
330
1F
100
AcDbEntity
  8
SLD-0
  6
Continuous
370
    15
100
AcDbLine
 10
75.7583865482
 20
80.337359086
 30
0.0
 11
75.7583865482
 21
63.4623595741
 31
0.0
  0
LINE
  5
1E7
330
1F
100
AcDbEntity
  8
SLD-0
  6
Continuous
370
    15
100
AcDbLine
 10
75.7583865482
 20
80.337359086
 30
0.0
 11
75.8361260235
 21
80.337359086
 31
0.0
  0
LINE
  5
1E8
330
1F
100
AcDbEntity
  8
SLD-0
  6
Continuous
370
    15
100
AcDbLine
 10
77.5601469608
 20
80.337359086
 30
0.0
 11
75.8361260235
 21
80.337359086
 31
0.0
  0
LINE
  5
1E9
330
1F
100
AcDbEntity
  8
SLD-0
  6
Continuous
370
    15
100
AcDbLine
 10
77.5601469608
 20
80.337359086
 30
0.0
 11
77.5601469608
 21
65.8373594445
 31
0.0
  0
LINE
  5
1EA
330
1F
100
AcDbEntity
  8
SLD-0
  6
Continuous
370
    15
100
AcDbLine
 10
77.5601469608
 20
65.8373594445
 30
0.0
 11
76.7069874299
 21
65.8373594445
 31
0.0
  0
LINE
  5
1EB
330
1F
100
AcDbEntity
  8
SLD-0
  6
Continuous
370
    15
100
AcDbLine
 10
76.7069874299
 20
65.8373594445
 30
0.0
 11
76.6981699318
 21
65.8373594445
 31
0.0
  0
LINE
  5
1EC
330
1F
100
AcDbEntity
  8
SLD-0
  6
Continuous
370
    15
100
AcDbLine
 10
76.6981699318
 20
63.7123588194
 30
0.0
 11
76.6981699318
 21
65.8373594445
 31
0.0
  0
LINE
  5
1ED
330
1F
100
AcDbEntity
  8
SLD-0
  6
Continuous
370
    15
100
AcDbLine
 10
76.5722023203
 20
63.4623595741
 30
0.0
 11
76.6981699318
 21
63.7123588194
 31
0.0
  0
LINE
  5
1EE
330
1F
100
AcDbEntity
  8
SLD-0
  6
Continuous
370
    15
100
AcDbLine
 10
76.5722023203
 20
63.4623595741
 30
0.0
 11
75.8361260235
 21
63.4623595741
 31
0.0
  0
LINE
  5
1EF
330
1F
100
AcDbEntity
  8
SLD-0
  6
Continuous
370
    15
100
AcDbLine
 10
76.3011279051
 20
71.837358932
 30
0.0
 11
76.804998351
 21
71.837358932
 31
0.0
  0
LWPOLYLINE
  5
1F0
330
1F
100
AcDbEntity
  8
SLD-0
  6
Continuous
370
    15
100
AcDbPolyline
 90
       21
 70
   128
 43
0.0
 10
76.804998351
 20
71.837358932
 10
76.8148518905
 20
71.8388983276
 10
76.8244613795
 20
71.8434766214
 10
76.833592154
 20
71.8509835213
 10
76.8420189367
 20
71.8612324696
 10
76.8495352232
 20
71.8739712024
 10
76.8559532824
 20
71.8888864434
 10
76.8611170627
 20
71.9056097703
 10
76.8648998457
 20
71.9237316942
 10
76.8672065924
 20
71.9428051806
 10
76.8679821568
 20
71.9623585547
 10
76.8672065924
 20
71.9819131021
 10
76.8648998457
 20
72.0009865885
 10
76.8611170627
 20
72.0191085124
 10
76.8559532824
 20
72.0358318393
 10
76.8495352232
 20
72.0507470803
 10
76.8420189367
 20
72.0634858131
 10
76.833592154
 20
72.0737347614
 10
76.8244613795
 20
72.0812410747
 10
76.8148518905
 20
72.0858199551
 10
76.804998351
 20
72.0873593507
  0
LINE
  5
1F1
330
1F
100
AcDbEntity
  8
SLD-0
  6
Continuous
370
    15
100
AcDbLine
 10
76.804998351
 20
72.0873593507
 30
0.0
 11
76.3011279051
 21
72.0873593507
 31
0.0
  0
LWPOLYLINE
  5
1F2
330
1F
100
AcDbEntity
  8
SLD-0
  6
Continuous
370
    15
100
AcDbPolyline
 90
       21
 70
   128
 43
0.0
 10
76.3011279051
 20
72.0873593507
 10
76.2912743656
 20
72.0858199551
 10
76.2816648766
 20
72.0812410747
 10
76.2725329288
 20
72.0737347614
 10
76.2641061461
 20
72.0634858131
 10
76.2565910329
 20
72.0507470803
 10
76.2501729738
 20
72.0358318393
 10
76.2450080201
 20
72.0191085124
 10
76.2412264104
 20
72.0009865885
 10
76.2389184904
 20
71.9819131021
 10
76.2381440994
 20
71.9623585547
 10
76.2389184904
 20
71.9428051806
 10
76.2412264104
 20
71.9237316942
 10
76.2450080201
 20
71.9056097703
 10
76.2501729738
 20
71.8888864434
 10
76.2565910329
 20
71.8739712024
 10
76.2641061461
 20
71.8612324696
 10
76.2725329288
 20
71.8509835213
 10
76.2816648766
 20
71.8434766214
 10
76.2912743656
 20
71.8388983276
 10
76.3011279051
 20
71.837358932
  0
LINE
  5
1F3
330
1F
100
AcDbEntity
  8
SLD-0
  6
Continuous
370
    15
100
AcDbLine
 10
76.3011279051
 20
68.8373586016
 30
0.0
 11
76.804998351
 21
68.8373586016
 31
0.0
  0
LWPOLYLINE
  5
1F4
330
1F
100
AcDbEntity
  8
SLD-0
  6
Continuous
370
    15
100
AcDbPolyline
 90
       21
 70
   128
 43
0.0
 10
76.804998351
 20
68.8373586016
 10
76.8148518905
 20
68.8388979972
 10
76.8244613795
 20
68.8434774643
 10
76.833592154
 20
68.8509831909
 10
76.8420189367
 20
68.8612321392
 10
76.8495352232
 20
68.873970872
 10
76.8559532824
 20
68.888886113
 10
76.8611170627
 20
68.9056106132
 10
76.8648998457
 20
68.9237325372
 10
76.8672065924
 20
68.9428048502
 10
76.8679821568
 20
68.9623593976
 10
76.8672065924
 20
68.981913945
 10
76.8648998457
 20
69.0009862581
 10
76.8611170627
 20
69.019108182
 10
76.8559532824
 20
69.0358326822
 10
76.8495352232
 20
69.0507479232
 10
76.8420189367
 20
69.063486656
 10
76.833592154
 20
69.073734431
 10
76.8244613795
 20
69.0812413309
 10
76.8148518905
 20
69.0858196247
 10
76.804998351
 20
69.0873590203
  0
LINE
  5
1F5
330
1F
100
AcDbEntity
  8
SLD-0
  6
Continuous
370
    15
100
AcDbLine
 10
76.804998351
 20
69.0873590203
 30
0.0
 11
76.3011279051
 21
69.0873590203
 31
0.0
  0
LWPOLYLINE
  5
1F6
330
1F
100
AcDbEntity
  8
SLD-0
  6
Continuous
370
    15
100
AcDbPolyline
 90
       21
 70
   128
 43
0.0
 10
76.3011279051
 20
69.0873590203
 10
76.2912743656
 20
69.0858196247
 10
76.2816648766
 20
69.0812413309
 10
76.2725329288
 20
69.073734431
 10
76.2641061461
 20
69.063486656
 10
76.2565910329
 20
69.0507479232
 10
76.2501729738
 20
69.0358326822
 10
76.2450080201
 20
69.019108182
 10
76.2412264104
 20
69.0009862581
 10
76.2389184904
 20
68.981913945
 10
76.2381440994
 20
68.9623593976
 10
76.2389184904
 20
68.9428048502
 10
76.2412264104
 20
68.9237325372
 10
76.2450080201
 20
68.9056106132
 10
76.2501729738
 20
68.888886113
 10
76.2565910329
 20
68.873970872
 10
76.2641061461
 20
68.8612321392
 10
76.2725329288
 20
68.8509831909
 10
76.2816648766
 20
68.8434774643
 10
76.2912743656
 20
68.8388979972
 10
76.3011279051
 20
68.8373586016
  0
LWPOLYLINE
  5
1F7
330
1F
100
AcDbEntity
  8
SLD-0
  6
Continuous
370
    15
100
AcDbPolyline
 90
       21
 70
   128
 43
0.0
 10
75.2933852533
 20
69.0873590203
 10
75.3032382062
 20
69.0858196247
 10
75.3128482818
 20
69.0812413309
 10
75.321979643
 20
69.073734431
 10
75.3304064256
 20
69.063486656
 10
75.3379215388
 20
69.0507479232
 10
75.3443407713
 20
69.0358326822
 10
75.3495045517
 20
69.019108182
 10
75.3532861613
 20
69.0009862581
 10
75.3555940813
 20
68.981913945
 10
75.3563696457
 20
68.9623593976
 10
75.3555940813
 20
68.9428048502
 10
75.3532861613
 20
68.9237325372
 10
75.3495045517
 20
68.9056106132
 10
75.3443407713
 20
68.888886113
 10
75.3379215388
 20
68.873970872
 10
75.3304064256
 20
68.8612321392
 10
75.321979643
 20
68.8509831909
 10
75.3128482818
 20
68.8434774643
 10
75.3032382062
 20
68.8388979972
 10
75.2933852533
 20
68.8373586016
  0
LINE
  5
1F8
330
1F
100
AcDbEntity
  8
SLD-0
  6
Continuous
370
    15
100
AcDbLine
 10
75.2933852533
 20
69.0873590203
 30
0.0
 11
74.7895142207
 21
69.0873590203
 31
0.0
  0
LWPOLYLINE
  5
1F9
330
1F
100
AcDbEntity
  8
SLD-0
  6
Continuous
370
    15
100
AcDbPolyline
 90
       21
 70
   128
 43
0.0
 10
74.7895142207
 20
68.8373586016
 10
74.7796618546
 20
68.8388979972
 10
74.7700511922
 20
68.8434774643
 10
74.7609204177
 20
68.8509831909
 10
74.7524936351
 20
68.8612321392
 10
74.7449779352
 20
68.873970872
 10
74.7385592894
 20
68.888886113
 10
74.733395509
 20
68.9056106132
 10
74.7296133127
 20
68.9237325372
 10
74.7273059794
 20
68.9428048502
 10
74.726530415
 20
68.9623593976
 10
74.7273059794
 20
68.981913945
 10
74.7296133127
 20
69.0009862581
 10
74.733395509
 20
69.019108182
 10
74.7385592894
 20
69.0358326822
 10
74.7449779352
 20
69.0507479232
 10
74.7524936351
 20
69.063486656
 10
74.7609204177
 20
69.073734431
 10
74.7700511922
 20
69.0812413309
 10
74.7796618546
 20
69.0858196247
 10
74.7895142207
 20
69.0873590203
  0
LINE
  5
1FA
330
1F
100
AcDbEntity
  8
SLD-0
  6
Continuous
370
    15
100
AcDbLine
 10
75.2933852533
 20
68.8373586016
 30
0.0
 11
74.7895142207
 21
68.8373586016
 31
0.0
  0
LINE
  5
1FB
330
1F
100
AcDbEntity
  8
SLD-0
  6
Continuous
370
    15
100
AcDbLine
 10
74.8963432266
 20
63.7123588194
 30
0.0
 11
74.8963432266
 21
65.8373594445
 31
0.0
  0
LINE
  5
1FC
330
1F
100
AcDbEntity
  8
SLD-0
  6
Continuous
370
    15
100
AcDbLine
 10
74.8875251418
 20
65.8373594445
 30
0.0
 11
74.8963432266
 21
65.8373594445
 31
0.0
  0
LINE
  5
1FD
330
1F
100
AcDbEntity
  8
SLD-0
  6
Continuous
370
    15
100
AcDbLine
 10
74.8875251418
 20
65.8373594445
 30
0.0
 11
74.0343661976
 21
65.8373594445
 31
0.0
  0
LINE
  5
1FE
330
1F
100
AcDbEntity
  8
SLD-0
  6
Continuous
370
    15
100
AcDbLine
 10
74.0343661976
 20
65.8373594445
 30
0.0
 11
74.0343661976
 21
80.337359086
 31
0.0
  0
LINE
  5
1FF
330
1F
100
AcDbEntity
  8
SLD-0
  6
Continuous
370
    15
100
AcDbLine
 10
75.7583865482
 20
80.337359086
 30
0.0
 11
74.0343661976
 21
80.337359086
 31
0.0
  0
LINE
  5
200
330
1F
100
AcDbEntity
  8
SLD-0
  6
Continuous
370
    15
100
AcDbLine
 10
75.7583865482
 20
63.4623595741
 30
0.0
 11
75.0223108381
 21
63.4623595741
 31
0.0
  0
LINE
  5
201
330
1F
100
AcDbEntity
  8
SLD-0
  6
Continuous
370
    15
100
AcDbLine
 10
75.0223108381
 20
63.4623595741
 30
0.0
 11
74.8963432266
 21
63.7123588194
 31
0.0
  0
LWPOLYLINE
  5
202
330
1F
100
AcDbEntity
  8
SLD-0
  6
Continuous
370
    15
100
AcDbPolyline
 90
       21
 70
   128
 43
0.0
 10
75.2933852533
 20
72.0873593507
 10
75.3032382062
 20
72.0858199551
 10
75.3128482818
 20
72.0812410747
 10
75.321979643
 20
72.0737347614
 10
75.3304064256
 20
72.0634858131
 10
75.3379215388
 20
72.0507470803
 10
75.3443407713
 20
72.0358318393
 10
75.3495045517
 20
72.0191085124
 10
75.3532861613
 20
72.0009865885
 10
75.3555940813
 20
71.9819131021
 10
75.3563696457
 20
71.9623585547
 10
75.3555940813
 20
71.9428051806
 10
75.3532861613
 20
71.9237316942
 10
75.3495045517
 20
71.9056097703
 10
75.3443407713
 20
71.8888864434
 10
75.3379215388
 20
71.8739712024
 10
75.3304064256
 20
71.8612324696
 10
75.321979643
 20
71.8509835213
 10
75.3128482818
 20
71.8434766214
 10
75.3032382062
 20
71.8388983276
 10
75.2933852533
 20
71.837358932
  0
LINE
  5
203
330
1F
100
AcDbEntity
  8
SLD-0
  6
Continuous
370
    15
100
AcDbLine
 10
74.7895142207
 20
72.0873593507
 30
0.0
 11
75.2933852533
 21
72.0873593507
 31
0.0
  0
LWPOLYLINE
  5
204
330
1F
100
AcDbEntity
  8
SLD-0
  6
Continuous
370
    15
100
AcDbPolyline
 90
       21
 70
   128
 43
0.0
 10
74.7895142207
 20
71.837358932
 10
74.7796618546
 20
71.8388983276
 10
74.7700511922
 20
71.8434766214
 10
74.7609204177
 20
71.8509835213
 10
74.7524936351
 20
71.8612324696
 10
74.7449779352
 20
71.8739712024
 10
74.7385592894
 20
71.8888864434
 10
74.733395509
 20
71.9056097703
 10
74.7296133127
 20
71.9237316942
 10
74.7273059794
 20
71.9428051806
 10
74.726530415
 20
71.9623585547
 10
74.7273059794
 20
71.9819131021
 10
74.7296133127
 20
72.0009865885
 10
74.733395509
 20
72.0191085124
 10
74.7385592894
 20
72.0358318393
 10
74.7449779352
 20
72.0507470803
 10
74.7524936351
 20
72.0634858131
 10
74.7609204177
 20
72.0737347614
 10
74.7700511922
 20
72.0812410747
 10
74.7796618546
 20
72.0858199551
 10
74.7895142207
 20
72.0873593507
  0
LINE
  5
205
330
1F
100
AcDbEntity
  8
SLD-0
  6
Continuous
370
    15
100
AcDbLine
 10
75.2933852533
 20
71.837358932
 30
0.0
 11
74.7895142207
 21
71.837358932
 31
0.0
  0
LWPOLYLINE
  5
206
330
1F
100
AcDbEntity
  8
SLD-0
  6
Continuous
370
    15
100
AcDbPolyline
 90
       21
 70
   128
 43
0.0
 10
76.7790855837
 20
71.837358932
 10
76.7889379499
 20
71.8388983276
 10
76.7985486122
 20
71.8434766214
 10
76.8076793867
 20
71.8509835213
 10
76.8161061694
 20
71.8612324696
 10
76.8236212826
 20
71.8739712024
 10
76.8300405151
 20
71.8888864434
 10
76.8352042954
 20
71.9056097703
 10
76.8389859051
 20
71.9237316942
 10
76.8412938251
 20
71.9428051806
 10
76.8420693894
 20
71.9623585547
 10
76.8412938251
 20
71.9819131021
 10
76.8389859051
 20
72.0009865885
 10
76.8352042954
 20
72.0191085124
 10
76.8300405151
 20
72.0358318393
 10
76.8236212826
 20
72.0507470803
 10
76.8161061694
 20
72.0634858131
 10
76.8076793867
 20
72.0737347614
 10
76.7985486122
 20
72.0812410747
 10
76.7889379499
 20
72.0858199551
 10
76.7790855837
 20
72.0873593507
  0
LWPOLYLINE
  5
207
330
1F
100
AcDbEntity
  8
SLD-0
  6
Continuous
370
    15
100
AcDbPolyline
 90
       21
 70
   128
 43
0.0
 10
74.8154275747
 20
71.837358932
 10
74.8055752085
 20
71.8388983276
 10
74.7959645462
 20
71.8434766214
 10
74.7868337717
 20
71.8509835213
 10
74.7784069891
 20
71.8612324696
 10
74.7708912892
 20
71.8739712024
 10
74.7644726434
 20
71.8888864434
 10
74.759308863
 20
71.9056097703
 10
74.7555266667
 20
71.9237316942
 10
74.7532193334
 20
71.9428051806
 10
74.752443769
 20
71.9623585547
 10
74.7532193334
 20
71.9819131021
 10
74.7555266667
 20
72.0009865885
 10
74.759308863
 20
72.0191085124
 10
74.7644726434
 20
72.0358318393
 10
74.7708912892
 20
72.0507470803
 10
74.7784069891
 20
72.0634858131
 10
74.7868337717
 20
72.0737347614
 10
74.7959645462
 20
72.0812410747
 10
74.8055752085
 20
72.0858199551
 10
74.8154275747
 20
72.0873593507
  0
LWPOLYLINE
  5
208
330
1F
100
AcDbEntity
  8
SLD-0
  6
Continuous
370
    15
100
AcDbPolyline
 90
       21
 70
   128
 43
0.0
 10
76.7790855837
 20
68.8373586016
 10
76.7889379499
 20
68.8388979972
 10
76.7985486122
 20
68.8434774643
 10
76.8076793867
 20
68.8509831909
 10
76.8161061694
 20
68.8612321392
 10
76.8236212826
 20
68.873970872
 10
76.8300405151
 20
68.888886113
 10
76.8352042954
 20
68.9056106132
 10
76.8389859051
 20
68.9237325372
 10
76.8412938251
 20
68.9428048502
 10
76.8420693894
 20
68.9623593976
 10
76.8412938251
 20
68.981913945
 10
76.8389859051
 20
69.0009862581
 10
76.8352042954
 20
69.019108182
 10
76.8300405151
 20
69.0358326822
 10
76.8236212826
 20
69.0507479232
 10
76.8161061694
 20
69.063486656
 10
76.8076793867
 20
69.073734431
 10
76.7985486122
 20
69.0812413309
 10
76.7889379499
 20
69.0858196247
 10
76.7790855837
 20
69.0873590203
  0
LWPOLYLINE
  5
209
330
1F
100
AcDbEntity
  8
SLD-0
  6
Continuous
370
    15
100
AcDbPolyline
 90
       21
 70
   128
 43
0.0
 10
74.8154275747
 20
68.8373586016
 10
74.8055752085
 20
68.8388979972
 10
74.7959645462
 20
68.8434774643
 10
74.7868337717
 20
68.8509831909
 10
74.7784069891
 20
68.8612321392
 10
74.7708912892
 20
68.873970872
 10
74.7644726434
 20
68.888886113
 10
74.759308863
 20
68.9056106132
 10
74.7555266667
 20
68.9237325372
 10
74.7532193334
 20
68.9428048502
 10
74.752443769
 20
68.9623593976
 10
74.7532193334
 20
68.981913945
 10
74.7555266667
 20
69.0009862581
 10
74.759308863
 20
69.019108182
 10
74.7644726434
 20
69.0358326822
 10
74.7708912892
 20
69.0507479232
 10
74.7784069891
 20
69.063486656
 10
74.7868337717
 20
69.073734431
 10
74.7959645462
 20
69.0812413309
 10
74.8055752085
 20
69.0858196247
 10
74.8154275747
 20
69.0873590203
  0
LINE
  5
20A
330
1F
100
AcDbEntity
  8
SLD-0
  6
Continuous
370
    15
100
AcDbLine
 10
77.5731027578
 20
80.337359086
 30
0.0
 11
77.5731027578
 21
65.8373594445
 31
0.0
  0
LINE
  5
20B
330
1F
100
AcDbEntity
  8
SLD-0
  6
Continuous
370
    15
100
AcDbLine
 10
77.5731027578
 20
65.8373594445
 30
0.0
 11
77.5601469608
 21
65.8373594445
 31
0.0
  0
LINE
  5
20C
330
1F
100
AcDbEntity
  8
SLD-0
  6
Continuous
370
    15
100
AcDbLine
 10
77.5601469608
 20
80.337359086
 30
0.0
 11
77.5731027578
 21
80.337359086
 31
0.0
  0
LINE
  5
20D
330
1F
100
AcDbEntity
  8
SLD-0
  6
Continuous
370
    15
100
AcDbLine
 10
74.0343661976
 20
80.337359086
 30
0.0
 11
74.0214098139
 21
80.337359086
 31
0.0
  0
LINE
  5
20E
330
1F
100
AcDbEntity
  8
SLD-0
  6
Continuous
370
    15
100
AcDbLine
 10
74.0214098139
 20
65.8373594445
 30
0.0
 11
74.0343661976
 21
65.8373594445
 31
0.0
  0
LINE
  5
20F
330
1F
100
AcDbEntity
  8
SLD-0
  6
Continuous
370
    15
100
AcDbLine
 10
74.0214098139
 20
80.337359086
 30
0.0
 11
74.0214098139
 21
65.8373594445
 31
0.0
  0
LINE
  5
210
330
1F
100
AcDbEntity
  8
SLD-0
  6
Continuous
370
    15
100
AcDbLine
 10
78.0472565337
 20
65.8373594445
 30
0.0
 11
77.5731027578
 21
65.8373594445
 31
0.0
  0
LINE
  5
211
330
1F
100
AcDbEntity
  8
SLD-0
  6
Continuous
370
    15
100
AcDbLine
 10
78.0472565337
 20
80.337359086
 30
0.0
 11
77.5731027578
 21
80.337359086
 31
0.0
  0
LINE
  5
212
330
1F
100
AcDbEntity
  8
SLD-0
  6
Continuous
370
    15
100
AcDbLine
 10
78.0472565337
 20
80.337359086
 30
0.0
 11
78.0472565337
 21
65.8373594445
 31
0.0
  0
LINE
  5
213
330
1F
100
AcDbEntity
  8
SLD-0
  6
Continuous
370
    15
100
AcDbLine
 10
74.0214098139
 20
65.8373594445
 30
0.0
 11
73.5472566247
 21
65.8373594445
 31
0.0
  0
LINE
  5
214
330
1F
100
AcDbEntity
  8
SLD-0
  6
Continuous
370
    15
100
AcDbLine
 10
74.0214098139
 20
80.337359086
 30
0.0
 11
73.5472566247
 21
80.337359086
 31
0.0
  0
LINE
  5
215
330
1F
100
AcDbEntity
  8
SLD-0
  6
Continuous
370
    15
100
AcDbLine
 10
73.5472566247
 20
80.337359086
 30
0.0
 11
73.5472566247
 21
65.8373594445
 31
0.0
  0
LINE
  5
216
330
1F
100
AcDbEntity
  8
SLD-0
  6
Continuous
370
    15
100
AcDbLine
 10
55.1961263786
 20
63.4623595741
 30
0.0
 11
55.1961263786
 21
80.337359086
 31
0.0
  0
LINE
  5
217
330
1F
100
AcDbEntity
  8
SLD-0
  6
Continuous
370
    15
100
AcDbLine
 10
55.1961263786
 20
63.4623595741
 30
0.0
 11
55.1183869033
 21
63.4623595741
 31
0.0
  0
LINE
  5
218
330
1F
100
AcDbEntity
  8
SLD-0
  6
Continuous
370
    15
100
AcDbLine
 10
55.1183869033
 20
80.337359086
 30
0.0
 11
55.1183869033
 21
63.4623595741
 31
0.0
  0
LINE
  5
219
330
1F
100
AcDbEntity
  8
SLD-0
  6
Continuous
370
    15
100
AcDbLine
 10
55.1183869033
 20
80.337359086
 30
0.0
 11
55.1961263786
 21
80.337359086
 31
0.0
  0
LINE
  5
21A
330
1F
100
AcDbEntity
  8
SLD-0
  6
Continuous
370
    15
100
AcDbLine
 10
56.9201467292
 20
80.337359086
 30
0.0
 11
55.1961263786
 21
80.337359086
 31
0.0
  0
LINE
  5
21B
330
1F
100
AcDbEntity
  8
SLD-0
  6
Continuous
370
    15
100
AcDbLine
 10
56.9201467292
 20
80.337359086
 30
0.0
 11
56.9201467292
 21
65.8373594445
 31
0.0
  0
LINE
  5
21C
330
1F
100
AcDbEntity
  8
SLD-0
  6
Continuous
370
    15
100
AcDbLine
 10
56.9201467292
 20
65.8373594445
 30
0.0
 11
56.066987785
 21
65.8373594445
 31
0.0
  0
LINE
  5
21D
330
1F
100
AcDbEntity
  8
SLD-0
  6
Continuous
370
    15
100
AcDbLine
 10
56.066987785
 20
65.8373594445
 30
0.0
 11
56.0581697002
 21
65.8373594445
 31
0.0
  0
LINE
  5
21E
330
1F
100
AcDbEntity
  8
SLD-0
  6
Continuous
370
    15
100
AcDbLine
 10
56.0581697002
 20
63.7123588194
 30
0.0
 11
56.0581697002
 21
65.8373594445
 31
0.0
  0
LINE
  5
21F
330
1F
100
AcDbEntity
  8
SLD-0
  6
Continuous
370
    15
100
AcDbLine
 10
55.9322020887
 20
63.4623595741
 30
0.0
 11
56.0581697002
 21
63.7123588194
 31
0.0
  0
LINE
  5
220
330
1F
100
AcDbEntity
  8
SLD-0
  6
Continuous
370
    15
100
AcDbLine
 10
55.9322020887
 20
63.4623595741
 30
0.0
 11
55.1961263786
 21
63.4623595741
 31
0.0
  0
LINE
  5
221
330
1F
100
AcDbEntity
  8
SLD-0
  6
Continuous
370
    15
100
AcDbLine
 10
55.6611276735
 20
71.837358932
 30
0.0
 11
56.1649987061
 21
71.837358932
 31
0.0
  0
LWPOLYLINE
  5
222
330
1F
100
AcDbEntity
  8
SLD-0
  6
Continuous
370
    15
100
AcDbPolyline
 90
       21
 70
   128
 43
0.0
 10
56.1649987061
 20
71.837358932
 10
56.1748510723
 20
71.8388983276
 10
56.1844617346
 20
71.8434766214
 10
56.1935925091
 20
71.8509835213
 10
56.2020192917
 20
71.8612324696
 10
56.2095349916
 20
71.8739712024
 10
56.2159536374
 20
71.8888864434
 10
56.2211174178
 20
71.9056097703
 10
56.2248996141
 20
71.9237316942
 10
56.2272069474
 20
71.9428051806
 10
56.2279825118
 20
71.9623585547
 10
56.2272069474
 20
71.9819131021
 10
56.2248996141
 20
72.0009865885
 10
56.2211174178
 20
72.0191085124
 10
56.2159536374
 20
72.0358318393
 10
56.2095349916
 20
72.0507470803
 10
56.2020192917
 20
72.0634858131
 10
56.1935925091
 20
72.0737347614
 10
56.1844617346
 20
72.0812410747
 10
56.1748510723
 20
72.0858199551
 10
56.1649987061
 20
72.0873593507
  0
LINE
  5
223
330
1F
100
AcDbEntity
  8
SLD-0
  6
Continuous
370
    15
100
AcDbLine
 10
56.1649987061
 20
72.0873593507
 30
0.0
 11
55.6611276735
 21
72.0873593507
 31
0.0
  0
LWPOLYLINE
  5
224
330
1F
100
AcDbEntity
  8
SLD-0
  6
Continuous
370
    15
100
AcDbPolyline
 90
       21
 70
   128
 43
0.0
 10
55.6611276735
 20
72.0873593507
 10
55.6512747207
 20
72.0858199551
 10
55.641664645
 20
72.0812410747
 10
55.6325332838
 20
72.0737347614
 10
55.6241065012
 20
72.0634858131
 10
55.616591388
 20
72.0507470803
 10
55.6101721555
 20
72.0358318393
 10
55.6050083751
 20
72.0191085124
 10
55.6012267655
 20
72.0009865885
 10
55.5989188455
 20
71.9819131021
 10
55.5981432811
 20
71.9623585547
 10
55.5989188455
 20
71.9428051806
 10
55.6012267655
 20
71.9237316942
 10
55.6050083751
 20
71.9056097703
 10
55.6101721555
 20
71.8888864434
 10
55.616591388
 20
71.8739712024
 10
55.6241065012
 20
71.8612324696
 10
55.6325332838
 20
71.8509835213
 10
55.641664645
 20
71.8434766214
 10
55.6512747207
 20
71.8388983276
 10
55.6611276735
 20
71.837358932
  0
LINE
  5
225
330
1F
100
AcDbEntity
  8
SLD-0
  6
Continuous
370
    15
100
AcDbLine
 10
55.6611276735
 20
68.8373586016
 30
0.0
 11
56.1649987061
 21
68.8373586016
 31
0.0
  0
LWPOLYLINE
  5
226
330
1F
100
AcDbEntity
  8
SLD-0
  6
Continuous
370
    15
100
AcDbPolyline
 90
       21
 70
   128
 43
0.0
 10
56.1649987061
 20
68.8373586016
 10
56.1748510723
 20
68.8388979972
 10
56.1844617346
 20
68.8434774643
 10
56.1935925091
 20
68.8509831909
 10
56.2020192917
 20
68.8612321392
 10
56.2095349916
 20
68.873970872
 10
56.2159536374
 20
68.888886113
 10
56.2211174178
 20
68.9056106132
 10
56.2248996141
 20
68.9237325372
 10
56.2272069474
 20
68.9428048502
 10
56.2279825118
 20
68.9623593976
 10
56.2272069474
 20
68.981913945
 10
56.2248996141
 20
69.0009862581
 10
56.2211174178
 20
69.019108182
 10
56.2159536374
 20
69.0358326822
 10
56.2095349916
 20
69.0507479232
 10
56.2020192917
 20
69.063486656
 10
56.1935925091
 20
69.073734431
 10
56.1844617346
 20
69.0812413309
 10
56.1748510723
 20
69.0858196247
 10
56.1649987061
 20
69.0873590203
  0
LINE
  5
227
330
1F
100
AcDbEntity
  8
SLD-0
  6
Continuous
370
    15
100
AcDbLine
 10
56.1649987061
 20
69.0873590203
 30
0.0
 11
55.6611276735
 21
69.0873590203
 31
0.0
  0
LWPOLYLINE
  5
228
330
1F
100
AcDbEntity
  8
SLD-0
  6
Continuous
370
    15
100
AcDbPolyline
 90
       21
 70
   128
 43
0.0
 10
55.6611276735
 20
69.0873590203
 10
55.6512747207
 20
69.0858196247
 10
55.641664645
 20
69.0812413309
 10
55.6325332838
 20
69.073734431
 10
55.6241065012
 20
69.063486656
 10
55.616591388
 20
69.0507479232
 10
55.6101721555
 20
69.0358326822
 10
55.6050083751
 20
69.019108182
 10
55.6012267655
 20
69.0009862581
 10
55.5989188455
 20
68.981913945
 10
55.5981432811
 20
68.9623593976
 10
55.5989188455
 20
68.9428048502
 10
55.6012267655
 20
68.9237325372
 10
55.6050083751
 20
68.9056106132
 10
55.6101721555
 20
68.888886113
 10
55.616591388
 20
68.873970872
 10
55.6241065012
 20
68.8612321392
 10
55.6325332838
 20
68.8509831909
 10
55.641664645
 20
68.8434774643
 10
55.6512747207
 20
68.8388979972
 10
55.6611276735
 20
68.8373586016
  0
LWPOLYLINE
  5
229
330
1F
100
AcDbEntity
  8
SLD-0
  6
Continuous
370
    15
100
AcDbPolyline
 90
       21
 70
   128
 43
0.0
 10
54.6533850217
 20
69.0873590203
 10
54.6632385612
 20
69.0858196247
 10
54.6728480502
 20
69.0812413309
 10
54.681979998
 20
69.073734431
 10
54.6904067807
 20
69.063486656
 10
54.6979218939
 20
69.0507479232
 10
54.7043399531
 20
69.0358326822
 10
54.7095049067
 20
69.019108182
 10
54.7132865164
 20
69.0009862581
 10
54.7155944364
 20
68.981913945
 10
54.7163688274
 20
68.9623593976
 10
54.7155944364
 20
68.9428048502
 10
54.7132865164
 20
68.9237325372
 10
54.7095049067
 20
68.9056106132
 10
54.7043399531
 20
68.888886113
 10
54.6979218939
 20
68.873970872
 10
54.6904067807
 20
68.8612321392
 10
54.681979998
 20
68.8509831909
 10
54.6728480502
 20
68.8434774643
 10
54.6632385612
 20
68.8388979972
 10
54.6533850217
 20
68.8373586016
  0
LINE
  5
22A
330
1F
100
AcDbEntity
  8
SLD-0
  6
Continuous
370
    15
100
AcDbLine
 10
54.6533850217
 20
69.0873590203
 30
0.0
 11
54.1495145758
 21
69.0873590203
 31
0.0
  0
LWPOLYLINE
  5
22B
330
1F
100
AcDbEntity
  8
SLD-0
  6
Continuous
370
    15
100
AcDbPolyline
 90
       21
 70
   128
 43
0.0
 10
54.1495145758
 20
68.8373586016
 10
54.1396610363
 20
68.8388979972
 10
54.1300515473
 20
68.8434774643
 10
54.1209207728
 20
68.8509831909
 10
54.1124939901
 20
68.8612321392
 10
54.1049777036
 20
68.873970872
 10
54.0985596444
 20
68.888886113
 10
54.0933958641
 20
68.9056106132
 10
54.0896130811
 20
68.9237325372
 10
54.0873063344
 20
68.9428048502
 10
54.08653077
 20
68.9623593976
 10
54.0873063344
 20
68.981913945
 10
54.0896130811
 20
69.0009862581
 10
54.0933958641
 20
69.019108182
 10
54.0985596444
 20
69.0358326822
 10
54.1049777036
 20
69.0507479232
 10
54.1124939901
 20
69.063486656
 10
54.1209207728
 20
69.073734431
 10
54.1300515473
 20
69.0812413309
 10
54.1396610363
 20
69.0858196247
 10
54.1495145758
 20
69.0873590203
  0
LINE
  5
22C
330
1F
100
AcDbEntity
  8
SLD-0
  6
Continuous
370
    15
100
AcDbLine
 10
54.6533850217
 20
68.8373586016
 30
0.0
 11
54.1495145758
 21
68.8373586016
 31
0.0
  0
LINE
  5
22D
330
1F
100
AcDbEntity
  8
SLD-0
  6
Continuous
370
    15
100
AcDbLine
 10
54.256342995
 20
63.7123588194
 30
0.0
 11
54.256342995
 21
65.8373594445
 31
0.0
  0
LINE
  5
22E
330
1F
100
AcDbEntity
  8
SLD-0
  6
Continuous
370
    15
100
AcDbLine
 10
54.2475254969
 20
65.8373594445
 30
0.0
 11
54.256342995
 21
65.8373594445
 31
0.0
  0
LINE
  5
22F
330
1F
100
AcDbEntity
  8
SLD-0
  6
Continuous
370
    15
100
AcDbLine
 10
54.2475254969
 20
65.8373594445
 30
0.0
 11
53.394365966
 21
65.8373594445
 31
0.0
  0
LINE
  5
230
330
1F
100
AcDbEntity
  8
SLD-0
  6
Continuous
370
    15
100
AcDbLine
 10
53.394365966
 20
65.8373594445
 30
0.0
 11
53.394365966
 21
80.337359086
 31
0.0
  0
LINE
  5
231
330
1F
100
AcDbEntity
  8
SLD-0
  6
Continuous
370
    15
100
AcDbLine
 10
55.1183869033
 20
80.337359086
 30
0.0
 11
53.394365966
 21
80.337359086
 31
0.0
  0
LINE
  5
232
330
1F
100
AcDbEntity
  8
SLD-0
  6
Continuous
370
    15
100
AcDbLine
 10
55.1183869033
 20
63.4623595741
 30
0.0
 11
54.3823106065
 21
63.4623595741
 31
0.0
  0
LINE
  5
233
330
1F
100
AcDbEntity
  8
SLD-0
  6
Continuous
370
    15
100
AcDbLine
 10
54.3823106065
 20
63.4623595741
 30
0.0
 11
54.256342995
 21
63.7123588194
 31
0.0
  0
LWPOLYLINE
  5
234
330
1F
100
AcDbEntity
  8
SLD-0
  6
Continuous
370
    15
100
AcDbPolyline
 90
       21
 70
   128
 43
0.0
 10
54.6533850217
 20
72.0873593507
 10
54.6632385612
 20
72.0858199551
 10
54.6728480502
 20
72.0812410747
 10
54.681979998
 20
72.0737347614
 10
54.6904067807
 20
72.0634858131
 10
54.6979218939
 20
72.0507470803
 10
54.7043399531
 20
72.0358318393
 10
54.7095049067
 20
72.0191085124
 10
54.7132865164
 20
72.0009865885
 10
54.7155944364
 20
71.9819131021
 10
54.7163688274
 20
71.9623585547
 10
54.7155944364
 20
71.9428051806
 10
54.7132865164
 20
71.9237316942
 10
54.7095049067
 20
71.9056097703
 10
54.7043399531
 20
71.8888864434
 10
54.6979218939
 20
71.8739712024
 10
54.6904067807
 20
71.8612324696
 10
54.681979998
 20
71.8509835213
 10
54.6728480502
 20
71.8434766214
 10
54.6632385612
 20
71.8388983276
 10
54.6533850217
 20
71.837358932
  0
LINE
  5
235
330
1F
100
AcDbEntity
  8
SLD-0
  6
Continuous
370
    15
100
AcDbLine
 10
54.1495145758
 20
72.0873593507
 30
0.0
 11
54.6533850217
 21
72.0873593507
 31
0.0
  0
LWPOLYLINE
  5
236
330
1F
100
AcDbEntity
  8
SLD-0
  6
Continuous
370
    15
100
AcDbPolyline
 90
       21
 70
   128
 43
0.0
 10
54.1495145758
 20
71.837358932
 10
54.1396610363
 20
71.8388983276
 10
54.1300515473
 20
71.8434766214
 10
54.1209207728
 20
71.8509835213
 10
54.1124939901
 20
71.8612324696
 10
54.1049777036
 20
71.8739712024
 10
54.0985596444
 20
71.8888864434
 10
54.0933958641
 20
71.9056097703
 10
54.0896130811
 20
71.9237316942
 10
54.0873063344
 20
71.9428051806
 10
54.08653077
 20
71.9623585547
 10
54.0873063344
 20
71.9819131021
 10
54.0896130811
 20
72.0009865885
 10
54.0933958641
 20
72.0191085124
 10
54.0985596444
 20
72.0358318393
 10
54.1049777036
 20
72.0507470803
 10
54.1124939901
 20
72.0634858131
 10
54.1209207728
 20
72.0737347614
 10
54.1300515473
 20
72.0812410747
 10
54.1396610363
 20
72.0858199551
 10
54.1495145758
 20
72.0873593507
  0
LINE
  5
237
330
1F
100
AcDbEntity
  8
SLD-0
  6
Continuous
370
    15
100
AcDbLine
 10
54.6533850217
 20
71.837358932
 30
0.0
 11
54.1495145758
 21
71.837358932
 31
0.0
  0
LWPOLYLINE
  5
238
330
1F
100
AcDbEntity
  8
SLD-0
  6
Continuous
370
    15
100
AcDbPolyline
 90
       21
 70
   128
 43
0.0
 10
56.1390853521
 20
71.837358932
 10
56.1489377183
 20
71.8388983276
 10
56.1585483806
 20
71.8434766214
 10
56.1676791551
 20
71.8509835213
 10
56.1761059378
 20
71.8612324696
 10
56.1836216376
 20
71.8739712024
 10
56.1900402835
 20
71.8888864434
 10
56.1952040638
 20
71.9056097703
 10
56.1989862601
 20
71.9237316942
 10
56.2012935935
 20
71.9428051806
 10
56.2020691578
 20
71.9623585547
 10
56.2012935935
 20
71.9819131021
 10
56.1989862601
 20
72.0009865885
 10
56.1952040638
 20
72.0191085124
 10
56.1900402835
 20
72.0358318393
 10
56.1836216376
 20
72.0507470803
 10
56.1761059378
 20
72.0634858131
 10
56.1676791551
 20
72.0737347614
 10
56.1585483806
 20
72.0812410747
 10
56.1489377183
 20
72.0858199551
 10
56.1390853521
 20
72.0873593507
  0
LWPOLYLINE
  5
239
330
1F
100
AcDbEntity
  8
SLD-0
  6
Continuous
370
    15
100
AcDbPolyline
 90
       21
 70
   128
 43
0.0
 10
54.1754273431
 20
71.837358932
 10
54.1655749769
 20
71.8388983276
 10
54.1559643146
 20
71.8434766214
 10
54.1468335401
 20
71.8509835213
 10
54.1384067574
 20
71.8612324696
 10
54.1308916442
 20
71.8739712024
 10
54.1244724117
 20
71.8888864434
 10
54.1193086314
 20
71.9056097703
 10
54.1155270217
 20
71.9237316942
 10
54.1132191017
 20
71.9428051806
 10
54.1124435374
 20
71.9623585547
 10
54.1132191017
 20
71.9819131021
 10
54.1155270217
 20
72.0009865885
 10
54.1193086314
 20
72.0191085124
 10
54.1244724117
 20
72.0358318393
 10
54.1308916442
 20
72.0507470803
 10
54.1384067574
 20
72.0634858131
 10
54.1468335401
 20
72.0737347614
 10
54.1559643146
 20
72.0812410747
 10
54.1655749769
 20
72.0858199551
 10
54.1754273431
 20
72.0873593507
  0
LWPOLYLINE
  5
23A
330
1F
100
AcDbEntity
  8
SLD-0
  6
Continuous
370
    15
100
AcDbPolyline
 90
       21
 70
   128
 43
0.0
 10
56.1390853521
 20
68.8373586016
 10
56.1489377183
 20
68.8388979972
 10
56.1585483806
 20
68.8434774643
 10
56.1676791551
 20
68.8509831909
 10
56.1761059378
 20
68.8612321392
 10
56.1836216376
 20
68.873970872
 10
56.1900402835
 20
68.888886113
 10
56.1952040638
 20
68.9056106132
 10
56.1989862601
 20
68.9237325372
 10
56.2012935935
 20
68.9428048502
 10
56.2020691578
 20
68.9623593976
 10
56.2012935935
 20
68.981913945
 10
56.1989862601
 20
69.0009862581
 10
56.1952040638
 20
69.019108182
 10
56.1900402835
 20
69.0358326822
 10
56.1836216376
 20
69.0507479232
 10
56.1761059378
 20
69.063486656
 10
56.1676791551
 20
69.073734431
 10
56.1585483806
 20
69.0812413309
 10
56.1489377183
 20
69.0858196247
 10
56.1390853521
 20
69.0873590203
  0
LWPOLYLINE
  5
23B
330
1F
100
AcDbEntity
  8
SLD-0
  6
Continuous
370
    15
100
AcDbPolyline
 90
       21
 70
   128
 43
0.0
 10
54.1754273431
 20
68.8373586016
 10
54.1655749769
 20
68.8388979972
 10
54.1559643146
 20
68.8434774643
 10
54.1468335401
 20
68.8509831909
 10
54.1384067574
 20
68.8612321392
 10
54.1308916442
 20
68.873970872
 10
54.1244724117
 20
68.888886113
 10
54.1193086314
 20
68.9056106132
 10
54.1155270217
 20
68.9237325372
 10
54.1132191017
 20
68.9428048502
 10
54.1124435374
 20
68.9623593976
 10
54.1132191017
 20
68.981913945
 10
54.1155270217
 20
69.0009862581
 10
54.1193086314
 20
69.019108182
 10
54.1244724117
 20
69.0358326822
 10
54.1308916442
 20
69.0507479232
 10
54.1384067574
 20
69.063486656
 10
54.1468335401
 20
69.073734431
 10
54.1559643146
 20
69.0812413309
 10
54.1655749769
 20
69.0858196247
 10
54.1754273431
 20
69.0873590203
  0
LINE
  5
23C
330
1F
100
AcDbEntity
  8
SLD-0
  6
Continuous
370
    15
100
AcDbLine
 10
53.381410169
 20
65.8373594445
 30
0.0
 11
53.394365966
 21
65.8373594445
 31
0.0
  0
LINE
  5
23D
330
1F
100
AcDbEntity
  8
SLD-0
  6
Continuous
370
    15
100
AcDbLine
 10
53.381410169
 20
80.337359086
 30
0.0
 11
53.381410169
 21
65.8373594445
 31
0.0
  0
LINE
  5
23E
330
1F
100
AcDbEntity
  8
SLD-0
  6
Continuous
370
    15
100
AcDbLine
 10
53.394365966
 20
80.337359086
 30
0.0
 11
53.381410169
 21
80.337359086
 31
0.0
  0
LINE
  5
23F
330
1F
100
AcDbEntity
  8
SLD-0
  6
Continuous
370
    15
100
AcDbLine
 10
56.9331031129
 20
80.337359086
 30
0.0
 11
56.9331031129
 21
65.8373594445
 31
0.0
  0
LINE
  5
240
330
1F
100
AcDbEntity
  8
SLD-0
  6
Continuous
370
    15
100
AcDbLine
 10
56.9331031129
 20
65.8373594445
 30
0.0
 11
56.9201467292
 21
65.8373594445
 31
0.0
  0
LINE
  5
241
330
1F
100
AcDbEntity
  8
SLD-0
  6
Continuous
370
    15
100
AcDbLine
 10
56.9201467292
 20
80.337359086
 30
0.0
 11
56.9331031129
 21
80.337359086
 31
0.0
  0
LINE
  5
242
330
1F
100
AcDbEntity
  8
SLD-0
  6
Continuous
370
    15
100
AcDbLine
 10
57.4072563021
 20
80.337359086
 30
0.0
 11
57.4072563021
 21
65.8373594445
 31
0.0
  0
LINE
  5
243
330
1F
100
AcDbEntity
  8
SLD-0
  6
Continuous
370
    15
100
AcDbLine
 10
57.4072563021
 20
65.8373594445
 30
0.0
 11
56.9331031129
 21
65.8373594445
 31
0.0
  0
LINE
  5
244
330
1F
100
AcDbEntity
  8
SLD-0
  6
Continuous
370
    15
100
AcDbLine
 10
57.4072563021
 20
80.337359086
 30
0.0
 11
56.9331031129
 21
80.337359086
 31
0.0
  0
LINE
  5
245
330
1F
100
AcDbEntity
  8
SLD-0
  6
Continuous
370
    15
100
AcDbLine
 10
53.381410169
 20
65.8373594445
 30
0.0
 11
52.9072563931
 21
65.8373594445
 31
0.0
  0
LINE
  5
246
330
1F
100
AcDbEntity
  8
SLD-0
  6
Continuous
370
    15
100
AcDbLine
 10
53.381410169
 20
80.337359086
 30
0.0
 11
52.9072563931
 21
80.337359086
 31
0.0
  0
LINE
  5
247
330
1F
100
AcDbEntity
  8
SLD-0
  6
Continuous
370
    15
100
AcDbLine
 10
52.9072563931
 20
80.337359086
 30
0.0
 11
52.9072563931
 21
65.8373594445
 31
0.0
  0
SPLINE
  5
248
330
1F
100
AcDbEntity
  8
SLD-0
  6
Continuous
370
    15
100
AcDbSpline
210
0.0
220
0.0
230
1.0
 70
     8
 71
     3
 72
    11
 73
     7
 74
     0
 42
0.00000001
 43
0.00000001
 12
1.0
 22
0.0
 32
0.0
 13
1.0
 23
0.0
 33
0.0
 40
0.0
 40
0.0
 40
0.0
 40
0.0
 40
0.250005657314761
 40
0.5000047714761751
 40
0.7500052804940266
 40
1.0
 40
1.0
 40
1.0
 40
1.0
 10
47.19780373586831
 20
80.93295138563833
 30
0.0
 10
47.19082872759739
 20
80.93334720153918
 30
0.0
 10
47.17687889360565
 20
80.93413882298155
 30
0.0
 10
47.15917862450966
 20
80.93464311113462
 30
0.0
 10
47.14660001602774
 20
80.93406314116253
 30
0.0
 10
47.14461165222309
 20
80.93232151342596
 30
0.0
 10
47.14361748183254
 20
80.93145070964094
 30
0.0
  0
LINE
  5
249
330
1F
100
AcDbEntity
  8
SLD-0
  6
Continuous
370
    15
100
AcDbLine
 10
47.1978037359
 20
80.9329513856
 30
0.0
 11
43.9772556599
 21
65.7259585981
 31
0.0
  0
SPLINE
  5
24A
330
1F
100
AcDbEntity
  8
SLD-0
  6
Continuous
370
    15
100
AcDbSpline
210
0.0
220
0.0
230
1.0
 70
     8
 71
     3
 72
    12
 73
     8
 74
     0
 42
0.00000001
 43
0.00000001
 12
1.0
 22
0.0
 32
0.0
 13
1.0
 23
0.0
 33
0.0
 40
0.0
 40
0.0
 40
0.0
 40
0.0
 40
0.2373851706587929
 40
0.4749160249988811
 40
0.7124424259888296
 40
0.9499589424155033
 40
1.0
 40
1.0
 40
1.0
 40
1.0
 10
43.93377946882183
 20
65.77502213799714
 30
0.0
 10
43.93383800980585
 20
65.771855310485
 30
0.0
 10
43.93395512770057
 20
65.7655197119733
 30
0.0
 10
43.94284058926979
 20
65.75417030807121
 30
0.0
 10
43.95652393811871
 20
65.74181011001633
 30
0.0
 10
43.96909240492776
 20
65.73215313928289
 30
0.0
 10
43.97604564934384
 20
65.72687679316309
 30
0.0
 10
43.9772556599145
 20
65.72595859811668
 30
0.0
  0
LINE
  5
24B
330
1F
100
AcDbEntity
  8
SLD-0
  6
Continuous
370
    15
100
AcDbLine
 10
43.9337794688
 20
65.775022138
 30
0.0
 11
47.1436174818
 21
80.9314507096
 31
0.0
  0
SPLINE
  5
24C
330
1F
100
AcDbEntity
  8
SLD-0
  6
Continuous
370
    15
100
AcDbSpline
210
0.0
220
0.0
230
1.0
 70
     8
 71
     3
 72
    11
 73
     7
 74
     0
 42
0.00000001
 43
0.00000001
 12
1.0
 22
0.0
 32
0.0
 13
1.0
 23
0.0
 33
0.0
 40
0.0
 40
0.0
 40
0.0
 40
0.0
 40
0.2499947195059734
 40
0.4999952285238249
 40
0.749994342685239
 40
1.0
 40
1.0
 40
1.0
 40
1.0
 10
83.81089544497523
 20
80.93145070964094
 30
0.0
 10
83.80990127458467
 20
80.93232151342596
 30
0.0
 10
83.80791291078002
 20
80.93406314116253
 30
0.0
 10
83.79533430229807
 20
80.93464311113462
 30
0.0
 10
83.7776340332021
 20
80.93413882298155
 30
0.0
 10
83.76368419921036
 20
80.93334720153918
 30
0.0
 10
83.75670919093946
 20
80.93295138563833
 30
0.0
  0
LINE
  5
24D
330
1F
100
AcDbEntity
  8
SLD-0
  6
Continuous
370
    15
100
AcDbLine
 10
83.810895445
 20
80.9314507096
 30
0.0
 11
87.020733458
 21
65.775022138
 31
0.0
  0
SPLINE
  5
24E
330
1F
100
AcDbEntity
  8
SLD-0
  6
Continuous
370
    15
100
AcDbSpline
210
0.0
220
0.0
230
1.0
 70
     8
 71
     3
 72
    12
 73
     8
 74
     0
 42
0.00000001
 43
0.00000001
 12
1.0
 22
0.0
 32
0.0
 13
1.0
 23
0.0
 33
0.0
 40
0.0
 40
0.0
 40
0.0
 40
0.0
 40
0.2373888836738411
 40
0.4748986034202146
 40
0.7124325671011181
 40
0.9499570578646304
 40
1.0
 40
1.0
 40
1.0
 40
1.0
 10
86.97725726689326
 20
65.72595859811668
 30
0.0
 10
86.9830260123895
 20
65.73033515064033
 30
0.0
 10
86.99456643979809
 20
65.73909048344746
 30
0.0
 10
87.00924593759376
 20
65.75166728441775
 30
0.0
 10
87.01895075635082
 20
65.76318544752358
 30
0.0
 10
87.02141941709489
 20
65.77070367261929
 30
0.0
 10
87.02083513558394
 20
65.77438202522514
 30
0.0
 10
87.02073345798593
 20
65.77502213799714
 30
0.0
  0
LINE
  5
24F
330
1F
100
AcDbEntity
  8
SLD-0
  6
Continuous
370
    15
100
AcDbLine
 10
86.9772572669
 20
65.7259585981
 30
0.0
 11
83.7567091909
 21
80.9329513856
 31
0.0
  0
LINE
  5
250
330
1F
100
AcDbEntity
  8
SLD-0
  6
Continuous
370
    15
100
AcDbLine
 10
43.9772556599
 20
63.9729590089
 30
0.0
 11
43.9772556599
 21
63.5979589676
 31
0.0
  0
LINE
  5
251
330
1F
100
AcDbEntity
  8
SLD-0
  6
Continuous
370
    15
100
AcDbLine
 10
43.9772556599
 20
63.9729590089
 30
0.0
 11
43.9942852232
 21
63.9729590089
 31
0.0
  0
LINE
  5
252
330
1F
100
AcDbEntity
  8
SLD-0
  6
Continuous
370
    15
100
AcDbLine
 10
43.9942852232
 20
63.9729590089
 30
0.0
 11
43.9942852232
 21
65.2859589877
 31
0.0
  0
LINE
  5
253
330
1F
100
AcDbEntity
  8
SLD-0
  6
Continuous
370
    15
100
AcDbLine
 10
43.9942852232
 20
65.2859589877
 30
0.0
 11
43.9772556599
 21
65.2859589877
 31
0.0
  0
LINE
  5
254
330
1F
100
AcDbEntity
  8
SLD-0
  6
Continuous
370
    15
100
AcDbLine
 10
43.9772556599
 20
65.7259585981
 30
0.0
 11
43.9772556599
 21
65.2859589877
 31
0.0
  0
LINE
  5
255
330
1F
100
AcDbEntity
  8
SLD-0
  6
Continuous
370
    15
100
AcDbLine
 10
83.5472563572
 20
81.9219591272
 30
0.0
 11
47.4072565696
 21
81.9219591272
 31
0.0
  0
LINE
  5
256
330
1F
100
AcDbEntity
  8
SLD-0
  6
Continuous
370
    15
100
AcDbLine
 10
83.7567091909
 20
80.9329513856
 30
0.0
 11
83.5472563572
 21
81.9219591272
 31
0.0
  0
LINE
  5
257
330
1F
100
AcDbEntity
  8
SLD-0
  6
Continuous
370
    15
100
AcDbLine
 10
86.9772572669
 20
65.2859589877
 30
0.0
 11
86.9772572669
 21
65.7259585981
 31
0.0
  0
LINE
  5
258
330
1F
100
AcDbEntity
  8
SLD-0
  6
Continuous
370
    15
100
AcDbLine
 10
86.9772572669
 20
65.2859589877
 30
0.0
 11
86.9602277036
 21
65.2859589877
 31
0.0
  0
LINE
  5
259
330
1F
100
AcDbEntity
  8
SLD-0
  6
Continuous
370
    15
100
AcDbLine
 10
86.9602277036
 20
65.2859589877
 30
0.0
 11
86.9602277036
 21
63.9729590089
 31
0.0
  0
LINE
  5
25A
330
1F
100
AcDbEntity
  8
SLD-0
  6
Continuous
370
    15
100
AcDbLine
 10
86.9602277036
 20
63.9729590089
 30
0.0
 11
86.9772572669
 21
63.9729590089
 31
0.0
  0
LINE
  5
25B
330
1F
100
AcDbEntity
  8
SLD-0
  6
Continuous
370
    15
100
AcDbLine
 10
86.9772572669
 20
63.5979589676
 30
0.0
 11
86.9772572669
 21
63.9729590089
 31
0.0
  0
LINE
  5
25C
330
1F
100
AcDbEntity
  8
SLD-0
  6
Continuous
370
    15
100
AcDbLine
 10
86.9772572669
 20
63.4826591796
 30
0.0
 11
86.9772572669
 21
63.5979589676
 31
0.0
  0
LINE
  5
25D
330
1F
100
AcDbEntity
  8
SLD-0
  6
Continuous
370
    15
100
AcDbLine
 10
43.9772556599
 20
63.5979589676
 30
0.0
 11
43.9772556599
 21
63.4826591796
 31
0.0
  0
LINE
  5
25E
330
1F
100
AcDbEntity
  8
SLD-0
  6
Continuous
370
    15
100
AcDbLine
 10
47.4072565696
 20
81.9219591272
 30
0.0
 11
47.1978037359
 21
80.9329513856
 31
0.0
  0
SPLINE
  5
25F
330
1F
100
AcDbEntity
  8
SLD-0
  6
Continuous
370
    15
100
AcDbSpline
210
0.0
220
0.0
230
1.0
 70
     8
 71
     3
 72
    11
 73
     7
 74
     0
 42
0.00000001
 43
0.00000001
 12
1.0
 22
0.0
 32
0.0
 13
1.0
 23
0.0
 33
0.0
 40
0.0
 40
0.0
 40
0.0
 40
0.0
 40
0.2500033300185793
 40
0.5000006963224753
 40
0.7500062307229788
 40
1.0
 40
1.0
 40
1.0
 40
1.0
 10
83.54725635722313
 20
81.92195912720366
 30
0.0
 10
83.54619841702271
 20
81.9288647333734
 30
0.0
 10
83.54408256185852
 20
81.94267578098278
 30
0.0
 10
83.54090870076044
 20
81.96009614132893
 30
0.0
 10
83.53773465147113
 20
81.97228238662524
 30
0.0
 10
83.53561967425748
 20
81.97386689385299
 30
0.0
 10
83.53456221053366
 20
81.97465912882492
 30
0.0
  0
SPLINE
  5
260
330
1F
100
AcDbEntity
  8
SLD-0
  6
Continuous
370
    15
100
AcDbSpline
210
0.0
220
0.0
230
1.0
 70
     8
 71
     3
 72
    11
 73
     7
 74
     0
 42
0.00000001
 43
0.00000001
 12
1.0
 22
0.0
 32
0.0
 13
1.0
 23
0.0
 33
0.0
 40
0.0
 40
0.0
 40
0.0
 40
0.0
 40
0.2499937692770212
 40
0.4999993036775247
 40
0.7499966699814207
 40
1.0
 40
1.0
 40
1.0
 40
1.0
 10
47.41995071627409
 20
81.97465912882492
 30
0.0
 10
47.41889325255026
 20
81.97386689385299
 30
0.0
 10
47.41677827533662
 20
81.97228238662524
 30
0.0
 10
47.41360422604733
 20
81.96009614132893
 30
0.0
 10
47.41043036494923
 20
81.94267578098278
 30
0.0
 10
47.40831450978506
 20
81.9288647333734
 30
0.0
 10
47.40725656958463
 20
81.92195912720366
 30
0.0
  0
LINE
  5
261
330
1F
100
AcDbEntity
  8
SLD-0
  6
Continuous
370
    15
100
AcDbLine
 10
47.4199507163
 20
81.9746591288
 30
0.0
 11
83.5345622105
 21
81.9746591288
 31
0.0
  0
LINE
  5
262
330
1F
100
AcDbEntity
  8
SLD-0
  6
Continuous
370
    15
100
AcDbLine
 10
43.9245571754
 20
65.2859589877
 30
0.0
 11
43.9772556599
 21
65.2859589877
 31
0.0
  0
LINE
  5
263
330
1F
100
AcDbEntity
  8
SLD-0
  6
Continuous
370
    15
100
AcDbLine
 10
43.9245571754
 20
65.6660160372
 30
0.0
 11
43.9245571754
 21
65.2859589877
 31
0.0
  0
SPLINE
  5
264
330
1F
100
AcDbEntity
  8
SLD-0
  6
Continuous
370
    15
100
AcDbSpline
210
0.0
220
0.0
230
1.0
 70
     8
 71
     3
 72
    11
 73
     7
 74
     0
 42
0.00000001
 43
0.00000001
 12
1.0
 22
0.0
 32
0.0
 13
1.0
 23
0.0
 33
0.0
 40
0.0
 40
0.0
 40
0.0
 40
0.0
 40
0.2499996945887553
 40
0.5000018176699632
 40
0.750003940751171
 40
1.0
 40
1.0
 40
1.0
 40
1.0
 10
43.9772556599145
 20
65.72595859811668
 30
0.0
 10
43.9703502252239
 20
65.72096337387715
 30
0.0
 10
43.95653928876351
 20
65.71097287687458
 30
0.0
 10
43.93911859014064
 20
65.695987302115
 30
0.0
 10
43.92693253518422
 20
65.68100189338593
 30
0.0
 10
43.92534895556538
 20
65.67101128223752
 30
0.0
 10
43.92455717535854
 20
65.66601603724492
 30
0.0
  0
LINE
  5
265
330
1F
100
AcDbEntity
  8
SLD-0
  6
Continuous
370
    15
100
AcDbLine
 10
87.0299557514
 20
65.2859589877
 30
0.0
 11
87.0299557514
 21
65.6660160372
 31
0.0
  0
LINE
  5
266
330
1F
100
AcDbEntity
  8
SLD-0
  6
Continuous
370
    15
100
AcDbLine
 10
86.9772572669
 20
65.2859589877
 30
0.0
 11
87.0299557514
 21
65.2859589877
 31
0.0
  0
SPLINE
  5
267
330
1F
100
AcDbEntity
  8
SLD-0
  6
Continuous
370
    15
100
AcDbSpline
210
0.0
220
0.0
230
1.0
 70
     8
 71
     3
 72
    11
 73
     7
 74
     0
 42
0.00000001
 43
0.00000001
 12
1.0
 22
0.0
 32
0.0
 13
1.0
 23
0.0
 33
0.0
 40
0.0
 40
0.0
 40
0.0
 40
0.0
 40
0.249996059248829
 40
0.4999981823300368
 40
0.7500003054112446
 40
1.0
 40
1.0
 40
1.0
 40
1.0
 10
87.02995575144921
 20
65.66601603724492
 30
0.0
 10
87.02916397124238
 20
65.67101128223752
 30
0.0
 10
87.02758039162354
 20
65.68100189338593
 30
0.0
 10
87.01539433666711
 20
65.695987302115
 30
0.0
 10
86.99797363804424
 20
65.71097287687458
 30
0.0
 10
86.98416270158384
 20
65.72096337387715
 30
0.0
 10
86.97725726689326
 20
65.72595859811668
 30
0.0
  0
LINE
  5
268
330
1F
100
AcDbEntity
  8
SLD-0
  6
Continuous
370
    15
100
AcDbLine
 10
43.9245571754
 20
63.9729590089
 30
0.0
 11
43.9245571754
 21
63.5979589676
 31
0.0
  0
LINE
  5
269
330
1F
100
AcDbEntity
  8
SLD-0
  6
Continuous
370
    15
100
AcDbLine
 10
43.9772556599
 20
63.9729590089
 30
0.0
 11
43.9245571754
 21
63.9729590089
 31
0.0
  0
LINE
  5
26A
330
1F
100
AcDbEntity
  8
SLD-0
  6
Continuous
370
    15
100
AcDbLine
 10
43.9245571754
 20
63.5979589676
 30
0.0
 11
43.9772556599
 21
63.5979589676
 31
0.0
  0
LINE
  5
26B
330
1F
100
AcDbEntity
  8
SLD-0
  6
Continuous
370
    15
100
AcDbLine
 10
87.0299557514
 20
63.9729590089
 30
0.0
 11
86.9772572669
 21
63.9729590089
 31
0.0
  0
LINE
  5
26C
330
1F
100
AcDbEntity
  8
SLD-0
  6
Continuous
370
    15
100
AcDbLine
 10
87.0299557514
 20
63.5979589676
 30
0.0
 11
87.0299557514
 21
63.9729590089
 31
0.0
  0
LINE
  5
26D
330
1F
100
AcDbEntity
  8
SLD-0
  6
Continuous
370
    15
100
AcDbLine
 10
86.9772572669
 20
63.5979589676
 30
0.0
 11
87.0299557514
 21
63.5979589676
 31
0.0
  0
LINE
  5
26E
330
1F
100
AcDbEntity
  8
SLD-0
  6
Continuous
370
    15
100
AcDbLine
 10
87.0299557514
 20
63.9729590089
 30
0.0
 11
87.0299557514
 21
65.2859589877
 31
0.0
  0
LINE
  5
26F
330
1F
100
AcDbEntity
  8
SLD-0
  6
Continuous
370
    15
100
AcDbLine
 10
87.0082563755
 20
63.9729590089
 30
0.0
 11
87.0082563755
 21
65.2859589877
 31
0.0
  0
LINE
  5
270
330
1F
100
AcDbEntity
  8
SLD-0
  6
Continuous
370
    15
100
AcDbLine
 10
43.9462565514
 20
65.2859589877
 30
0.0
 11
43.9462565514
 21
63.9729590089
 31
0.0
  0
LINE
  5
271
330
1F
100
AcDbEntity
  8
SLD-0
  6
Continuous
370
    15
100
AcDbLine
 10
43.9245571754
 20
65.2859589877
 30
0.0
 11
43.9245571754
 21
63.9729590089
 31
0.0
  0
ARC
  5
272
330
1F
100
AcDbEntity
  8
SLD-0
  6
Continuous
370
    15
100
AcDbCircle
 10
83.5025684027
 20
81.9002591272
 30
0.0
 40
0.0527000000000073
100
AcDbArc
 50
11.9836622663
 51
34.2829699135
  0
LINE
  5
273
330
1F
100
AcDbEntity
  8
SLD-0
  6
Continuous
370
    15
100
AcDbLine
 10
83.7617063599
 20
80.9332145026
 30
0.0
 11
83.5541202779
 21
81.9112013741
 31
0.0
  0
LINE
  5
274
330
1F
100
AcDbEntity
  8
SLD-0
  6
Continuous
370
    15
100
AcDbLine
 10
86.9795992132
 20
63.4826591796
 30
0.0
 11
86.9795992132
 21
63.5979589676
 31
0.0
  0
LINE
  5
275
330
1F
100
AcDbEntity
  8
SLD-0
  6
Continuous
370
    15
100
AcDbLine
 10
86.9795992132
 20
63.9729590089
 30
0.0
 11
86.9795992132
 21
65.2859589877
 31
0.0
  0
ARC
  5
276
330
1F
100
AcDbEntity
  8
SLD-0
  6
Continuous
370
    15
100
AcDbCircle
 10
47.4519445241
 20
81.9002591272
 30
0.0
 40
0.0527000000000014
100
AcDbArc
 50
145.7170300868
 51
168.0163377337
  0
LINE
  5
277
330
1F
100
AcDbEntity
  8
SLD-0
  6
Continuous
370
    15
100
AcDbLine
 10
47.1928065669
 20
80.9332145026
 30
0.0
 11
47.4003926489
 21
81.9112013741
 31
0.0
  0
LINE
  5
278
330
1F
100
AcDbEntity
  8
SLD-0
  6
Continuous
370
    15
100
AcDbLine
 10
43.9749137136
 20
63.4826591796
 30
0.0
 11
43.9749137136
 21
63.5979589676
 31
0.0
  0
LINE
  5
279
330
1F
100
AcDbEntity
  8
SLD-0
  6
Continuous
370
    15
100
AcDbLine
 10
43.9749137136
 20
63.9729590089
 30
0.0
 11
43.9749137136
 21
65.2859589877
 31
0.0
  0
LINE
  5
27A
330
1F
100
AcDbEntity
  8
SLD-0
  6
Continuous
370
    15
100
AcDbLine
 10
43.9749137136
 20
65.7242173916
 30
0.0
 11
43.9749137136
 21
65.7277373509
 31
0.0
  0
LINE
  5
27B
330
1F
100
AcDbEntity
  8
SLD-0
  6
Continuous
370
    15
100
AcDbLine
 10
47.4072565696
 20
81.9336591271
 30
0.0
 11
47.4054285374
 21
81.9250299365
 31
0.0
  0
LINE
  5
27C
330
1F
100
AcDbEntity
  8
SLD-0
  6
Continuous
370
    15
100
AcDbLine
 10
83.5472563572
 20
81.9336591271
 30
0.0
 11
83.5454154185
 21
81.9336591271
 31
0.0
  0
LINE
  5
27D
330
1F
100
AcDbEntity
  8
SLD-0
  6
Continuous
370
    15
100
AcDbLine
 10
47.4090975083
 20
81.9336591271
 30
0.0
 11
47.4072565696
 21
81.9336591271
 31
0.0
  0
LINE
  5
27E
330
1F
100
AcDbEntity
  8
SLD-0
  6
Continuous
370
    15
100
AcDbLine
 10
83.5490843894
 20
81.9250299365
 30
0.0
 11
83.5472563572
 21
81.9336591271
 31
0.0
  0
LINE
  5
27F
330
1F
100
AcDbEntity
  8
SLD-0
  6
Continuous
370
    15
100
AcDbLine
 10
83.549732062
 20
81.9102700022
 30
0.0
 11
83.5541202779
 21
81.9112013741
 31
0.0
  0
LINE
  5
280
330
1F
100
AcDbEntity
  8
SLD-0
  6
Continuous
370
    15
100
AcDbLine
 10
47.4047808649
 20
81.9102700022
 30
0.0
 11
47.4003926489
 21
81.9112013741
 31
0.0
  0
DIMENSION
  5
281
330
1F
100
AcDbEntity
  8
DIM
100
AcDbDimension
  2
_D_4
 10
43.8997564634
 20
56.1098301427
 30
0.0
 11
38.9749131334
 21
56.1098301427
 31
0.0
 70
   160
  1
<>
 71
     2
 42
-1.0
  3
SLDDIMSTYLE1
100
AcDbAlignedDimension
 13
42.9749131334
 23
63.5203341272
 33
0.0
 14
43.8997564634
 24
62.7972591272
 34
0.0
100
AcDbRotatedDimension
  0
DIMENSION
  5
290
330
1F
100
AcDbEntity
  8
DIM
100
AcDbDimension
  2
_D_5
 10
87.0547564634
 20
56.1098301427
 30
0.0
 11
65.4772564634
 21
56.1098301427
 31
0.0
 70
   160
  1
<>
 71
     2
 42
-1.0
  3
SLDDIMSTYLE0
100
AcDbAlignedDimension
 13
43.8997564634
 23
62.7972591272
 33
0.0
 14
87.0547564634
 24
62.7972591272
 34
0.0
100
AcDbRotatedDimension
  0
DIMENSION
  5
29F
330
1F
100
AcDbEntity
  8
DIM
100
AcDbDimension
  2
_D_6
 10
38.9749131334
 20
82.0006591272
 30
0.0
 11
38.9749131334
 21
72.3666591272
 31
0.0
 70
   160
  1
<>
 71
     2
 42
-1.0
  3
SLDDIMSTYLE0
100
AcDbAlignedDimension
 13
43.9644691618
 23
62.7326591272
 33
0.0
 14
47.4072564634
 24
82.0006591272
 34
0.0
 50
90.0
100
AcDbRotatedDimension
  0
DIMENSION
  5
2AE
330
1F
100
AcDbEntity
  8
DIM
100
AcDbDimension
  2
_D_7
 10
83.5472564634
 20
86.5759022858
 30
0.0
 11
65.4772564634
 21
86.5759022858
 31
0.0
 70
   160
  1
<>
 71
     2
 42
-1.0
  3
SLDDIMSTYLE0
100
AcDbAlignedDimension
 13
47.4072564634
 23
82.0006591272
 33
0.0
 14
83.5472564634
 24
82.0006591272
 34
0.0
100
AcDbRotatedDimension
  0
LINE
  5
2BD
330
1F
100
AcDbEntity
  8
SLD-0
  6
Continuous
370
    15
100
AcDbLine
 10
121.9780962121
 20
46.8073458365
 30
0.0
 11
105.1030967002
 21
46.8073458365
 31
0.0
  0
LINE
  5
2BE
330
1F
100
AcDbEntity
  8
SLD-0
  6
Continuous
370
    15
100
AcDbLine
 10
107.3783960691
 20
8.1487152643
 30
0.0
 11
107.4327993873
 21
8.1487152643
 31
0.0
  0
LINE
  5
2BF
330
1F
100
AcDbEntity
  8
SLD-0
  6
Continuous
370
    15
100
AcDbLine
 10
107.3783960691
 20
9.1147152866
 30
0.0
 11
107.4327993873
 21
9.1147152866
 31
0.0
  0
LINE
  5
2C0
330
1F
100
AcDbEntity
  8
SLD-0
  6
Continuous
370
    15
100
AcDbLine
 10
107.3783960691
 20
8.146115261
 30
0.0
 11
104.4403963025
 21
8.146115261
 31
0.0
  0
LINE
  5
2C1
330
1F
100
AcDbEntity
  8
SLD-0
  6
Continuous
370
    15
100
AcDbLine
 10
104.4403963025
 20
8.079115255
 30
0.0
 11
107.3641320206
 21
8.079115255
 31
0.0
  0
LINE
  5
2C2
330
1F
100
AcDbEntity
  8
SLD-0
  6
Continuous
370
    15
100
AcDbLine
 10
104.4403963025
 20
8.079115255
 30
0.0
 11
104.4403963025
 21
8.146115261
 31
0.0
  0
SPLINE
  5
2C3
330
1F
100
AcDbEntity
  8
SLD-0
  6
Continuous
370
    15
100
AcDbSpline
210
0.0
220
0.0
230
1.0
 70
     8
 71
     3
 72
    11
 73
     7
 74
     0
 42
0.00000001
 43
0.00000001
 12
1.0
 22
0.0
 32
0.0
 13
1.0
 23
0.0
 33
0.0
 40
0.0
 40
0.0
 40
0.0
 40
0.0
 40
0.2499985766004055
 40
0.4999986738497195
 40
0.7500031879761049
 40
1.0
 40
1.0
 40
1.0
 40
1.0
 10
107.3783960691181
 20
8.146115260966672
 30
0.0
 10
107.3772076290947
 20
8.13733579735129
 30
0.0
 10
107.3748307418189
 20
8.119776816718291
 30
0.0
 10
107.3712629938341
 20
8.097630060621697
 30
0.0
 10
107.3676979142882
 20
8.082136888723198
 30
0.0
 10
107.365320639599
 20
8.080122455868487
 30
0.0
 10
107.3641320205643
 20
8.07911525495646
 30
0.0
  0
LINE
  5
2C4
330
1F
100
AcDbEntity
  8
SLD-0
  6
Continuous
370
    15
100
AcDbLine
 10
104.4403963025
 20
8.146115261
 30
0.0
 11
104.4403963025
 21
9.1151152878
 31
0.0
  0
LINE
  5
2C5
330
1F
100
AcDbEntity
  8
SLD-0
  6
Continuous
370
    15
100
AcDbLine
 10
104.4403963025
 20
9.1151152878
 30
0.0
 11
107.3783960691
 21
9.1151152878
 31
0.0
  0
LINE
  5
2C6
330
1F
100
AcDbEntity
  8
SLD-0
  6
Continuous
370
    15
100
AcDbLine
 10
107.3783960691
 20
9.1151152878
 30
0.0
 11
107.3783960691
 21
8.146115261
 31
0.0
  0
LINE
  5
2C7
330
1F
100
AcDbEntity
  8
SLD-0
  6
Continuous
370
    15
100
AcDbLine
 10
107.4263766348
 20
8.079115255
 30
0.0
 11
123.5743962533
 21
8.079115255
 31
0.0
  0
ARC
  5
2C8
330
1F
100
AcDbEntity
  8
SLD-0
  6
Continuous
370
    15
100
AcDbCircle
 10
107.3490121739
 20
8.1300822267
 30
0.0
 40
0.0926438990169139
100
AcDbArc
 50
326.6234877152
 51
9.9658327466
  0
LINE
  5
2C9
330
1F
100
AcDbEntity
  8
SLD-0
  6
Continuous
370
    15
100
AcDbLine
 10
123.5755082156
 20
8.146115261
 30
0.0
 11
107.4402581811
 21
8.146115261
 31
0.0
  0
ARC
  5
2CA
330
1F
100
AcDbEntity
  8
SLD-0
  6
Continuous
370
    15
100
AcDbCircle
 10
123.2545924201
 20
8.1461001737
 30
0.0
 40
0.3209157958349101
100
AcDbArc
 50
358.4107757175
 51
0.0026936535
  0
SPLINE
  5
2CB
330
1F
100
AcDbEntity
  8
SLD-0
  6
Continuous
370
    15
100
AcDbSpline
210
0.0
220
0.0
230
1.0
 70
     8
 71
     3
 72
    11
 73
     7
 74
     0
 42
0.00000001
 43
0.00000001
 12
1.0
 22
0.0
 32
0.0
 13
1.0
 23
0.0
 33
0.0
 40
0.0
 40
0.0
 40
0.0
 40
0.0
 40
0.2499979021859234
 40
0.5000029418018155
 40
0.7499979826346426
 40
1.0
 40
1.0
 40
1.0
 40
1.0
 10
123.5753847752266
 20
8.137200010623072
 30
0.0
 10
123.5760548776349
 20
8.129350230550893
 30
0.0
 10
123.5773951015828
 20
8.113650446295631
 30
0.0
 10
123.5773282575828
 20
8.094706964178283
 30
0.0
 10
123.5761968105401
 20
8.081636110158154
 30
0.0
 10
123.5749964446382
 20
8.079955547840067
 30
0.0
 10
123.5743962533128
 20
8.07911525495646
 30
0.0
  0
LINE
  5
2CC
330
1F
100
AcDbEntity
  8
SLD-0
  6
Continuous
370
    15
100
AcDbLine
 10
123.5755082156
 20
8.146115261
 30
0.0
 11
123.5755082156
 21
9.1151152878
 31
0.0
  0
LINE
  5
2CD
330
1F
100
AcDbEntity
  8
SLD-0
  6
Continuous
370
    15
100
AcDbLine
 10
107.4402581811
 20
9.1151152878
 30
0.0
 11
107.4402581811
 21
8.146115261
 31
0.0
  0
LINE
  5
2CE
330
1F
100
AcDbEntity
  8
SLD-0
  6
Continuous
370
    15
100
AcDbLine
 10
107.4402581811
 20
9.1151152878
 30
0.0
 11
123.5755082156
 21
9.1151152878
 31
0.0
  0
ARC
  5
2CF
330
1F
100
AcDbEntity
  8
SLD-0
  6
Continuous
370
    15
100
AcDbCircle
 10
107.3905868031
 20
8.1386957569
 30
0.0
 40
0.0428596699390929
100
AcDbArc
 50
326.62071535
 51
9.9687808719
  0
LINE
  5
2D0
330
1F
100
AcDbEntity
  8
SLD-0
  6
Continuous
370
    15
100
AcDbLine
 10
107.4402581811
 20
8.146115261
 30
0.0
 11
107.4327993873
 21
8.146115261
 31
0.0
  0
LINE
  5
2D1
330
1F
100
AcDbEntity
  8
SLD-0
  6
Continuous
370
    15
100
AcDbLine
 10
107.4263766348
 20
8.1151152724
 30
0.0
 11
107.4263766348
 21
8.079115255
 31
0.0
  0
LINE
  5
2D2
330
1F
100
AcDbEntity
  8
SLD-0
  6
Continuous
370
    15
100
AcDbLine
 10
107.4327993873
 20
9.1151152878
 30
0.0
 11
107.4327993873
 21
8.146115261
 31
0.0
  0
LINE
  5
2D3
330
1F
100
AcDbEntity
  8
SLD-0
  6
Continuous
370
    15
100
AcDbLine
 10
107.4402581811
 20
9.1151152878
 30
0.0
 11
107.4327993873
 21
9.1151152878
 31
0.0
  0
LINE
  5
2D4
330
1F
100
AcDbEntity
  8
SLD-0
  6
Continuous
370
    15
100
AcDbLine
 10
107.4257641619
 20
8.079115255
 30
0.0
 11
107.4257641619
 21
8.1151152724
 31
0.0
  0
LINE
  5
2D5
330
1F
100
AcDbEntity
  8
SLD-0
  6
Continuous
370
    15
100
AcDbLine
 10
107.4257641619
 20
8.079115255
 30
0.0
 11
107.3641320206
 21
8.079115255
 31
0.0
  0
LINE
  5
2D6
330
1F
100
AcDbEntity
  8
SLD-0
  6
Continuous
370
    15
100
AcDbLine
 10
107.4257641619
 20
8.1151152724
 30
0.0
 11
107.3739503605
 21
8.1151152724
 31
0.0
  0
LINE
  5
2D7
330
1F
100
AcDbEntity
  8
SLD-0
  6
Continuous
370
    15
100
AcDbLine
 10
104.4093960206
 20
8.146115261
 30
0.0
 11
104.4093960206
 21
9.048115291
 31
0.0
  0
LINE
  5
2D8
330
1F
100
AcDbEntity
  8
SLD-0
  6
Continuous
370
    15
100
AcDbLine
 10
104.4093960206
 20
8.146115261
 30
0.0
 11
104.3733962231
 21
8.146115261
 31
0.0
  0
LINE
  5
2D9
330
1F
100
AcDbEntity
  8
SLD-0
  6
Continuous
370
    15
100
AcDbLine
 10
104.3733962231
 20
8.146115261
 30
0.0
 11
104.3733962231
 21
9.048115291
 31
0.0
  0
LINE
  5
2DA
330
1F
100
AcDbEntity
  8
SLD-0
  6
Continuous
370
    15
100
AcDbLine
 10
104.4093960206
 20
9.048115291
 30
0.0
 11
104.3733962231
 21
9.048115291
 31
0.0
  0
ARC
  5
2DB
330
1F
100
AcDbEntity
  8
SLD-0
  6
Continuous
370
    15
100
AcDbCircle
 10
104.4403962534
 20
9.0481152882
 30
0.0
 40
0.0310000000000059
100
AcDbArc
 50
90.0
 51
180.0
  0
ARC
  5
2DC
330
1F
100
AcDbEntity
  8
SLD-0
  6
Continuous
370
    15
100
AcDbCircle
 10
104.4403962534
 20
9.0481152882
 30
0.0
 40
0.0670000000000019
100
AcDbArc
 50
90.0
 51
180.0
  0
ARC
  5
2DD
330
1F
100
AcDbEntity
  8
SLD-0
  6
Continuous
370
    15
100
AcDbCircle
 10
104.4403962534
 20
8.1461152882
 30
0.0
 40
0.0669999999999984
100
AcDbArc
 50
180.0
 51
270.0
  0
ARC
  5
2DE
330
1F
100
AcDbEntity
  8
SLD-0
  6
Continuous
370
    15
100
AcDbCircle
 10
104.4403962534
 20
8.1461152882
 30
0.0
 40
0.0309999999999988
100
AcDbArc
 50
180.0
 51
270.0
  0
LINE
  5
2DF
330
1F
100
AcDbEntity
  8
SLD-0
  6
Continuous
370
    15
100
AcDbLine
 10
107.4263766348
 20
8.079115255
 30
0.0
 11
107.4257641619
 21
8.079115255
 31
0.0
  0
LINE
  5
2E0
330
1F
100
AcDbEntity
  8
SLD-0
  6
Continuous
370
    15
100
AcDbLine
 10
107.4263766348
 20
8.1151152724
 30
0.0
 11
107.4257641619
 21
8.1151152724
 31
0.0
  0
LINE
  5
2E1
330
1F
100
AcDbEntity
  8
SLD-0
  6
Continuous
370
    15
100
AcDbLine
 10
123.6053962522
 20
8.146115261
 30
0.0
 11
123.6413962559
 21
8.146115261
 31
0.0
  0
ARC
  5
2E2
330
1F
100
AcDbEntity
  8
SLD-0
  6
Continuous
370
    15
100
AcDbCircle
 10
123.5743962534
 20
8.1461152882
 30
0.0
 40
0.0670000000000073
100
AcDbArc
 50
270.0
 51
0.0
  0
ARC
  5
2E3
330
1F
100
AcDbEntity
  8
SLD-0
  6
Continuous
370
    15
100
AcDbCircle
 10
123.5743962534
 20
8.1461152882
 30
0.0
 40
0.0310000000000059
100
AcDbArc
 50
274.8675649223
 51
0.0
  0
LINE
  5
2E4
330
1F
100
AcDbEntity
  8
SLD-0
  6
Continuous
370
    15
100
AcDbLine
 10
123.6413962559
 20
9.1151152878
 30
0.0
 11
123.6413962559
 21
8.146115261
 31
0.0
  0
LINE
  5
2E5
330
1F
100
AcDbEntity
  8
SLD-0
  6
Continuous
370
    15
100
AcDbLine
 10
123.6053962522
 20
9.1151152878
 30
0.0
 11
123.6053962522
 21
8.146115261
 31
0.0
  0
LINE
  5
2E6
330
1F
100
AcDbEntity
  8
SLD-0
  6
Continuous
370
    15
100
AcDbLine
 10
123.6413962559
 20
9.1151152878
 30
0.0
 11
123.6053962522
 21
9.1151152878
 31
0.0
  0
LWPOLYLINE
  5
2E7
330
1F
100
AcDbEntity
  8
SLD-0
  6
Continuous
370
    15
100
AcDbPolyline
 90
        9
 70
   128
 43
0.0
 10
103.8769270784
 20
39.4737686879
 10
103.8775372047
 20
39.4731609083
 10
103.8793429438
 20
39.4713539958
 10
103.8822774166
 20
39.4684183497
 10
103.8862256376
 20
39.464471302
 10
103.891037422
 20
39.4596606909
 10
103.896526212
 20
39.4541695543
 10
103.9024819832
 20
39.4482137831
 10
103.9086759383
 20
39.4420210013
  0
LINE
  5
2E8
330
1F
100
AcDbEntity
  8
SLD-0
  6
Continuous
370
    15
100
AcDbLine
 10
101.8250160622
 20
37.358359952
 30
0.0
 11
103.9086759383
 21
39.4420210013
 31
0.0
  0
SPLINE
  5
2E9
330
1F
100
AcDbEntity
  8
SLD-0
  6
Continuous
370
    15
100
AcDbSpline
210
0.0
220
0.0
230
1.0
 70
     8
 71
     3
 72
    11
 73
     7
 74
     0
 42
0.00000001
 43
0.00000001
 12
1.0
 22
0.0
 32
0.0
 13
1.0
 23
0.0
 33
0.0
 40
0.0
 40
0.0
 40
0.0
 40
0.0
 40
0.2582975151661717
 40
0.5167611153887499
 40
0.7752138868728923
 40
1.0
 40
1.0
 40
1.0
 40
1.0
 10
101.8250160622379
 20
37.35835995195656
 30
0.0
 10
101.8178517857914
 20
37.35979441926293
 30
0.0
 10
101.8035186262755
 20
37.36266427623679
 30
0.0
 10
101.784200611341
 20
37.36478749267812
 30
0.0
 10
101.7690612608457
 20
37.36346472048935
 30
0.0
 10
101.7628768444841
 20
37.3589459837555
 30
0.0
 10
101.7600000666415
 20
37.35684402280204
 30
0.0
  0
LINE
  5
2EA
330
1F
100
AcDbEntity
  8
SLD-0
  6
Continuous
370
    15
100
AcDbLine
 10
103.8769270784
 20
39.4737686879
 30
0.0
 11
101.7600000666
 21
37.3568440228
 31
0.0
  0
SPLINE
  5
2EB
330
1F
100
AcDbEntity
  8
SLD-0
  6
Continuous
370
    15
100
AcDbSpline
210
0.0
220
0.0
230
1.0
 70
     8
 71
     3
 72
     9
 73
     5
 74
     0
 42
0.00000001
 43
0.00000001
 12
1.0
 22
0.0
 32
0.0
 13
1.0
 23
0.0
 33
0.0
 40
0.0
 40
0.0
 40
0.0
 40
0.0
 40
0.5000344167553198
 40
1.0
 40
1.0
 40
1.0
 40
1.0
 10
101.8250160622379
 20
37.35835995195656
 30
0.0
 10
101.8166047339824
 20
37.35568183440127
 30
0.0
 10
101.7997832353544
 20
37.35032596795377
 30
0.0
 10
101.7873563193619
 20
37.34057563252377
 30
0.0
 10
101.7811432890599
 20
37.33570080038368
 30
0.0
  0
LINE
  5
2EC
330
1F
100
AcDbEntity
  8
SLD-0
  6
Continuous
370
    15
100
AcDbLine
 10
101.7811432891
 20
37.3357008004
 30
0.0
 11
101.7600000666
 21
37.3568440228
 31
0.0
  0
LINE
  5
2ED
330
1F
100
AcDbEntity
  8
SLD-0
  6
Continuous
370
    15
100
AcDbLine
 10
104.3733962231
 20
39.4420210013
 30
0.0
 11
103.9086759383
 21
39.4420210013
 31
0.0
  0
LINE
  5
2EE
330
1F
100
AcDbEntity
  8
SLD-0
  6
Continuous
370
    15
100
AcDbLine
 10
104.3733962231
 20
37.358359952
 30
0.0
 11
101.8250160622
 21
37.358359952
 31
0.0
  0
SPLINE
  5
2EF
330
1F
100
AcDbEntity
  8
SLD-0
  6
Continuous
370
    15
100
AcDbSpline
210
0.0
220
0.0
230
1.0
 70
     8
 71
     3
 72
     9
 73
     5
 74
     0
 42
0.00000001
 43
0.00000001
 12
1.0
 22
0.0
 32
0.0
 13
1.0
 23
0.0
 33
0.0
 40
0.0
 40
0.0
 40
0.0
 40
0.0
 40
0.5000022876539012
 40
1.0
 40
1.0
 40
1.0
 40
1.0
 10
101.7811432890599
 20
37.33570080038368
 30
0.0
 10
101.7809113596668
 20
37.33454019050688
 30
0.0
 10
101.7804475030029
 20
37.33221898137353
 30
0.0
 10
101.7827667735886
 20
37.33268322065134
 30
0.0
 10
101.7839264035758
 20
37.33291533922824
 30
0.0
  0
LINE
  5
2F0
330
1F
100
AcDbEntity
  8
SLD-0
  6
Continuous
370
    15
100
AcDbLine
 10
101.7839264036
 20
37.3329153392
 30
0.0
 11
101.805069626
 21
37.3117744634
 31
0.0
  0
SPLINE
  5
2F1
330
1F
100
AcDbEntity
  8
SLD-0
  6
Continuous
370
    15
100
AcDbSpline
210
0.0
220
0.0
230
1.0
 70
     8
 71
     3
 72
    15
 73
    11
 74
     0
 42
0.00000001
 43
0.00000001
 12
1.0
 22
0.0
 32
0.0
 13
1.0
 23
0.0
 33
0.0
 40
0.0
 40
0.0
 40
0.0
 40
0.0
 40
0.1249992862870494
 40
0.2499950972963459
 40
0.3749909083056425
 40
0.4999999999999999
 40
0.6249992862870494
 40
0.749995097296346
 40
0.8749909083056425
 40
1.0
 40
1.0
 40
1.0
 40
1.0
 10
101.7600000666415
 20
37.35684402280204
 30
0.0
 10
101.7573894139611
 20
37.35355579101735
 30
0.0
 10
101.7521681811824
 20
37.34697941886865
 30
0.0
 10
101.7498768956829
 20
37.33426740748671
 30
0.0
 10
101.7523151505486
 20
37.32180608643033
 30
0.0
 10
101.7594128572189
 20
37.31118820775172
 30
0.0
 10
101.7700323519596
 20
37.3040891743961
 30
0.0
 10
101.7824928718485
 20
37.30165132916407
 30
0.0
 10
101.7952055732954
 20
37.30394280041754
 30
0.0
 10
101.8017814919866
 20
37.30916381665571
 30
0.0
 10
101.8050696259941
 20
37.31177446344943
 30
0.0
  0
LINE
  5
2F2
330
1F
100
AcDbEntity
  8
SLD-0
  6
Continuous
370
    15
100
AcDbLine
 10
103.9086759383
 20
39.4869216026
 30
0.0
 11
103.9086759383
 21
39.4570207214
 31
0.0
  0
LINE
  5
2F3
330
1F
100
AcDbEntity
  8
SLD-0
  6
Continuous
370
    15
100
AcDbLine
 10
104.3733962231
 20
39.4869216026
 30
0.0
 11
103.9086759383
 21
39.4869216026
 31
0.0
  0
LINE
  5
2F4
330
1F
100
AcDbEntity
  8
SLD-0
  6
Continuous
370
    15
100
AcDbLine
 10
104.3733962231
 20
39.4570207214
 30
0.0
 11
103.9086759383
 21
39.4570207214
 31
0.0
  0
ARC
  5
2F5
330
1F
100
AcDbEntity
  8
SLD-0
  6
Continuous
370
    15
100
AcDbCircle
 10
103.9086758025
 20
39.4420207174
 30
0.0
 40
0.0150000000000006
100
AcDbArc
 50
90.0
 51
135.0
  0
ARC
  5
2F6
330
1F
100
AcDbEntity
  8
SLD-0
  6
Continuous
370
    15
100
AcDbCircle
 10
103.9086758025
 20
39.4420207174
 30
0.0
 40
0.0448999999999984
100
AcDbArc
 50
90.0
 51
135.0
  0
LINE
  5
2F7
330
1F
100
AcDbEntity
  8
SLD-0
  6
Continuous
370
    15
100
AcDbLine
 10
101.805069626
 20
37.3117744634
 30
0.0
 11
101.8516551145
 21
37.358359952
 31
0.0
  0
LINE
  5
2F8
330
1F
100
AcDbEntity
  8
SLD-0
  6
Continuous
370
    15
100
AcDbLine
 10
101.7839264036
 20
37.3329153392
 30
0.0
 11
101.798832258
 21
37.3478211937
 31
0.0
  0
LINE
  5
2F9
330
1F
100
AcDbEntity
  8
SLD-0
  6
Continuous
370
    15
100
AcDbLine
 10
105.2090709427
 20
14.7014153936
 30
0.0
 11
105.1610716038
 21
14.7014153936
 31
0.0
  0
LINE
  5
2FA
330
1F
100
AcDbEntity
  8
SLD-0
  6
Continuous
370
    15
100
AcDbLine
 10
105.2090709427
 20
17.8264153466
 30
0.0
 11
105.2090709427
 21
14.7014153936
 31
0.0
  0
LINE
  5
2FB
330
1F
100
AcDbEntity
  8
SLD-0
  6
Continuous
370
    15
100
AcDbLine
 10
105.1610716038
 20
17.8264153466
 30
0.0
 11
105.1610716038
 21
14.7014153936
 31
0.0
  0
LINE
  5
2FC
330
1F
100
AcDbEntity
  8
SLD-0
  6
Continuous
370
    15
100
AcDbLine
 10
105.2090709427
 20
17.8264153466
 30
0.0
 11
105.1610716038
 21
17.8264153466
 31
0.0
  0
LINE
  5
2FD
330
1F
100
AcDbEntity
  8
SLD-0
  6
Continuous
370
    15
100
AcDbLine
 10
105.2240718361
 20
14.7014153936
 30
0.0
 11
105.2240718361
 21
17.8264153466
 31
0.0
  0
LINE
  5
2FE
330
1F
100
AcDbEntity
  8
SLD-0
  6
Continuous
370
    15
100
AcDbLine
 10
105.2090709427
 20
17.8264153466
 30
0.0
 11
105.2240718361
 21
17.8264153466
 31
0.0
  0
LINE
  5
2FF
330
1F
100
AcDbEntity
  8
SLD-0
  6
Continuous
370
    15
100
AcDbLine
 10
105.2240718361
 20
14.7014153936
 30
0.0
 11
105.2090709427
 21
14.7014153936
 31
0.0
  0
LINE
  5
300
330
1F
100
AcDbEntity
  8
SLD-0
  6
Continuous
370
    15
100
AcDbLine
 10
105.2240718361
 20
14.7014153936
 30
0.0
 11
106.8016964912
 21
14.7014153936
 31
0.0
  0
LINE
  5
301
330
1F
100
AcDbEntity
  8
SLD-0
  6
Continuous
370
    15
100
AcDbLine
 10
106.8016964912
 20
17.8264153466
 30
0.0
 11
106.8016964912
 21
14.7014153936
 31
0.0
  0
LINE
  5
302
330
1F
100
AcDbEntity
  8
SLD-0
  6
Continuous
370
    15
100
AcDbLine
 10
105.2240718361
 20
17.8264153466
 30
0.0
 11
106.8016964912
 21
17.8264153466
 31
0.0
  0
LINE
  5
303
330
1F
100
AcDbEntity
  8
SLD-0
  6
Continuous
370
    15
100
AcDbLine
 10
105.2090709427
 20
34.6144155436
 30
0.0
 11
105.1610716038
 21
34.6144155436
 31
0.0
  0
LINE
  5
304
330
1F
100
AcDbEntity
  8
SLD-0
  6
Continuous
370
    15
100
AcDbLine
 10
105.2090709427
 20
37.7394143233
 30
0.0
 11
105.1610716038
 21
37.7394143233
 31
0.0
  0
LINE
  5
305
330
1F
100
AcDbEntity
  8
SLD-0
  6
Continuous
370
    15
100
AcDbLine
 10
105.2090709427
 20
37.7394143233
 30
0.0
 11
105.2090709427
 21
34.6144155436
 31
0.0
  0
LINE
  5
306
330
1F
100
AcDbEntity
  8
SLD-0
  6
Continuous
370
    15
100
AcDbLine
 10
105.1610716038
 20
37.7394143233
 30
0.0
 11
105.1610716038
 21
34.6144155436
 31
0.0
  0
LINE
  5
307
330
1F
100
AcDbEntity
  8
SLD-0
  6
Continuous
370
    15
100
AcDbLine
 10
105.2240718361
 20
34.6144155436
 30
0.0
 11
105.2090709427
 21
34.6144155436
 31
0.0
  0
LINE
  5
308
330
1F
100
AcDbEntity
  8
SLD-0
  6
Continuous
370
    15
100
AcDbLine
 10
105.2240718361
 20
34.6144155436
 30
0.0
 11
105.2240718361
 21
37.7394143233
 31
0.0
  0
LINE
  5
309
330
1F
100
AcDbEntity
  8
SLD-0
  6
Continuous
370
    15
100
AcDbLine
 10
105.2090709427
 20
37.7394143233
 30
0.0
 11
105.2240718361
 21
37.7394143233
 31
0.0
  0
LINE
  5
30A
330
1F
100
AcDbEntity
  8
SLD-0
  6
Continuous
370
    15
100
AcDbLine
 10
105.2240718361
 20
34.6144155436
 30
0.0
 11
106.8016964912
 21
34.6144155436
 31
0.0
  0
LINE
  5
30B
330
1F
100
AcDbEntity
  8
SLD-0
  6
Continuous
370
    15
100
AcDbLine
 10
106.8016964912
 20
37.7394143233
 30
0.0
 11
106.8016964912
 21
34.6144155436
 31
0.0
  0
LINE
  5
30C
330
1F
100
AcDbEntity
  8
SLD-0
  6
Continuous
370
    15
100
AcDbLine
 10
105.2240718361
 20
37.7394143233
 30
0.0
 11
106.8016964912
 21
37.7394143233
 31
0.0
  0
LINE
  5
30D
330
1F
100
AcDbEntity
  8
SLD-0
  6
Continuous
370
    15
100
AcDbLine
 10
104.6853960322
 20
38.3295143864
 30
0.0
 11
105.1233963057
 21
38.3295143864
 31
0.0
  0
LINE
  5
30E
330
1F
100
AcDbEntity
  8
SLD-0
  6
Continuous
370
    15
100
AcDbLine
 10
104.6853960322
 20
34.4545155241
 30
0.0
 11
104.6853960322
 21
38.3295143864
 31
0.0
  0
LINE
  5
30F
330
1F
100
AcDbEntity
  8
SLD-0
  6
Continuous
370
    15
100
AcDbLine
 10
105.1233963057
 20
34.4545155241
 30
0.0
 11
104.6853960322
 21
34.4545155241
 31
0.0
  0
LINE
  5
310
330
1F
100
AcDbEntity
  8
SLD-0
  6
Continuous
370
    15
100
AcDbLine
 10
105.1233963057
 20
18.4655150037
 30
0.0
 11
105.1233963057
 21
34.4545155241
 31
0.0
  0
LINE
  5
311
330
1F
100
AcDbEntity
  8
SLD-0
  6
Continuous
370
    15
100
AcDbLine
 10
104.6853960322
 20
18.4655150037
 30
0.0
 11
105.1233963057
 21
18.4655150037
 31
0.0
  0
LINE
  5
312
330
1F
100
AcDbEntity
  8
SLD-0
  6
Continuous
370
    15
100
AcDbLine
 10
104.6853960322
 20
14.5905155547
 30
0.0
 11
104.6853960322
 21
18.4655150037
 31
0.0
  0
LINE
  5
313
330
1F
100
AcDbEntity
  8
SLD-0
  6
Continuous
370
    15
100
AcDbLine
 10
105.1233963057
 20
14.5905155547
 30
0.0
 11
104.6853960322
 21
14.5905155547
 31
0.0
  0
LINE
  5
314
330
1F
100
AcDbEntity
  8
SLD-0
  6
Continuous
370
    15
100
AcDbLine
 10
105.1233963057
 20
10.3689523492
 30
0.0
 11
105.1233963057
 21
14.5905155547
 31
0.0
  0
LINE
  5
315
330
1F
100
AcDbEntity
  8
SLD-0
  6
Continuous
370
    15
100
AcDbLine
 10
105.1233963057
 20
10.3689523492
 30
0.0
 11
104.4379956902
 21
9.683552357
 31
0.0
  0
LINE
  5
316
330
1F
100
AcDbEntity
  8
SLD-0
  6
Continuous
370
    15
100
AcDbLine
 10
104.4379956902
 20
9.683552357
 30
0.0
 11
104.4379956902
 21
43.3166772543
 31
0.0
  0
LINE
  5
317
330
1F
100
AcDbEntity
  8
SLD-0
  6
Continuous
370
    15
100
AcDbLine
 10
105.1233963057
 20
38.3295143864
 30
0.0
 11
105.1233963057
 21
42.6312778121
 31
0.0
  0
LINE
  5
318
330
1F
100
AcDbEntity
  8
SLD-0
  6
Continuous
370
    15
100
AcDbLine
 10
104.4379956902
 20
43.3166772543
 30
0.0
 11
105.1233963057
 21
42.6312778121
 31
0.0
  0
SPLINE
  5
319
330
1F
100
AcDbEntity
  8
SLD-0
  6
Continuous
370
    15
100
AcDbSpline
210
0.0
220
0.0
230
1.0
 70
     8
 71
     3
 72
    11
 73
     7
 74
     0
 42
0.00000001
 43
0.00000001
 12
1.0
 22
0.0
 32
0.0
 13
1.0
 23
0.0
 33
0.0
 40
0.0
 40
0.0
 40
0.0
 40
0.0
 40
0.2499890499104661
 40
0.499986916969648
 40
0.7499894833452365
 40
1.0
 40
1.0
 40
1.0
 40
1.0
 10
104.4069965816452
 20
43.38278913056993
 30
0.0
 10
104.4074625648972
 20
43.37727996929134
 30
0.0
 10
104.4083945478365
 20
43.36626145242526
 30
0.0
 10
104.4155623907055
 20
43.349734085008
 30
0.0
 10
104.4258108447583
 20
43.33320730770008
 30
0.0
 10
104.4339340320045
 20
43.3221873305064
 30
0.0
 10
104.4379956902076
 20
43.31667725429997
 30
0.0
  0
SPLINE
  5
31A
330
1F
100
AcDbEntity
  8
SLD-0
  6
Continuous
370
    15
100
AcDbSpline
210
0.0
220
0.0
230
1.0
 70
     8
 71
     3
 72
    11
 73
     7
 74
     0
 42
0.00000001
 43
0.00000001
 12
1.0
 22
0.0
 32
0.0
 13
1.0
 23
0.0
 33
0.0
 40
0.0
 40
0.0
 40
0.0
 40
0.0
 40
0.2500013970332862
 40
0.5000001210054152
 40
0.7499943237038185
 40
1.0
 40
1.0
 40
1.0
 40
1.0
 10
104.3733962231328
 20
43.38278913056993
 30
0.0
 10
104.3743672653708
 20
43.37728002121479
 30
0.0
 10
104.3763093394643
 20
43.36626186140891
 30
0.0
 10
104.3912477442293
 20
43.34973442473754
 30
0.0
 10
104.412602258641
 20
43.33320713767193
 30
0.0
 10
104.429531083529
 20
43.32218729971543
 30
0.0
 10
104.4379956902076
 20
43.31667725429997
 30
0.0
  0
LINE
  5
31B
330
1F
100
AcDbEntity
  8
SLD-0
  6
Continuous
370
    15
100
AcDbLine
 10
104.4069965816
 20
43.3827891306
 30
0.0
 11
104.3733962231
 21
43.3827891306
 31
0.0
  0
SPLINE
  5
31C
330
1F
100
AcDbEntity
  8
SLD-0
  6
Continuous
370
    15
100
AcDbSpline
210
0.0
220
0.0
230
1.0
 70
     8
 71
     3
 72
    11
 73
     7
 74
     0
 42
0.00000001
 43
0.00000001
 12
1.0
 22
0.0
 32
0.0
 13
1.0
 23
0.0
 33
0.0
 40
0.0
 40
0.0
 40
0.0
 40
0.0
 40
0.2499977547309094
 40
0.4999945423958539
 40
0.7499960180601559
 40
1.0
 40
1.0
 40
1.0
 40
1.0
 10
104.4379956902076
 20
9.68355235702881
 30
0.0
 10
104.4295310048105
 20
9.678043053964892
 30
0.0
 10
104.4126016667604
 20
9.667024469148684
 30
0.0
 10
104.3912478149453
 20
9.650496360011632
 30
0.0
 10
104.3763093244291
 20
9.633968507063933
 30
0.0
 10
104.3743672601431
 20
9.62294998793561
 30
0.0
 10
104.3733962231328
 20
9.617440700756305
 30
0.0
  0
LINE
  5
31D
330
1F
100
AcDbEntity
  8
SLD-0
  6
Continuous
370
    15
100
AcDbLine
 10
104.3733962231
 20
43.3827891306
 30
0.0
 11
104.3733962231
 21
9.6174407008
 31
0.0
  0
SPLINE
  5
31E
330
1F
100
AcDbEntity
  8
SLD-0
  6
Continuous
370
    15
100
AcDbSpline
210
0.0
220
0.0
230
1.0
 70
     8
 71
     3
 72
    11
 73
     7
 74
     0
 42
0.00000001
 43
0.00000001
 12
1.0
 22
0.0
 32
0.0
 13
1.0
 23
0.0
 33
0.0
 40
0.0
 40
0.0
 40
0.0
 40
0.0
 40
0.2499933600731885
 40
0.5000015248081277
 40
0.7500053514861079
 40
1.0
 40
1.0
 40
1.0
 40
1.0
 10
104.4379956902076
 20
9.68355235702881
 30
0.0
 10
104.4339339501882
 20
9.67804295126335
 30
0.0
 10
104.4258102296122
 20
9.667023813464207
 30
0.0
 10
104.4155624641872
 20
9.650496748713408
 30
0.0
 10
104.4083945322093
 20
9.63396891022842
 30
0.0
 10
104.4074625594641
 20
9.622950036491451
 30
0.0
 10
104.4069965816452
 20
9.617440700756305
 30
0.0
  0
LINE
  5
31F
330
1F
100
AcDbEntity
  8
SLD-0
  6
Continuous
370
    15
100
AcDbLine
 10
104.4069965816
 20
9.6174407008
 30
0.0
 11
104.3733962231
 21
9.6174407008
 31
0.0
  0
LINE
  5
320
330
1F
100
AcDbEntity
  8
SLD-0
  6
Continuous
370
    15
100
AcDbLine
 10
104.4069965816
 20
9.6173279887
 30
0.0
 11
104.4069965816
 21
9.6174407008
 31
0.0
  0
LINE
  5
321
330
1F
100
AcDbEntity
  8
SLD-0
  6
Continuous
370
    15
100
AcDbLine
 10
104.4069965816
 20
9.6173279887
 30
0.0
 11
104.3733962231
 21
9.6173279887
 31
0.0
  0
LINE
  5
322
330
1F
100
AcDbEntity
  8
SLD-0
  6
Continuous
370
    15
100
AcDbLine
 10
104.3733962231
 20
9.6173279887
 30
0.0
 11
104.3733962231
 21
9.6174407008
 31
0.0
  0
LINE
  5
323
330
1F
100
AcDbEntity
  8
SLD-0
  6
Continuous
370
    15
100
AcDbLine
 10
104.4069965816
 20
43.3829017693
 30
0.0
 11
104.3733962231
 21
43.3829017693
 31
0.0
  0
LINE
  5
324
330
1F
100
AcDbEntity
  8
SLD-0
  6
Continuous
370
    15
100
AcDbLine
 10
104.4069965816
 20
43.3827891306
 30
0.0
 11
104.4069965816
 21
43.3829017693
 31
0.0
  0
LINE
  5
325
330
1F
100
AcDbEntity
  8
SLD-0
  6
Continuous
370
    15
100
AcDbLine
 10
104.3733962231
 20
43.3827891306
 30
0.0
 11
104.3733962231
 21
43.3829017693
 31
0.0
  0
LINE
  5
326
330
1F
100
AcDbEntity
  8
SLD-0
  6
Continuous
370
    15
100
AcDbLine
 10
104.4069965816
 20
9.1797152883
 30
0.0
 11
104.3733962231
 21
9.1797152883
 31
0.0
  0
LINE
  5
327
330
1F
100
AcDbEntity
  8
SLD-0
  6
Continuous
370
    15
100
AcDbLine
 10
104.4069965816
 20
9.6173279887
 30
0.0
 11
104.4069965816
 21
9.1797152883
 31
0.0
  0
LINE
  5
328
330
1F
100
AcDbEntity
  8
SLD-0
  6
Continuous
370
    15
100
AcDbLine
 10
104.3733962231
 20
9.1797152883
 30
0.0
 11
104.3733962231
 21
9.6173279887
 31
0.0
  0
LINE
  5
329
330
1F
100
AcDbEntity
  8
SLD-0
  6
Continuous
370
    15
100
AcDbLine
 10
105.1233963057
 20
9.1487152888
 30
0.0
 11
105.1233963057
 21
9.1151152878
 31
0.0
  0
LINE
  5
32A
330
1F
100
AcDbEntity
  8
SLD-0
  6
Continuous
370
    15
100
AcDbLine
 10
104.4379956902
 20
9.1487152888
 30
0.0
 11
104.4379956902
 21
9.1151152878
 31
0.0
  0
LINE
  5
32B
330
1F
100
AcDbEntity
  8
SLD-0
  6
Continuous
370
    15
100
AcDbLine
 10
105.1233963057
 20
9.1487152888
 30
0.0
 11
104.4379956902
 21
9.1487152888
 31
0.0
  0
LINE
  5
32C
330
1F
100
AcDbEntity
  8
SLD-0
  6
Continuous
370
    15
100
AcDbLine
 10
104.4403963025
 20
9.1151152878
 30
0.0
 11
104.4379956902
 21
9.1151152878
 31
0.0
  0
ARC
  5
32D
330
1F
100
AcDbEntity
  8
SLD-0
  6
Continuous
370
    15
100
AcDbCircle
 10
104.4379962534
 20
9.1797152882
 30
0.0
 40
0.0310000000000059
100
AcDbArc
 50
180.0
 51
270.0
  0
ARC
  5
32E
330
1F
100
AcDbEntity
  8
SLD-0
  6
Continuous
370
    15
100
AcDbCircle
 10
104.4379962534
 20
9.1797152882
 30
0.0
 40
0.0645999999999916
100
AcDbArc
 50
180.0
 51
270.0
  0
LINE
  5
32F
330
1F
100
AcDbEntity
  8
SLD-0
  6
Continuous
370
    15
100
AcDbLine
 10
104.4069965816
 20
43.8205148473
 30
0.0
 11
104.3733962231
 21
43.8205148473
 31
0.0
  0
LINE
  5
330
330
1F
100
AcDbEntity
  8
SLD-0
  6
Continuous
370
    15
100
AcDbLine
 10
104.4069965816
 20
43.8205148473
 30
0.0
 11
104.4069965816
 21
43.3829017693
 31
0.0
  0
LINE
  5
331
330
1F
100
AcDbEntity
  8
SLD-0
  6
Continuous
370
    15
100
AcDbLine
 10
104.3733962231
 20
43.3829017693
 30
0.0
 11
104.3733962231
 21
43.8205148473
 31
0.0
  0
LINE
  5
332
330
1F
100
AcDbEntity
  8
SLD-0
  6
Continuous
370
    15
100
AcDbLine
 10
105.1233963057
 20
43.8515163025
 30
0.0
 11
104.4379956902
 21
43.8515163025
 31
0.0
  0
LINE
  5
333
330
1F
100
AcDbEntity
  8
SLD-0
  6
Continuous
370
    15
100
AcDbLine
 10
104.4379956902
 20
43.8515163025
 30
0.0
 11
104.4379956902
 21
43.8851154877
 31
0.0
  0
LINE
  5
334
330
1F
100
AcDbEntity
  8
SLD-0
  6
Continuous
370
    15
100
AcDbLine
 10
105.1233963057
 20
43.8851154877
 30
0.0
 11
104.4379956902
 21
43.8851154877
 31
0.0
  0
LINE
  5
335
330
1F
100
AcDbEntity
  8
SLD-0
  6
Continuous
370
    15
100
AcDbLine
 10
105.1233963057
 20
43.8515163025
 30
0.0
 11
105.1233963057
 21
43.8851154877
 31
0.0
  0
ARC
  5
336
330
1F
100
AcDbEntity
  8
SLD-0
  6
Continuous
370
    15
100
AcDbCircle
 10
104.4379962534
 20
43.8205152882
 30
0.0
 40
0.0646000000000129
100
AcDbArc
 50
90.0
 51
180.0
  0
ARC
  5
337
330
1F
100
AcDbEntity
  8
SLD-0
  6
Continuous
370
    15
100
AcDbCircle
 10
104.4379962534
 20
43.8205152882
 30
0.0
 40
0.0310000000000059
100
AcDbArc
 50
90.0
 51
180.0
  0
LINE
  5
338
330
1F
100
AcDbEntity
  8
SLD-0
  6
Continuous
370
    15
100
AcDbLine
 10
106.9069960748
 20
9.1358977877
 30
0.0
 11
106.9069960748
 21
9.1487152888
 31
0.0
  0
LINE
  5
339
330
1F
100
AcDbEntity
  8
SLD-0
  6
Continuous
370
    15
100
AcDbLine
 10
106.9069960748
 20
9.1704152882
 30
0.0
 11
106.9069960748
 21
9.175497788
 31
0.0
  0
LINE
  5
33A
330
1F
100
AcDbEntity
  8
SLD-0
  6
Continuous
370
    15
100
AcDbLine
 10
109.9069964052
 20
9.1358977877
 30
0.0
 11
106.9069960748
 21
9.1358977877
 31
0.0
  0
LINE
  5
33B
330
1F
100
AcDbEntity
  8
SLD-0
  6
Continuous
370
    15
100
AcDbLine
 10
109.9069964052
 20
9.1358977877
 30
0.0
 11
109.9069964052
 21
9.1487152888
 31
0.0
  0
LINE
  5
33C
330
1F
100
AcDbEntity
  8
SLD-0
  6
Continuous
370
    15
100
AcDbLine
 10
107.3831961203
 20
9.175497788
 30
0.0
 11
107.3456381542
 21
9.175497788
 31
0.0
  0
LINE
  5
33D
330
1F
100
AcDbEntity
  8
SLD-0
  6
Continuous
370
    15
100
AcDbLine
 10
106.9266961139
 20
9.175497788
 30
0.0
 11
106.9069960748
 21
9.175497788
 31
0.0
  0
LINE
  5
33E
330
1F
100
AcDbEntity
  8
SLD-0
  6
Continuous
370
    15
100
AcDbLine
 10
106.9069960748
 20
9.1804977877
 30
0.0
 11
106.9069960748
 21
9.175497788
 31
0.0
  0
LINE
  5
33F
330
1F
100
AcDbEntity
  8
SLD-0
  6
Continuous
370
    15
100
AcDbLine
 10
106.9069960748
 20
9.2014152882
 30
0.0
 11
106.9069960748
 21
9.1804977877
 31
0.0
  0
SPLINE
  5
340
330
1F
100
AcDbEntity
  8
SLD-0
  6
Continuous
370
    15
100
AcDbSpline
210
0.0
220
0.0
230
1.0
 70
     8
 71
     3
 72
     9
 73
     5
 74
     0
 42
0.00000001
 43
0.00000001
 12
1.0
 22
0.0
 32
0.0
 13
1.0
 23
0.0
 33
0.0
 40
0.0
 40
0.0
 40
0.0
 40
0.0
 40
0.4720186263149468
 40
1.0
 40
1.0
 40
1.0
 40
1.0
 10
118.9645912644026
 20
17.52697181917788
 30
0.0
 10
118.9652428694448
 20
17.53159309569397
 30
0.0
 10
118.9666233341254
 20
17.54138354941433
 30
0.0
 10
118.9689869744659
 20
17.54555021652184
 30
0.0
 10
118.9702349325398
 20
17.54775013914495
 30
0.0
  0
SPLINE
  5
341
330
1F
100
AcDbEntity
  8
SLD-0
  6
Continuous
370
    15
100
AcDbSpline
210
0.0
220
0.0
230
1.0
 70
     8
 71
     3
 72
     9
 73
     5
 74
     0
 42
0.00000001
 43
0.00000001
 12
1.0
 22
0.0
 32
0.0
 13
1.0
 23
0.0
 33
0.0
 40
0.0
 40
0.0
 40
0.0
 40
0.0
 40
0.5632971467094523
 40
1.0
 40
1.0
 40
1.0
 40
1.0
 10
118.9702349325398
 20
17.36588029345426
 30
0.0
 10
118.9689823087945
 20
17.36804183115991
 30
0.0
 10
118.966758573502
 20
17.3718791268364
 30
0.0
 10
118.9654538041753
 20
17.38097754243195
 30
0.0
 10
118.9648840076874
 20
17.38495084648294
 30
0.0
  0
SPLINE
  5
342
330
1F
100
AcDbEntity
  8
SLD-0
  6
Continuous
370
    15
100
AcDbSpline
210
0.0
220
0.0
230
1.0
 70
     8
 71
     3
 72
    11
 73
     7
 74
     0
 42
0.00000001
 43
0.00000001
 12
1.0
 22
0.0
 32
0.0
 13
1.0
 23
0.0
 33
0.0
 40
0.0
 40
0.0
 40
0.0
 40
0.0
 40
0.2526703356793397
 40
0.5043998142657733
 40
0.7537078751286103
 40
1.0
 40
1.0
 40
1.0
 40
1.0
 10
118.9668267319116
 20
17.34659267626646
 30
0.0
 10
118.9675447092617
 20
17.34878718813432
 30
0.0
 10
118.9689779904622
 20
17.35316804026551
 30
0.0
 10
118.9702340415142
 20
17.35902576202433
 30
0.0
 10
118.970797034563
 20
17.36369658929663
 30
0.0
 10
118.9704215381963
 20
17.36515535112856
 30
0.0
 10
118.9702349325398
 20
17.36588029345426
 30
0.0
  0
SPLINE
  5
343
330
1F
100
AcDbEntity
  8
SLD-0
  6
Continuous
370
    15
100
AcDbSpline
210
0.0
220
0.0
230
1.0
 70
     8
 71
     3
 72
    11
 73
     7
 74
     0
 42
0.00000001
 43
0.00000001
 12
1.0
 22
0.0
 32
0.0
 13
1.0
 23
0.0
 33
0.0
 40
0.0
 40
0.0
 40
0.0
 40
0.0
 40
0.2461424314094607
 40
0.4955293044967838
 40
0.7472769567164878
 40
1.0
 40
1.0
 40
1.0
 40
1.0
 10
118.9702349325398
 20
17.54775013914495
 30
0.0
 10
118.9704216016571
 20
17.54847446915132
 30
0.0
 10
118.9707974004064
 20
17.54993267667055
 30
0.0
 10
118.9702344011481
 20
17.55460219062261
 30
0.0
 10
118.9689782300226
 20
17.5604616324813
 30
0.0
 10
118.9675448217773
 20
17.56484289133636
 30
0.0
 10
118.9668267319116
 20
17.56703775633276
 30
0.0
  0
LINE
  5
344
330
1F
100
AcDbEntity
  8
SLD-0
  6
Continuous
370
    15
100
AcDbLine
 10
104.477570593
 20
43.7403160937
 30
0.0
 11
104.477570593
 21
43.7394149841
 31
0.0
  0
LINE
  5
345
330
1F
100
AcDbEntity
  8
SLD-0
  6
Continuous
370
    15
100
AcDbLine
 10
104.9749537539
 20
43.7403160937
 30
0.0
 11
104.477570593
 21
43.7403160937
 31
0.0
  0
LINE
  5
346
330
1F
100
AcDbEntity
  8
SLD-0
  6
Continuous
370
    15
100
AcDbLine
 10
104.9843098058
 20
43.7403160937
 30
0.0
 11
104.9749537539
 21
43.7403160937
 31
0.0
  0
LINE
  5
347
330
1F
100
AcDbEntity
  8
SLD-0
  6
Continuous
370
    15
100
AcDbLine
 10
107.4100534101
 20
43.7403160937
 30
0.0
 11
107.3078901103
 21
43.7403160937
 31
0.0
  0
LINE
  5
348
330
1F
100
AcDbEntity
  8
SLD-0
  6
Continuous
370
    15
100
AcDbLine
 10
106.9266961139
 20
43.7403160937
 30
0.0
 11
105.6136961351
 21
43.7403160937
 31
0.0
  0
LINE
  5
349
330
1F
100
AcDbEntity
  8
SLD-0
  6
Continuous
370
    15
100
AcDbLine
 10
105.2386960938
 20
43.7403160937
 30
0.0
 11
104.9843098058
 21
43.7403160937
 31
0.0
  0
LINE
  5
34A
330
1F
100
AcDbEntity
  8
SLD-0
  6
Continuous
370
    15
100
AcDbLine
 10
123.5419962525
 20
43.7403160937
 30
0.0
 11
123.5419962525
 21
43.7394149841
 31
0.0
  0
LINE
  5
34B
330
1F
100
AcDbEntity
  8
SLD-0
  6
Continuous
370
    15
100
AcDbLine
 10
123.5719962535
 20
43.7403160937
 30
0.0
 11
123.5419962525
 21
43.7403160937
 31
0.0
  0
LINE
  5
34C
330
1F
100
AcDbEntity
  8
SLD-0
  6
Continuous
370
    15
100
AcDbLine
 10
123.5719962535
 20
43.7403160937
 30
0.0
 11
123.5719962535
 21
43.7394149841
 31
0.0
  0
LINE
  5
34D
330
1F
100
AcDbEntity
  8
SLD-0
  6
Continuous
370
    15
100
AcDbLine
 10
123.5269962529
 20
43.7403160937
 30
0.0
 11
122.572289328
 21
43.7403160937
 31
0.0
  0
LINE
  5
34E
330
1F
100
AcDbEntity
  8
SLD-0
  6
Continuous
370
    15
100
AcDbLine
 10
123.5419962525
 20
43.7403160937
 30
0.0
 11
123.5269962529
 21
43.7403160937
 31
0.0
  0
LINE
  5
34F
330
1F
100
AcDbEntity
  8
SLD-0
  6
Continuous
370
    15
100
AcDbLine
 10
120.5012711659
 20
10.0764152753
 30
0.0
 11
120.5012711659
 21
9.7954153081
 31
0.0
  0
LINE
  5
350
330
1F
100
AcDbEntity
  8
SLD-0
  6
Continuous
370
    15
100
AcDbLine
 10
118.3003054183
 20
9.7954153081
 30
0.0
 11
118.3003054183
 21
10.0764152753
 31
0.0
  0
LINE
  5
351
330
1F
100
AcDbEntity
  8
SLD-0
  6
Continuous
370
    15
100
AcDbLine
 10
118.3003054183
 20
10.0764152753
 30
0.0
 11
117.9334781359
 21
10.0764152753
 31
0.0
  0
LINE
  5
352
330
1F
100
AcDbEntity
  8
SLD-0
  6
Continuous
370
    15
100
AcDbLine
 10
117.9334781359
 20
10.0764152753
 30
0.0
 11
117.9334781359
 21
15.0134152027
 31
0.0
  0
LINE
  5
353
330
1F
100
AcDbEntity
  8
SLD-0
  6
Continuous
370
    15
100
AcDbLine
 10
117.9334781359
 20
15.0134152027
 30
0.0
 11
120.8680987416
 21
15.0134152027
 31
0.0
  0
LINE
  5
354
330
1F
100
AcDbEntity
  8
SLD-0
  6
Continuous
370
    15
100
AcDbLine
 10
120.8680987416
 20
15.0134152027
 30
0.0
 11
120.8680987416
 21
10.0764152753
 31
0.0
  0
LINE
  5
355
330
1F
100
AcDbEntity
  8
SLD-0
  6
Continuous
370
    15
100
AcDbLine
 10
120.8680987416
 20
10.0764152753
 30
0.0
 11
120.5012711659
 21
10.0764152753
 31
0.0
  0
LINE
  5
356
330
1F
100
AcDbEntity
  8
SLD-0
  6
Continuous
370
    15
100
AcDbLine
 10
117.9272489812
 20
15.0134152027
 30
0.0
 11
117.9334781359
 21
15.0134152027
 31
0.0
  0
LINE
  5
357
330
1F
100
AcDbEntity
  8
SLD-0
  6
Continuous
370
    15
100
AcDbLine
 10
117.9334781359
 20
10.0764152753
 30
0.0
 11
117.9272489812
 21
10.0764152753
 31
0.0
  0
LINE
  5
358
330
1F
100
AcDbEntity
  8
SLD-0
  6
Continuous
370
    15
100
AcDbLine
 10
117.9272489812
 20
10.0764152753
 30
0.0
 11
117.9272489812
 21
15.0134152027
 31
0.0
  0
LINE
  5
359
330
1F
100
AcDbEntity
  8
SLD-0
  6
Continuous
370
    15
100
AcDbLine
 10
118.2940768502
 20
10.0764152753
 30
0.0
 11
118.2940768502
 21
9.7954153081
 31
0.0
  0
LINE
  5
35A
330
1F
100
AcDbEntity
  8
SLD-0
  6
Continuous
370
    15
100
AcDbLine
 10
105.6136961351
 20
43.7428152649
 30
0.0
 11
106.9266961139
 21
43.7428152649
 31
0.0
  0
LINE
  5
35B
330
1F
100
AcDbEntity
  8
SLD-0
  6
Continuous
370
    15
100
AcDbLine
 10
107.3110475138
 20
43.7428152649
 30
0.0
 11
107.4084706017
 21
43.7428152649
 31
0.0
  0
LINE
  5
35C
330
1F
100
AcDbEntity
  8
SLD-0
  6
Continuous
370
    15
100
AcDbLine
 10
105.2276962209
 20
43.7428152649
 30
0.0
 11
105.2276962209
 21
43.7704164393
 31
0.0
  0
LINE
  5
35D
330
1F
100
AcDbEntity
  8
SLD-0
  6
Continuous
370
    15
100
AcDbLine
 10
105.2386960938
 20
43.7428152649
 30
0.0
 11
105.2276962209
 21
43.7428152649
 31
0.0
  0
LINE
  5
35E
330
1F
100
AcDbEntity
  8
SLD-0
  6
Continuous
370
    15
100
AcDbLine
 10
105.2276962209
 20
43.7428152649
 30
0.0
 11
105.2276962209
 21
43.7403160937
 31
0.0
  0
LINE
  5
35F
330
1F
100
AcDbEntity
  8
SLD-0
  6
Continuous
370
    15
100
AcDbLine
 10
104.435096417
 20
43.7278155448
 30
0.0
 11
104.4626964182
 21
43.7278155448
 31
0.0
  0
LINE
  5
360
330
1F
100
AcDbEntity
  8
SLD-0
  6
Continuous
370
    15
100
AcDbLine
 10
104.435096417
 20
43.7278155448
 30
0.0
 11
104.435096417
 21
43.3207181676
 31
0.0
  0
LINE
  5
361
330
1F
100
AcDbEntity
  8
SLD-0
  6
Continuous
370
    15
100
AcDbLine
 10
104.4626964182
 20
43.7278155448
 30
0.0
 11
104.4626964182
 21
43.291978873
 31
0.0
  0
LINE
  5
362
330
1F
100
AcDbEntity
  8
SLD-0
  6
Continuous
370
    15
100
AcDbLine
 10
107.4780965707
 20
43.8221152554
 30
0.0
 11
107.4780965707
 21
43.7921158153
 31
0.0
  0
LINE
  5
363
330
1F
100
AcDbEntity
  8
SLD-0
  6
Continuous
370
    15
100
AcDbLine
 10
121.9780962121
 20
43.8221152554
 30
0.0
 11
121.9780962121
 21
43.7921158153
 31
0.0
  0
LINE
  5
364
330
1F
100
AcDbEntity
  8
SLD-0
  6
Continuous
370
    15
100
AcDbLine
 10
121.9780962121
 20
43.8221152554
 30
0.0
 11
107.4780965707
 21
43.8221152554
 31
0.0
  0
LINE
  5
365
330
1F
100
AcDbEntity
  8
SLD-0
  6
Continuous
370
    15
100
AcDbLine
 10
107.4780965707
 20
43.8221152554
 30
0.0
 11
107.4780965707
 21
43.8295564495
 31
0.0
  0
LINE
  5
366
330
1F
100
AcDbEntity
  8
SLD-0
  6
Continuous
370
    15
100
AcDbLine
 10
121.9780962121
 20
43.8295564495
 30
0.0
 11
107.4780965707
 21
43.8295564495
 31
0.0
  0
LINE
  5
367
330
1F
100
AcDbEntity
  8
SLD-0
  6
Continuous
370
    15
100
AcDbLine
 10
121.9780962121
 20
43.8295564495
 30
0.0
 11
121.9780962121
 21
43.8221152554
 31
0.0
  0
LINE
  5
368
330
1F
100
AcDbEntity
  8
SLD-0
  6
Continuous
370
    15
100
AcDbLine
 10
105.1030967002
 20
46.7850199077
 30
0.0
 11
121.9780962121
 21
46.7850199077
 31
0.0
  0
LINE
  5
369
330
1F
100
AcDbEntity
  8
SLD-0
  6
Continuous
370
    15
100
AcDbLine
 10
107.4780965707
 20
43.8295564495
 30
0.0
 11
107.4780965707
 21
45.2921159805
 31
0.0
  0
LINE
  5
36A
330
1F
100
AcDbEntity
  8
SLD-0
  6
Continuous
370
    15
100
AcDbLine
 10
107.4780965707
 20
45.2921159805
 30
0.0
 11
107.4780965707
 21
45.3072306859
 31
0.0
  0
LINE
  5
36B
330
1F
100
AcDbEntity
  8
SLD-0
  6
Continuous
370
    15
100
AcDbLine
 10
105.3530959456
 20
45.3072306859
 30
0.0
 11
107.4780965707
 21
45.3072306859
 31
0.0
  0
LINE
  5
36C
330
1F
100
AcDbEntity
  8
SLD-0
  6
Continuous
370
    15
100
AcDbLine
 10
105.1030967002
 20
45.523175498
 30
0.0
 11
105.3530959456
 21
45.3072306859
 31
0.0
  0
LINE
  5
36D
330
1F
100
AcDbEntity
  8
SLD-0
  6
Continuous
370
    15
100
AcDbLine
 10
105.1030967002
 20
45.523175498
 30
0.0
 11
105.1030967002
 21
46.7850199077
 31
0.0
  0
LINE
  5
36E
330
1F
100
AcDbEntity
  8
SLD-0
  6
Continuous
370
    15
100
AcDbLine
 10
113.4780960582
 20
45.9878758364
 30
0.0
 11
113.4780960582
 21
45.1240965882
 31
0.0
  0
ARC
  5
36F
330
1F
100
AcDbEntity
  8
SLD-0
  6
Continuous
370
    15
100
AcDbCircle
 10
113.6030962675
 20
45.1388800683
 30
0.0
 40
0.1258713772660804
100
AcDbArc
 50
186.7449057139
 51
353.2550942861
  0
LINE
  5
370
330
1F
100
AcDbEntity
  8
SLD-0
  6
Continuous
370
    15
100
AcDbLine
 10
113.7280964768
 20
45.1240965882
 30
0.0
 11
113.7280964768
 21
45.9878758364
 31
0.0
  0
ARC
  5
371
330
1F
100
AcDbEntity
  8
SLD-0
  6
Continuous
370
    15
100
AcDbCircle
 10
113.6030962675
 20
45.973091441
 30
0.0
 40
0.1258714847704554
100
AcDbArc
 50
6.7453194679
 51
173.2546805321
  0
LINE
  5
372
330
1F
100
AcDbEntity
  8
SLD-0
  6
Continuous
370
    15
100
AcDbLine
 10
110.4780957278
 20
45.9878758364
 30
0.0
 11
110.4780957278
 21
45.1240965882
 31
0.0
  0
ARC
  5
373
330
1F
100
AcDbEntity
  8
SLD-0
  6
Continuous
370
    15
100
AcDbCircle
 10
110.6030959371
 20
45.1388796155
 30
0.0
 40
0.1258713240874575
100
AcDbArc
 50
186.7447010348
 51
353.2552989652
  0
LINE
  5
374
330
1F
100
AcDbEntity
  8
SLD-0
  6
Continuous
370
    15
100
AcDbLine
 10
110.7280961464
 20
45.1240965882
 30
0.0
 11
110.7280961464
 21
45.9878758364
 31
0.0
  0
ARC
  5
375
330
1F
100
AcDbEntity
  8
SLD-0
  6
Continuous
370
    15
100
AcDbCircle
 10
110.6030959371
 20
45.9730918937
 30
0.0
 40
0.1258714315885846
100
AcDbArc
 50
6.7451147892
 51
173.2548852108
  0
LINE
  5
376
330
1F
100
AcDbEntity
  8
SLD-0
  6
Continuous
370
    15
100
AcDbLine
 10
121.9780962121
 20
43.8295564495
 30
0.0
 11
121.9780962121
 21
46.7850199077
 31
0.0
  0
LINE
  5
377
330
1F
100
AcDbEntity
  8
SLD-0
  6
Continuous
370
    15
100
AcDbLine
 10
105.3530959456
 20
45.2921159805
 30
0.0
 11
105.3530959456
 21
45.3072306859
 31
0.0
  0
LINE
  5
378
330
1F
100
AcDbEntity
  8
SLD-0
  6
Continuous
370
    15
100
AcDbLine
 10
105.3530959456
 20
45.2921159805
 30
0.0
 11
107.4780965707
 21
45.2921159805
 31
0.0
  0
LINE
  5
379
330
1F
100
AcDbEntity
  8
SLD-0
  6
Continuous
370
    15
100
AcDbLine
 10
105.1030967002
 20
45.5080607926
 30
0.0
 11
105.1030967002
 21
45.523175498
 31
0.0
  0
LINE
  5
37A
330
1F
100
AcDbEntity
  8
SLD-0
  6
Continuous
370
    15
100
AcDbLine
 10
105.1030967002
 20
45.5080607926
 30
0.0
 11
105.3530959456
 21
45.2921159805
 31
0.0
  0
ARC
  5
37B
330
1F
100
AcDbEntity
  8
SLD-0
  6
Continuous
370
    15
100
AcDbCircle
 10
113.6030962675
 20
45.9579753042
 30
0.0
 40
0.1258713772660804
100
AcDbArc
 50
6.7449057139
 51
173.2550942861
  0
ARC
  5
37C
330
1F
100
AcDbEntity
  8
SLD-0
  6
Continuous
370
    15
100
AcDbCircle
 10
110.6030959371
 20
45.957975757
 30
0.0
 40
0.1258713240874575
100
AcDbArc
 50
6.7447010348
 51
173.2552989652
  0
LINE
  5
37D
330
1F
100
AcDbEntity
  8
SLD-0
  6
Continuous
370
    15
100
AcDbLine
 10
105.1030967002
 20
46.7850199077
 30
0.0
 11
105.1030967002
 21
46.8073458365
 31
0.0
  0
LINE
  5
37E
330
1F
100
AcDbEntity
  8
SLD-0
  6
Continuous
370
    15
100
AcDbLine
 10
121.9780962121
 20
46.8073458365
 30
0.0
 11
121.9780962121
 21
46.7850199077
 31
0.0
  0
SPLINE
  5
37F
330
1F
100
AcDbEntity
  8
SLD-0
  6
Continuous
370
    15
100
AcDbSpline
210
0.0
220
0.0
230
1.0
 70
     8
 71
     3
 72
    11
 73
     7
 74
     0
 42
0.00000001
 43
0.00000001
 12
1.0
 22
0.0
 32
0.0
 13
1.0
 23
0.0
 33
0.0
 40
0.0
 40
0.0
 40
0.0
 40
0.0
 40
0.249996059248829
 40
0.4999981823300368
 40
0.7500003054112446
 40
1.0
 40
1.0
 40
1.0
 40
1.0
 10
107.3067531634098
 20
43.73941498413097
 30
0.0
 10
107.3117484084024
 20
43.74632042720254
 30
0.0
 10
107.3217390195508
 20
43.76013148084209
 30
0.0
 10
107.3367244282799
 20
43.77755219866697
 30
0.0
 10
107.3517100030394
 20
43.78973754776288
 30
0.0
 10
107.361700500042
 20
43.79132306203888
 30
0.0
 10
107.3666957242815
 20
43.79211581532648
 30
0.0
  0
LINE
  5
380
330
1F
100
AcDbEntity
  8
SLD-0
  6
Continuous
370
    15
100
AcDbLine
 10
107.3666957243
 20
43.7921158153
 30
0.0
 11
107.3666957243
 21
43.7704164393
 31
0.0
  0
SPLINE
  5
381
330
1F
100
AcDbEntity
  8
SLD-0
  6
Continuous
370
    15
100
AcDbSpline
210
0.0
220
0.0
230
1.0
 70
     8
 71
     3
 72
    11
 73
     7
 74
     0
 42
0.00000001
 43
0.00000001
 12
1.0
 22
0.0
 32
0.0
 13
1.0
 23
0.0
 33
0.0
 40
0.0
 40
0.0
 40
0.0
 40
0.0
 40
0.2500139984372873
 40
0.499996114016241
 40
0.750004767375016
 40
1.0
 40
1.0
 40
1.0
 40
1.0
 10
107.3067531634098
 20
43.73941498413097
 30
0.0
 10
107.311748163489
 20
43.74347782052307
 30
0.0
 10
107.3217375266635
 20
43.75160297519692
 30
0.0
 10
107.3367256225752
 20
43.76184770234796
 30
0.0
 10
107.3517094526673
 20
43.7690174737441
 30
0.0
 10
107.3617003897999
 20
43.76995012581447
 30
0.0
 10
107.3666957242815
 20
43.77041643933286
 30
0.0
  0
LINE
  5
382
330
1F
100
AcDbEntity
  8
SLD-0
  6
Continuous
370
    15
100
AcDbLine
 10
106.9266961139
 20
43.7394149841
 30
0.0
 11
107.3067531634
 21
43.7394149841
 31
0.0
  0
LINE
  5
383
330
1F
100
AcDbEntity
  8
SLD-0
  6
Continuous
370
    15
100
AcDbLine
 10
106.9266961139
 20
43.7921158153
 30
0.0
 11
106.9266961139
 21
43.7394149841
 31
0.0
  0
LINE
  5
384
330
1F
100
AcDbEntity
  8
SLD-0
  6
Continuous
370
    15
100
AcDbLine
 10
106.9266961139
 20
43.7921158153
 30
0.0
 11
107.3666957243
 21
43.7921158153
 31
0.0
  0
LINE
  5
385
330
1F
100
AcDbEntity
  8
SLD-0
  6
Continuous
370
    15
100
AcDbLine
 10
106.9266961139
 20
43.7223877675
 30
0.0
 11
106.9266961139
 21
43.7394149841
 31
0.0
  0
LINE
  5
386
330
1F
100
AcDbEntity
  8
SLD-0
  6
Continuous
370
    15
100
AcDbLine
 10
106.7127529854
 20
43.1454148061
 30
0.0
 11
105.2386960938
 21
43.1454148061
 31
0.0
  0
LINE
  5
387
330
1F
100
AcDbEntity
  8
SLD-0
  6
Continuous
370
    15
100
AcDbLine
 10
105.2386960938
 20
43.1454148061
 30
0.0
 11
105.2386960938
 21
43.7394149841
 31
0.0
  0
LINE
  5
388
330
1F
100
AcDbEntity
  8
SLD-0
  6
Continuous
370
    15
100
AcDbLine
 10
105.2386960938
 20
43.7394149841
 30
0.0
 11
105.6136961351
 21
43.7394149841
 31
0.0
  0
LINE
  5
389
330
1F
100
AcDbEntity
  8
SLD-0
  6
Continuous
370
    15
100
AcDbLine
 10
105.6136961351
 20
43.7394149841
 30
0.0
 11
105.6136961351
 21
43.7223877675
 31
0.0
  0
LINE
  5
38A
330
1F
100
AcDbEntity
  8
SLD-0
  6
Continuous
370
    15
100
AcDbLine
 10
105.6136961351
 20
43.7223877675
 30
0.0
 11
106.9266961139
 21
43.7223877675
 31
0.0
  0
LINE
  5
38B
330
1F
100
AcDbEntity
  8
SLD-0
  6
Continuous
370
    15
100
AcDbLine
 10
107.3067531634
 20
43.7394149841
 30
0.0
 11
106.7127529854
 21
43.1454148061
 31
0.0
  0
LINE
  5
38C
330
1F
100
AcDbEntity
  8
SLD-0
  6
Continuous
370
    15
100
AcDbLine
 10
105.2386960938
 20
43.7921158153
 30
0.0
 11
105.6136961351
 21
43.7921158153
 31
0.0
  0
LINE
  5
38D
330
1F
100
AcDbEntity
  8
SLD-0
  6
Continuous
370
    15
100
AcDbLine
 10
105.6136961351
 20
43.7394149841
 30
0.0
 11
105.6136961351
 21
43.7921158153
 31
0.0
  0
LINE
  5
38E
330
1F
100
AcDbEntity
  8
SLD-0
  6
Continuous
370
    15
100
AcDbLine
 10
105.2386960938
 20
43.7921158153
 30
0.0
 11
105.2386960938
 21
43.7394149841
 31
0.0
  0
SPLINE
  5
38F
330
1F
100
AcDbEntity
  8
SLD-0
  6
Continuous
370
    15
100
AcDbSpline
210
0.0
220
0.0
230
1.0
 70
     8
 71
     3
 72
    11
 73
     7
 74
     0
 42
0.00000001
 43
0.00000001
 12
1.0
 22
0.0
 32
0.0
 13
1.0
 23
0.0
 33
0.0
 40
0.0
 40
0.0
 40
0.0
 40
0.0
 40
0.2499947195059734
 40
0.4999952285238249
 40
0.749994342685239
 40
1.0
 40
1.0
 40
1.0
 40
1.0
 10
122.5721878358058
 20
43.73941498413097
 30
0.0
 10
122.5730586395908
 20
43.74632042724075
 30
0.0
 10
122.5748002673274
 20
43.76013147338026
 30
0.0
 10
122.5753802372995
 20
43.77755214729842
 30
0.0
 10
122.5748759491464
 20
43.78973770737522
 30
0.0
 10
122.574084327704
 20
43.79132310576045
 30
0.0
 10
122.5736885118032
 20
43.79211581532648
 30
0.0
  0
LINE
  5
390
330
1F
100
AcDbEntity
  8
SLD-0
  6
Continuous
370
    15
100
AcDbLine
 10
122.5721878358
 20
43.7394149841
 30
0.0
 11
107.4157592642
 21
43.7394149841
 31
0.0
  0
SPLINE
  5
391
330
1F
100
AcDbEntity
  8
SLD-0
  6
Continuous
370
    15
100
AcDbSpline
210
0.0
220
0.0
230
1.0
 70
     8
 71
     3
 72
    12
 73
     8
 74
     0
 42
0.00000001
 43
0.00000001
 12
1.0
 22
0.0
 32
0.0
 13
1.0
 23
0.0
 33
0.0
 40
0.0
 40
0.0
 40
0.0
 40
0.0
 40
0.2373888836738411
 40
0.4748986034202146
 40
0.7124325671011181
 40
0.9499570578646304
 40
1.0
 40
1.0
 40
1.0
 40
1.0
 10
107.3666957242815
 20
43.79211581532648
 30
0.0
 10
107.3710722768052
 20
43.7914025417555
 30
0.0
 10
107.3798276096123
 20
43.78997563154186
 30
0.0
 10
107.3924044105826
 20
43.77892907787083
 30
0.0
 10
107.4039225736884
 20
43.76298368335954
 30
0.0
 10
107.4114407987841
 20
43.74868619825561
 30
0.0
 10
107.41511915139
 20
43.7407892275378
 30
0.0
 10
107.415759264162
 20
43.73941498413097
 30
0.0
  0
LINE
  5
392
330
1F
100
AcDbEntity
  8
SLD-0
  6
Continuous
370
    15
100
AcDbLine
 10
107.3666957243
 20
43.7921158153
 30
0.0
 11
122.5736885118
 21
43.7921158153
 31
0.0
  0
LINE
  5
393
330
1F
100
AcDbEntity
  8
SLD-0
  6
Continuous
370
    15
100
AcDbLine
 10
107.4157592642
 20
43.7394149841
 30
0.0
 11
107.4112642761
 21
43.7394149841
 31
0.0
  0
SPLINE
  5
394
330
1F
100
AcDbEntity
  8
SLD-0
  6
Continuous
370
    15
100
AcDbSpline
210
0.0
220
0.0
230
1.0
 70
     8
 71
     3
 72
    11
 73
     7
 74
     0
 42
0.00000001
 43
0.00000001
 12
1.0
 22
0.0
 32
0.0
 13
1.0
 23
0.0
 33
0.0
 40
0.0
 40
0.0
 40
0.0
 40
0.0
 40
0.2752218687951505
 40
0.5507824592751616
 40
0.8263760915926149
 40
1.0
 40
1.0
 40
1.0
 40
1.0
 10
107.3666957242815
 20
43.77041643933286
 30
0.0
 10
107.3711240753846
 20
43.76984889247222
 30
0.0
 10
107.3799862276611
 20
43.76871310025837
 30
0.0
 10
107.3927495722686
 20
43.76007946037583
 30
0.0
 10
107.4031980689101
 20
43.74950579507118
 30
0.0
 10
107.4090157320677
 20
43.74222790873142
 30
0.0
 10
107.4112642760885
 20
43.73941498413097
 30
0.0
  0
LINE
  5
395
330
1F
100
AcDbEntity
  8
SLD-0
  6
Continuous
370
    15
100
AcDbLine
 10
107.7937512709
 20
43.1454148061
 30
0.0
 11
107.4157592642
 21
43.7394149841
 31
0.0
  0
LINE
  5
396
330
1F
100
AcDbEntity
  8
SLD-0
  6
Continuous
370
    15
100
AcDbLine
 10
122.5721878358
 20
43.7394149841
 30
0.0
 11
122.4491197175
 21
43.1454148061
 31
0.0
  0
LINE
  5
397
330
1F
100
AcDbEntity
  8
SLD-0
  6
Continuous
370
    15
100
AcDbLine
 10
107.7937512709
 20
43.1454148061
 30
0.0
 11
122.4491197175
 21
43.1454148061
 31
0.0
  0
LINE
  5
398
330
1F
100
AcDbEntity
  8
SLD-0
  6
Continuous
370
    15
100
AcDbLine
 10
107.7937512709
 20
43.1454148061
 30
0.0
 11
107.7892551095
 21
43.1454148061
 31
0.0
  0
LINE
  5
399
330
1F
100
AcDbEntity
  8
SLD-0
  6
Continuous
370
    15
100
AcDbLine
 10
107.7892551095
 20
43.1454148061
 30
0.0
 11
107.4112642761
 21
43.7394149841
 31
0.0
  0
LINE
  5
39A
330
1F
100
AcDbEntity
  8
SLD-0
  6
Continuous
370
    15
100
AcDbLine
 10
104.4596962395
 20
43.7704164393
 30
0.0
 11
104.4596962395
 21
43.7921158153
 31
0.0
  0
LINE
  5
39B
330
1F
100
AcDbEntity
  8
SLD-0
  6
Continuous
370
    15
100
AcDbLine
 10
104.4596962395
 20
43.7921158153
 30
0.0
 11
105.2386960938
 21
43.7921158153
 31
0.0
  0
LINE
  5
39C
330
1F
100
AcDbEntity
  8
SLD-0
  6
Continuous
370
    15
100
AcDbLine
 10
104.4596962395
 20
43.7704164393
 30
0.0
 11
105.2386960938
 21
43.7704164393
 31
0.0
  0
ARC
  5
39D
330
1F
100
AcDbEntity
  8
SLD-0
  6
Continuous
370
    15
100
AcDbCircle
 10
104.4596962534
 20
43.7394152882
 30
0.0
 40
0.0527000000000086
100
AcDbArc
 50
90.0
 51
180.0
  0
ARC
  5
39E
330
1F
100
AcDbEntity
  8
SLD-0
  6
Continuous
370
    15
100
AcDbCircle
 10
104.4596962534
 20
43.7394152882
 30
0.0
 40
0.0310000000000059
100
AcDbArc
 50
90.0
 51
180.0
  0
LINE
  5
39F
330
1F
100
AcDbEntity
  8
SLD-0
  6
Continuous
370
    15
100
AcDbLine
 10
104.4286959576
 20
43.7394149841
 30
0.0
 11
104.4069965816
 21
43.7394149841
 31
0.0
  0
LINE
  5
3A0
330
1F
100
AcDbEntity
  8
SLD-0
  6
Continuous
370
    15
100
AcDbLine
 10
104.4286959576
 20
43.7394149841
 30
0.0
 11
104.4286959576
 21
43.3296353979
 31
0.0
  0
LINE
  5
3A1
330
1F
100
AcDbEntity
  8
SLD-0
  6
Continuous
370
    15
100
AcDbLine
 10
106.9266961139
 20
43.7921158153
 30
0.0
 11
105.6136961351
 21
43.7921158153
 31
0.0
  0
LINE
  5
3A2
330
1F
100
AcDbEntity
  8
SLD-0
  6
Continuous
370
    15
100
AcDbLine
 10
106.9266961139
 20
43.7704164393
 30
0.0
 11
105.6136961351
 21
43.7704164393
 31
0.0
  0
LINE
  5
3A3
330
1F
100
AcDbEntity
  8
SLD-0
  6
Continuous
370
    15
100
AcDbLine
 10
123.5626962534
 20
43.7921158153
 30
0.0
 11
123.5626962534
 21
43.7704164393
 31
0.0
  0
LINE
  5
3A4
330
1F
100
AcDbEntity
  8
SLD-0
  6
Continuous
370
    15
100
AcDbLine
 10
122.5736885118
 20
43.7921158153
 30
0.0
 11
123.5626962534
 21
43.7921158153
 31
0.0
  0
LINE
  5
3A5
330
1F
100
AcDbEntity
  8
SLD-0
  6
Continuous
370
    15
100
AcDbLine
 10
122.5736885118
 20
43.7704164393
 30
0.0
 11
123.5626962534
 21
43.7704164393
 31
0.0
  0
SPLINE
  5
3A6
330
1F
100
AcDbEntity
  8
SLD-0
  6
Continuous
370
    15
100
AcDbSpline
210
0.0
220
0.0
230
1.0
 70
     8
 71
     3
 72
    11
 73
     7
 74
     0
 42
0.00000001
 43
0.00000001
 12
1.0
 22
0.0
 32
0.0
 13
1.0
 23
0.0
 33
0.0
 40
0.0
 40
0.0
 40
0.0
 40
0.0
 40
0.2500033300185793
 40
0.5000006963224753
 40
0.7500062307229788
 40
1.0
 40
1.0
 40
1.0
 40
1.0
 10
123.5626962533685
 20
43.79211581532648
 30
0.0
 10
123.5696018595382
 20
43.79132311762584
 30
0.0
 10
123.5834129071476
 20
43.789737741134
 30
0.0
 10
123.6008332674938
 20
43.77755186284038
 30
0.0
 10
123.6130195127901
 20
43.76013177103711
 30
0.0
 10
123.6146040200179
 20
43.74632047143844
 30
0.0
 10
123.6153962549898
 20
43.73941498413097
 30
0.0
  0
LINE
  5
3A7
330
1F
100
AcDbEntity
  8
SLD-0
  6
Continuous
370
    15
100
AcDbLine
 10
123.615396255
 20
43.7394149841
 30
0.0
 11
123.5936962534
 21
43.7394149841
 31
0.0
  0
SPLINE
  5
3A8
330
1F
100
AcDbEntity
  8
SLD-0
  6
Continuous
370
    15
100
AcDbSpline
210
0.0
220
0.0
230
1.0
 70
     8
 71
     3
 72
    11
 73
     7
 74
     0
 42
0.00000001
 43
0.00000001
 12
1.0
 22
0.0
 32
0.0
 13
1.0
 23
0.0
 33
0.0
 40
0.0
 40
0.0
 40
0.0
 40
0.0
 40
0.2500024514283555
 40
0.5000100056939272
 40
0.7499802281876774
 40
1.0
 40
1.0
 40
1.0
 40
1.0
 10
123.5626962533685
 20
43.77041643933286
 30
0.0
 10
123.5667584452139
 20
43.76995013238692
 30
0.0
 10
123.5748829118186
 20
43.76901750897719
 30
0.0
 10
123.5851287627326
 20
43.76184799721402
 30
0.0
 10
123.5922989311093
 20
43.75160247597839
 30
0.0
 10
123.5932304485174
 20
43.74347774980191
 30
0.0
 10
123.5936962533784
 20
43.73941498413097
 30
0.0
  0
LINE
  5
3A9
330
1F
100
AcDbEntity
  8
SLD-0
  6
Continuous
370
    15
100
AcDbLine
 10
123.615396255
 20
43.1454148061
 30
0.0
 11
123.5936962534
 21
43.1454148061
 31
0.0
  0
LINE
  5
3AA
330
1F
100
AcDbEntity
  8
SLD-0
  6
Continuous
370
    15
100
AcDbLine
 10
123.5936962534
 20
43.5883477159
 30
0.0
 11
123.5936962534
 21
43.7394149841
 31
0.0
  0
LINE
  5
3AB
330
1F
100
AcDbEntity
  8
SLD-0
  6
Continuous
370
    15
100
AcDbLine
 10
123.615396255
 20
43.1454148061
 30
0.0
 11
123.615396255
 21
43.7394149841
 31
0.0
  0
LINE
  5
3AC
330
1F
100
AcDbEntity
  8
SLD-0
  6
Continuous
370
    15
100
AcDbLine
 10
104.4736962911
 20
43.7394149841
 30
0.0
 11
104.4736962911
 21
43.2809778267
 31
0.0
  0
LINE
  5
3AD
330
1F
100
AcDbEntity
  8
SLD-0
  6
Continuous
370
    15
100
AcDbLine
 10
104.4736962911
 20
9.7192523713
 30
0.0
 11
104.4736962911
 21
9.2014152882
 31
0.0
  0
LINE
  5
3AE
330
1F
100
AcDbEntity
  8
SLD-0
  6
Continuous
370
    15
100
AcDbLine
 10
104.4736962911
 20
43.7394149841
 30
0.0
 11
105.2386960938
 21
43.7394149841
 31
0.0
  0
LINE
  5
3AF
330
1F
100
AcDbEntity
  8
SLD-0
  6
Continuous
370
    15
100
AcDbLine
 10
105.6136961351
 20
43.7394149841
 30
0.0
 11
106.9266961139
 21
43.7394149841
 31
0.0
  0
LINE
  5
3B0
330
1F
100
AcDbEntity
  8
SLD-0
  6
Continuous
370
    15
100
AcDbLine
 10
107.3067531634
 20
43.7394149841
 30
0.0
 11
107.4081643652
 21
43.7394149841
 31
0.0
  0
LINE
  5
3B1
330
1F
100
AcDbEntity
  8
SLD-0
  6
Continuous
370
    15
100
AcDbLine
 10
107.4081643652
 20
43.7394149841
 30
0.0
 11
107.4081643652
 21
9.2014152882
 31
0.0
  0
LINE
  5
3B2
330
1F
100
AcDbEntity
  8
SLD-0
  6
Continuous
370
    15
100
AcDbLine
 10
104.4736962911
 20
9.2014152882
 30
0.0
 11
105.2386960938
 21
9.2014152882
 31
0.0
  0
LINE
  5
3B3
330
1F
100
AcDbEntity
  8
SLD-0
  6
Continuous
370
    15
100
AcDbLine
 10
105.6136961351
 20
9.2014152882
 30
0.0
 11
106.9266961139
 21
9.2014152882
 31
0.0
  0
LINE
  5
3B4
330
1F
100
AcDbEntity
  8
SLD-0
  6
Continuous
370
    15
100
AcDbLine
 10
107.3067531634
 20
9.2014152882
 30
0.0
 11
107.4081643652
 21
9.2014152882
 31
0.0
  0
LINE
  5
3B5
330
1F
100
AcDbEntity
  8
SLD-0
  6
Continuous
370
    15
100
AcDbLine
 10
107.4081643652
 20
43.7394149841
 30
0.0
 11
107.4112642761
 21
43.7394149841
 31
0.0
  0
LINE
  5
3B6
330
1F
100
AcDbEntity
  8
SLD-0
  6
Continuous
370
    15
100
AcDbLine
 10
122.5721878358
 20
43.7394149841
 30
0.0
 11
123.5519385002
 21
43.7394149841
 31
0.0
  0
LINE
  5
3B7
330
1F
100
AcDbEntity
  8
SLD-0
  6
Continuous
370
    15
100
AcDbLine
 10
123.5519385002
 20
43.7394149841
 30
0.0
 11
123.5519385002
 21
9.2014152882
 31
0.0
  0
LINE
  5
3B8
330
1F
100
AcDbEntity
  8
SLD-0
  6
Continuous
370
    15
100
AcDbLine
 10
122.5721878358
 20
9.2014152882
 30
0.0
 11
123.5519385002
 21
9.2014152882
 31
0.0
  0
LWPOLYLINE
  5
3B9
330
1F
100
AcDbEntity
  8
SLD-0
  6
Continuous
370
    15
100
AcDbPolyline
 90
      108
 70
   128
 43
0.0
 10
117.5604216988
 20
17.4604152547
 10
117.5618965618
 20
17.5117667682
 10
117.5663176307
 20
17.562941697
 10
117.5736684791
 20
17.6137628699
 10
117.5839244673
 20
17.6640554622
 10
117.597049809
 20
17.7136458227
 10
117.6129999181
 20
17.7623638199
 10
117.6317190619
 20
17.8100404958
 10
117.6531427077
 20
17.8565121723
 10
117.6771975232
 20
17.9016181046
 10
117.7038007892
 20
17.9452034144
 10
117.7328598135
 20
17.9871173302
 10
117.7642748639
 20
18.0272155337
 10
117.797937995
 20
18.0653601597
 10
117.8337330482
 20
18.1014192098
 10
117.8715362381
 20
18.1352688987
 10
117.9112179131
 20
18.1667918946
 10
117.9526407945
 20
18.1958802519
 10
117.9956623242
 20
18.2224330652
 10
118.0401334905
 20
18.2463588154
 10
118.0859017618
 20
18.2675753703
 10
118.1328093266
 20
18.286009984
 10
118.1806942667
 20
18.301598124
 10
118.2293917308
 20
18.3142864041
 10
118.2787333475
 20
18.3240314115
 10
118.328549572
 20
18.33079912
 10
118.378668513
 20
18.3345666498
 10
118.4289176925
 20
18.3353210944
 10
118.4791228726
 20
18.3330589339
 10
118.5291121618
 20
18.3277889681
 10
118.5787124954
 20
18.3195293835
 10
118.6277531556
 20
18.3083077531
 10
118.6760651841
 20
18.2941633832
 10
118.7234816764
 20
18.2771443798
 10
118.7698398342
 20
18.2573105822
 10
118.8149792061
 20
18.2347294564
 10
118.8587443272
 20
18.2094796148
 10
118.9009847192
 20
18.1816467097
 10
118.9415543039
 20
18.1513281266
 10
118.9803134561
 20
18.1186277043
 10
119.0171284175
 20
18.0836586683
 10
119.0518724695
 20
18.0465406971
 10
119.0844256401
 20
18.0074022692
 10
119.1146758773
 20
17.9663783164
 10
119.142519049
 20
17.9236102238
 10
119.1678586496
 20
17.8792458297
 10
119.1906078534
 20
17.8334370789
 10
119.2106880481
 20
17.7863423696
 10
119.2280300078
 20
17.7381247933
 10
119.2425738931
 20
17.6889492013
 10
119.2542695447
 20
17.6389863118
 10
119.2630767763
 20
17.5884074295
 10
119.2689653749
 20
17.5373873789
 10
119.2719145142
 20
17.486102158
 10
119.2719145142
 20
17.4347283514
 10
119.2689653749
 20
17.3834431306
 10
119.2630767763
 20
17.33242308
 10
119.2542695447
 20
17.2818447842
 10
119.2425738931
 20
17.2318813081
 10
119.2280300078
 20
17.1827063028
 10
119.2106880481
 20
17.1344881398
 10
119.1906078534
 20
17.0873934306
 10
119.1678586496
 20
17.0415852664
 10
119.142519049
 20
16.9972202856
 10
119.1146758773
 20
16.954452193
 10
119.0844256401
 20
16.9134282402
 10
119.0518724695
 20
16.8742898123
 10
119.0171284175
 20
16.8371718411
 10
118.9803134561
 20
16.8022028051
 10
118.9415543039
 20
16.7695023829
 10
118.9009847192
 20
16.7391837998
 10
118.8587443272
 20
16.7113514813
 10
118.8149792061
 20
16.686101053
 10
118.7698398342
 20
16.6635199272
 10
118.7234816764
 20
16.6436861296
 10
118.6760651841
 20
16.6266677129
 10
118.6277531556
 20
16.6125227563
 10
118.5787124954
 20
16.6013017126
 10
118.5291121618
 20
16.5930415414
 10
118.4791228726
 20
16.5877715756
 10
118.4289176925
 20
16.585509415
 10
118.378668513
 20
16.5862638596
 10
118.328549572
 20
16.5900313895
 10
118.2787333475
 20
16.5967990979
 10
118.2293917308
 20
16.6065441054
 10
118.1806942667
 20
16.6192323855
 10
118.1328093266
 20
16.634821112
 10
118.0859017618
 20
16.6532551391
 10
118.0401334905
 20
16.674471694
 10
117.9956623242
 20
16.6983974443
 10
117.9526407945
 20
16.7249502575
 10
117.9112179131
 20
16.7540386148
 10
117.8715362381
 20
16.7855616107
 10
117.8337330482
 20
16.8194112996
 10
117.797937995
 20
16.8554703498
 10
117.7642748639
 20
16.8936149758
 10
117.7328598135
 20
16.9337131792
 10
117.7038007892
 20
16.975627095
 10
117.6771975232
 20
17.0192124049
 10
117.6531427077
 20
17.0643183371
 10
117.6317190619
 20
17.1107900136
 10
117.6129999181
 20
17.1584666895
 10
117.597049809
 20
17.2071846867
 10
117.5839244673
 20
17.2567750472
 10
117.5736684791
 20
17.3070676395
 10
117.5663176307
 20
17.3578888124
 10
117.5618965618
 20
17.4090637413
 10
117.5604216988
 20
17.4604152547
  0
LWPOLYLINE
  5
3BA
330
1F
100
AcDbEntity
  8
SLD-0
  6
Continuous
370
    15
100
AcDbPolyline
 90
      108
 70
   128
 43
0.0
 10
114.6258010931
 20
11.8264152725
 10
114.6272765428
 20
11.8777670793
 10
114.631697025
 20
11.9289417148
 10
114.6390478734
 20
11.9797628877
 10
114.6493038616
 20
12.03005548
 10
114.66242979
 20
12.0796461338
 10
114.6783793124
 20
12.1283635444
 10
114.6970984562
 20
12.1760405136
 10
114.718522102
 20
12.2225118968
 10
114.7425769175
 20
12.2676181223
 10
114.7691801835
 20
12.3112034322
 10
114.7982392078
 20
12.353117348
 10
114.8296542582
 20
12.3932158448
 10
114.8633173893
 20
12.4313604708
 10
114.8991124425
 20
12.4674195209
 10
114.9369162191
 20
12.5012689165
 10
114.9765973074
 20
12.5327919124
 10
115.0180201889
 20
12.5618802697
 10
115.0610417185
 20
12.5884327896
 10
115.1055128848
 20
12.6123588332
 10
115.1512811561
 20
12.6335753881
 10
115.1981887209
 20
12.6520097085
 10
115.246073661
 20
12.6675978484
 10
115.2947711251
 20
12.6802864218
 10
115.3441127418
 20
12.6900314293
 10
115.3939289663
 20
12.6967994311
 10
115.4440479074
 20
12.7005669609
 10
115.4942970869
 20
12.7013211122
 10
115.5445022669
 20
12.699059245
 10
115.5944915561
 20
12.6937892792
 10
115.6440918898
 20
12.6855291079
 10
115.6931325499
 20
12.6743074776
 10
115.7414445785
 20
12.6601631076
 10
115.788861364
 20
12.6431446909
 10
115.8352192285
 20
12.6233106
 10
115.8803586004
 20
12.6007297675
 10
115.9241240148
 20
12.5754793392
 10
115.9663641135
 20
12.5476470208
 10
116.0069334049
 20
12.5173281443
 10
116.0456928504
 20
12.4846280154
 10
116.0825081051
 20
12.4496583927
 10
116.1172518638
 20
12.4125407149
 10
116.1498050344
 20
12.373402287
 10
116.1800555649
 20
12.3323783342
 10
116.2078984433
 20
12.289610535
 10
116.2332380439
 20
12.2452455541
 10
116.2559875411
 20
12.1994370966
 10
116.2760677358
 20
12.1523426807
 10
116.2934094021
 20
12.1041245177
 10
116.3079532874
 20
12.0549492191
 10
116.319648939
 20
12.0049860363
 10
116.3284564639
 20
11.9544074473
 10
116.3343447692
 20
11.9033873966
 10
116.3372939085
 20
11.8521021758
 10
116.3372939085
 20
11.8007283692
 10
116.3343447692
 20
11.7494431483
 10
116.3284564639
 20
11.6984230977
 10
116.319648939
 20
11.6478445087
 10
116.3079532874
 20
11.5978813259
 10
116.2934094021
 20
11.5487060273
 10
116.2760677358
 20
11.500488011
 10
116.2559875411
 20
11.453393595
 10
116.2332380439
 20
11.4075849909
 10
116.2078984433
 20
11.3632201567
 10
116.1800555649
 20
11.3204520641
 10
116.1498050344
 20
11.279428258
 10
116.1172518638
 20
11.2402898301
 10
116.0825081051
 20
11.2031720056
 10
116.0456928504
 20
11.1682026762
 10
116.0069334049
 20
11.135502254
 10
115.9663641135
 20
11.1051836709
 10
115.9241240148
 20
11.0773512057
 10
115.8803586004
 20
11.0521009241
 10
115.8352192285
 20
11.029519945
 10
115.788861364
 20
11.0096860008
 10
115.7414445785
 20
10.9926674374
 10
115.6931325499
 20
10.9785230674
 10
115.6440918898
 20
10.967301437
 10
115.5944915561
 20
10.9590414125
 10
115.5445022669
 20
10.9537714467
 10
115.4942970869
 20
10.9515095795
 10
115.4440479074
 20
10.9522637308
 10
115.3939289663
 20
10.9560312606
 10
115.3441127418
 20
10.9627992624
 10
115.2947711251
 20
10.9725442698
 10
115.246073661
 20
10.9852326966
 10
115.1981887209
 20
11.0008208365
 10
115.1512811561
 20
11.0192550102
 10
115.1055128848
 20
11.0404717118
 10
115.0610417185
 20
11.0643976087
 10
115.0180201889
 20
11.090950422
 10
114.9765973074
 20
11.120038486
 10
114.9369162191
 20
11.1515616285
 10
114.8991124425
 20
11.1854111708
 10
114.8633173893
 20
11.2214702209
 10
114.8296542582
 20
11.2596147002
 10
114.7982392078
 20
11.299713197
 10
114.7691801835
 20
11.3416272595
 10
114.7425769175
 20
11.3852124226
 10
114.718522102
 20
11.4303185016
 10
114.6970984562
 20
11.4767901781
 10
114.6783793124
 20
11.524466854
 10
114.66242979
 20
11.5731845578
 10
114.6493038616
 20
11.6227752116
 10
114.6390478734
 20
11.6730676573
 10
114.631697025
 20
11.7238891236
 10
114.6272765428
 20
11.775063759
 10
114.6258010931
 20
11.8264152725
  0
LWPOLYLINE
  5
3BB
330
1F
100
AcDbEntity
  8
SLD-0
  6
Continuous
370
    15
100
AcDbPolyline
 90
       56
 70
   128
 43
0.0
 10
115.4794792314
 20
12.7014123378
 10
115.4897915389
 20
12.7013211122
 10
115.5399967189
 20
12.699059245
 10
115.5899860081
 20
12.6937892792
 10
115.6395863418
 20
12.6855291079
 10
115.688627002
 20
12.6743074776
 10
115.7369390305
 20
12.6601631076
 10
115.7843558161
 20
12.6431446909
 10
115.8307136806
 20
12.6233106
 10
115.8758530524
 20
12.6007297675
 10
115.9196184669
 20
12.5754793392
 10
115.9618585656
 20
12.5476470208
 10
116.0024278569
 20
12.5173281443
 10
116.0411873025
 20
12.4846280154
 10
116.0780019705
 20
12.4496583927
 10
116.1127463158
 20
12.4125407149
 10
116.1452994864
 20
12.373402287
 10
116.175550017
 20
12.3323783342
 10
116.2033928953
 20
12.289610535
 10
116.2287324959
 20
12.2452455541
 10
116.2514819931
 20
12.1994370966
 10
116.2715621878
 20
12.1523426807
 10
116.2889038542
 20
12.1041245177
 10
116.3034477395
 20
12.0549492191
 10
116.3151433911
 20
12.0049860363
 10
116.323950916
 20
11.9544074473
 10
116.3298392213
 20
11.9033873966
 10
116.3327883605
 20
11.8521021758
 10
116.3327883605
 20
11.8007283692
 10
116.3298392213
 20
11.7494431483
 10
116.323950916
 20
11.6984230977
 10
116.3151433911
 20
11.6478445087
 10
116.3034477395
 20
11.5978813259
 10
116.2889038542
 20
11.5487060273
 10
116.2715621878
 20
11.500488011
 10
116.2514819931
 20
11.453393595
 10
116.2287324959
 20
11.4075849909
 10
116.2033928953
 20
11.3632201567
 10
116.175550017
 20
11.3204520641
 10
116.1452994864
 20
11.279428258
 10
116.1127463158
 20
11.2402898301
 10
116.0780019705
 20
11.2031720056
 10
116.0411873025
 20
11.1682026762
 10
116.0024278569
 20
11.135502254
 10
115.9618585656
 20
11.1051836709
 10
115.9196184669
 20
11.0773512057
 10
115.8758530524
 20
11.0521009241
 10
115.8307136806
 20
11.029519945
 10
115.7843558161
 20
11.0096860008
 10
115.7369390305
 20
10.9926674374
 10
115.688627002
 20
10.9785230674
 10
115.6395863418
 20
10.967301437
 10
115.5899860081
 20
10.9590414125
 10
115.5399967189
 20
10.9537714467
 10
115.4897915389
 20
10.9515095795
 10
115.4794792314
 20
10.9514183539
  0
LWPOLYLINE
  5
3BC
330
1F
100
AcDbEntity
  8
SLD-0
  6
Continuous
370
    15
100
AcDbPolyline
 90
       56
 70
   128
 43
0.0
 10
118.4140998371
 20
18.3354120267
 10
118.4244115579
 20
18.3353210944
 10
118.4746173246
 20
18.3330589339
 10
118.5246066138
 20
18.3277889681
 10
118.5742069475
 20
18.3195293835
 10
118.6232476076
 20
18.3083077531
 10
118.6715593429
 20
18.2941633832
 10
118.7189761284
 20
18.2771443798
 10
118.7653339929
 20
18.2573105822
 10
118.8104733648
 20
18.2347294564
 10
118.8542387792
 20
18.2094796148
 10
118.8964788779
 20
18.1816467097
 10
118.9370484626
 20
18.1513281266
 10
118.9758076148
 20
18.1186277043
 10
119.0126228695
 20
18.0836586683
 10
119.0473669215
 20
18.0465406971
 10
119.0799200921
 20
18.0074022692
 10
119.1101703293
 20
17.9663783164
 10
119.138013501
 20
17.9236102238
 10
119.1633531016
 20
17.8792458297
 10
119.1861023055
 20
17.8334370789
 10
119.2061825002
 20
17.7863423696
 10
119.2235244599
 20
17.7381247933
 10
119.2380683452
 20
17.6889492013
 10
119.2497639967
 20
17.6389863118
 10
119.2585712283
 20
17.5884074295
 10
119.264459827
 20
17.5373873789
 10
119.2674089662
 20
17.486102158
 10
119.2674089662
 20
17.4347283514
 10
119.264459827
 20
17.3834431306
 10
119.2585712283
 20
17.33242308
 10
119.2497639967
 20
17.2818447842
 10
119.2380683452
 20
17.2318813081
 10
119.2235244599
 20
17.1827063028
 10
119.2061825002
 20
17.1344881398
 10
119.1861023055
 20
17.0873934306
 10
119.1633531016
 20
17.0415852664
 10
119.138013501
 20
16.9972202856
 10
119.1101703293
 20
16.954452193
 10
119.0799200921
 20
16.9134282402
 10
119.0473669215
 20
16.8742898123
 10
119.0126228695
 20
16.8371718411
 10
118.9758076148
 20
16.8022028051
 10
118.9370484626
 20
16.7695023829
 10
118.8964788779
 20
16.7391837998
 10
118.8542387792
 20
16.7113514813
 10
118.8104733648
 20
16.686101053
 10
118.7653339929
 20
16.6635199272
 10
118.7189761284
 20
16.6436861296
 10
118.6715593429
 20
16.6266677129
 10
118.6232476076
 20
16.6125227563
 10
118.5742069475
 20
16.6013017126
 10
118.5246066138
 20
16.5930415414
 10
118.4746173246
 20
16.5877715756
 10
118.4244115579
 20
16.585509415
 10
118.4140998371
 20
16.5854184827
  0
LINE
  5
3BD
330
1F
100
AcDbEntity
  8
SLD-0
  6
Continuous
370
    15
100
AcDbLine
 10
123.5519385002
 20
43.7394149841
 30
0.0
 11
123.5936962534
 21
43.7394149841
 31
0.0
  0
LINE
  5
3BE
330
1F
100
AcDbEntity
  8
SLD-0
  6
Continuous
370
    15
100
AcDbLine
 10
123.5936962534
 20
43.5883477159
 30
0.0
 11
123.5936962534
 21
9.3524831499
 31
0.0
  0
LINE
  5
3BF
330
1F
100
AcDbEntity
  8
SLD-0
  6
Continuous
370
    15
100
AcDbLine
 10
123.5519385002
 20
9.2014152882
 30
0.0
 11
123.5936962534
 21
9.2014152882
 31
0.0
  0
SPLINE
  5
3C0
330
1F
100
AcDbEntity
  8
SLD-0
  6
Continuous
370
    15
100
AcDbSpline
210
0.0
220
0.0
230
1.0
 70
     8
 71
     3
 72
    11
 73
     7
 74
     0
 42
0.00000001
 43
0.00000001
 12
1.0
 22
0.0
 32
0.0
 13
1.0
 23
0.0
 33
0.0
 40
0.0
 40
0.0
 40
0.0
 40
0.0
 40
0.2499978240257305
 40
0.5000020722088133
 40
0.7500008560752895
 40
1.0
 40
1.0
 40
1.0
 40
1.0
 10
107.3666957242815
 20
9.148715288845596
 30
0.0
 10
107.3617004685673
 20
9.149507491777678
 30
0.0
 10
107.3517098287766
 20
9.151091917998965
 30
0.0
 10
107.3367246756579
 20
9.163278409485539
 30
0.0
 10
107.3217387603804
 20
9.180698366915124
 30
0.0
 10
107.3117483647981
 20
9.194509644440254
 30
0.0
 10
107.3067531634098
 20
9.201415288175706
 30
0.0
  0
SPLINE
  5
3C1
330
1F
100
AcDbEntity
  8
SLD-0
  6
Continuous
370
    15
100
AcDbSpline
210
0.0
220
0.0
230
1.0
 70
     8
 71
     3
 72
    11
 73
     7
 74
     0
 42
0.00000001
 43
0.00000001
 12
1.0
 22
0.0
 32
0.0
 13
1.0
 23
0.0
 33
0.0
 40
0.0
 40
0.0
 40
0.0
 40
0.0
 40
0.2499948265912197
 40
0.5000009244227033
 40
0.7499962213581483
 40
1.0
 40
1.0
 40
1.0
 40
1.0
 10
107.3666957242815
 20
9.170415288165296
 30
0.0
 10
107.3617004321135
 20
9.170881310940356
 30
0.0
 10
107.3517096225603
 20
9.171813377501532
 30
0.0
 10
107.3367249292115
 20
9.178981685550694
 30
0.0
 10
107.3217384396629
 20
9.189229094179266
 30
0.0
 10
107.3117483119832
 20
9.197353177572749
 30
0.0
 10
107.3067531634098
 20
9.201415288175706
 30
0.0
  0
LINE
  5
3C2
330
1F
100
AcDbEntity
  8
SLD-0
  6
Continuous
370
    15
100
AcDbLine
 10
107.3666957243
 20
9.1487152888
 30
0.0
 11
107.3666957243
 21
9.1704152882
 31
0.0
  0
LINE
  5
3C3
330
1F
100
AcDbEntity
  8
SLD-0
  6
Continuous
370
    15
100
AcDbLine
 10
105.6136961351
 20
9.2184437079
 30
0.0
 11
105.6136961351
 21
9.2014152882
 31
0.0
  0
LINE
  5
3C4
330
1F
100
AcDbEntity
  8
SLD-0
  6
Continuous
370
    15
100
AcDbLine
 10
105.6136961351
 20
9.2014152882
 30
0.0
 11
105.2386960938
 21
9.2014152882
 31
0.0
  0
LINE
  5
3C5
330
1F
100
AcDbEntity
  8
SLD-0
  6
Continuous
370
    15
100
AcDbLine
 10
105.2386960938
 20
9.7954153081
 30
0.0
 11
105.2386960938
 21
9.2014152882
 31
0.0
  0
LINE
  5
3C6
330
1F
100
AcDbEntity
  8
SLD-0
  6
Continuous
370
    15
100
AcDbLine
 10
106.7127529854
 20
9.7954153081
 30
0.0
 11
105.2386960938
 21
9.7954153081
 31
0.0
  0
LINE
  5
3C7
330
1F
100
AcDbEntity
  8
SLD-0
  6
Continuous
370
    15
100
AcDbLine
 10
107.3067531634
 20
9.2014152882
 30
0.0
 11
106.9266961139
 21
9.2014152882
 31
0.0
  0
LINE
  5
3C8
330
1F
100
AcDbEntity
  8
SLD-0
  6
Continuous
370
    15
100
AcDbLine
 10
106.9266961139
 20
9.2014152882
 30
0.0
 11
106.9266961139
 21
9.2184437079
 31
0.0
  0
LINE
  5
3C9
330
1F
100
AcDbEntity
  8
SLD-0
  6
Continuous
370
    15
100
AcDbLine
 10
106.9266961139
 20
9.2184437079
 30
0.0
 11
105.6136961351
 21
9.2184437079
 31
0.0
  0
LINE
  5
3CA
330
1F
100
AcDbEntity
  8
SLD-0
  6
Continuous
370
    15
100
AcDbLine
 10
106.7127529854
 20
9.7954153081
 30
0.0
 11
107.3067531634
 21
9.2014152882
 31
0.0
  0
LINE
  5
3CB
330
1F
100
AcDbEntity
  8
SLD-0
  6
Continuous
370
    15
100
AcDbLine
 10
107.3666957243
 20
9.1487152888
 30
0.0
 11
106.9266961139
 21
9.1487152888
 31
0.0
  0
LINE
  5
3CC
330
1F
100
AcDbEntity
  8
SLD-0
  6
Continuous
370
    15
100
AcDbLine
 10
106.9266961139
 20
9.2014152882
 30
0.0
 11
106.9266961139
 21
9.1487152888
 31
0.0
  0
LINE
  5
3CD
330
1F
100
AcDbEntity
  8
SLD-0
  6
Continuous
370
    15
100
AcDbLine
 10
105.6136961351
 20
9.1487152888
 30
0.0
 11
105.6136961351
 21
9.2014152882
 31
0.0
  0
LINE
  5
3CE
330
1F
100
AcDbEntity
  8
SLD-0
  6
Continuous
370
    15
100
AcDbLine
 10
105.6136961351
 20
9.1487152888
 30
0.0
 11
105.2386960938
 21
9.1487152888
 31
0.0
  0
LINE
  5
3CF
330
1F
100
AcDbEntity
  8
SLD-0
  6
Continuous
370
    15
100
AcDbLine
 10
105.2386960938
 20
9.2014152882
 30
0.0
 11
105.2386960938
 21
9.1487152888
 31
0.0
  0
SPLINE
  5
3D0
330
1F
100
AcDbEntity
  8
SLD-0
  6
Continuous
370
    15
100
AcDbSpline
210
0.0
220
0.0
230
1.0
 70
     8
 71
     3
 72
    11
 73
     7
 74
     0
 42
0.00000001
 43
0.00000001
 12
1.0
 22
0.0
 32
0.0
 13
1.0
 23
0.0
 33
0.0
 40
0.0
 40
0.0
 40
0.0
 40
0.0
 40
0.2500028599548663
 40
0.5000051522018845
 40
0.7500006673965046
 40
1.0
 40
1.0
 40
1.0
 40
1.0
 10
122.5736885118032
 20
9.148715288845596
 30
0.0
 10
122.57408432747
 20
9.149507463425019
 30
0.0
 10
122.5748759579049
 20
9.151091810784994
 30
0.0
 10
122.5753802439446
 20
9.163278341837401
 30
0.0
 10
122.5748002314649
 20
9.180698530033036
 30
0.0
 10
122.5730586387911
 20
9.194509666979284
 30
0.0
 10
122.5721878358058
 20
9.201415288175706
 30
0.0
  0
LINE
  5
3D1
330
1F
100
AcDbEntity
  8
SLD-0
  6
Continuous
370
    15
100
AcDbLine
 10
122.5736885118
 20
9.1487152888
 30
0.0
 11
107.3666957243
 21
9.1487152888
 31
0.0
  0
SPLINE
  5
3D2
330
1F
100
AcDbEntity
  8
SLD-0
  6
Continuous
370
    15
100
AcDbSpline
210
0.0
220
0.0
230
1.0
 70
     8
 71
     3
 72
    12
 73
     8
 74
     0
 42
0.00000001
 43
0.00000001
 12
1.0
 22
0.0
 32
0.0
 13
1.0
 23
0.0
 33
0.0
 40
0.0
 40
0.0
 40
0.0
 40
0.0
 40
0.2373941016816934
 40
0.474914906042833
 40
0.7124408061777259
 40
0.9499590277310953
 40
0.9999999999999999
 40
0.9999999999999999
 40
0.9999999999999999
 40
0.9999999999999999
 10
107.415759264162
 20
9.201415288175706
 30
0.0
 10
107.412592529515
 20
9.19486473613221
 30
0.0
 10
107.4062573700621
 20
9.181760135865279
 30
0.0
 10
107.3949070987693
 20
9.164792595060453
 30
0.0
 10
107.3825471979008
 20
9.152913069325223
 30
0.0
 10
107.3728903088731
 20
9.14894325415224
 30
0.0
 10
107.3676139200258
 20
9.148749079129884
 30
0.0
 10
107.3666957242815
 20
9.148715288845596
 30
0.0
  0
LINE
  5
3D3
330
1F
100
AcDbEntity
  8
SLD-0
  6
Continuous
370
    15
100
AcDbLine
 10
107.4157592642
 20
9.2014152882
 30
0.0
 11
122.5721878358
 21
9.2014152882
 31
0.0
  0
LINE
  5
3D4
330
1F
100
AcDbEntity
  8
SLD-0
  6
Continuous
370
    15
100
AcDbLine
 10
107.4157592642
 20
9.2014152882
 30
0.0
 11
107.4112642761
 21
9.2014152882
 31
0.0
  0
SPLINE
  5
3D5
330
1F
100
AcDbEntity
  8
SLD-0
  6
Continuous
370
    15
100
AcDbSpline
210
0.0
220
0.0
230
1.0
 70
     8
 71
     3
 72
    11
 73
     7
 74
     0
 42
0.00000001
 43
0.00000001
 12
1.0
 22
0.0
 32
0.0
 13
1.0
 23
0.0
 33
0.0
 40
0.0
 40
0.0
 40
0.0
 40
0.0
 40
0.2752364191574315
 40
0.5508058463887642
 40
0.8263614793005808
 40
1.0
 40
1.0
 40
1.0
 40
1.0
 10
107.4112642760885
 20
9.201415288175706
 30
0.0
 10
107.4076449712084
 20
9.196942095472822
 30
0.0
 10
107.4004019824574
 20
9.187990297958834
 30
0.0
 10
107.3881044742229
 20
9.177113166519257
 30
0.0
 10
107.3766824176535
 20
9.171233095241469
 30
0.0
 10
107.3694798984832
 20
9.170643283286246
 30
0.0
 10
107.3666957242815
 20
9.170415288165266
 30
0.0
  0
LINE
  5
3D6
330
1F
100
AcDbEntity
  8
SLD-0
  6
Continuous
370
    15
100
AcDbLine
 10
107.4157592642
 20
9.2014152882
 30
0.0
 11
107.7937512709
 21
9.7954153081
 31
0.0
  0
LINE
  5
3D7
330
1F
100
AcDbEntity
  8
SLD-0
  6
Continuous
370
    15
100
AcDbLine
 10
107.7937512709
 20
9.7954153081
 30
0.0
 11
122.4491197175
 21
9.7954153081
 31
0.0
  0
LINE
  5
3D8
330
1F
100
AcDbEntity
  8
SLD-0
  6
Continuous
370
    15
100
AcDbLine
 10
122.4491197175
 20
9.7954153081
 30
0.0
 11
122.5721878358
 21
9.2014152882
 31
0.0
  0
LINE
  5
3D9
330
1F
100
AcDbEntity
  8
SLD-0
  6
Continuous
370
    15
100
AcDbLine
 10
107.4112642761
 20
9.2014152882
 30
0.0
 11
107.7892551095
 21
9.7954153081
 31
0.0
  0
LINE
  5
3DA
330
1F
100
AcDbEntity
  8
SLD-0
  6
Continuous
370
    15
100
AcDbLine
 10
107.7937512709
 20
9.7954153081
 30
0.0
 11
107.7892551095
 21
9.7954153081
 31
0.0
  0
LINE
  5
3DB
330
1F
100
AcDbEntity
  8
SLD-0
  6
Continuous
370
    15
100
AcDbLine
 10
104.4596962395
 20
9.1704152882
 30
0.0
 11
104.4596962395
 21
9.1487152888
 31
0.0
  0
LINE
  5
3DC
330
1F
100
AcDbEntity
  8
SLD-0
  6
Continuous
370
    15
100
AcDbLine
 10
105.2386960938
 20
9.1704152882
 30
0.0
 11
104.4596962395
 21
9.1704152882
 31
0.0
  0
LINE
  5
3DD
330
1F
100
AcDbEntity
  8
SLD-0
  6
Continuous
370
    15
100
AcDbLine
 10
105.2386960938
 20
9.1487152888
 30
0.0
 11
105.1233963057
 21
9.1487152888
 31
0.0
  0
LINE
  5
3DE
330
1F
100
AcDbEntity
  8
SLD-0
  6
Continuous
370
    15
100
AcDbLine
 10
104.4286959576
 20
9.2014152882
 30
0.0
 11
104.4069965816
 21
9.2014152882
 31
0.0
  0
LINE
  5
3DF
330
1F
100
AcDbEntity
  8
SLD-0
  6
Continuous
370
    15
100
AcDbLine
 10
104.4286959576
 20
9.6704152821
 30
0.0
 11
104.4286959576
 21
9.2014152882
 31
0.0
  0
ARC
  5
3E0
330
1F
100
AcDbEntity
  8
SLD-0
  6
Continuous
370
    15
100
AcDbCircle
 10
104.4596962534
 20
9.2014152882
 30
0.0
 40
0.0527000000000157
100
AcDbArc
 50
180.0
 51
270.0
  0
ARC
  5
3E1
330
1F
100
AcDbEntity
  8
SLD-0
  6
Continuous
370
    15
100
AcDbCircle
 10
104.4596962534
 20
9.2014152882
 30
0.0
 40
0.0310000000000059
100
AcDbArc
 50
180.0
 51
270.0
  0
LINE
  5
3E2
330
1F
100
AcDbEntity
  8
SLD-0
  6
Continuous
370
    15
100
AcDbLine
 10
105.6136961351
 20
9.1704152882
 30
0.0
 11
106.9266961139
 21
9.1704152882
 31
0.0
  0
LINE
  5
3E3
330
1F
100
AcDbEntity
  8
SLD-0
  6
Continuous
370
    15
100
AcDbLine
 10
105.6136961351
 20
9.1487152888
 30
0.0
 11
106.9266961139
 21
9.1487152888
 31
0.0
  0
LINE
  5
3E4
330
1F
100
AcDbEntity
  8
SLD-0
  6
Continuous
370
    15
100
AcDbLine
 10
123.5626962534
 20
9.1487152888
 30
0.0
 11
123.5626962534
 21
9.1704152882
 31
0.0
  0
LINE
  5
3E5
330
1F
100
AcDbEntity
  8
SLD-0
  6
Continuous
370
    15
100
AcDbLine
 10
123.5626962534
 20
9.1704152882
 30
0.0
 11
122.5736885118
 21
9.1704152882
 31
0.0
  0
LINE
  5
3E6
330
1F
100
AcDbEntity
  8
SLD-0
  6
Continuous
370
    15
100
AcDbLine
 10
123.5626962534
 20
9.1487152888
 30
0.0
 11
122.5736885118
 21
9.1487152888
 31
0.0
  0
LINE
  5
3E7
330
1F
100
AcDbEntity
  8
SLD-0
  6
Continuous
370
    15
100
AcDbLine
 10
123.5936962534
 20
9.2014152882
 30
0.0
 11
123.615396255
 21
9.2014152882
 31
0.0
  0
SPLINE
  5
3E8
330
1F
100
AcDbEntity
  8
SLD-0
  6
Continuous
370
    15
100
AcDbSpline
210
0.0
220
0.0
230
1.0
 70
     8
 71
     3
 72
    11
 73
     7
 74
     0
 42
0.00000001
 43
0.00000001
 12
1.0
 22
0.0
 32
0.0
 13
1.0
 23
0.0
 33
0.0
 40
0.0
 40
0.0
 40
0.0
 40
0.0
 40
0.2499955339962762
 40
0.4999970180910838
 40
0.7499985113973984
 40
0.9999999999999999
 40
0.9999999999999999
 40
0.9999999999999999
 40
0.9999999999999999
 10
123.5936962533784
 20
9.201415288175706
 30
0.0
 10
123.5932302586449
 20
9.197353118313657
 30
0.0
 10
123.5922982580868
 20
9.189228681906588
 30
0.0
 10
123.5851295926441
 20
9.178981971230632
 30
0.0
 10
123.5748826983863
 20
9.171813219268623
 30
0.0
 10
123.566758401682
 20
9.170881265196853
 30
0.0
 10
123.562696253368
 20
9.170415288165351
 30
0.0
  0
SPLINE
  5
3E9
330
1F
100
AcDbEntity
  8
SLD-0
  6
Continuous
370
    15
100
AcDbSpline
210
0.0
220
0.0
230
1.0
 70
     8
 71
     3
 72
    11
 73
     7
 74
     0
 42
0.00000001
 43
0.00000001
 12
1.0
 22
0.0
 32
0.0
 13
1.0
 23
0.0
 33
0.0
 40
0.0
 40
0.0
 40
0.0
 40
0.0
 40
0.2499983823733169
 40
0.499998923008721
 40
0.7499994673982305
 40
1.0
 40
1.0
 40
1.0
 40
1.0
 10
123.6153962549898
 20
9.201415288175706
 30
0.0
 10
123.6146040813689
 20
9.19450962277962
 30
0.0
 10
123.6130197272882
 20
9.18069823237012
 30
0.0
 10
123.6008329296055
 20
9.163278626305983
 30
0.0
 10
123.5834132100352
 20
9.151091777027908
 30
0.0
 10
123.5696019054819
 20
9.149507451560583
 30
0.0
 10
123.562696253368
 20
9.148715288845596
 30
0.0
  0
LINE
  5
3EA
330
1F
100
AcDbEntity
  8
SLD-0
  6
Continuous
370
    15
100
AcDbLine
 10
123.615396255
 20
9.2014152882
 30
0.0
 11
123.615396255
 21
9.7954153081
 31
0.0
  0
LINE
  5
3EB
330
1F
100
AcDbEntity
  8
SLD-0
  6
Continuous
370
    15
100
AcDbLine
 10
123.5936962534
 20
9.2014152882
 30
0.0
 11
123.5936962534
 21
9.3524831499
 31
0.0
  0
LINE
  5
3EC
330
1F
100
AcDbEntity
  8
SLD-0
  6
Continuous
370
    15
100
AcDbLine
 10
123.5936962534
 20
9.7954153081
 30
0.0
 11
123.615396255
 21
9.7954153081
 31
0.0
  0
LINE
  5
3ED
330
1F
100
AcDbEntity
  8
SLD-0
  6
Continuous
370
    15
100
AcDbLine
 10
107.3783960691
 20
8.1637152776
 30
0.0
 11
107.4327993873
 21
8.1637152776
 31
0.0
  0
LINE
  5
3EE
330
1F
100
AcDbEntity
  8
SLD-0
  6
Continuous
370
    15
100
AcDbLine
 10
107.3783960691
 20
9.0661152905
 30
0.0
 11
107.4327993873
 21
9.0661152905
 31
0.0
  0
LINE
  5
3EF
330
1F
100
AcDbEntity
  8
SLD-0
  6
Continuous
370
    15
100
AcDbLine
 10
106.9069960748
 20
9.1804977877
 30
0.0
 11
106.9266961139
 21
9.1804977877
 31
0.0
  0
LINE
  5
3F0
330
1F
100
AcDbEntity
  8
SLD-0
  6
Continuous
370
    15
100
AcDbLine
 10
107.3352308078
 20
9.1804977877
 30
0.0
 11
107.3910714427
 21
9.1804977877
 31
0.0
  0
LWPOLYLINE
  5
3F1
330
1F
100
AcDbEntity
  8
SLD-0
  6
Continuous
370
    15
100
AcDbPolyline
 90
        3
 70
   128
 43
0.0
 10
118.9688433753
 20
17.4268266294
 10
118.9723671479
 20
17.4281272544
 10
118.9758431078
 20
17.4299400334
  0
LWPOLYLINE
  5
3F2
330
1F
100
AcDbEntity
  8
SLD-0
  6
Continuous
370
    15
100
AcDbPolyline
 90
        3
 70
   128
 43
0.0
 10
118.9758431078
 20
17.4836909858
 10
118.9723671479
 20
17.4855031782
 10
118.9688433753
 20
17.4868038032
  0
LINE
  5
3F3
330
1F
100
AcDbEntity
  8
SLD-0
  6
Continuous
370
    15
100
AcDbLine
 10
104.9749537539
 20
43.7394149841
 30
0.0
 11
104.9749537539
 21
43.7403160937
 31
0.0
  0
LINE
  5
3F4
330
1F
100
AcDbEntity
  8
SLD-0
  6
Continuous
370
    15
100
AcDbLine
 10
104.9843098058
 20
43.7394149841
 30
0.0
 11
104.9843098058
 21
43.7403160937
 31
0.0
  0
LINE
  5
3F5
330
1F
100
AcDbEntity
  8
SLD-0
  6
Continuous
370
    15
100
AcDbLine
 10
123.5269962529
 20
43.7403160937
 30
0.0
 11
123.5269962529
 21
43.7394149841
 31
0.0
  0
LINE
  5
3F6
330
1F
100
AcDbEntity
  8
SLD-0
  6
Continuous
370
    15
100
AcDbLine
 10
107.4191067455
 20
43.7270904332
 30
0.0
 11
107.4191067455
 21
9.2137407306
 31
0.0
  0
DIMENSION
  5
3F7
330
1F
100
AcDbEntity
  8
DIM
100
AcDbDimension
  2
_D_8
 10
97.7505672689
 20
8.0791152882
 30
0.0
 11
97.7505672689
 21
25.9821152882
 31
0.0
 70
   160
  1
<>
 71
     2
 42
-1.0
  3
SLDDIMSTYLE0
100
AcDbAlignedDimension
 13
104.4379962534
 23
43.8851152882
 33
0.0
 14
104.4403962534
 24
8.0791152882
 34
0.0
 50
90.0
100
AcDbRotatedDimension
  0
DIMENSION
  5
406
330
1F
100
AcDbEntity
  8
DIM
100
AcDbDimension
  2
_D_9
 10
128.216639412
 20
46.8073457653
 30
0.0
 11
128.216639412
 21
45.2997305267
 31
0.0
 70
   160
  1
<>
 71
     2
 42
-1.0
  3
SLDDIMSTYLE1
100
AcDbAlignedDimension
 13
123.5626962534
 23
43.7921152882
 33
0.0
 14
121.9780962534
 24
46.8073457653
 34
0.0
 50
90.0
100
AcDbRotatedDimension
  0
LINE
  5
411
330
1F
100
AcDbEntity
  8
SLD-0
  6
Continuous
370
    15
100
AcDbLine
 10
23.5159345464
 20
46.8073458365
 30
0.0
 11
6.6409350345
 21
46.8073458365
 31
0.0
  0
LINE
  5
412
330
1F
100
AcDbEntity
  8
SLD-0
  6
Continuous
370
    15
100
AcDbLine
 10
21.2406351775
 20
8.1487152643
 30
0.0
 11
21.1862318593
 21
8.1487152643
 31
0.0
  0
LINE
  5
413
330
1F
100
AcDbEntity
  8
SLD-0
  6
Continuous
370
    15
100
AcDbLine
 10
21.2406351775
 20
9.1147152866
 30
0.0
 11
21.1862318593
 21
9.1147152866
 31
0.0
  0
LINE
  5
414
330
1F
100
AcDbEntity
  8
SLD-0
  6
Continuous
370
    15
100
AcDbLine
 10
21.2406351775
 20
9.1151152878
 30
0.0
 11
21.2406351775
 21
8.146115261
 31
0.0
  0
LINE
  5
415
330
1F
100
AcDbEntity
  8
SLD-0
  6
Continuous
370
    15
100
AcDbLine
 10
24.1786349441
 20
9.1151152878
 30
0.0
 11
21.2406351775
 21
9.1151152878
 31
0.0
  0
LINE
  5
416
330
1F
100
AcDbEntity
  8
SLD-0
  6
Continuous
370
    15
100
AcDbLine
 10
24.1786349441
 20
8.146115261
 30
0.0
 11
24.1786349441
 21
9.1151152878
 31
0.0
  0
LINE
  5
417
330
1F
100
AcDbEntity
  8
SLD-0
  6
Continuous
370
    15
100
AcDbLine
 10
24.1786349441
 20
8.146115261
 30
0.0
 11
21.2406351775
 21
8.146115261
 31
0.0
  0
LINE
  5
418
330
1F
100
AcDbEntity
  8
SLD-0
  6
Continuous
370
    15
100
AcDbLine
 10
21.254899226
 20
8.079115255
 30
0.0
 11
24.1786349441
 21
8.079115255
 31
0.0
  0
LINE
  5
419
330
1F
100
AcDbEntity
  8
SLD-0
  6
Continuous
370
    15
100
AcDbLine
 10
24.1786349441
 20
8.146115261
 30
0.0
 11
24.1786349441
 21
8.079115255
 31
0.0
  0
SPLINE
  5
41A
330
1F
100
AcDbEntity
  8
SLD-0
  6
Continuous
370
    15
100
AcDbSpline
210
0.0
220
0.0
230
1.0
 70
     8
 71
     3
 72
    11
 73
     7
 74
     0
 42
0.00000001
 43
0.00000001
 12
1.0
 22
0.0
 32
0.0
 13
1.0
 23
0.0
 33
0.0
 40
0.0
 40
0.0
 40
0.0
 40
0.0
 40
0.2499968120238952
 40
0.5000013261502807
 40
0.7500014233995946
 40
1.0
 40
1.0
 40
1.0
 40
1.0
 10
21.25489922603441
 20
8.07911525495646
 30
0.0
 10
21.25371060699975
 20
8.080122455868487
 30
0.0
 10
21.25133333231051
 20
8.082136888723198
 30
0.0
 10
21.24776825276458
 20
8.097630060621697
 30
0.0
 10
21.2442005047798
 20
8.119776816718291
 30
0.0
 10
21.24182361750404
 20
8.13733579735129
 30
0.0
 10
21.24063517748058
 20
8.146115260966672
 30
0.0
  0
LINE
  5
41B
330
1F
100
AcDbEntity
  8
SLD-0
  6
Continuous
370
    15
100
AcDbLine
 10
5.0446349933
 20
8.079115255
 30
0.0
 11
21.1926546118
 21
8.079115255
 31
0.0
  0
SPLINE
  5
41C
330
1F
100
AcDbEntity
  8
SLD-0
  6
Continuous
370
    15
100
AcDbSpline
210
0.0
220
0.0
230
1.0
 70
     8
 71
     3
 72
    11
 73
     7
 74
     0
 42
0.00000001
 43
0.00000001
 12
1.0
 22
0.0
 32
0.0
 13
1.0
 23
0.0
 33
0.0
 40
0.0
 40
0.0
 40
0.0
 40
0.0
 40
0.2500020173653574
 40
0.4999970581981844
 40
0.7500020978140766
 40
1.0
 40
1.0
 40
1.0
 40
1.0
 10
5.044634993285932
 20
8.07911525495646
 30
0.0
 10
5.044034801960546
 20
8.079955547840067
 30
0.0
 10
5.042834436058657
 20
8.081636110158154
 30
0.0
 10
5.041702989015946
 20
8.094706964178286
 30
0.0
 10
5.041636145015961
 20
8.113650446295631
 30
0.0
 10
5.042976368963846
 20
8.129350230550893
 30
0.0
 10
5.043646471372088
 20
8.137200010623072
 30
0.0
  0
ARC
  5
41D
330
1F
100
AcDbEntity
  8
SLD-0
  6
Continuous
370
    15
100
AcDbCircle
 10
5.3644388265
 20
8.1461001737
 30
0.0
 40
0.3209157958698457
100
AcDbArc
 50
179.9973063465
 51
181.5892242823
  0
LINE
  5
41E
330
1F
100
AcDbEntity
  8
SLD-0
  6
Continuous
370
    15
100
AcDbLine
 10
21.1787730655
 20
8.146115261
 30
0.0
 11
5.043523031
 21
8.146115261
 31
0.0
  0
ARC
  5
41F
330
1F
100
AcDbEntity
  8
SLD-0
  6
Continuous
370
    15
100
AcDbCircle
 10
21.2700190727
 20
8.1300822267
 30
0.0
 40
0.0926438990168795
100
AcDbArc
 50
170.0341672534
 51
213.3765122848
  0
LINE
  5
420
330
1F
100
AcDbEntity
  8
SLD-0
  6
Continuous
370
    15
100
AcDbLine
 10
21.1787730655
 20
8.146115261
 30
0.0
 11
21.1787730655
 21
9.1151152878
 31
0.0
  0
LINE
  5
421
330
1F
100
AcDbEntity
  8
SLD-0
  6
Continuous
370
    15
100
AcDbLine
 10
5.043523031
 20
9.1151152878
 30
0.0
 11
5.043523031
 21
8.146115261
 31
0.0
  0
LINE
  5
422
330
1F
100
AcDbEntity
  8
SLD-0
  6
Continuous
370
    15
100
AcDbLine
 10
21.1787730655
 20
9.1151152878
 30
0.0
 11
5.043523031
 21
9.1151152878
 31
0.0
  0
ARC
  5
423
330
1F
100
AcDbEntity
  8
SLD-0
  6
Continuous
370
    15
100
AcDbCircle
 10
21.2284444435
 20
8.1386957569
 30
0.0
 40
0.0428596699390404
100
AcDbArc
 50
170.0312191281
 51
213.37928465
  0
LINE
  5
424
330
1F
100
AcDbEntity
  8
SLD-0
  6
Continuous
370
    15
100
AcDbLine
 10
21.1926546118
 20
8.079115255
 30
0.0
 11
21.1926546118
 21
8.1151152724
 31
0.0
  0
LINE
  5
425
330
1F
100
AcDbEntity
  8
SLD-0
  6
Continuous
370
    15
100
AcDbLine
 10
21.1862318593
 20
8.146115261
 30
0.0
 11
21.1787730655
 21
8.146115261
 31
0.0
  0
LINE
  5
426
330
1F
100
AcDbEntity
  8
SLD-0
  6
Continuous
370
    15
100
AcDbLine
 10
21.1862318593
 20
8.146115261
 30
0.0
 11
21.1862318593
 21
9.1151152878
 31
0.0
  0
LINE
  5
427
330
1F
100
AcDbEntity
  8
SLD-0
  6
Continuous
370
    15
100
AcDbLine
 10
21.1787730655
 20
9.1151152878
 30
0.0
 11
21.1862318593
 21
9.1151152878
 31
0.0
  0
LINE
  5
428
330
1F
100
AcDbEntity
  8
SLD-0
  6
Continuous
370
    15
100
AcDbLine
 10
21.1932670847
 20
8.079115255
 30
0.0
 11
21.1932670847
 21
8.1151152724
 31
0.0
  0
LINE
  5
429
330
1F
100
AcDbEntity
  8
SLD-0
  6
Continuous
370
    15
100
AcDbLine
 10
21.254899226
 20
8.079115255
 30
0.0
 11
21.1932670847
 21
8.079115255
 31
0.0
  0
LINE
  5
42A
330
1F
100
AcDbEntity
  8
SLD-0
  6
Continuous
370
    15
100
AcDbLine
 10
21.2450808861
 20
8.1151152724
 30
0.0
 11
21.1932670847
 21
8.1151152724
 31
0.0
  0
ARC
  5
42B
330
1F
100
AcDbEntity
  8
SLD-0
  6
Continuous
370
    15
100
AcDbCircle
 10
24.1786349932
 20
8.1461152882
 30
0.0
 40
0.0309999999999988
100
AcDbArc
 50
270.0
 51
0.0
  0
LINE
  5
42C
330
1F
100
AcDbEntity
  8
SLD-0
  6
Continuous
370
    15
100
AcDbLine
 10
24.209635226
 20
8.146115261
 30
0.0
 11
24.2456350235
 21
8.146115261
 31
0.0
  0
ARC
  5
42D
330
1F
100
AcDbEntity
  8
SLD-0
  6
Continuous
370
    15
100
AcDbCircle
 10
24.1786349932
 20
8.1461152882
 30
0.0
 40
0.0669999999999984
100
AcDbArc
 50
270.0
 51
0.0
  0
LINE
  5
42E
330
1F
100
AcDbEntity
  8
SLD-0
  6
Continuous
370
    15
100
AcDbLine
 10
24.209635226
 20
9.048115291
 30
0.0
 11
24.2456350235
 21
9.048115291
 31
0.0
  0
ARC
  5
42F
330
1F
100
AcDbEntity
  8
SLD-0
  6
Continuous
370
    15
100
AcDbCircle
 10
24.1786349932
 20
9.0481152882
 30
0.0
 40
0.0670000000000019
100
AcDbArc
 50
0.0
 51
90.0
  0
ARC
  5
430
330
1F
100
AcDbEntity
  8
SLD-0
  6
Continuous
370
    15
100
AcDbCircle
 10
24.1786349932
 20
9.0481152882
 30
0.0
 40
0.0310000000000024
100
AcDbArc
 50
0.0
 51
90.0
  0
LINE
  5
431
330
1F
100
AcDbEntity
  8
SLD-0
  6
Continuous
370
    15
100
AcDbLine
 10
24.209635226
 20
9.048115291
 30
0.0
 11
24.209635226
 21
8.146115261
 31
0.0
  0
LINE
  5
432
330
1F
100
AcDbEntity
  8
SLD-0
  6
Continuous
370
    15
100
AcDbLine
 10
24.2456350235
 20
9.048115291
 30
0.0
 11
24.2456350235
 21
8.146115261
 31
0.0
  0
LINE
  5
433
330
1F
100
AcDbEntity
  8
SLD-0
  6
Continuous
370
    15
100
AcDbLine
 10
21.1932670847
 20
8.079115255
 30
0.0
 11
21.1926546118
 21
8.079115255
 31
0.0
  0
LINE
  5
434
330
1F
100
AcDbEntity
  8
SLD-0
  6
Continuous
370
    15
100
AcDbLine
 10
21.1932670847
 20
8.1151152724
 30
0.0
 11
21.1926546118
 21
8.1151152724
 31
0.0
  0
ARC
  5
435
330
1F
100
AcDbEntity
  8
SLD-0
  6
Continuous
370
    15
100
AcDbCircle
 10
5.0446349932
 20
8.1461152882
 30
0.0
 40
0.0309999999999997
100
AcDbArc
 50
180.0
 51
265.1467149591
  0
ARC
  5
436
330
1F
100
AcDbEntity
  8
SLD-0
  6
Continuous
370
    15
100
AcDbCircle
 10
5.0446349932
 20
8.1461152882
 30
0.0
 40
0.0670000000000011
100
AcDbArc
 50
180.0
 51
270.0
  0
LINE
  5
437
330
1F
100
AcDbEntity
  8
SLD-0
  6
Continuous
370
    15
100
AcDbLine
 10
5.0136349944
 20
8.146115261
 30
0.0
 11
4.9776349907
 21
8.146115261
 31
0.0
  0
LINE
  5
438
330
1F
100
AcDbEntity
  8
SLD-0
  6
Continuous
370
    15
100
AcDbLine
 10
4.9776349907
 20
8.146115261
 30
0.0
 11
4.9776349907
 21
9.1151152878
 31
0.0
  0
LINE
  5
439
330
1F
100
AcDbEntity
  8
SLD-0
  6
Continuous
370
    15
100
AcDbLine
 10
4.9776349907
 20
9.1151152878
 30
0.0
 11
5.0136349944
 21
9.1151152878
 31
0.0
  0
LINE
  5
43A
330
1F
100
AcDbEntity
  8
SLD-0
  6
Continuous
370
    15
100
AcDbLine
 10
5.0136349944
 20
8.146115261
 30
0.0
 11
5.0136349944
 21
9.1151152878
 31
0.0
  0
LWPOLYLINE
  5
43B
330
1F
100
AcDbEntity
  8
SLD-0
  6
Continuous
370
    15
100
AcDbPolyline
 90
        9
 70
   128
 43
0.0
 10
24.7103553083
 20
39.4420210013
 10
24.7165492634
 20
39.4482137831
 10
24.7225050346
 20
39.4541695543
 10
24.7279938245
 20
39.4596606909
 10
24.732805609
 20
39.464471302
 10
24.73675383
 20
39.4684183497
 10
24.7396883028
 20
39.4713539958
 10
24.7414940419
 20
39.4731609083
 10
24.7421041682
 20
39.4737686879
  0
LINE
  5
43C
330
1F
100
AcDbEntity
  8
SLD-0
  6
Continuous
370
    15
100
AcDbLine
 10
24.7421041682
 20
39.4737686879
 30
0.0
 11
26.85903118
 21
37.3568440228
 31
0.0
  0
SPLINE
  5
43D
330
1F
100
AcDbEntity
  8
SLD-0
  6
Continuous
370
    15
100
AcDbSpline
210
0.0
220
0.0
230
1.0
 70
     8
 71
     3
 72
    11
 73
     7
 74
     0
 42
0.00000001
 43
0.00000001
 12
1.0
 22
0.0
 32
0.0
 13
1.0
 23
0.0
 33
0.0
 40
0.0
 40
0.0
 40
0.0
 40
0.0
 40
0.2582634593861957
 40
0.5167414318933885
 40
0.7751966606334798
 40
1.0
 40
1.0
 40
1.0
 40
1.0
 10
26.85903117995719
 20
37.35684402280204
 30
0.0
 10
26.85565621911993
 20
37.35919817610046
 30
0.0
 10
26.84890349420958
 20
37.36390843805241
 30
0.0
 10
26.83248258483761
 20
37.36468055491182
 30
0.0
 10
26.81362794720329
 20
37.36228845230124
 30
0.0
 10
26.80024206160795
 20
37.35960721577187
 30
0.0
 10
26.79401518436085
 20
37.35835995195656
 30
0.0
  0
LINE
  5
43E
330
1F
100
AcDbEntity
  8
SLD-0
  6
Continuous
370
    15
100
AcDbLine
 10
24.7103553083
 20
39.4420210013
 30
0.0
 11
26.7940151844
 21
37.358359952
 31
0.0
  0
SPLINE
  5
43F
330
1F
100
AcDbEntity
  8
SLD-0
  6
Continuous
370
    15
100
AcDbSpline
210
0.0
220
0.0
230
1.0
 70
     8
 71
     3
 72
     9
 73
     5
 74
     0
 42
0.00000001
 43
0.00000001
 12
1.0
 22
0.0
 32
0.0
 13
1.0
 23
0.0
 33
0.0
 40
0.0
 40
0.0
 40
0.0
 40
0.0
 40
0.4999655832446803
 40
1.0
 40
1.0
 40
1.0
 40
1.0
 10
26.83788795753884
 20
37.33570080038368
 30
0.0
 10
26.83167492723677
 20
37.34057563252378
 30
0.0
 10
26.81924801124437
 20
37.35032596795378
 30
0.0
 10
26.80242651261629
 20
37.35568183440127
 30
0.0
 10
26.79401518436085
 20
37.35835995195656
 30
0.0
  0
LINE
  5
440
330
1F
100
AcDbEntity
  8
SLD-0
  6
Continuous
370
    15
100
AcDbLine
 10
26.8378879575
 20
37.3357008004
 30
0.0
 11
26.85903118
 21
37.3568440228
 31
0.0
  0
LINE
  5
441
330
1F
100
AcDbEntity
  8
SLD-0
  6
Continuous
370
    15
100
AcDbLine
 10
24.2456350235
 20
39.4420210013
 30
0.0
 11
24.7103553083
 21
39.4420210013
 31
0.0
  0
LINE
  5
442
330
1F
100
AcDbEntity
  8
SLD-0
  6
Continuous
370
    15
100
AcDbLine
 10
24.2456350235
 20
37.358359952
 30
0.0
 11
26.7940151844
 21
37.358359952
 31
0.0
  0
SPLINE
  5
443
330
1F
100
AcDbEntity
  8
SLD-0
  6
Continuous
370
    15
100
AcDbSpline
210
0.0
220
0.0
230
1.0
 70
     8
 71
     3
 72
     9
 73
     5
 74
     0
 42
0.00000001
 43
0.00000001
 12
1.0
 22
0.0
 32
0.0
 13
1.0
 23
0.0
 33
0.0
 40
0.0
 40
0.0
 40
0.0
 40
0.0
 40
0.4999977123460988
 40
1.0
 40
1.0
 40
1.0
 40
1.0
 10
26.83510484302295
 20
37.33291533922824
 30
0.0
 10
26.8362644730101
 20
37.33268322065135
 30
0.0
 10
26.83858374359579
 20
37.33221898137354
 30
0.0
 10
26.83811988693191
 20
37.33454019050688
 30
0.0
 10
26.83788795753883
 20
37.33570080038368
 30
0.0
  0
LINE
  5
444
330
1F
100
AcDbEntity
  8
SLD-0
  6
Continuous
370
    15
100
AcDbLine
 10
26.8139616206
 20
37.3117744634
 30
0.0
 11
26.835104843
 21
37.3329153392
 31
0.0
  0
SPLINE
  5
445
330
1F
100
AcDbEntity
  8
SLD-0
  6
Continuous
370
    15
100
AcDbSpline
210
0.0
220
0.0
230
1.0
 70
     8
 71
     3
 72
    15
 73
    11
 74
     0
 42
0.00000001
 43
0.00000001
 12
1.0
 22
0.0
 32
0.0
 13
1.0
 23
0.0
 33
0.0
 40
0.0
 40
0.0
 40
0.0
 40
0.0
 40
0.1250090916943575
 40
0.2500049027036541
 40
0.3750007137129506
 40
0.4999999999999999
 40
0.6250090916943575
 40
0.750004902703654
 40
0.8750007137129507
 40
1.0
 40
1.0
 40
1.0
 40
1.0
 10
26.81396162060458
 20
37.31177446344943
 30
0.0
 10
26.81724975461213
 20
37.30916381665571
 30
0.0
 10
26.82382567330326
 20
37.30394280041753
 30
0.0
 10
26.83653837475025
 20
37.30165132916407
 30
0.0
 10
26.84899889463908
 20
37.3040891743961
 30
0.0
 10
26.85961838937981
 20
37.31118820775173
 30
0.0
 10
26.86671609605012
 20
37.32180608643033
 30
0.0
 10
26.86915435091582
 20
37.33426740748671
 30
0.0
 10
26.86686306541631
 20
37.34697941886866
 30
0.0
 10
26.86164183263768
 20
37.35355579101736
 30
0.0
 10
26.8590311799572
 20
37.35684402280204
 30
0.0
  0
LINE
  5
446
330
1F
100
AcDbEntity
  8
SLD-0
  6
Continuous
370
    15
100
AcDbLine
 10
24.2456350235
 20
39.4869216026
 30
0.0
 11
24.7103553083
 21
39.4869216026
 31
0.0
  0
LINE
  5
447
330
1F
100
AcDbEntity
  8
SLD-0
  6
Continuous
370
    15
100
AcDbLine
 10
24.7103553083
 20
39.4570207214
 30
0.0
 11
24.7103553083
 21
39.4869216026
 31
0.0
  0
LINE
  5
448
330
1F
100
AcDbEntity
  8
SLD-0
  6
Continuous
370
    15
100
AcDbLine
 10
24.2456350235
 20
39.4570207214
 30
0.0
 11
24.7103553083
 21
39.4570207214
 31
0.0
  0
ARC
  5
449
330
1F
100
AcDbEntity
  8
SLD-0
  6
Continuous
370
    15
100
AcDbCircle
 10
24.7103554441
 20
39.4420207174
 30
0.0
 40
0.0150000000000006
100
AcDbArc
 50
45.0
 51
90.0
  0
ARC
  5
44A
330
1F
100
AcDbEntity
  8
SLD-0
  6
Continuous
370
    15
100
AcDbCircle
 10
24.7103554441
 20
39.4420207174
 30
0.0
 40
0.0449000000000014
100
AcDbArc
 50
45.0
 51
90.0
  0
LINE
  5
44B
330
1F
100
AcDbEntity
  8
SLD-0
  6
Continuous
370
    15
100
AcDbLine
 10
26.835104843
 20
37.3329153392
 30
0.0
 11
26.8201989885
 21
37.3478211937
 31
0.0
  0
LINE
  5
44C
330
1F
100
AcDbEntity
  8
SLD-0
  6
Continuous
370
    15
100
AcDbLine
 10
26.8139616206
 20
37.3117744634
 30
0.0
 11
26.7673761321
 21
37.358359952
 31
0.0
  0
LINE
  5
44D
330
1F
100
AcDbEntity
  8
SLD-0
  6
Continuous
370
    15
100
AcDbLine
 10
23.4099603039
 20
18.3264150106
 30
0.0
 11
23.4579596428
 21
18.3264150106
 31
0.0
  0
LINE
  5
44E
330
1F
100
AcDbEntity
  8
SLD-0
  6
Continuous
370
    15
100
AcDbLine
 10
23.4099603039
 20
15.2014150575
 30
0.0
 11
23.4579596428
 21
15.2014150575
 31
0.0
  0
LINE
  5
44F
330
1F
100
AcDbEntity
  8
SLD-0
  6
Continuous
370
    15
100
AcDbLine
 10
23.4099603039
 20
15.2014150575
 30
0.0
 11
23.4099603039
 21
18.3264150106
 31
0.0
  0
LINE
  5
450
330
1F
100
AcDbEntity
  8
SLD-0
  6
Continuous
370
    15
100
AcDbLine
 10
23.4579596428
 20
15.2014150575
 30
0.0
 11
23.4579596428
 21
18.3264150106
 31
0.0
  0
LINE
  5
451
330
1F
100
AcDbEntity
  8
SLD-0
  6
Continuous
370
    15
100
AcDbLine
 10
23.3949594105
 20
18.3264150106
 30
0.0
 11
23.4099603039
 21
18.3264150106
 31
0.0
  0
LINE
  5
452
330
1F
100
AcDbEntity
  8
SLD-0
  6
Continuous
370
    15
100
AcDbLine
 10
23.4099603039
 20
15.2014150575
 30
0.0
 11
23.3949594105
 21
15.2014150575
 31
0.0
  0
LINE
  5
453
330
1F
100
AcDbEntity
  8
SLD-0
  6
Continuous
370
    15
100
AcDbLine
 10
23.3949594105
 20
18.3264150106
 30
0.0
 11
23.3949594105
 21
15.2014150575
 31
0.0
  0
LINE
  5
454
330
1F
100
AcDbEntity
  8
SLD-0
  6
Continuous
370
    15
100
AcDbLine
 10
23.3949594105
 20
15.2014150575
 30
0.0
 11
21.8173347554
 21
15.2014150575
 31
0.0
  0
LINE
  5
455
330
1F
100
AcDbEntity
  8
SLD-0
  6
Continuous
370
    15
100
AcDbLine
 10
21.8173347554
 20
15.2014150575
 30
0.0
 11
21.8173347554
 21
18.3264150106
 31
0.0
  0
LINE
  5
456
330
1F
100
AcDbEntity
  8
SLD-0
  6
Continuous
370
    15
100
AcDbLine
 10
23.3949594105
 20
18.3264150106
 30
0.0
 11
21.8173347554
 21
18.3264150106
 31
0.0
  0
LINE
  5
457
330
1F
100
AcDbEntity
  8
SLD-0
  6
Continuous
370
    15
100
AcDbLine
 10
23.4099603039
 20
35.1144163809
 30
0.0
 11
23.4099603039
 21
38.2394151606
 31
0.0
  0
LINE
  5
458
330
1F
100
AcDbEntity
  8
SLD-0
  6
Continuous
370
    15
100
AcDbLine
 10
23.4579596428
 20
35.1144163809
 30
0.0
 11
23.4579596428
 21
38.2394151606
 31
0.0
  0
LINE
  5
459
330
1F
100
AcDbEntity
  8
SLD-0
  6
Continuous
370
    15
100
AcDbLine
 10
23.4099603039
 20
35.1144163809
 30
0.0
 11
23.4579596428
 21
35.1144163809
 31
0.0
  0
LINE
  5
45A
330
1F
100
AcDbEntity
  8
SLD-0
  6
Continuous
370
    15
100
AcDbLine
 10
23.4099603039
 20
38.2394151606
 30
0.0
 11
23.4579596428
 21
38.2394151606
 31
0.0
  0
LINE
  5
45B
330
1F
100
AcDbEntity
  8
SLD-0
  6
Continuous
370
    15
100
AcDbLine
 10
23.3949594105
 20
38.2394151606
 30
0.0
 11
23.4099603039
 21
38.2394151606
 31
0.0
  0
LINE
  5
45C
330
1F
100
AcDbEntity
  8
SLD-0
  6
Continuous
370
    15
100
AcDbLine
 10
23.4099603039
 20
35.1144163809
 30
0.0
 11
23.3949594105
 21
35.1144163809
 31
0.0
  0
LINE
  5
45D
330
1F
100
AcDbEntity
  8
SLD-0
  6
Continuous
370
    15
100
AcDbLine
 10
23.3949594105
 20
38.2394151606
 30
0.0
 11
23.3949594105
 21
35.1144163809
 31
0.0
  0
LINE
  5
45E
330
1F
100
AcDbEntity
  8
SLD-0
  6
Continuous
370
    15
100
AcDbLine
 10
23.3949594105
 20
38.2394151606
 30
0.0
 11
21.8173347554
 21
38.2394151606
 31
0.0
  0
LINE
  5
45F
330
1F
100
AcDbEntity
  8
SLD-0
  6
Continuous
370
    15
100
AcDbLine
 10
21.8173347554
 20
35.1144163809
 30
0.0
 11
21.8173347554
 21
38.2394151606
 31
0.0
  0
LINE
  5
460
330
1F
100
AcDbEntity
  8
SLD-0
  6
Continuous
370
    15
100
AcDbLine
 10
23.3949594105
 20
35.1144163809
 30
0.0
 11
21.8173347554
 21
35.1144163809
 31
0.0
  0
SPLINE
  5
461
330
1F
100
AcDbEntity
  8
SLD-0
  6
Continuous
370
    15
100
AcDbSpline
210
0.0
220
0.0
230
1.0
 70
     8
 71
     3
 72
    11
 73
     7
 74
     0
 42
0.00000001
 43
0.00000001
 12
1.0
 22
0.0
 32
0.0
 13
1.0
 23
0.0
 33
0.0
 40
0.0
 40
0.0
 40
0.0
 40
0.0
 40
0.2500039819398441
 40
0.5000054576041462
 40
0.7500022452690907
 40
1.0
 40
1.0
 40
1.0
 40
1.0
 10
24.24563502346593
 20
9.617440700756305
 30
0.0
 10
24.24466398645562
 20
9.62294998793561
 30
0.0
 10
24.24272192216958
 20
9.633968507063933
 30
0.0
 10
24.22778343165345
 20
9.650496360011632
 30
0.0
 10
24.20642957983828
 20
9.667024469148684
 30
0.0
 10
24.18950024178817
 20
9.678043053964892
 30
0.0
 10
24.18103555639116
 20
9.68355235702881
 30
0.0
  0
LINE
  5
462
330
1F
100
AcDbEntity
  8
SLD-0
  6
Continuous
370
    15
100
AcDbLine
 10
24.1810355564
 20
43.3166772543
 30
0.0
 11
24.1810355564
 21
9.683552357
 31
0.0
  0
SPLINE
  5
463
330
1F
100
AcDbEntity
  8
SLD-0
  6
Continuous
370
    15
100
AcDbSpline
210
0.0
220
0.0
230
1.0
 70
     8
 71
     3
 72
    11
 73
     7
 74
     0
 42
0.00000001
 43
0.00000001
 12
1.0
 22
0.0
 32
0.0
 13
1.0
 23
0.0
 33
0.0
 40
0.0
 40
0.0
 40
0.0
 40
0.0
 40
0.2500056762961815
 40
0.4999998789945847
 40
0.7499986029667137
 40
1.0
 40
1.0
 40
1.0
 40
1.0
 10
24.18103555639115
 20
43.31667725429997
 30
0.0
 10
24.18950016306972
 20
43.32218729971544
 30
0.0
 10
24.2064289879577
 20
43.33320713767193
 30
0.0
 10
24.22778350236945
 20
43.34973442473754
 30
0.0
 10
24.24272190713447
 20
43.36626186140891
 30
0.0
 10
24.24466398122792
 20
43.37728002121478
 30
0.0
 10
24.24563502346593
 20
43.38278913056993
 30
0.0
  0
LINE
  5
464
330
1F
100
AcDbEntity
  8
SLD-0
  6
Continuous
370
    15
100
AcDbLine
 10
24.2456350235
 20
9.6174407008
 30
0.0
 11
24.2456350235
 21
43.3827891306
 31
0.0
  0
LINE
  5
465
330
1F
100
AcDbEntity
  8
SLD-0
  6
Continuous
370
    15
100
AcDbLine
 10
24.1810355564
 20
9.683552357
 30
0.0
 11
23.4956349409
 21
10.3689523492
 31
0.0
  0
LINE
  5
466
330
1F
100
AcDbEntity
  8
SLD-0
  6
Continuous
370
    15
100
AcDbLine
 10
23.4956349409
 20
14.5905155547
 30
0.0
 11
23.4956349409
 21
10.3689523492
 31
0.0
  0
LINE
  5
467
330
1F
100
AcDbEntity
  8
SLD-0
  6
Continuous
370
    15
100
AcDbLine
 10
23.4956349409
 20
14.5905155547
 30
0.0
 11
23.9336352144
 21
14.5905155547
 31
0.0
  0
LINE
  5
468
330
1F
100
AcDbEntity
  8
SLD-0
  6
Continuous
370
    15
100
AcDbLine
 10
23.9336352144
 20
14.5905155547
 30
0.0
 11
23.9336352144
 21
18.4655150037
 31
0.0
  0
LINE
  5
469
330
1F
100
AcDbEntity
  8
SLD-0
  6
Continuous
370
    15
100
AcDbLine
 10
23.9336352144
 20
18.4655150037
 30
0.0
 11
23.4956349409
 21
18.4655150037
 31
0.0
  0
LINE
  5
46A
330
1F
100
AcDbEntity
  8
SLD-0
  6
Continuous
370
    15
100
AcDbLine
 10
23.4956349409
 20
34.4545155241
 30
0.0
 11
23.4956349409
 21
18.4655150037
 31
0.0
  0
LINE
  5
46B
330
1F
100
AcDbEntity
  8
SLD-0
  6
Continuous
370
    15
100
AcDbLine
 10
23.4956349409
 20
34.4545155241
 30
0.0
 11
23.9336352144
 21
34.4545155241
 31
0.0
  0
LINE
  5
46C
330
1F
100
AcDbEntity
  8
SLD-0
  6
Continuous
370
    15
100
AcDbLine
 10
23.9336352144
 20
34.4545155241
 30
0.0
 11
23.9336352144
 21
38.3295143864
 31
0.0
  0
LINE
  5
46D
330
1F
100
AcDbEntity
  8
SLD-0
  6
Continuous
370
    15
100
AcDbLine
 10
23.9336352144
 20
38.3295143864
 30
0.0
 11
23.4956349409
 21
38.3295143864
 31
0.0
  0
LINE
  5
46E
330
1F
100
AcDbEntity
  8
SLD-0
  6
Continuous
370
    15
100
AcDbLine
 10
23.4956349409
 20
42.6312778121
 30
0.0
 11
23.4956349409
 21
38.3295143864
 31
0.0
  0
LINE
  5
46F
330
1F
100
AcDbEntity
  8
SLD-0
  6
Continuous
370
    15
100
AcDbLine
 10
23.4956349409
 20
42.6312778121
 30
0.0
 11
24.1810355564
 21
43.3166772543
 31
0.0
  0
LINE
  5
470
330
1F
100
AcDbEntity
  8
SLD-0
  6
Continuous
370
    15
100
AcDbLine
 10
24.212034665
 20
9.6174407008
 30
0.0
 11
24.2456350235
 21
9.6174407008
 31
0.0
  0
SPLINE
  5
471
330
1F
100
AcDbEntity
  8
SLD-0
  6
Continuous
370
    15
100
AcDbSpline
210
0.0
220
0.0
230
1.0
 70
     8
 71
     3
 72
    11
 73
     7
 74
     0
 42
0.00000001
 43
0.00000001
 12
1.0
 22
0.0
 32
0.0
 13
1.0
 23
0.0
 33
0.0
 40
0.0
 40
0.0
 40
0.0
 40
0.0
 40
0.249994648513892
 40
0.4999984751918723
 40
0.7500066399268115
 40
1.0
 40
1.0
 40
1.0
 40
1.0
 10
24.21203466495347
 20
9.617440700756305
 30
0.0
 10
24.21156868713465
 20
9.622950036491451
 30
0.0
 10
24.21063671438937
 20
9.63396891022842
 30
0.0
 10
24.20346878241154
 20
9.650496748713408
 30
0.0
 10
24.19322101698653
 20
9.667023813464207
 30
0.0
 10
24.18509729641057
 20
9.67804295126335
 30
0.0
 10
24.18103555639115
 20
9.68355235702881
 30
0.0
  0
SPLINE
  5
472
330
1F
100
AcDbEntity
  8
SLD-0
  6
Continuous
370
    15
100
AcDbSpline
210
0.0
220
0.0
230
1.0
 70
     8
 71
     3
 72
    11
 73
     7
 74
     0
 42
0.00000001
 43
0.00000001
 12
1.0
 22
0.0
 32
0.0
 13
1.0
 23
0.0
 33
0.0
 40
0.0
 40
0.0
 40
0.0
 40
0.0
 40
0.2500105166547634
 40
0.5000130830303519
 40
0.7500109500895339
 40
1.0
 40
1.0
 40
1.0
 40
1.0
 10
24.18103555639115
 20
43.31667725429997
 30
0.0
 10
24.18509721459418
 20
43.32218733050642
 30
0.0
 10
24.19322040184041
 20
43.33320730770008
 30
0.0
 10
24.20346885589317
 20
43.34973408500799
 30
0.0
 10
24.21063669876219
 20
43.36626145242523
 30
0.0
 10
24.21156868170148
 20
43.37727996929134
 30
0.0
 10
24.21203466495347
 20
43.38278913056993
 30
0.0
  0
LINE
  5
473
330
1F
100
AcDbEntity
  8
SLD-0
  6
Continuous
370
    15
100
AcDbLine
 10
24.212034665
 20
43.3827891306
 30
0.0
 11
24.2456350235
 21
43.3827891306
 31
0.0
  0
LINE
  5
474
330
1F
100
AcDbEntity
  8
SLD-0
  6
Continuous
370
    15
100
AcDbLine
 10
24.2456350235
 20
43.3829017693
 30
0.0
 11
24.2456350235
 21
43.3827891306
 31
0.0
  0
LINE
  5
475
330
1F
100
AcDbEntity
  8
SLD-0
  6
Continuous
370
    15
100
AcDbLine
 10
24.212034665
 20
43.3829017693
 30
0.0
 11
24.212034665
 21
43.3827891306
 31
0.0
  0
LINE
  5
476
330
1F
100
AcDbEntity
  8
SLD-0
  6
Continuous
370
    15
100
AcDbLine
 10
24.212034665
 20
43.3829017693
 30
0.0
 11
24.2456350235
 21
43.3829017693
 31
0.0
  0
LINE
  5
477
330
1F
100
AcDbEntity
  8
SLD-0
  6
Continuous
370
    15
100
AcDbLine
 10
24.212034665
 20
9.6173279887
 30
0.0
 11
24.2456350235
 21
9.6173279887
 31
0.0
  0
LINE
  5
478
330
1F
100
AcDbEntity
  8
SLD-0
  6
Continuous
370
    15
100
AcDbLine
 10
24.212034665
 20
9.6174407008
 30
0.0
 11
24.212034665
 21
9.6173279887
 31
0.0
  0
LINE
  5
479
330
1F
100
AcDbEntity
  8
SLD-0
  6
Continuous
370
    15
100
AcDbLine
 10
24.2456350235
 20
9.6174407008
 30
0.0
 11
24.2456350235
 21
9.6173279887
 31
0.0
  0
LINE
  5
47A
330
1F
100
AcDbEntity
  8
SLD-0
  6
Continuous
370
    15
100
AcDbLine
 10
23.4956349409
 20
43.8515163025
 30
0.0
 11
24.1810355564
 21
43.8515163025
 31
0.0
  0
LINE
  5
47B
330
1F
100
AcDbEntity
  8
SLD-0
  6
Continuous
370
    15
100
AcDbLine
 10
23.4956349409
 20
43.8515163025
 30
0.0
 11
23.4956349409
 21
43.8851154877
 31
0.0
  0
LINE
  5
47C
330
1F
100
AcDbEntity
  8
SLD-0
  6
Continuous
370
    15
100
AcDbLine
 10
23.4956349409
 20
43.8851154877
 30
0.0
 11
24.1810355564
 21
43.8851154877
 31
0.0
  0
LINE
  5
47D
330
1F
100
AcDbEntity
  8
SLD-0
  6
Continuous
370
    15
100
AcDbLine
 10
24.1810355564
 20
43.8515163025
 30
0.0
 11
24.1810355564
 21
43.8851154877
 31
0.0
  0
LINE
  5
47E
330
1F
100
AcDbEntity
  8
SLD-0
  6
Continuous
370
    15
100
AcDbLine
 10
24.212034665
 20
43.8205148473
 30
0.0
 11
24.2456350235
 21
43.8205148473
 31
0.0
  0
LINE
  5
47F
330
1F
100
AcDbEntity
  8
SLD-0
  6
Continuous
370
    15
100
AcDbLine
 10
24.212034665
 20
43.3829017693
 30
0.0
 11
24.212034665
 21
43.8205148473
 31
0.0
  0
LINE
  5
480
330
1F
100
AcDbEntity
  8
SLD-0
  6
Continuous
370
    15
100
AcDbLine
 10
24.2456350235
 20
43.8205148473
 30
0.0
 11
24.2456350235
 21
43.3829017693
 31
0.0
  0
LINE
  5
481
330
1F
100
AcDbEntity
  8
SLD-0
  6
Continuous
370
    15
100
AcDbLine
 10
24.212034665
 20
9.1797152883
 30
0.0
 11
24.2456350235
 21
9.1797152883
 31
0.0
  0
LINE
  5
482
330
1F
100
AcDbEntity
  8
SLD-0
  6
Continuous
370
    15
100
AcDbLine
 10
24.212034665
 20
9.1797152883
 30
0.0
 11
24.212034665
 21
9.6173279887
 31
0.0
  0
LINE
  5
483
330
1F
100
AcDbEntity
  8
SLD-0
  6
Continuous
370
    15
100
AcDbLine
 10
24.2456350235
 20
9.6173279887
 30
0.0
 11
24.2456350235
 21
9.1797152883
 31
0.0
  0
ARC
  5
484
330
1F
100
AcDbEntity
  8
SLD-0
  6
Continuous
370
    15
100
AcDbCircle
 10
24.1810349932
 20
43.8205152882
 30
0.0
 40
0.0310000000000024
100
AcDbArc
 50
0.0
 51
90.0
  0
ARC
  5
485
330
1F
100
AcDbEntity
  8
SLD-0
  6
Continuous
370
    15
100
AcDbCircle
 10
24.1810349932
 20
43.8205152882
 30
0.0
 40
0.0646000000000022
100
AcDbArc
 50
0.0
 51
90.0
  0
LINE
  5
486
330
1F
100
AcDbEntity
  8
SLD-0
  6
Continuous
370
    15
100
AcDbLine
 10
24.1810355564
 20
9.1487152888
 30
0.0
 11
24.1810355564
 21
9.1151152878
 31
0.0
  0
LINE
  5
487
330
1F
100
AcDbEntity
  8
SLD-0
  6
Continuous
370
    15
100
AcDbLine
 10
24.1786349441
 20
9.1151152878
 30
0.0
 11
24.1810355564
 21
9.1151152878
 31
0.0
  0
LINE
  5
488
330
1F
100
AcDbEntity
  8
SLD-0
  6
Continuous
370
    15
100
AcDbLine
 10
23.4956349409
 20
9.1487152888
 30
0.0
 11
23.4956349409
 21
9.1151152878
 31
0.0
  0
LINE
  5
489
330
1F
100
AcDbEntity
  8
SLD-0
  6
Continuous
370
    15
100
AcDbLine
 10
23.4956349409
 20
9.1487152888
 30
0.0
 11
24.1810355564
 21
9.1487152888
 31
0.0
  0
ARC
  5
48A
330
1F
100
AcDbEntity
  8
SLD-0
  6
Continuous
370
    15
100
AcDbCircle
 10
24.1810349932
 20
9.1797152882
 30
0.0
 40
0.0646000000000093
100
AcDbArc
 50
270.0
 51
0.0
  0
ARC
  5
48B
330
1F
100
AcDbEntity
  8
SLD-0
  6
Continuous
370
    15
100
AcDbCircle
 10
24.1810349932
 20
9.1797152882
 30
0.0
 40
0.0310000000000024
100
AcDbArc
 50
270.0
 51
0.0
  0
LINE
  5
48C
330
1F
100
AcDbEntity
  8
SLD-0
  6
Continuous
370
    15
100
AcDbLine
 10
21.7120351718
 20
9.1358977877
 30
0.0
 11
21.7120351718
 21
9.1487152888
 31
0.0
  0
LINE
  5
48D
330
1F
100
AcDbEntity
  8
SLD-0
  6
Continuous
370
    15
100
AcDbLine
 10
21.7120351718
 20
9.1704152882
 30
0.0
 11
21.7120351718
 21
9.175497788
 31
0.0
  0
LINE
  5
48E
330
1F
100
AcDbEntity
  8
SLD-0
  6
Continuous
370
    15
100
AcDbLine
 10
21.7120351718
 20
9.1358977877
 30
0.0
 11
18.7120348414
 21
9.1358977877
 31
0.0
  0
LINE
  5
48F
330
1F
100
AcDbEntity
  8
SLD-0
  6
Continuous
370
    15
100
AcDbLine
 10
18.7120348414
 20
9.1358977877
 30
0.0
 11
18.7120348414
 21
9.1487152888
 31
0.0
  0
LINE
  5
490
330
1F
100
AcDbEntity
  8
SLD-0
  6
Continuous
370
    15
100
AcDbLine
 10
21.7120351718
 20
9.175497788
 30
0.0
 11
21.6923351327
 21
9.175497788
 31
0.0
  0
LINE
  5
491
330
1F
100
AcDbEntity
  8
SLD-0
  6
Continuous
370
    15
100
AcDbLine
 10
21.2733930924
 20
9.175497788
 30
0.0
 11
21.2356215821
 21
9.175497788
 31
0.0
  0
LINE
  5
492
330
1F
100
AcDbEntity
  8
SLD-0
  6
Continuous
370
    15
100
AcDbLine
 10
21.7120351718
 20
9.175497788
 30
0.0
 11
21.7120351718
 21
9.1804977877
 31
0.0
  0
LINE
  5
493
330
1F
100
AcDbEntity
  8
SLD-0
  6
Continuous
370
    15
100
AcDbLine
 10
21.7120351718
 20
9.1804977877
 30
0.0
 11
21.7120351718
 21
9.2014152882
 31
0.0
  0
LINE
  5
494
330
1F
100
AcDbEntity
  8
SLD-0
  6
Continuous
370
    15
100
AcDbLine
 10
23.6440774927
 20
43.7403160937
 30
0.0
 11
24.1414606536
 21
43.7403160937
 31
0.0
  0
LINE
  5
495
330
1F
100
AcDbEntity
  8
SLD-0
  6
Continuous
370
    15
100
AcDbLine
 10
24.1414606536
 20
43.7403160937
 30
0.0
 11
24.1414606536
 21
43.7394149841
 31
0.0
  0
LINE
  5
496
330
1F
100
AcDbEntity
  8
SLD-0
  6
Continuous
370
    15
100
AcDbLine
 10
23.6347214408
 20
43.7403160937
 30
0.0
 11
23.6440774927
 21
43.7403160937
 31
0.0
  0
LINE
  5
497
330
1F
100
AcDbEntity
  8
SLD-0
  6
Continuous
370
    15
100
AcDbLine
 10
21.2089778365
 20
43.7403160937
 30
0.0
 11
21.3111411363
 21
43.7403160937
 31
0.0
  0
LINE
  5
498
330
1F
100
AcDbEntity
  8
SLD-0
  6
Continuous
370
    15
100
AcDbLine
 10
21.6923351327
 20
43.7403160937
 30
0.0
 11
23.0053351115
 21
43.7403160937
 31
0.0
  0
LINE
  5
499
330
1F
100
AcDbEntity
  8
SLD-0
  6
Continuous
370
    15
100
AcDbLine
 10
23.3803351528
 20
43.7403160937
 30
0.0
 11
23.6347214408
 21
43.7403160937
 31
0.0
  0
LINE
  5
49A
330
1F
100
AcDbEntity
  8
SLD-0
  6
Continuous
370
    15
100
AcDbLine
 10
5.0470349931
 20
43.7403160937
 30
0.0
 11
5.0470349931
 21
43.7394149841
 31
0.0
  0
LINE
  5
49B
330
1F
100
AcDbEntity
  8
SLD-0
  6
Continuous
370
    15
100
AcDbLine
 10
5.0470349931
 20
43.7403160937
 30
0.0
 11
5.0770349941
 21
43.7403160937
 31
0.0
  0
LINE
  5
49C
330
1F
100
AcDbEntity
  8
SLD-0
  6
Continuous
370
    15
100
AcDbLine
 10
5.0770349941
 20
43.7403160937
 30
0.0
 11
5.0770349941
 21
43.7394149841
 31
0.0
  0
LINE
  5
49D
330
1F
100
AcDbEntity
  8
SLD-0
  6
Continuous
370
    15
100
AcDbLine
 10
5.0920349937
 20
43.7403160937
 30
0.0
 11
6.0467419186
 21
43.7403160937
 31
0.0
  0
LINE
  5
49E
330
1F
100
AcDbEntity
  8
SLD-0
  6
Continuous
370
    15
100
AcDbLine
 10
5.0770349941
 20
43.7403160937
 30
0.0
 11
5.0920349937
 21
43.7403160937
 31
0.0
  0
LINE
  5
49F
330
1F
100
AcDbEntity
  8
SLD-0
  6
Continuous
370
    15
100
AcDbLine
 10
13.3818507628
 20
10.326415254
 30
0.0
 11
13.3818507628
 21
14.8264150162
 31
0.0
  0
LINE
  5
4A0
330
1F
100
AcDbEntity
  8
SLD-0
  6
Continuous
370
    15
100
AcDbLine
 10
13.3818507628
 20
10.326415254
 30
0.0
 11
13.3768676737
 21
10.326415254
 31
0.0
  0
LINE
  5
4A1
330
1F
100
AcDbEntity
  8
SLD-0
  6
Continuous
370
    15
100
AcDbLine
 10
13.3768676737
 20
10.326415254
 30
0.0
 11
13.3768676737
 21
14.8264150162
 31
0.0
  0
LINE
  5
4A2
330
1F
100
AcDbEntity
  8
SLD-0
  6
Continuous
370
    15
100
AcDbLine
 10
13.3818507628
 20
14.8264150162
 30
0.0
 11
13.3768676737
 21
14.8264150162
 31
0.0
  0
LINE
  5
4A3
330
1F
100
AcDbEntity
  8
SLD-0
  6
Continuous
370
    15
100
AcDbLine
 10
13.0711779784
 20
9.8264152967
 30
0.0
 11
13.0711779784
 21
10.326415254
 31
0.0
  0
LINE
  5
4A4
330
1F
100
AcDbEntity
  8
SLD-0
  6
Continuous
370
    15
100
AcDbLine
 10
7.3242128212
 20
9.8264152967
 30
0.0
 11
13.0711779784
 21
9.8264152967
 31
0.0
  0
LINE
  5
4A5
330
1F
100
AcDbEntity
  8
SLD-0
  6
Continuous
370
    15
100
AcDbLine
 10
7.3242128212
 20
10.326415254
 30
0.0
 11
7.3242128212
 21
9.8264152967
 31
0.0
  0
LINE
  5
4A6
330
1F
100
AcDbEntity
  8
SLD-0
  6
Continuous
370
    15
100
AcDbLine
 10
7.0185232725
 20
10.326415254
 30
0.0
 11
7.3242128212
 21
10.326415254
 31
0.0
  0
LINE
  5
4A7
330
1F
100
AcDbEntity
  8
SLD-0
  6
Continuous
370
    15
100
AcDbLine
 10
7.0185232725
 20
14.8264150162
 30
0.0
 11
7.0185232725
 21
10.326415254
 31
0.0
  0
LWPOLYLINE
  5
4A8
330
1F
100
AcDbEntity
  8
SLD-0
  6
Continuous
370
    15
100
AcDbPolyline
 90
      108
 70
   128
 43
0.0
 10
11.0536264587
 20
11.8264152725
 10
11.0521510091
 20
11.8777670793
 10
11.0477305268
 20
11.9289417148
 10
11.0403796784
 20
11.9797628877
 10
11.0301236902
 20
12.03005548
 10
11.0169977618
 20
12.0796461338
 10
11.0010482394
 20
12.1283635444
 10
10.9823290956
 20
12.1760405136
 10
10.9609054498
 20
12.2225118968
 10
10.9368506343
 20
12.2676181223
 10
10.9102473683
 20
12.3112034322
 10
10.881188344
 20
12.353117348
 10
10.8497732936
 20
12.3932158448
 10
10.8161101625
 20
12.4313604708
 10
10.7803151093
 20
12.4674195209
 10
10.7425113327
 20
12.5012689165
 10
10.7028302444
 20
12.5327919124
 10
10.661407363
 20
12.5618802697
 10
10.6183858333
 20
12.5884327896
 10
10.573914667
 20
12.6123588332
 10
10.5281463957
 20
12.6335753881
 10
10.4812388309
 20
12.6520097085
 10
10.4333538908
 20
12.6675978484
 10
10.3846564267
 20
12.6802864218
 10
10.3353142233
 20
12.6900314293
 10
10.2854979988
 20
12.6967994311
 10
10.2353796445
 20
12.7005669609
 10
10.1851304649
 20
12.7013211122
 10
10.1349252849
 20
12.699059245
 10
10.0849359957
 20
12.6937892792
 10
10.0353356621
 20
12.6855291079
 10
9.9862950019
 20
12.6743074776
 10
9.9379829734
 20
12.6601631076
 10
9.8905661878
 20
12.6431446909
 10
9.8442083233
 20
12.6233106
 10
9.7990689514
 20
12.6007297675
 10
9.7553038303
 20
12.5754793392
 10
9.7130634383
 20
12.5476470208
 10
9.6724938536
 20
12.5173281443
 10
9.6337347014
 20
12.4846280154
 10
9.59691974
 20
12.4496583927
 10
9.562175688
 20
12.4125407149
 10
9.5296225174
 20
12.373402287
 10
9.4993719869
 20
12.3323783342
 10
9.4715291085
 20
12.289610535
 10
9.4461892146
 20
12.2452455541
 10
9.4234400107
 20
12.1994370966
 10
9.4033601094
 20
12.1523426807
 10
9.3860181497
 20
12.1041245177
 10
9.3714742644
 20
12.0549492191
 10
9.3597783195
 20
12.0049860363
 10
9.3509710879
 20
11.9544074473
 10
9.3450827826
 20
11.9033873966
 10
9.34213335
 20
11.8521021758
 10
9.34213335
 20
11.8007283692
 10
9.3450827826
 20
11.7494431483
 10
9.3509710879
 20
11.6984230977
 10
9.3597783195
 20
11.6478445087
 10
9.3714742644
 20
11.5978813259
 10
9.3860181497
 20
11.5487060273
 10
9.4033601094
 20
11.500488011
 10
9.4234400107
 20
11.453393595
 10
9.4461892146
 20
11.4075849909
 10
9.4715291085
 20
11.3632201567
 10
9.4993719869
 20
11.3204520641
 10
9.5296225174
 20
11.279428258
 10
9.562175688
 20
11.2402898301
 10
9.59691974
 20
11.2031720056
 10
9.6337347014
 20
11.1682026762
 10
9.6724938536
 20
11.135502254
 10
9.7130634383
 20
11.1051836709
 10
9.7553038303
 20
11.0773512057
 10
9.7990689514
 20
11.0521009241
 10
9.8442083233
 20
11.029519945
 10
9.8905661878
 20
11.0096860008
 10
9.9379829734
 20
10.9926674374
 10
9.9862950019
 20
10.9785230674
 10
10.0353356621
 20
10.967301437
 10
10.0849359957
 20
10.9590414125
 10
10.1349252849
 20
10.9537714467
 10
10.1851304649
 20
10.9515095795
 10
10.2353796445
 20
10.9522637308
 10
10.2854979988
 20
10.9560312606
 10
10.3353142233
 20
10.9627992624
 10
10.3846564267
 20
10.9725442698
 10
10.4333538908
 20
10.9852326966
 10
10.4812388309
 20
11.0008208365
 10
10.5281463957
 20
11.0192550102
 10
10.573914667
 20
11.0404717118
 10
10.6183858333
 20
11.0643976087
 10
10.661407363
 20
11.090950422
 10
10.7028302444
 20
11.120038486
 10
10.7425113327
 20
11.1515616285
 10
10.7803151093
 20
11.1854111708
 10
10.8161101625
 20
11.2214702209
 10
10.8497732936
 20
11.2596147002
 10
10.881188344
 20
11.299713197
 10
10.9102473683
 20
11.3416272595
 10
10.9368506343
 20
11.3852124226
 10
10.9609054498
 20
11.4303185016
 10
10.9823290956
 20
11.4767901781
 10
11.0010482394
 20
11.524466854
 10
11.0169977618
 20
11.5731845578
 10
11.0301236902
 20
11.6227752116
 10
11.0403796784
 20
11.6730676573
 10
11.0477305268
 20
11.7238891236
 10
11.0521510091
 20
11.775063759
 10
11.0536264587
 20
11.8264152725
  0
LINE
  5
4A9
330
1F
100
AcDbEntity
  8
SLD-0
  6
Continuous
370
    15
100
AcDbLine
 10
13.0711779784
 20
10.326415254
 30
0.0
 11
13.3768676737
 21
10.326415254
 31
0.0
  0
LINE
  5
4AA
330
1F
100
AcDbEntity
  8
SLD-0
  6
Continuous
370
    15
100
AcDbLine
 10
13.3768676737
 20
14.8264150162
 30
0.0
 11
7.0185232725
 21
14.8264150162
 31
0.0
  0
LINE
  5
4AB
330
1F
100
AcDbEntity
  8
SLD-0
  6
Continuous
370
    15
100
AcDbLine
 10
13.0761610675
 20
9.8264152967
 30
0.0
 11
13.0711779784
 21
9.8264152967
 31
0.0
  0
LINE
  5
4AC
330
1F
100
AcDbEntity
  8
SLD-0
  6
Continuous
370
    15
100
AcDbLine
 10
13.0761610675
 20
9.8264152967
 30
0.0
 11
13.0761610675
 21
10.326415254
 31
0.0
  0
LWPOLYLINE
  5
4AD
330
1F
100
AcDbEntity
  8
SLD-0
  6
Continuous
370
    15
100
AcDbPolyline
 90
       56
 70
   128
 43
0.0
 10
10.200187091
 20
12.7014114578
 10
10.190113554
 20
12.7013211122
 10
10.139908374
 20
12.699059245
 10
10.0899190848
 20
12.6937892792
 10
10.0403187512
 20
12.6855291079
 10
9.991278091
 20
12.6743074776
 10
9.9429660625
 20
12.6601631076
 10
9.8955495702
 20
12.6431446909
 10
9.8491914124
 20
12.6233106
 10
9.8040520405
 20
12.6007297675
 10
9.7602869194
 20
12.5754793392
 10
9.7180465274
 20
12.5476470208
 10
9.6774769427
 20
12.5173281443
 10
9.6387177905
 20
12.4846280154
 10
9.6019028291
 20
12.4496583927
 10
9.5671587771
 20
12.4125407149
 10
9.5346056065
 20
12.373402287
 10
9.5043553693
 20
12.3323783342
 10
9.4765121976
 20
12.289610535
 10
9.451172597
 20
12.2452455541
 10
9.4284233932
 20
12.1994370966
 10
9.4083431985
 20
12.1523426807
 10
9.3910012388
 20
12.1041245177
 10
9.3764573535
 20
12.0549492191
 10
9.3647617019
 20
12.0049860363
 10
9.3559544703
 20
11.9544074473
 10
9.3500658717
 20
11.9033873966
 10
9.3471167324
 20
11.8521021758
 10
9.3471167324
 20
11.8007283692
 10
9.3500658717
 20
11.7494431483
 10
9.3559544703
 20
11.6984230977
 10
9.3647617019
 20
11.6478445087
 10
9.3764573535
 20
11.5978813259
 10
9.3910012388
 20
11.5487060273
 10
9.4083431985
 20
11.500488011
 10
9.4284233932
 20
11.453393595
 10
9.451172597
 20
11.4075849909
 10
9.4765121976
 20
11.3632201567
 10
9.5043553693
 20
11.3204520641
 10
9.5346056065
 20
11.279428258
 10
9.5671587771
 20
11.2402898301
 10
9.6019028291
 20
11.2031720056
 10
9.6387177905
 20
11.1682026762
 10
9.6774769427
 20
11.135502254
 10
9.7180465274
 20
11.1051836709
 10
9.7602869194
 20
11.0773512057
 10
9.8040520405
 20
11.0521009241
 10
9.8491914124
 20
11.029519945
 10
9.8955495702
 20
11.0096860008
 10
9.9429660625
 20
10.9926674374
 10
9.991278091
 20
10.9785230674
 10
10.0403187512
 20
10.967301437
 10
10.0899190848
 20
10.9590414125
 10
10.139908374
 20
10.9537714467
 10
10.190113554
 20
10.9515095795
 10
10.200187091
 20
10.9514189405
  0
LINE
  5
4AE
330
1F
100
AcDbEntity
  8
SLD-0
  6
Continuous
370
    15
100
AcDbLine
 10
23.0053351115
 20
43.7428152649
 30
0.0
 11
21.6923351327
 21
43.7428152649
 31
0.0
  0
LINE
  5
4AF
330
1F
100
AcDbEntity
  8
SLD-0
  6
Continuous
370
    15
100
AcDbLine
 10
21.3079837328
 20
43.7428152649
 30
0.0
 11
21.210670937
 21
43.7428152649
 31
0.0
  0
LINE
  5
4B0
330
1F
100
AcDbEntity
  8
SLD-0
  6
Continuous
370
    15
100
AcDbLine
 10
23.3913350257
 20
43.7704164393
 30
0.0
 11
23.3913350257
 21
43.7428152649
 31
0.0
  0
LINE
  5
4B1
330
1F
100
AcDbEntity
  8
SLD-0
  6
Continuous
370
    15
100
AcDbLine
 10
23.3913350257
 20
43.7428152649
 30
0.0
 11
23.3803351528
 21
43.7428152649
 31
0.0
  0
LINE
  5
4B2
330
1F
100
AcDbEntity
  8
SLD-0
  6
Continuous
370
    15
100
AcDbLine
 10
23.3913350257
 20
43.7403160937
 30
0.0
 11
23.3913350257
 21
43.7428152649
 31
0.0
  0
LINE
  5
4B3
330
1F
100
AcDbEntity
  8
SLD-0
  6
Continuous
370
    15
100
AcDbLine
 10
24.1839348296
 20
43.7278155448
 30
0.0
 11
24.1839348296
 21
43.3207181676
 31
0.0
  0
LINE
  5
4B4
330
1F
100
AcDbEntity
  8
SLD-0
  6
Continuous
370
    15
100
AcDbLine
 10
24.1563348284
 20
43.7278155448
 30
0.0
 11
24.1563348284
 21
43.291978873
 31
0.0
  0
LINE
  5
4B5
330
1F
100
AcDbEntity
  8
SLD-0
  6
Continuous
370
    15
100
AcDbLine
 10
24.1839348296
 20
43.7278155448
 30
0.0
 11
24.1563348284
 21
43.7278155448
 31
0.0
  0
LINE
  5
4B6
330
1F
100
AcDbEntity
  8
SLD-0
  6
Continuous
370
    15
100
AcDbLine
 10
21.1409346759
 20
43.8221152554
 30
0.0
 11
21.1409346759
 21
43.7921158153
 31
0.0
  0
LINE
  5
4B7
330
1F
100
AcDbEntity
  8
SLD-0
  6
Continuous
370
    15
100
AcDbLine
 10
6.6409350345
 20
43.8221152554
 30
0.0
 11
6.6409350345
 21
43.7921158153
 31
0.0
  0
LINE
  5
4B8
330
1F
100
AcDbEntity
  8
SLD-0
  6
Continuous
370
    15
100
AcDbLine
 10
6.6409350345
 20
43.8221152554
 30
0.0
 11
21.1409346759
 21
43.8221152554
 31
0.0
  0
LINE
  5
4B9
330
1F
100
AcDbEntity
  8
SLD-0
  6
Continuous
370
    15
100
AcDbLine
 10
6.6409350345
 20
43.8295564495
 30
0.0
 11
6.6409350345
 21
43.8221152554
 31
0.0
  0
LINE
  5
4BA
330
1F
100
AcDbEntity
  8
SLD-0
  6
Continuous
370
    15
100
AcDbLine
 10
21.1409346759
 20
43.8295564495
 30
0.0
 11
6.6409350345
 21
43.8295564495
 31
0.0
  0
LINE
  5
4BB
330
1F
100
AcDbEntity
  8
SLD-0
  6
Continuous
370
    15
100
AcDbLine
 10
21.1409346759
 20
43.8221152554
 30
0.0
 11
21.1409346759
 21
43.8295564495
 31
0.0
  0
ARC
  5
4BC
330
1F
100
AcDbEntity
  8
SLD-0
  6
Continuous
370
    15
100
AcDbCircle
 10
18.0159353095
 20
45.9730918937
 30
0.0
 40
0.1258714315885846
100
AcDbArc
 50
6.7451147892
 51
173.2548852108
  0
LINE
  5
4BD
330
1F
100
AcDbEntity
  8
SLD-0
  6
Continuous
370
    15
100
AcDbLine
 10
17.8909351002
 20
45.9878758364
 30
0.0
 11
17.8909351002
 21
45.1240965882
 31
0.0
  0
ARC
  5
4BE
330
1F
100
AcDbEntity
  8
SLD-0
  6
Continuous
370
    15
100
AcDbCircle
 10
18.0159353095
 20
45.1388796155
 30
0.0
 40
0.1258713240874575
100
AcDbArc
 50
186.7447010348
 51
353.2552989652
  0
LINE
  5
4BF
330
1F
100
AcDbEntity
  8
SLD-0
  6
Continuous
370
    15
100
AcDbLine
 10
18.1409355188
 20
45.9878758364
 30
0.0
 11
18.1409355188
 21
45.1240965882
 31
0.0
  0
LINE
  5
4C0
330
1F
100
AcDbEntity
  8
SLD-0
  6
Continuous
370
    15
100
AcDbLine
 10
23.265935301
 20
45.3072306859
 30
0.0
 11
21.1409346759
 21
45.3072306859
 31
0.0
  0
LINE
  5
4C1
330
1F
100
AcDbEntity
  8
SLD-0
  6
Continuous
370
    15
100
AcDbLine
 10
21.1409346759
 20
45.2921159805
 30
0.0
 11
21.1409346759
 21
45.3072306859
 31
0.0
  0
LINE
  5
4C2
330
1F
100
AcDbEntity
  8
SLD-0
  6
Continuous
370
    15
100
AcDbLine
 10
21.1409346759
 20
45.2921159805
 30
0.0
 11
21.1409346759
 21
43.8295564495
 31
0.0
  0
LINE
  5
4C3
330
1F
100
AcDbEntity
  8
SLD-0
  6
Continuous
370
    15
100
AcDbLine
 10
6.6409350345
 20
46.7850199077
 30
0.0
 11
6.6409350345
 21
43.8295564495
 31
0.0
  0
LINE
  5
4C4
330
1F
100
AcDbEntity
  8
SLD-0
  6
Continuous
370
    15
100
AcDbLine
 10
6.6409350345
 20
46.7850199077
 30
0.0
 11
23.5159345464
 21
46.7850199077
 31
0.0
  0
LINE
  5
4C5
330
1F
100
AcDbEntity
  8
SLD-0
  6
Continuous
370
    15
100
AcDbLine
 10
23.5159345464
 20
46.7850199077
 30
0.0
 11
23.5159345464
 21
45.523175498
 31
0.0
  0
LINE
  5
4C6
330
1F
100
AcDbEntity
  8
SLD-0
  6
Continuous
370
    15
100
AcDbLine
 10
23.5159345464
 20
45.523175498
 30
0.0
 11
23.265935301
 21
45.3072306859
 31
0.0
  0
ARC
  5
4C7
330
1F
100
AcDbEntity
  8
SLD-0
  6
Continuous
370
    15
100
AcDbCircle
 10
15.0159349791
 20
45.973091441
 30
0.0
 40
0.1258714847704448
100
AcDbArc
 50
6.7453194679
 51
173.2546805321
  0
LINE
  5
4C8
330
1F
100
AcDbEntity
  8
SLD-0
  6
Continuous
370
    15
100
AcDbLine
 10
14.8909347698
 20
45.1240965882
 30
0.0
 11
14.8909347698
 21
45.9878758364
 31
0.0
  0
ARC
  5
4C9
330
1F
100
AcDbEntity
  8
SLD-0
  6
Continuous
370
    15
100
AcDbCircle
 10
15.0159349791
 20
45.1388800683
 30
0.0
 40
0.1258713772660663
100
AcDbArc
 50
186.7449057139
 51
353.2550942861
  0
LINE
  5
4CA
330
1F
100
AcDbEntity
  8
SLD-0
  6
Continuous
370
    15
100
AcDbLine
 10
15.1409351884
 20
45.9878758364
 30
0.0
 11
15.1409351884
 21
45.1240965882
 31
0.0
  0
LINE
  5
4CB
330
1F
100
AcDbEntity
  8
SLD-0
  6
Continuous
370
    15
100
AcDbLine
 10
23.265935301
 20
45.2921159805
 30
0.0
 11
23.265935301
 21
45.3072306859
 31
0.0
  0
LINE
  5
4CC
330
1F
100
AcDbEntity
  8
SLD-0
  6
Continuous
370
    15
100
AcDbLine
 10
21.1409346759
 20
45.2921159805
 30
0.0
 11
23.265935301
 21
45.2921159805
 31
0.0
  0
LINE
  5
4CD
330
1F
100
AcDbEntity
  8
SLD-0
  6
Continuous
370
    15
100
AcDbLine
 10
23.5159345464
 20
45.5080607926
 30
0.0
 11
23.5159345464
 21
45.523175498
 31
0.0
  0
LINE
  5
4CE
330
1F
100
AcDbEntity
  8
SLD-0
  6
Continuous
370
    15
100
AcDbLine
 10
23.5159345464
 20
45.5080607926
 30
0.0
 11
23.265935301
 21
45.2921159805
 31
0.0
  0
ARC
  5
4CF
330
1F
100
AcDbEntity
  8
SLD-0
  6
Continuous
370
    15
100
AcDbCircle
 10
15.0159349791
 20
45.9579753042
 30
0.0
 40
0.1258713772660663
100
AcDbArc
 50
6.7449057139
 51
173.2550942861
  0
ARC
  5
4D0
330
1F
100
AcDbEntity
  8
SLD-0
  6
Continuous
370
    15
100
AcDbCircle
 10
18.0159353095
 20
45.957975757
 30
0.0
 40
0.1258713240874575
100
AcDbArc
 50
6.7447010348
 51
173.2552989652
  0
LINE
  5
4D1
330
1F
100
AcDbEntity
  8
SLD-0
  6
Continuous
370
    15
100
AcDbLine
 10
23.5159345464
 20
46.8073458365
 30
0.0
 11
23.5159345464
 21
46.7850199077
 31
0.0
  0
LINE
  5
4D2
330
1F
100
AcDbEntity
  8
SLD-0
  6
Continuous
370
    15
100
AcDbLine
 10
6.6409350345
 20
46.7850199077
 30
0.0
 11
6.6409350345
 21
46.8073458365
 31
0.0
  0
LINE
  5
4D3
330
1F
100
AcDbEntity
  8
SLD-0
  6
Continuous
370
    15
100
AcDbLine
 10
23.0053351115
 20
43.7223877675
 30
0.0
 11
23.0053351115
 21
43.7394149841
 31
0.0
  0
LINE
  5
4D4
330
1F
100
AcDbEntity
  8
SLD-0
  6
Continuous
370
    15
100
AcDbLine
 10
23.0053351115
 20
43.7394149841
 30
0.0
 11
23.3803351528
 21
43.7394149841
 31
0.0
  0
LINE
  5
4D5
330
1F
100
AcDbEntity
  8
SLD-0
  6
Continuous
370
    15
100
AcDbLine
 10
23.3803351528
 20
43.1454148061
 30
0.0
 11
23.3803351528
 21
43.7394149841
 31
0.0
  0
LINE
  5
4D6
330
1F
100
AcDbEntity
  8
SLD-0
  6
Continuous
370
    15
100
AcDbLine
 10
21.9062782612
 20
43.1454148061
 30
0.0
 11
23.3803351528
 21
43.1454148061
 31
0.0
  0
LINE
  5
4D7
330
1F
100
AcDbEntity
  8
SLD-0
  6
Continuous
370
    15
100
AcDbLine
 10
21.3122780832
 20
43.7394149841
 30
0.0
 11
21.6923351327
 21
43.7394149841
 31
0.0
  0
LINE
  5
4D8
330
1F
100
AcDbEntity
  8
SLD-0
  6
Continuous
370
    15
100
AcDbLine
 10
21.6923351327
 20
43.7394149841
 30
0.0
 11
21.6923351327
 21
43.7223877675
 31
0.0
  0
LINE
  5
4D9
330
1F
100
AcDbEntity
  8
SLD-0
  6
Continuous
370
    15
100
AcDbLine
 10
21.6923351327
 20
43.7223877675
 30
0.0
 11
23.0053351115
 21
43.7223877675
 31
0.0
  0
LINE
  5
4DA
330
1F
100
AcDbEntity
  8
SLD-0
  6
Continuous
370
    15
100
AcDbLine
 10
21.9062782612
 20
43.1454148061
 30
0.0
 11
21.3122780832
 21
43.7394149841
 31
0.0
  0
LINE
  5
4DB
330
1F
100
AcDbEntity
  8
SLD-0
  6
Continuous
370
    15
100
AcDbLine
 10
21.2523355223
 20
43.7921158153
 30
0.0
 11
21.6923351327
 21
43.7921158153
 31
0.0
  0
LINE
  5
4DC
330
1F
100
AcDbEntity
  8
SLD-0
  6
Continuous
370
    15
100
AcDbLine
 10
21.6923351327
 20
43.7394149841
 30
0.0
 11
21.6923351327
 21
43.7921158153
 31
0.0
  0
SPLINE
  5
4DD
330
1F
100
AcDbEntity
  8
SLD-0
  6
Continuous
370
    15
100
AcDbSpline
210
0.0
220
0.0
230
1.0
 70
     8
 71
     3
 72
    11
 73
     7
 74
     0
 42
0.00000001
 43
0.00000001
 12
1.0
 22
0.0
 32
0.0
 13
1.0
 23
0.0
 33
0.0
 40
0.0
 40
0.0
 40
0.0
 40
0.0
 40
0.2499996945887553
 40
0.5000018176699632
 40
0.750003940751171
 40
1.0
 40
1.0
 40
1.0
 40
1.0
 10
21.2523355223172
 20
43.79211581532648
 30
0.0
 10
21.25733074655673
 20
43.79132306203888
 30
0.0
 10
21.26732124355929
 20
43.78973754776288
 30
0.0
 10
21.28230681831887
 20
43.77755219866698
 30
0.0
 10
21.29729222704795
 20
43.76013148084209
 30
0.0
 10
21.30728283819636
 20
43.74632042720253
 30
0.0
 10
21.31227808318895
 20
43.73941498413097
 30
0.0
  0
SPLINE
  5
4DE
330
1F
100
AcDbEntity
  8
SLD-0
  6
Continuous
370
    15
100
AcDbSpline
210
0.0
220
0.0
230
1.0
 70
     8
 71
     3
 72
    11
 73
     7
 74
     0
 42
0.00000001
 43
0.00000001
 12
1.0
 22
0.0
 32
0.0
 13
1.0
 23
0.0
 33
0.0
 40
0.0
 40
0.0
 40
0.0
 40
0.0
 40
0.249995232624984
 40
0.500003885983759
 40
0.7499860015627126
 40
1.0
 40
1.0
 40
1.0
 40
1.0
 10
21.2523355223172
 20
43.77041643933286
 30
0.0
 10
21.25733085679882
 20
43.76995012581446
 30
0.0
 10
21.2673217939314
 20
43.76901747374412
 30
0.0
 10
21.2823056240235
 20
43.76184770234794
 30
0.0
 10
21.29729371993522
 20
43.75160297519692
 30
0.0
 10
21.30728308310976
 20
43.74347782052307
 30
0.0
 10
21.31227808318895
 20
43.73941498413097
 30
0.0
  0
LINE
  5
4DF
330
1F
100
AcDbEntity
  8
SLD-0
  6
Continuous
370
    15
100
AcDbLine
 10
21.2523355223
 20
43.7921158153
 30
0.0
 11
21.2523355223
 21
43.7704164393
 31
0.0
  0
LINE
  5
4E0
330
1F
100
AcDbEntity
  8
SLD-0
  6
Continuous
370
    15
100
AcDbLine
 10
23.0053351115
 20
43.7921158153
 30
0.0
 11
23.0053351115
 21
43.7394149841
 31
0.0
  0
LINE
  5
4E1
330
1F
100
AcDbEntity
  8
SLD-0
  6
Continuous
370
    15
100
AcDbLine
 10
23.0053351115
 20
43.7921158153
 30
0.0
 11
23.3803351528
 21
43.7921158153
 31
0.0
  0
LINE
  5
4E2
330
1F
100
AcDbEntity
  8
SLD-0
  6
Continuous
370
    15
100
AcDbLine
 10
23.3803351528
 20
43.7394149841
 30
0.0
 11
23.3803351528
 21
43.7921158153
 31
0.0
  0
SPLINE
  5
4E3
330
1F
100
AcDbEntity
  8
SLD-0
  6
Continuous
370
    15
100
AcDbSpline
210
0.0
220
0.0
230
1.0
 70
     8
 71
     3
 72
    11
 73
     7
 74
     0
 42
0.00000001
 43
0.00000001
 12
1.0
 22
0.0
 32
0.0
 13
1.0
 23
0.0
 33
0.0
 40
0.0
 40
0.0
 40
0.0
 40
0.0
 40
0.250005657314761
 40
0.5000047714761751
 40
0.7500052804940266
 40
1.0
 40
1.0
 40
1.0
 40
1.0
 10
6.045342734795542
 20
43.79211581532648
 30
0.0
 10
6.044946918894698
 20
43.79132310576045
 30
0.0
 10
6.044155297452314
 20
43.78973770737522
 30
0.0
 10
6.043651009299261
 20
43.77755214729843
 30
0.0
 10
6.044230979271338
 20
43.76013147338026
 30
0.0
 10
6.045972607007918
 20
43.74632042724075
 30
0.0
 10
6.046843410792937
 20
43.73941498413097
 30
0.0
  0
LINE
  5
4E4
330
1F
100
AcDbEntity
  8
SLD-0
  6
Continuous
370
    15
100
AcDbLine
 10
6.0453427348
 20
43.7921158153
 30
0.0
 11
21.2523355223
 21
43.7921158153
 31
0.0
  0
SPLINE
  5
4E5
330
1F
100
AcDbEntity
  8
SLD-0
  6
Continuous
370
    15
100
AcDbSpline
210
0.0
220
0.0
230
1.0
 70
     8
 71
     3
 72
    12
 73
     8
 74
     0
 42
0.00000001
 43
0.00000001
 12
1.0
 22
0.0
 32
0.0
 13
1.0
 23
0.0
 33
0.0
 40
0.0
 40
0.0
 40
0.0
 40
0.0
 40
0.2373851706587929
 40
0.4749160249988811
 40
0.7124424259888296
 40
0.9499589424155033
 40
1.0
 40
1.0
 40
1.0
 40
1.0
 10
21.20327198243673
 20
43.73941498413097
 30
0.0
 10
21.20643880994888
 20
43.74596518215562
 30
0.0
 10
21.21277440846059
 20
43.75906959807251
 30
0.0
 10
21.22412381236266
 20
43.77603794530615
 30
0.0
 10
21.23648401041754
 20
43.78791831973622
 30
0.0
 10
21.24614098115099
 20
43.79188637182511
 30
0.0
 10
21.25141732727078
 20
43.79208180572338
 30
0.0
 10
21.2523355223172
 20
43.79211581532648
 30
0.0
  0
LINE
  5
4E6
330
1F
100
AcDbEntity
  8
SLD-0
  6
Continuous
370
    15
100
AcDbLine
 10
21.2032719824
 20
43.7394149841
 30
0.0
 11
6.0468434108
 21
43.7394149841
 31
0.0
  0
LINE
  5
4E7
330
1F
100
AcDbEntity
  8
SLD-0
  6
Continuous
370
    15
100
AcDbLine
 10
21.2032719824
 20
43.7394149841
 30
0.0
 11
21.2077669705
 21
43.7394149841
 31
0.0
  0
SPLINE
  5
4E8
330
1F
100
AcDbEntity
  8
SLD-0
  6
Continuous
370
    15
100
AcDbSpline
210
0.0
220
0.0
230
1.0
 70
     8
 71
     3
 72
    11
 73
     7
 74
     0
 42
0.00000001
 43
0.00000001
 12
1.0
 22
0.0
 32
0.0
 13
1.0
 23
0.0
 33
0.0
 40
0.0
 40
0.0
 40
0.0
 40
0.0
 40
0.2752453028741318
 40
0.5508074339125695
 40
0.8263637043581064
 40
1.0
 40
1.0
 40
1.0
 40
1.0
 10
21.20776697051024
 20
43.73941498413097
 30
0.0
 10
21.21138619973378
 20
43.74388861381563
 30
0.0
 10
21.21862882418744
 20
43.75284102267111
 30
0.0
 10
21.23092706305724
 20
43.76371751129168
 30
0.0
 10
21.24234870938531
 20
43.76959868353295
 30
0.0
 10
21.24955133341826
 20
43.77018846003299
 30
0.0
 10
21.2523355223172
 20
43.77041643933286
 30
0.0
  0
LINE
  5
4E9
330
1F
100
AcDbEntity
  8
SLD-0
  6
Continuous
370
    15
100
AcDbLine
 10
21.2032719824
 20
43.7394149841
 30
0.0
 11
20.8252799757
 21
43.1454148061
 31
0.0
  0
LINE
  5
4EA
330
1F
100
AcDbEntity
  8
SLD-0
  6
Continuous
370
    15
100
AcDbLine
 10
20.8252799757
 20
43.1454148061
 30
0.0
 11
6.1699115291
 21
43.1454148061
 31
0.0
  0
LINE
  5
4EB
330
1F
100
AcDbEntity
  8
SLD-0
  6
Continuous
370
    15
100
AcDbLine
 10
6.1699115291
 20
43.1454148061
 30
0.0
 11
6.0468434108
 21
43.7394149841
 31
0.0
  0
LINE
  5
4EC
330
1F
100
AcDbEntity
  8
SLD-0
  6
Continuous
370
    15
100
AcDbLine
 10
21.2077669705
 20
43.7394149841
 30
0.0
 11
20.8297761371
 21
43.1454148061
 31
0.0
  0
LINE
  5
4ED
330
1F
100
AcDbEntity
  8
SLD-0
  6
Continuous
370
    15
100
AcDbLine
 10
20.8252799757
 20
43.1454148061
 30
0.0
 11
20.8297761371
 21
43.1454148061
 31
0.0
  0
LINE
  5
4EE
330
1F
100
AcDbEntity
  8
SLD-0
  6
Continuous
370
    15
100
AcDbLine
 10
24.1593350071
 20
43.7704164393
 30
0.0
 11
24.1593350071
 21
43.7921158153
 31
0.0
  0
LINE
  5
4EF
330
1F
100
AcDbEntity
  8
SLD-0
  6
Continuous
370
    15
100
AcDbLine
 10
23.3803351528
 20
43.7704164393
 30
0.0
 11
24.1593350071
 21
43.7704164393
 31
0.0
  0
LINE
  5
4F0
330
1F
100
AcDbEntity
  8
SLD-0
  6
Continuous
370
    15
100
AcDbLine
 10
23.3803351528
 20
43.7921158153
 30
0.0
 11
24.1593350071
 21
43.7921158153
 31
0.0
  0
ARC
  5
4F1
330
1F
100
AcDbEntity
  8
SLD-0
  6
Continuous
370
    15
100
AcDbCircle
 10
24.1593349932
 20
43.7394152882
 30
0.0
 40
0.0527000000000086
100
AcDbArc
 50
0.0
 51
90.0
  0
LINE
  5
4F2
330
1F
100
AcDbEntity
  8
SLD-0
  6
Continuous
370
    15
100
AcDbLine
 10
24.190335289
 20
43.7394149841
 30
0.0
 11
24.212034665
 21
43.7394149841
 31
0.0
  0
ARC
  5
4F3
330
1F
100
AcDbEntity
  8
SLD-0
  6
Continuous
370
    15
100
AcDbCircle
 10
24.1593349932
 20
43.7394152882
 30
0.0
 40
0.0310000000000059
100
AcDbArc
 50
0.0
 51
90.0
  0
LINE
  5
4F4
330
1F
100
AcDbEntity
  8
SLD-0
  6
Continuous
370
    15
100
AcDbLine
 10
24.190335289
 20
43.3296353979
 30
0.0
 11
24.190335289
 21
43.7394149841
 31
0.0
  0
LINE
  5
4F5
330
1F
100
AcDbEntity
  8
SLD-0
  6
Continuous
370
    15
100
AcDbLine
 10
23.0053351115
 20
43.7704164393
 30
0.0
 11
21.6923351327
 21
43.7704164393
 31
0.0
  0
LINE
  5
4F6
330
1F
100
AcDbEntity
  8
SLD-0
  6
Continuous
370
    15
100
AcDbLine
 10
23.0053351115
 20
43.7921158153
 30
0.0
 11
21.6923351327
 21
43.7921158153
 31
0.0
  0
LINE
  5
4F7
330
1F
100
AcDbEntity
  8
SLD-0
  6
Continuous
370
    15
100
AcDbLine
 10
5.0563349932
 20
43.7921158153
 30
0.0
 11
5.0563349932
 21
43.7704164393
 31
0.0
  0
LINE
  5
4F8
330
1F
100
AcDbEntity
  8
SLD-0
  6
Continuous
370
    15
100
AcDbLine
 10
5.0563349932
 20
43.7704164393
 30
0.0
 11
6.0453427348
 21
43.7704164393
 31
0.0
  0
LINE
  5
4F9
330
1F
100
AcDbEntity
  8
SLD-0
  6
Continuous
370
    15
100
AcDbLine
 10
5.0563349932
 20
43.7921158153
 30
0.0
 11
6.0453427348
 21
43.7921158153
 31
0.0
  0
LINE
  5
4FA
330
1F
100
AcDbEntity
  8
SLD-0
  6
Continuous
370
    15
100
AcDbLine
 10
5.0253349932
 20
43.7394149841
 30
0.0
 11
5.0036349916
 21
43.7394149841
 31
0.0
  0
SPLINE
  5
4FB
330
1F
100
AcDbEntity
  8
SLD-0
  6
Continuous
370
    15
100
AcDbSpline
210
0.0
220
0.0
230
1.0
 70
     8
 71
     3
 72
    11
 73
     7
 74
     0
 42
0.00000001
 43
0.00000001
 12
1.0
 22
0.0
 32
0.0
 13
1.0
 23
0.0
 33
0.0
 40
0.0
 40
0.0
 40
0.0
 40
0.0
 40
0.2500197718123227
 40
0.4999899943060729
 40
0.7499975485716446
 40
1.0
 40
1.0
 40
1.0
 40
1.0
 10
5.025334993220346
 20
43.73941498413097
 30
0.0
 10
5.025800798081357
 20
43.74347774980191
 30
0.0
 10
5.026732315489422
 20
43.75160247597837
 30
0.0
 10
5.033902483866155
 20
43.76184799721403
 30
0.0
 10
5.044148334780089
 20
43.76901750897719
 30
0.0
 10
5.052272801384833
 20
43.76995013238691
 30
0.0
 10
5.056334993230204
 20
43.77041643933286
 30
0.0
  0
SPLINE
  5
4FC
330
1F
100
AcDbEntity
  8
SLD-0
  6
Continuous
370
    15
100
AcDbSpline
210
0.0
220
0.0
230
1.0
 70
     8
 71
     3
 72
    11
 73
     7
 74
     0
 42
0.00000001
 43
0.00000001
 12
1.0
 22
0.0
 32
0.0
 13
1.0
 23
0.0
 33
0.0
 40
0.0
 40
0.0
 40
0.0
 40
0.0
 40
0.2499937692770212
 40
0.4999993036775247
 40
0.7499966699814207
 40
1.0
 40
1.0
 40
1.0
 40
1.0
 10
5.00363499160895
 20
43.73941498413097
 30
0.0
 10
5.004427226580877
 20
43.74632047143844
 30
0.0
 10
5.006011733808632
 20
43.76013177103713
 30
0.0
 10
5.018197979104941
 20
43.77755186284038
 30
0.0
 10
5.035618339451095
 20
43.789737741134
 30
0.0
 10
5.049429387060481
 20
43.79132311762584
 30
0.0
 10
5.056334993230204
 20
43.79211581532648
 30
0.0
  0
LINE
  5
4FD
330
1F
100
AcDbEntity
  8
SLD-0
  6
Continuous
370
    15
100
AcDbLine
 10
5.0036349916
 20
43.7394149841
 30
0.0
 11
5.0036349916
 21
43.1454148061
 31
0.0
  0
LINE
  5
4FE
330
1F
100
AcDbEntity
  8
SLD-0
  6
Continuous
370
    15
100
AcDbLine
 10
5.0253349932
 20
43.7394149841
 30
0.0
 11
5.0253349932
 21
43.5883477159
 31
0.0
  0
LINE
  5
4FF
330
1F
100
AcDbEntity
  8
SLD-0
  6
Continuous
370
    15
100
AcDbLine
 10
5.0253349932
 20
43.1454148061
 30
0.0
 11
5.0036349916
 21
43.1454148061
 31
0.0
  0
LINE
  5
500
330
1F
100
AcDbEntity
  8
SLD-0
  6
Continuous
370
    15
100
AcDbLine
 10
21.2108668814
 20
43.7394149841
 30
0.0
 11
21.2108668814
 21
9.2014152882
 31
0.0
  0
LINE
  5
501
330
1F
100
AcDbEntity
  8
SLD-0
  6
Continuous
370
    15
100
AcDbLine
 10
24.1453349555
 20
43.7394149841
 30
0.0
 11
23.3803351528
 21
43.7394149841
 31
0.0
  0
LINE
  5
502
330
1F
100
AcDbEntity
  8
SLD-0
  6
Continuous
370
    15
100
AcDbLine
 10
23.0053351115
 20
43.7394149841
 30
0.0
 11
21.6923351327
 21
43.7394149841
 31
0.0
  0
LINE
  5
503
330
1F
100
AcDbEntity
  8
SLD-0
  6
Continuous
370
    15
100
AcDbLine
 10
21.3122780832
 20
43.7394149841
 30
0.0
 11
21.2108668814
 21
43.7394149841
 31
0.0
  0
LINE
  5
504
330
1F
100
AcDbEntity
  8
SLD-0
  6
Continuous
370
    15
100
AcDbLine
 10
24.1453349555
 20
43.7394149841
 30
0.0
 11
24.1453349555
 21
43.2809778267
 31
0.0
  0
LINE
  5
505
330
1F
100
AcDbEntity
  8
SLD-0
  6
Continuous
370
    15
100
AcDbLine
 10
24.1453349555
 20
9.7192523713
 30
0.0
 11
24.1453349555
 21
9.2014152882
 31
0.0
  0
LINE
  5
506
330
1F
100
AcDbEntity
  8
SLD-0
  6
Continuous
370
    15
100
AcDbLine
 10
24.1453349555
 20
9.2014152882
 30
0.0
 11
23.3803351528
 21
9.2014152882
 31
0.0
  0
LINE
  5
507
330
1F
100
AcDbEntity
  8
SLD-0
  6
Continuous
370
    15
100
AcDbLine
 10
23.0053351115
 20
9.2014152882
 30
0.0
 11
21.6923351327
 21
9.2014152882
 31
0.0
  0
LINE
  5
508
330
1F
100
AcDbEntity
  8
SLD-0
  6
Continuous
370
    15
100
AcDbLine
 10
21.3122780832
 20
9.2014152882
 30
0.0
 11
21.2108668814
 21
9.2014152882
 31
0.0
  0
LINE
  5
509
330
1F
100
AcDbEntity
  8
SLD-0
  6
Continuous
370
    15
100
AcDbLine
 10
21.2108668814
 20
43.7394149841
 30
0.0
 11
21.2077470241
 21
43.7394149841
 31
0.0
  0
LINE
  5
50A
330
1F
100
AcDbEntity
  8
SLD-0
  6
Continuous
370
    15
100
AcDbLine
 10
5.0670927464
 20
43.7394149841
 30
0.0
 11
5.0670927464
 21
9.2014152882
 31
0.0
  0
LINE
  5
50B
330
1F
100
AcDbEntity
  8
SLD-0
  6
Continuous
370
    15
100
AcDbLine
 10
6.0468434108
 20
43.7394149841
 30
0.0
 11
5.0670927464
 21
43.7394149841
 31
0.0
  0
LINE
  5
50C
330
1F
100
AcDbEntity
  8
SLD-0
  6
Continuous
370
    15
100
AcDbLine
 10
6.0468434108
 20
9.2014152882
 30
0.0
 11
5.0670927464
 21
9.2014152882
 31
0.0
  0
LWPOLYLINE
  5
50D
330
1F
100
AcDbEntity
  8
SLD-0
  6
Continuous
370
    15
100
AcDbPolyline
 90
      108
 70
   128
 43
0.0
 10
11.0586095478
 20
17.4604152547
 10
11.0571346848
 20
17.5117667682
 10
11.0527136159
 20
17.562941697
 10
11.0453627675
 20
17.6137628699
 10
11.0351067793
 20
17.6640554622
 10
11.0219814376
 20
17.7136458227
 10
11.0060313285
 20
17.7623638199
 10
10.9873121847
 20
17.8100404958
 10
10.9658885389
 20
17.8565121723
 10
10.9418337234
 20
17.9016181046
 10
10.9152304574
 20
17.9452034144
 10
10.8861714331
 20
17.9871173302
 10
10.8547563827
 20
18.0272155337
 10
10.8210932516
 20
18.0653601597
 10
10.7852981984
 20
18.1014192098
 10
10.7474950085
 20
18.1352688987
 10
10.7078133335
 20
18.1667918946
 10
10.6663904521
 20
18.1958802519
 10
10.6233689224
 20
18.2224330652
 10
10.5788977561
 20
18.2463588154
 10
10.5331294848
 20
18.2675753703
 10
10.48622192
 20
18.286009984
 10
10.4383369799
 20
18.301598124
 10
10.3896395158
 20
18.3142864041
 10
10.3402978991
 20
18.3240314115
 10
10.2904816746
 20
18.33079912
 10
10.2403627336
 20
18.3345666498
 10
10.190113554
 20
18.3353210944
 10
10.139908374
 20
18.3330589339
 10
10.0899190848
 20
18.3277889681
 10
10.0403187512
 20
18.3195293835
 10
9.991278091
 20
18.3083077531
 10
9.9429660625
 20
18.2941633832
 10
9.8955495702
 20
18.2771443798
 10
9.8491914124
 20
18.2573105822
 10
9.8040520405
 20
18.2347294564
 10
9.7602869194
 20
18.2094796148
 10
9.7180465274
 20
18.1816467097
 10
9.6774769427
 20
18.1513281266
 10
9.6387177905
 20
18.1186277043
 10
9.6019028291
 20
18.0836586683
 10
9.5671587771
 20
18.0465406971
 10
9.5346056065
 20
18.0074022692
 10
9.5043553693
 20
17.9663783164
 10
9.4765121976
 20
17.9236102238
 10
9.451172597
 20
17.8792458297
 10
9.4284233932
 20
17.8334370789
 10
9.4083431985
 20
17.7863423696
 10
9.3910012388
 20
17.7381247933
 10
9.3764573535
 20
17.6889492013
 10
9.3647617019
 20
17.6389863118
 10
9.3559544703
 20
17.5884074295
 10
9.3500658717
 20
17.5373873789
 10
9.3471167324
 20
17.486102158
 10
9.3471167324
 20
17.4347283514
 10
9.3500658717
 20
17.3834431306
 10
9.3559544703
 20
17.33242308
 10
9.3647617019
 20
17.2818447842
 10
9.3764573535
 20
17.2318813081
 10
9.3910012388
 20
17.1827063028
 10
9.4083431985
 20
17.1344881398
 10
9.4284233932
 20
17.0873934306
 10
9.451172597
 20
17.0415852664
 10
9.4765121976
 20
16.9972202856
 10
9.5043553693
 20
16.954452193
 10
9.5346056065
 20
16.9134282402
 10
9.5671587771
 20
16.8742898123
 10
9.6019028291
 20
16.8371718411
 10
9.6387177905
 20
16.8022028051
 10
9.6774769427
 20
16.7695023829
 10
9.7180465274
 20
16.7391837998
 10
9.7602869194
 20
16.7113514813
 10
9.8040520405
 20
16.686101053
 10
9.8491914124
 20
16.6635199272
 10
9.8955495702
 20
16.6436861296
 10
9.9429660625
 20
16.6266677129
 10
9.991278091
 20
16.6125227563
 10
10.0403187512
 20
16.6013017126
 10
10.0899190848
 20
16.5930415414
 10
10.139908374
 20
16.5877715756
 10
10.190113554
 20
16.585509415
 10
10.2403627336
 20
16.5862638596
 10
10.2904816746
 20
16.5900313895
 10
10.3402978991
 20
16.5967990979
 10
10.3896395158
 20
16.6065441054
 10
10.4383369799
 20
16.6192323855
 10
10.48622192
 20
16.634821112
 10
10.5331294848
 20
16.6532551391
 10
10.5788977561
 20
16.674471694
 10
10.6233689224
 20
16.6983974443
 10
10.6663904521
 20
16.7249502575
 10
10.7078133335
 20
16.7540386148
 10
10.7474950085
 20
16.7855616107
 10
10.7852981984
 20
16.8194112996
 10
10.8210932516
 20
16.8554703498
 10
10.8547563827
 20
16.8936149758
 10
10.8861714331
 20
16.9337131792
 10
10.9152304574
 20
16.975627095
 10
10.9418337234
 20
17.0192124049
 10
10.9658885389
 20
17.0643183371
 10
10.9873121847
 20
17.1107900136
 10
11.0060313285
 20
17.1584666895
 10
11.0219814376
 20
17.2071846867
 10
11.0351067793
 20
17.2567750472
 10
11.0453627675
 20
17.3070676395
 10
11.0527136159
 20
17.3578888124
 10
11.0571346848
 20
17.4090637413
 10
11.0586095478
 20
17.4604152547
  0
LWPOLYLINE
  5
50E
330
1F
100
AcDbEntity
  8
SLD-0
  6
Continuous
370
    15
100
AcDbPolyline
 90
       56
 70
   128
 43
0.0
 10
10.2049314095
 20
18.3354120267
 10
10.1946196887
 20
18.3353210944
 10
10.144413922
 20
18.3330589339
 10
10.0944246328
 20
18.3277889681
 10
10.0448242991
 20
18.3195293835
 10
9.995783639
 20
18.3083077531
 10
9.9474719037
 20
18.2941633832
 10
9.9000551182
 20
18.2771443798
 10
9.8536972537
 20
18.2573105822
 10
9.8085578818
 20
18.2347294564
 10
9.7647924674
 20
18.2094796148
 10
9.7225523687
 20
18.1816467097
 10
9.681982784
 20
18.1513281266
 10
9.6432236318
 20
18.1186277043
 10
9.6064083771
 20
18.0836586683
 10
9.5716643251
 20
18.0465406971
 10
9.5391111545
 20
18.0074022692
 10
9.5088609173
 20
17.9663783164
 10
9.4810177456
 20
17.9236102238
 10
9.455678145
 20
17.8792458297
 10
9.4329289411
 20
17.8334370789
 10
9.4128487464
 20
17.7863423696
 10
9.3955067867
 20
17.7381247933
 10
9.3809629014
 20
17.6889492013
 10
9.3692672499
 20
17.6389863118
 10
9.3604600183
 20
17.5884074295
 10
9.3545714196
 20
17.5373873789
 10
9.3516222804
 20
17.486102158
 10
9.3516222804
 20
17.4347283514
 10
9.3545714196
 20
17.3834431306
 10
9.3604600183
 20
17.33242308
 10
9.3692672499
 20
17.2818447842
 10
9.3809629014
 20
17.2318813081
 10
9.3955067867
 20
17.1827063028
 10
9.4128487464
 20
17.1344881398
 10
9.4329289411
 20
17.0873934306
 10
9.455678145
 20
17.0415852664
 10
9.4810177456
 20
16.9972202856
 10
9.5088609173
 20
16.954452193
 10
9.5391111545
 20
16.9134282402
 10
9.5716643251
 20
16.8742898123
 10
9.6064083771
 20
16.8371718411
 10
9.6432236318
 20
16.8022028051
 10
9.681982784
 20
16.7695023829
 10
9.7225523687
 20
16.7391837998
 10
9.7647924674
 20
16.7113514813
 10
9.8085578818
 20
16.686101053
 10
9.8536972537
 20
16.6635199272
 10
9.9000551182
 20
16.6436861296
 10
9.9474719037
 20
16.6266677129
 10
9.995783639
 20
16.6125227563
 10
10.0448242991
 20
16.6013017126
 10
10.0944246328
 20
16.5930415414
 10
10.144413922
 20
16.5877715756
 10
10.1946196887
 20
16.585509415
 10
10.2049314095
 20
16.5854184827
  0
LINE
  5
50F
330
1F
100
AcDbEntity
  8
SLD-0
  6
Continuous
370
    15
100
AcDbLine
 10
5.0253349932
 20
43.5883477159
 30
0.0
 11
5.0253349932
 21
9.3524831499
 31
0.0
  0
LINE
  5
510
330
1F
100
AcDbEntity
  8
SLD-0
  6
Continuous
370
    15
100
AcDbLine
 10
5.0670927464
 20
9.2014152882
 30
0.0
 11
5.0253349932
 21
9.2014152882
 31
0.0
  0
LINE
  5
511
330
1F
100
AcDbEntity
  8
SLD-0
  6
Continuous
370
    15
100
AcDbLine
 10
5.0670927464
 20
43.7394149841
 30
0.0
 11
5.0253349932
 21
43.7394149841
 31
0.0
  0
SPLINE
  5
512
330
1F
100
AcDbEntity
  8
SLD-0
  6
Continuous
370
    15
100
AcDbSpline
210
0.0
220
0.0
230
1.0
 70
     8
 71
     3
 72
    11
 73
     7
 74
     0
 42
0.00000001
 43
0.00000001
 12
1.0
 22
0.0
 32
0.0
 13
1.0
 23
0.0
 33
0.0
 40
0.0
 40
0.0
 40
0.0
 40
0.0
 40
0.2499991439247106
 40
0.4999979277911867
 40
0.7500021759742695
 40
1.0
 40
1.0
 40
1.0
 40
1.0
 10
21.31227808318895
 20
9.201415288175706
 30
0.0
 10
21.30728288180064
 20
9.194509644440254
 30
0.0
 10
21.2972924862183
 20
9.180698366915124
 30
0.0
 10
21.28230657094082
 20
9.163278409485539
 30
0.0
 10
21.26732141782209
 20
9.151091917998965
 30
0.0
 10
21.25733077803138
 20
9.149507491777678
 30
0.0
 10
21.2523355223172
 20
9.148715288845596
 30
0.0
  0
LINE
  5
513
330
1F
100
AcDbEntity
  8
SLD-0
  6
Continuous
370
    15
100
AcDbLine
 10
21.2523355223
 20
9.1487152888
 30
0.0
 11
21.2523355223
 21
9.1704152882
 31
0.0
  0
SPLINE
  5
514
330
1F
100
AcDbEntity
  8
SLD-0
  6
Continuous
370
    15
100
AcDbSpline
210
0.0
220
0.0
230
1.0
 70
     8
 71
     3
 72
    11
 73
     7
 74
     0
 42
0.00000001
 43
0.00000001
 12
1.0
 22
0.0
 32
0.0
 13
1.0
 23
0.0
 33
0.0
 40
0.0
 40
0.0
 40
0.0
 40
0.0
 40
0.2500037786418464
 40
0.4999990755772861
 40
0.7500051734087645
 40
1.0
 40
1.0
 40
1.0
 40
1.0
 10
21.31227808318895
 20
9.201415288175706
 30
0.0
 10
21.30728293461557
 20
9.197353177572749
 30
0.0
 10
21.29729280693578
 20
9.189229094179266
 30
0.0
 10
21.2823063173872
 20
9.178981685550694
 30
0.0
 10
21.26732162403844
 20
9.171813377501534
 30
0.0
 10
21.2573308144852
 20
9.170881310940349
 30
0.0
 10
21.2523355223172
 20
9.170415288165284
 30
0.0
  0
LINE
  5
515
330
1F
100
AcDbEntity
  8
SLD-0
  6
Continuous
370
    15
100
AcDbLine
 10
21.6923351327
 20
9.2014152882
 30
0.0
 11
21.3122780832
 21
9.2014152882
 31
0.0
  0
LINE
  5
516
330
1F
100
AcDbEntity
  8
SLD-0
  6
Continuous
370
    15
100
AcDbLine
 10
21.6923351327
 20
9.1487152888
 30
0.0
 11
21.6923351327
 21
9.2014152882
 31
0.0
  0
LINE
  5
517
330
1F
100
AcDbEntity
  8
SLD-0
  6
Continuous
370
    15
100
AcDbLine
 10
21.6923351327
 20
9.1487152888
 30
0.0
 11
21.2523355223
 21
9.1487152888
 31
0.0
  0
LINE
  5
518
330
1F
100
AcDbEntity
  8
SLD-0
  6
Continuous
370
    15
100
AcDbLine
 10
21.6923351327
 20
9.2184437079
 30
0.0
 11
21.6923351327
 21
9.2014152882
 31
0.0
  0
LINE
  5
519
330
1F
100
AcDbEntity
  8
SLD-0
  6
Continuous
370
    15
100
AcDbLine
 10
21.3122780832
 20
9.2014152882
 30
0.0
 11
21.9062782612
 21
9.7954153081
 31
0.0
  0
LINE
  5
51A
330
1F
100
AcDbEntity
  8
SLD-0
  6
Continuous
370
    15
100
AcDbLine
 10
21.9062782612
 20
9.7954153081
 30
0.0
 11
23.3803351528
 21
9.7954153081
 31
0.0
  0
LINE
  5
51B
330
1F
100
AcDbEntity
  8
SLD-0
  6
Continuous
370
    15
100
AcDbLine
 10
23.3803351528
 20
9.7954153081
 30
0.0
 11
23.3803351528
 21
9.2014152882
 31
0.0
  0
LINE
  5
51C
330
1F
100
AcDbEntity
  8
SLD-0
  6
Continuous
370
    15
100
AcDbLine
 10
23.3803351528
 20
9.2014152882
 30
0.0
 11
23.0053351115
 21
9.2014152882
 31
0.0
  0
LINE
  5
51D
330
1F
100
AcDbEntity
  8
SLD-0
  6
Continuous
370
    15
100
AcDbLine
 10
23.0053351115
 20
9.2014152882
 30
0.0
 11
23.0053351115
 21
9.2184437079
 31
0.0
  0
LINE
  5
51E
330
1F
100
AcDbEntity
  8
SLD-0
  6
Continuous
370
    15
100
AcDbLine
 10
23.0053351115
 20
9.2184437079
 30
0.0
 11
21.6923351327
 21
9.2184437079
 31
0.0
  0
LINE
  5
51F
330
1F
100
AcDbEntity
  8
SLD-0
  6
Continuous
370
    15
100
AcDbLine
 10
23.3803351528
 20
9.1487152888
 30
0.0
 11
23.0053351115
 21
9.1487152888
 31
0.0
  0
LINE
  5
520
330
1F
100
AcDbEntity
  8
SLD-0
  6
Continuous
370
    15
100
AcDbLine
 10
23.3803351528
 20
9.1487152888
 30
0.0
 11
23.3803351528
 21
9.2014152882
 31
0.0
  0
LINE
  5
521
330
1F
100
AcDbEntity
  8
SLD-0
  6
Continuous
370
    15
100
AcDbLine
 10
23.0053351115
 20
9.2014152882
 30
0.0
 11
23.0053351115
 21
9.1487152888
 31
0.0
  0
SPLINE
  5
522
330
1F
100
AcDbEntity
  8
SLD-0
  6
Continuous
370
    15
100
AcDbSpline
210
0.0
220
0.0
230
1.0
 70
     8
 71
     3
 72
    11
 73
     7
 74
     0
 42
0.00000001
 43
0.00000001
 12
1.0
 22
0.0
 32
0.0
 13
1.0
 23
0.0
 33
0.0
 40
0.0
 40
0.0
 40
0.0
 40
0.0
 40
0.2499993326034953
 40
0.4999948477981155
 40
0.7499971400451336
 40
1.0
 40
1.0
 40
1.0
 40
1.0
 10
6.046843410792937
 20
9.201415288175706
 30
0.0
 10
6.045972607807598
 20
9.194509666979284
 30
0.0
 10
6.044231015133798
 20
9.180698530033036
 30
0.0
 10
6.043651002654162
 20
9.163278341837401
 30
0.0
 10
6.044155288693808
 20
9.151091810784994
 30
0.0
 10
6.04494691912869
 20
9.149507463425019
 30
0.0
 10
6.045342734795542
 20
9.148715288845596
 30
0.0
  0
LINE
  5
523
330
1F
100
AcDbEntity
  8
SLD-0
  6
Continuous
370
    15
100
AcDbLine
 10
6.0468434108
 20
9.2014152882
 30
0.0
 11
21.2032719824
 21
9.2014152882
 31
0.0
  0
SPLINE
  5
524
330
1F
100
AcDbEntity
  8
SLD-0
  6
Continuous
370
    15
100
AcDbSpline
210
0.0
220
0.0
230
1.0
 70
     8
 71
     3
 72
    12
 73
     8
 74
     0
 42
0.00000001
 43
0.00000001
 12
1.0
 22
0.0
 32
0.0
 13
1.0
 23
0.0
 33
0.0
 40
0.0
 40
0.0
 40
0.0
 40
0.0
 40
0.2373912571362768
 40
0.4749025668780394
 40
0.7124391464976143
 40
0.9499600247351818
 40
1.0
 40
1.0
 40
1.0
 40
1.0
 10
21.2523355223172
 20
9.148715288845596
 30
0.0
 10
21.24795897535588
 20
9.149428631500205
 30
0.0
 10
21.23920366814254
 20
9.150855677558365
 30
0.0
 10
21.22662679235634
 20
9.161902037911705
 30
0.0
 10
21.21510880950176
 20
9.177847428855005
 30
0.0
 10
21.2075905988688
 20
9.192144564214987
 30
0.0
 10
21.20391209774755
 20
9.200041160039305
 30
0.0
 10
21.20327198243673
 20
9.201415288175706
 30
0.0
  0
LINE
  5
525
330
1F
100
AcDbEntity
  8
SLD-0
  6
Continuous
370
    15
100
AcDbLine
 10
21.2523355223
 20
9.1487152888
 30
0.0
 11
6.0453427348
 21
9.1487152888
 31
0.0
  0
LINE
  5
526
330
1F
100
AcDbEntity
  8
SLD-0
  6
Continuous
370
    15
100
AcDbLine
 10
21.2032719824
 20
9.2014152882
 30
0.0
 11
21.2077669705
 21
9.2014152882
 31
0.0
  0
SPLINE
  5
527
330
1F
100
AcDbEntity
  8
SLD-0
  6
Continuous
370
    15
100
AcDbSpline
210
0.0
220
0.0
230
1.0
 70
     8
 71
     3
 72
    11
 73
     7
 74
     0
 42
0.00000001
 43
0.00000001
 12
1.0
 22
0.0
 32
0.0
 13
1.0
 23
0.0
 33
0.0
 40
0.0
 40
0.0
 40
0.0
 40
0.0
 40
0.2752219196215218
 40
0.550788650524972
 40
0.8263666888703881
 40
0.9999999999999999
 40
0.9999999999999999
 40
0.9999999999999999
 40
0.9999999999999999
 10
21.2523355223172
 20
9.170415288165296
 30
0.0
 10
21.24790711486133
 20
9.17098238510637
 30
0.0
 10
21.23904475182735
 20
9.172117289474889
 30
0.0
 10
21.22628240734129
 20
9.180752130146827
 30
0.0
 10
21.21583252519727
 20
9.19132393629992
 30
0.0
 10
21.21001544280998
 20
9.198602074944873
 30
0.0
 10
21.20776697051024
 20
9.201415288175706
 30
0.0
  0
LINE
  5
528
330
1F
100
AcDbEntity
  8
SLD-0
  6
Continuous
370
    15
100
AcDbLine
 10
20.8252799757
 20
9.7954153081
 30
0.0
 11
21.2032719824
 21
9.2014152882
 31
0.0
  0
LINE
  5
529
330
1F
100
AcDbEntity
  8
SLD-0
  6
Continuous
370
    15
100
AcDbLine
 10
6.0468434108
 20
9.2014152882
 30
0.0
 11
6.1699115291
 21
9.7954153081
 31
0.0
  0
LINE
  5
52A
330
1F
100
AcDbEntity
  8
SLD-0
  6
Continuous
370
    15
100
AcDbLine
 10
20.8252799757
 20
9.7954153081
 30
0.0
 11
6.1699115291
 21
9.7954153081
 31
0.0
  0
LINE
  5
52B
330
1F
100
AcDbEntity
  8
SLD-0
  6
Continuous
370
    15
100
AcDbLine
 10
20.8252799757
 20
9.7954153081
 30
0.0
 11
20.8297761371
 21
9.7954153081
 31
0.0
  0
LINE
  5
52C
330
1F
100
AcDbEntity
  8
SLD-0
  6
Continuous
370
    15
100
AcDbLine
 10
20.8297761371
 20
9.7954153081
 30
0.0
 11
21.2077669705
 21
9.2014152882
 31
0.0
  0
LINE
  5
52D
330
1F
100
AcDbEntity
  8
SLD-0
  6
Continuous
370
    15
100
AcDbLine
 10
24.1593350071
 20
9.1704152882
 30
0.0
 11
24.1593350071
 21
9.1487152888
 31
0.0
  0
LINE
  5
52E
330
1F
100
AcDbEntity
  8
SLD-0
  6
Continuous
370
    15
100
AcDbLine
 10
23.4956349409
 20
9.1487152888
 30
0.0
 11
23.3803351528
 21
9.1487152888
 31
0.0
  0
LINE
  5
52F
330
1F
100
AcDbEntity
  8
SLD-0
  6
Continuous
370
    15
100
AcDbLine
 10
24.1593350071
 20
9.1704152882
 30
0.0
 11
23.3803351528
 21
9.1704152882
 31
0.0
  0
ARC
  5
530
330
1F
100
AcDbEntity
  8
SLD-0
  6
Continuous
370
    15
100
AcDbCircle
 10
24.1593349932
 20
9.2014152882
 30
0.0
 40
0.0310000000000024
100
AcDbArc
 50
270.0
 51
0.0
  0
LINE
  5
531
330
1F
100
AcDbEntity
  8
SLD-0
  6
Continuous
370
    15
100
AcDbLine
 10
24.190335289
 20
9.2014152882
 30
0.0
 11
24.212034665
 21
9.2014152882
 31
0.0
  0
ARC
  5
532
330
1F
100
AcDbEntity
  8
SLD-0
  6
Continuous
370
    15
100
AcDbCircle
 10
24.1593349932
 20
9.2014152882
 30
0.0
 40
0.0527000000000015
100
AcDbArc
 50
270.0
 51
0.0
  0
LINE
  5
533
330
1F
100
AcDbEntity
  8
SLD-0
  6
Continuous
370
    15
100
AcDbLine
 10
24.190335289
 20
9.2014152882
 30
0.0
 11
24.190335289
 21
9.6704152821
 31
0.0
  0
LINE
  5
534
330
1F
100
AcDbEntity
  8
SLD-0
  6
Continuous
370
    15
100
AcDbLine
 10
21.6923351327
 20
9.1487152888
 30
0.0
 11
23.0053351115
 21
9.1487152888
 31
0.0
  0
LINE
  5
535
330
1F
100
AcDbEntity
  8
SLD-0
  6
Continuous
370
    15
100
AcDbLine
 10
21.6923351327
 20
9.1704152882
 30
0.0
 11
23.0053351115
 21
9.1704152882
 31
0.0
  0
LINE
  5
536
330
1F
100
AcDbEntity
  8
SLD-0
  6
Continuous
370
    15
100
AcDbLine
 10
5.0563349932
 20
9.1487152888
 30
0.0
 11
5.0563349932
 21
9.1704152882
 31
0.0
  0
LINE
  5
537
330
1F
100
AcDbEntity
  8
SLD-0
  6
Continuous
370
    15
100
AcDbLine
 10
6.0453427348
 20
9.1487152888
 30
0.0
 11
5.0563349932
 21
9.1487152888
 31
0.0
  0
LINE
  5
538
330
1F
100
AcDbEntity
  8
SLD-0
  6
Continuous
370
    15
100
AcDbLine
 10
6.0453427348
 20
9.1704152882
 30
0.0
 11
5.0563349932
 21
9.1704152882
 31
0.0
  0
SPLINE
  5
539
330
1F
100
AcDbEntity
  8
SLD-0
  6
Continuous
370
    15
100
AcDbSpline
210
0.0
220
0.0
230
1.0
 70
     8
 71
     3
 72
    11
 73
     7
 74
     0
 42
0.00000001
 43
0.00000001
 12
1.0
 22
0.0
 32
0.0
 13
1.0
 23
0.0
 33
0.0
 40
0.0
 40
0.0
 40
0.0
 40
0.0
 40
0.2500005326017431
 40
0.5000010769912613
 40
0.7500016176266742
 40
1.0
 40
1.0
 40
1.0
 40
1.0
 10
5.056334993230701
 20
9.148715288845596
 30
0.0
 10
5.04942934111683
 20
9.149507451560583
 30
0.0
 10
5.035618036563479
 20
9.151091777027908
 30
0.0
 10
5.018198316993225
 20
9.163278626305983
 30
0.0
 10
5.00601151931056
 20
9.18069823237012
 30
0.0
 10
5.004427165229847
 20
9.19450962277962
 30
0.0
 10
5.00363499160895
 20
9.201415288175706
 30
0.0
  0
LINE
  5
53A
330
1F
100
AcDbEntity
  8
SLD-0
  6
Continuous
370
    15
100
AcDbLine
 10
5.0036349916
 20
9.2014152882
 30
0.0
 11
5.0253349932
 21
9.2014152882
 31
0.0
  0
SPLINE
  5
53B
330
1F
100
AcDbEntity
  8
SLD-0
  6
Continuous
370
    15
100
AcDbSpline
210
0.0
220
0.0
230
1.0
 70
     8
 71
     3
 72
    11
 73
     7
 74
     0
 42
0.00000001
 43
0.00000001
 12
1.0
 22
0.0
 32
0.0
 13
1.0
 23
0.0
 33
0.0
 40
0.0
 40
0.0
 40
0.0
 40
0.0
 40
0.2500014886025586
 40
0.5000029819088875
 40
0.7500044660037094
 40
1.0
 40
1.0
 40
1.0
 40
1.0
 10
5.056334993230701
 20
9.170415288165351
 30
0.0
 10
5.052272844916737
 20
9.170881265196853
 30
0.0
 10
5.044148548212386
 20
9.171813219268623
 30
0.0
 10
5.033901653954643
 20
9.178981971230632
 30
0.0
 10
5.026732988511891
 20
9.189228681906588
 30
0.0
 10
5.025800987953843
 20
9.197353118313657
 30
0.0
 10
5.025334993220346
 20
9.201415288175706
 30
0.0
  0
LINE
  5
53C
330
1F
100
AcDbEntity
  8
SLD-0
  6
Continuous
370
    15
100
AcDbLine
 10
5.0036349916
 20
9.7954153081
 30
0.0
 11
5.0253349932
 21
9.7954153081
 31
0.0
  0
LINE
  5
53D
330
1F
100
AcDbEntity
  8
SLD-0
  6
Continuous
370
    15
100
AcDbLine
 10
5.0253349932
 20
9.3524831499
 30
0.0
 11
5.0253349932
 21
9.2014152882
 31
0.0
  0
LINE
  5
53E
330
1F
100
AcDbEntity
  8
SLD-0
  6
Continuous
370
    15
100
AcDbLine
 10
5.0036349916
 20
9.7954153081
 30
0.0
 11
5.0036349916
 21
9.2014152882
 31
0.0
  0
LINE
  5
53F
330
1F
100
AcDbEntity
  8
SLD-0
  6
Continuous
370
    15
100
AcDbLine
 10
21.2406351775
 20
8.1637152776
 30
0.0
 11
21.1862318593
 21
8.1637152776
 31
0.0
  0
LINE
  5
540
330
1F
100
AcDbEntity
  8
SLD-0
  6
Continuous
370
    15
100
AcDbLine
 10
21.2406351775
 20
9.0661152905
 30
0.0
 11
21.1862318593
 21
9.0661152905
 31
0.0
  0
LINE
  5
541
330
1F
100
AcDbEntity
  8
SLD-0
  6
Continuous
370
    15
100
AcDbLine
 10
21.7120351718
 20
9.1804977877
 30
0.0
 11
21.6923351327
 21
9.1804977877
 31
0.0
  0
LINE
  5
542
330
1F
100
AcDbEntity
  8
SLD-0
  6
Continuous
370
    15
100
AcDbLine
 10
21.2838004388
 20
9.1804977877
 30
0.0
 11
21.22772514
 21
9.1804977877
 31
0.0
  0
LINE
  5
543
330
1F
100
AcDbEntity
  8
SLD-0
  6
Continuous
370
    15
100
AcDbLine
 10
23.6440774927
 20
43.7394149841
 30
0.0
 11
23.6440774927
 21
43.7403160937
 31
0.0
  0
LINE
  5
544
330
1F
100
AcDbEntity
  8
SLD-0
  6
Continuous
370
    15
100
AcDbLine
 10
23.6347214408
 20
43.7394149841
 30
0.0
 11
23.6347214408
 21
43.7403160937
 31
0.0
  0
LINE
  5
545
330
1F
100
AcDbEntity
  8
SLD-0
  6
Continuous
370
    15
100
AcDbLine
 10
5.0920349937
 20
43.7403160937
 30
0.0
 11
5.0920349937
 21
43.7394149841
 31
0.0
  0
LINE
  5
546
330
1F
100
AcDbEntity
  8
SLD-0
  6
Continuous
370
    15
100
AcDbLine
 10
21.1999245011
 20
43.7270904332
 30
0.0
 11
21.1999245011
 21
9.2137407306
 31
0.0
  0
ENDSEC
  0
SECTION
  2
OBJECTS
  0
DICTIONARY
  5
C
330
0
100
AcDbDictionary
281
     1
  3
ACAD_GROUP
350
D
  3
ACAD_LAYOUT
350
1A
  3
ACAD_MATERIAL
350
3B
  3
ACAD_MLEADERSTYLE
350
548
  3
ACAD_MLINESTYLE
350
17
  3
ACAD_PLOTSETTINGS
350
19
  3
ACAD_PLOTSTYLENAME
350
E
  3
ACAD_TABLESTYLE
350
547
  0
DICTIONARY
  5
D
102
{ACAD_REACTORS
330
C
102
}
330
C
100
AcDbDictionary
281
     1
  0
DICTIONARY
  5
1A
102
{ACAD_REACTORS
330
C
102
}
330
C
100
AcDbDictionary
281
     1
  3
Layout1
350
1E
  3
Layout2
350
26
  3
Model
350
22
  0
DICTIONARY
  5
3B
102
{ACAD_REACTORS
330
C
102
}
330
C
100
AcDbDictionary
281
     1
  3
ByBlock
350
3D
  3
ByLayer
350
3C
  3
Global
350
3E
  0
DICTIONARY
  5
548
102
{ACAD_REACTORS
330
C
102
}
330
C
100
AcDbDictionary
281
     1
  0
DICTIONARY
  5
17
102
{ACAD_REACTORS
330
C
102
}
330
C
100
AcDbDictionary
281
     1
  3
Standard
350
18
  0
DICTIONARY
  5
19
102
{ACAD_REACTORS
330
C
102
}
330
C
100
AcDbDictionary
281
     1
  0
ACDBDICTIONARYWDFLT
  5
E
102
{ACAD_REACTORS
330
C
102
}
330
C
100
AcDbDictionary
281
     1
  3
Normal
350
F
100
AcDbDictionaryWithDefault
340
F
  0
DICTIONARY
  5
547
102
{ACAD_REACTORS
330
C
102
}
330
C
100
AcDbDictionary
281
     1
  0
LAYOUT
  5
1E
102
{ACAD_REACTORS
330
1A
102
}
330
1A
100
AcDbPlotSettings
  1

  2
none_device
  4

  6

 40
0.0
 41
0.0
 42
0.0
 43
0.0
 44
0.0
 45
0.0
 46
0.0
 47
0.0
 48
0.0
 49
0.0
140
0.0
141
0.0
142
1.0
143
1.0
 70
   688
 72
     0
 73
     0
 74
     5
  7

 75
    16
 76
     0
 77
     2
 78
   300
147
1.0
148
0.0
149
0.0
100
AcDbLayout
  1
Layout1
 70
     1
 71
     1
 10
0.0
 20
0.0
 11
12.0
 21
9.0
 12
0.0
 22
0.0
 32
0.0
 14
1.0000000000E+20
 24
1.0000000000E+20
 34
1.0000000000E+20
 15
-1.0000000000E+20
 25
-1.0000000000E+20
 35
-1.0000000000E+20
146
0.0
 13
0.0
 23
0.0
 33
0.0
 16
1.0
 26
0.0
 36
0.0
 17
0.0
 27
1.0
 37
0.0
 76
     0
330
1B
  0
LAYOUT
  5
26
102
{ACAD_REACTORS
330
1A
102
}
330
1A
100
AcDbPlotSettings
  1

  2
none_device
  4

  6

 40
0.0
 41
0.0
 42
0.0
 43
0.0
 44
0.0
 45
0.0
 46
0.0
 47
0.0
 48
0.0
 49
0.0
140
0.0
141
0.0
142
1.0
143
1.0
 70
   688
 72
     0
 73
     0
 74
     5
  7

 75
    16
 76
     0
 77
     2
 78
   300
147
1.0
148
0.0
149
0.0
100
AcDbLayout
  1
Layout2
 70
     1
 71
     2
 10
0.0
 20
0.0
 11
0.0
 21
0.0
 12
0.0
 22
0.0
 32
0.0
 14
0.0
 24
0.0
 34
0.0
 15
0.0
 25
0.0
 35
0.0
146
0.0
 13
0.0
 23
0.0
 33
0.0
 16
1.0
 26
0.0
 36
0.0
 17
0.0
 27
1.0
 37
0.0
 76
     0
330
23
  0
LAYOUT
  5
22
102
{ACAD_REACTORS
330
1A
102
}
330
1A
100
AcDbPlotSettings
  1

  2
none_device
  4

  6

 40
0.0
 41
0.0
 42
0.0
 43
0.0
 44
0.0
 45
0.0
 46
0.0
 47
0.0
 48
0.0
 49
0.0
140
0.0
141
0.0
142
1.0
143
1.0
 70
  1712
 72
     0
 73
     0
 74
     0
  7

 75
     0
 76
     0
 77
     2
 78
   300
147
1.0
148
0.0
149
0.0
100
AcDbLayout
  1
Model
 70
     1
 71
     0
 10
0.0
 20
0.0
 11
130.0
 21
90.0
 12
0.0
 22
0.0
 32
0.0
 14
0.0
 24
0.0
 34
0.0
 15
130.0
 25
90.0
 35
0.0
146
0.0
 13
0.0
 23
0.0
 33
0.0
 16
1.0
 26
0.0
 36
0.0
 17
0.0
 27
1.0
 37
0.0
 76
     0
330
1F
331
29
  0
MATERIAL
  5
3D
102
{ACAD_REACTORS
330
3B
102
}
330
3B
100
AcDbMaterial
  1
ByBlock
  0
MATERIAL
  5
3C
102
{ACAD_REACTORS
330
3B
102
}
330
3B
100
AcDbMaterial
  1
ByLayer
  0
MATERIAL
  5
3E
102
{ACAD_REACTORS
330
3B
102
}
330
3B
100
AcDbMaterial
  1
Global
  0
MLINESTYLE
  5
18
102
{ACAD_REACTORS
330
17
102
}
330
17
100
AcDbMlineStyle
  2
Standard
 70
     0
  3

 62
   256
 51
90.0
 52
90.0
 71
     2
 49
0.5
 62
   256
  6
BYLAYER
 49
-0.5
 62
   256
  6
BYLAYER
  0
ACDBPLACEHOLDER
  5
F
102
{ACAD_REACTORS
330
E
102
}
330
E
  0
ENDSEC
  0
EOF
