  0
SECTION
  2
HEADER
  9
$ACADVER
  1
AC1014
  9
$ACADMAINTVER
 70
     9
  9
$DWGCODEPAGE
  3
ANSI_1252
  9
$INSBASE
 10
0.0
 20
0.0
 30
0.0
  9
$EXTMIN
 10
1.000000000000000E+20
 20
1.000000000000000E+20
 30
1.000000000000000E+20
  9
$EXTMAX
 10
-1.000000000000000E+20
 20
-1.000000000000000E+20
 30
-1.000000000000000E+20
  9
$LIMMIN
 10
0.0
 20
0.0
  9
$LIMMAX
 10
132.0
 20
76.0
  9
$ORTHOMODE
 70
     0
  9
$REGENMODE
 70
     1
  9
$FILLMODE
 70
     1
  9
$QTEXTMODE
 70
     0
  9
$MIRRTEXT
 70
     1
  9
$DRAGMODE
 70
     2
  9
$LTSCALE
 40
1.0
  9
$OSMODE
 70
     0
  9
$ATTMODE
 70
     1
  9
$TEXTSIZE
 40
0.125
  9
$TRACEWID
 40
0.05
  9
$TEXTSTYLE
  7
STANDARD
  9
$CLAYER
  8
0
  9
$CELTYPE
  6
BYLAYER
  9
$CECOLOR
 62
   256
  9
$CELTSCALE
 40
1.0
  9
$DELOBJ
 70
     1
  9
$DISPSILH
 70
     0
  9
$DIMSCALE
 40
1.0
  9
$DIMASZ
 40
0.75
  9
$DIMEXO
 40
0.5
  9
$DIMDLI
 40
0.38
  9
$DIMRND
 40
0.0
  9
$DIMDLE
 40
0.0
  9
$DIMEXE
 40
1.0
  9
$DIMTP
 40
0.0
  9
$DIMTM
 40
0.0
  9
$DIMTXT
 40
1.0
  9
$DIMCEN
 40
0.09
  9
$DIMTSZ
 40
0.0
  9
$DIMTOL
 70
     0
  9
$DIMLIM
 70
     0
  9
$DIMTIH
 70
     1
  9
$DIMTOH
 70
     1
  9
$DIMSE1
 70
     0
  9
$DIMSE2
 70
     0
  9
$DIMTAD
 70
     0
  9
$DIMZIN
 70
    12
  9
$DIMBLK
  1

  9
$DIMASO
 70
     1
  9
$DIMSHO
 70
     1
  9
$DIMPOST
  1
"
  9
$DIMAPOST
  1

  9
$DIMALT
 70
     0
  9
$DIMALTD
 70
     2
  9
$DIMALTF
 40
25.4
  9
$DIMLFAC
 40
1.0
  9
$DIMTOFL
 70
     0
  9
$DIMTVP
 40
0.0
  9
$DIMTIX
 70
     0
  9
$DIMSOXD
 70
     0
  9
$DIMSAH
 70
     1
  9
$DIMBLK1
  1

  9
$DIMBLK2
  1

  9
$DIMSTYLE
  2
ARCH_SALES_DRAWING
  9
$DIMCLRD
 70
   256
  9
$DIMCLRE
 70
   256
  9
$DIMCLRT
 70
   256
  9
$DIMTFAC
 40
1.0
  9
$DIMGAP
 40
0.25
  9
$DIMJUST
 70
     0
  9
$DIMSD1
 70
     0
  9
$DIMSD2
 70
     0
  9
$DIMTOLJ
 70
     1
  9
$DIMTZIN
 70
    12
  9
$DIMALTZ
 70
     0
  9
$DIMALTTZ
 70
     0
  9
$DIMFIT
 70
     3
  9
$DIMUPT
 70
     0
  9
$DIMUNIT
 70
     5
  9
$DIMDEC
 70
     4
  9
$DIMTDEC
 70
     3
  9
$DIMALTU
 70
     2
  9
$DIMALTTD
 70
     2
  9
$DIMTXSTY
  7
SLDTEXTSTYLE0
  9
$DIMAUNIT
 70
     0
  9
$LUNITS
 70
     2
  9
$LUPREC
 70
     3
  9
$SKETCHINC
 40
0.1
  9
$FILLETRAD
 40
0.5
  9
$AUNITS
 70
     0
  9
$AUPREC
 70
     0
  9
$MENU
  1
.
  9
$ELEVATION
 40
0.0
  9
$PELEVATION
 40
0.0
  9
$THICKNESS
 40
0.0
  9
$LIMCHECK
 70
     0
  9
$CHAMFERA
 40
0.0
  9
$CHAMFERB
 40
0.0
  9
$CHAMFERC
 40
0.0
  9
$CHAMFERD
 40
0.0
  9
$SKPOLY
 70
     0
  9
$TDCREATE
 40
2457316.464092546
  9
$TDUPDATE
 40
2457316.481184768
  9
$TDINDWG
 40
0.0016716204
  9
$TDUSRTIMER
 40
2457316.688099491
  9
$USRTIMER
 70
     1
  9
$ANGBASE
 50
0.0
  9
$ANGDIR
 70
     0
  9
$PDMODE
 70
     0
  9
$PDSIZE
 40
-1.0
  9
$PLINEWID
 40
0.0
  9
$COORDS
 70
     1
  9
$SPLFRAME
 70
     0
  9
$SPLINETYPE
 70
     6
  9
$SPLINESEGS
 70
     8
  9
$ATTDIA
 70
     1
  9
$ATTREQ
 70
     1
  9
$HANDLING
 70
     1
  9
$HANDSEED
  5
869
  9
$SURFTAB1
 70
     6
  9
$SURFTAB2
 70
     6
  9
$SURFTYPE
 70
     6
  9
$SURFU
 70
     6
  9
$SURFV
 70
     6
  9
$UCSNAME
  2

  9
$UCSORG
 10
0.0
 20
0.0
 30
0.0
  9
$UCSXDIR
 10
1.0
 20
0.0
 30
0.0
  9
$UCSYDIR
 10
0.0
 20
1.0
 30
0.0
  9
$PUCSNAME
  2

  9
$PUCSORG
 10
0.0
 20
0.0
 30
0.0
  9
$PUCSXDIR
 10
1.0
 20
0.0
 30
0.0
  9
$PUCSYDIR
 10
0.0
 20
1.0
 30
0.0
  9
$USERI1
 70
     0
  9
$USERI2
 70
     0
  9
$USERI3
 70
     0
  9
$USERI4
 70
     0
  9
$USERI5
 70
     0
  9
$USERR1
 40
0.0
  9
$USERR2
 40
0.0
  9
$USERR3
 40
0.0
  9
$USERR4
 40
0.0
  9
$USERR5
 40
0.0
  9
$WORLDVIEW
 70
     1
  9
$SHADEDGE
 70
     3
  9
$SHADEDIF
 70
    70
  9
$TILEMODE
 70
     1
  9
$MAXACTVP
 70
    64
  9
$PINSBASE
 10
0.0
 20
0.0
 30
0.0
  9
$PLIMCHECK
 70
     0
  9
$PEXTMIN
 10
1.000000000000000E+20
 20
1.000000000000000E+20
 30
1.000000000000000E+20
  9
$PEXTMAX
 10
-1.000000000000000E+20
 20
-1.000000000000000E+20
 30
-1.000000000000000E+20
  9
$PLIMMIN
 10
0.0
 20
0.0
  9
$PLIMMAX
 10
0.0
 20
0.0
  9
$UNITMODE
 70
     0
  9
$VISRETAIN
 70
     1
  9
$PLINEGEN
 70
     0
  9
$PSLTSCALE
 70
     1
  9
$TREEDEPTH
 70
  3020
  9
$PICKSTYLE
 70
     1
  9
$CMLSTYLE
  2
STANDARD
  9
$CMLJUST
 70
     0
  9
$CMLSCALE
 40
1.0
  9
$PROXYGRAPHICS
 70
     1
  9
$MEASUREMENT
 70
     0
  0
ENDSEC
  0
SECTION
  2
CLASSES
  0
CLASS
  1
ACDBDICTIONARYWDFLT
  2
AcDbDictionaryWithDefault
  3
ObjectDBX Classes
 90
        0
280
     0
281
     0
  0
CLASS
  1
MATERIAL
  2
AcDbMaterial
  3
ObjectDBX Classes
 90
     1153
280
     0
281
     0
  0
CLASS
  1
SCALE
  2
AcDbScale
  3
ObjectDBX Classes
 90
     1153
280
     0
281
     0
  0
CLASS
  1
VISUALSTYLE
  2
AcDbVisualStyle
  3
ObjectDBX Classes
 90
     4095
280
     0
281
     0
  0
CLASS
  1
TABLESTYLE
  2
AcDbTableStyle
  3
ObjectDBX Classes
 90
     4095
280
     0
281
     0
  0
CLASS
  1
MLEADERSTYLE
  2
AcDbMLeaderStyle
  3
ACDB_MLEADERSTYLE_CLASS
 90
     4095
280
     0
281
     0
  0
CLASS
  1
SUN
  2
AcDbSun
  3
SCENEOE
 90
     1153
280
     0
281
     0
  0
CLASS
  1
RASTERVARIABLES
  2
AcDbRasterVariables
  3
ISM
 90
        0
280
     0
281
     0
  0
CLASS
  1
XRECORD
  2
AcDbXrecord
  3
ObjectDBX Classes
 90
        0
280
     0
281
     0
  0
CLASS
  1
LWPOLYLINE
  2
AcDbPolyline
  3
ObjectDBX Classes
 90
        0
280
     0
281
     1
  0
CLASS
  1
HATCH
  2
AcDbHatch
  3
ObjectDBX Classes
 90
        0
280
     0
281
     1
  0
ENDSEC
  0
SECTION
  2
TABLES
  0
TABLE
  2
VPORT
  5
766
330
0
100
AcDbSymbolTable
 70
     1
  0
VPORT
  5
77D
330
766
100
AcDbSymbolTableRecord
100
AcDbViewportTableRecord
  2
*ACTIVE
 70
     0
 10
0.0
 20
0.0
 11
1.0
 21
1.0
 12
66.0
 22
38.0
 13
0.0
 23
0.0
 14
0.5
 24
0.5
 15
0.5
 25
0.5
 16
0.0
 26
0.0
 36
1.0
 17
0.0
 27
0.0
 37
0.0
 40
76.0
 41
1.7368421053
 42
50.0
 43
0.0
 44
0.0
 50
0.0
 51
0.0
 71
     0
 72
  2000
 73
     1
 74
     3
 75
     0
 76
     0
 77
     0
 78
     0
  0
ENDTAB
  0
TABLE
  2
LTYPE
  5
763
330
0
100
AcDbSymbolTable
 70
     8
  0
LTYPE
  5
771
330
763
100
AcDbSymbolTableRecord
100
AcDbLinetypeTableRecord
  2
BYBLOCK
 70
     0
  3

 72
    65
 73
     0
 40
0.0
  0
LTYPE
  5
772
330
763
100
AcDbSymbolTableRecord
100
AcDbLinetypeTableRecord
  2
BYLAYER
 70
     0
  3

 72
    65
 73
     0
 40
0.0
  0
LTYPE
  5
773
330
763
100
AcDbSymbolTableRecord
100
AcDbLinetypeTableRecord
  2
CONTINUOUS
 70
     0
  3
Solid line
 72
    65
 73
     0
 40
0.0
  0
LTYPE
  5
77F
330
763
100
AcDbSymbolTableRecord
100
AcDbLinetypeTableRecord
  2
SLD-SOLID
 70
     0
  3
SolidWorks Line Style
 72
    65
 73
     0
 40
0.0
  0
LTYPE
  5
780
330
763
100
AcDbSymbolTableRecord
100
AcDbLinetypeTableRecord
  2
SLD-DASHED
 70
     0
  3
SolidWorks Line Style
 72
    65
 73
     2
 40
0.075
 49
0.05
 74
     0
 49
-0.025
 74
     0
  0
LTYPE
  5
781
330
763
100
AcDbSymbolTableRecord
100
AcDbLinetypeTableRecord
  2
SLD-PHANTOM
 70
     0
  3
SolidWorks Line Style
 72
    65
 73
     6
 40
0.5
 49
0.25
 74
     0
 49
-0.05
 74
     0
 49
0.05
 74
     0
 49
-0.05
 74
     0
 49
0.05
 74
     0
 49
-0.05
 74
     0
  0
LTYPE
  5
782
330
763
100
AcDbSymbolTableRecord
100
AcDbLinetypeTableRecord
  2
SLD-CHAIN
 70
     0
  3
SolidWorks Line Style
 72
    65
 73
     4
 40
0.4
 49
0.25
 74
     0
 49
-0.05
 74
     0
 49
0.05
 74
     0
 49
-0.05
 74
     0
  0
LTYPE
  5
783
330
763
100
AcDbSymbolTableRecord
100
AcDbLinetypeTableRecord
  2
SLD-CENTER
 70
     0
  3
SolidWorks Line Style
 72
    65
 73
     4
 40
0.75
 49
0.6
 74
     0
 49
-0.05
 74
     0
 49
0.05
 74
     0
 49
-0.05
 74
     0
  0
LTYPE
  5
784
330
763
100
AcDbSymbolTableRecord
100
AcDbLinetypeTableRecord
  2
SLD-STITCH
 70
     0
  3
SolidWorks Line Style
 72
    65
 73
     2
 40
0.025
 49
0.0
 74
     0
 49
-0.025
 74
     0
  0
LTYPE
  5
785
330
763
100
AcDbSymbolTableRecord
100
AcDbLinetypeTableRecord
  2
SLD-THIN-THICK-CHAIN
 70
     0
  3
SolidWorks Line Style
 72
    65
 73
     4
 40
0.4
 49
0.25
 74
     0
 49
-0.05
 74
     0
 49
0.05
 74
     0
 49
-0.05
 74
     0
  0
ENDTAB
  0
TABLE
  2
LAYER
  5
760
102
{ACAD_XDICTIONARY
360
846
102
}
330
0
100
AcDbSymbolTable
 70
     5
  0
LAYER
  5
76E
330
760
100
AcDbSymbolTableRecord
100
AcDbLayerTableRecord
  2
0
 70
     0
 62
     7
  6
CONTINUOUS
  0
LAYER
  5
78B
330
760
100
AcDbSymbolTableRecord
100
AcDbLayerTableRecord
  2
SLD-0
 70
     0
 62
     7
  6
SLD-SOLID
  0
LAYER
  5
78C
330
760
100
AcDbSymbolTableRecord
100
AcDbLayerTableRecord
  2
NOTES
 70
     0
 62
     1
  6
SLD-SOLID
  0
LAYER
  5
78D
330
760
100
AcDbSymbolTableRecord
100
AcDbLayerTableRecord
  2
DIM
 70
     0
 62
     3
  6
SLD-SOLID
  0
LAYER
  5
7F1
330
760
100
AcDbSymbolTableRecord
100
AcDbLayerTableRecord
  2
DEFPOINTS
 70
     0
 62
     7
  6
CONTINUOUS
  0
ENDTAB
  0
TABLE
  2
STYLE
  5
761
330
0
100
AcDbSymbolTable
 70
     2
  0
STYLE
  5
76F
330
761
100
AcDbSymbolTableRecord
100
AcDbTextStyleTableRecord
  2
STANDARD
 70
     0
 40
0.0
 41
1.0
 50
0.0
 71
     0
 42
0.125
  3
txt
  4

  0
STYLE
  5
7F7
330
761
100
AcDbSymbolTableRecord
100
AcDbTextStyleTableRecord
  2
SLDTEXTSTYLE0
 70
     0
 40
0.0
 41
0.75
 50
0.0
 71
     0
 42
0.125
  3
TXT
  4

  0
ENDTAB
  0
TABLE
  2
VIEW
  5
764
330
0
100
AcDbSymbolTable
 70
     0
  0
ENDTAB
  0
TABLE
  2
UCS
  5
765
330
0
100
AcDbSymbolTable
 70
     0
  0
ENDTAB
  0
TABLE
  2
APPID
  5
767
330
0
100
AcDbSymbolTable
 70
     1
  0
APPID
  5
770
330
767
100
AcDbSymbolTableRecord
100
AcDbRegAppTableRecord
  2
ACAD
 70
     0
  0
ENDTAB
  0
TABLE
  2
DIMSTYLE
  5
768
330
0
100
AcDbSymbolTable
 70
     5
  0
DIMSTYLE
105
790
330
768
100
AcDbSymbolTableRecord
100
AcDbDimStyleTableRecord
  2
STANDARD
 70
     0
  3

  4

  5

  6

  7

 40
1.0
 41
0.18
 42
0.0625
 43
0.38
 44
0.18
 45
0.0
 46
0.0
 47
0.0
 48
0.0
140
0.18
141
0.09
142
0.0
143
25.4
144
1.0
145
0.0
146
1.0
147
0.09
 71
     0
 72
     0
 73
     1
 74
     1
 75
     0
 76
     0
 77
     0
 78
     0
170
     0
171
     2
172
     0
173
     0
174
     0
175
     0
176
     0
177
     0
178
     0
270
     2
271
     4
272
     4
273
     2
274
     2
340
76F
275
     0
280
     0
281
     0
282
     0
283
     1
284
     0
285
     0
286
     0
287
     3
288
     0
  0
DIMSTYLE
105
791
330
768
100
AcDbSymbolTableRecord
100
AcDbDimStyleTableRecord
  2
SLDDIMSTYLE0
 70
     0
  3

  4

  5

  6

  7

 40
1.0
 41
1.25
 42
0.0625
 43
0.38
 44
0.0
 45
0.000000001
 46
0.0
 47
0.0
 48
0.0
140
1.25
141
0.09
142
0.0
143
25.4
144
1.0
145
0.0
146
1.0
147
0.3125
 71
     0
 72
     0
 73
     1
 74
     1
 75
     0
 76
     0
 77
     0
 78
    12
170
     0
171
     2
172
     0
173
     1
174
     0
175
     0
176
     0
177
     0
178
     0
270
     2
271
     4
272
     4
273
     2
274
     2
340
76F
275
     0
280
     0
281
     0
282
     0
283
     1
284
     0
285
     0
286
     0
287
     3
288
     0
  0
DIMSTYLE
105
792
330
768
100
AcDbSymbolTableRecord
100
AcDbDimStyleTableRecord
  2
SLDDIMSTYLE1
 70
     0
  3

  4

  5

  6

  7

 40
1.0
 41
1.25
 42
0.0625
 43
0.38
 44
0.0
 45
0.000000001
 46
0.0
 47
0.0
 48
0.0
140
1.25
141
0.09
142
0.0
143
25.4
144
1.0
145
0.0
146
1.0
147
0.3125
 71
     0
 72
     0
 73
     1
 74
     1
 75
     0
 76
     0
 77
     0
 78
    12
170
     0
171
     2
172
     1
173
     1
174
     0
175
     0
176
     0
177
     0
178
     0
270
     2
271
     4
272
     4
273
     2
274
     2
340
76F
275
     0
280
     0
281
     0
282
     0
283
     1
284
     0
285
     0
286
     0
287
     3
288
     0
  0
DIMSTYLE
105
793
330
768
100
AcDbSymbolTableRecord
100
AcDbDimStyleTableRecord
  2
SLDDIMSTYLE2
 70
     0
  3

  4

  5

  6

  7

 40
1.0
 41
1.25
 42
0.0625
 43
0.38
 44
0.0
 45
0.000000001
 46
0.0
 47
0.0
 48
0.0
140
1.25
141
0.09
142
0.0
143
25.4
144
1.0
145
0.0
146
1.0
147
0.3125
 71
     0
 72
     0
 73
     1
 74
     1
 75
     0
 76
     0
 77
     0
 78
    12
170
     0
171
     2
172
     0
173
     1
174
     0
175
     0
176
     0
177
     0
178
     0
270
     2
271
     4
272
     4
273
     2
274
     2
340
76F
275
     0
280
     0
281
     0
282
     0
283
     1
284
     0
285
     0
286
     0
287
     3
288
     0
  0
DIMSTYLE
105
7F6
102
{ACAD_REACTORS
330
838
102
}
330
768
100
AcDbSymbolTableRecord
100
AcDbDimStyleTableRecord
  2
ARCH_SALES_DRAWING
 70
     0
  3
"
  4

  5

  6

  7

 40
1.0
 41
0.75
 42
0.5
 43
0.38
 44
1.0
 45
0.0
 46
0.0
 47
0.0
 48
0.0
140
1.0
141
0.09
142
0.0
143
25.4
144
1.0
145
0.0
146
1.0
147
0.25
 71
     0
 72
     0
 73
     1
 74
     1
 75
     0
 76
     0
 77
     0
 78
    12
170
     0
171
     2
172
     0
173
     1
174
     0
175
     0
176
   256
177
   256
178
   256
270
     5
271
     4
272
     3
273
     2
274
     2
340
7F7
275
     0
280
     0
281
     0
282
     0
283
     1
284
    12
285
     0
286
     0
287
     3
288
     0
  0
ENDTAB
  0
TABLE
  2
BLOCK_RECORD
  5
75F
330
0
100
AcDbSymbolTable
 70
    15
  0
BLOCK_RECORD
  5
77A
330
75F
100
AcDbSymbolTableRecord
100
AcDbBlockTableRecord
  2
*MODEL_SPACE
  0
BLOCK_RECORD
  5
778
330
75F
100
AcDbSymbolTableRecord
100
AcDbBlockTableRecord
  2
*PAPER_SPACE
  0
BLOCK_RECORD
  5
797
330
75F
100
AcDbSymbolTableRecord
100
AcDbBlockTableRecord
  2
SW_NOTE_0
  0
BLOCK_RECORD
  5
799
330
75F
100
AcDbSymbolTableRecord
100
AcDbBlockTableRecord
  2
_D
  0
BLOCK_RECORD
  5
79B
330
75F
100
AcDbSymbolTableRecord
100
AcDbBlockTableRecord
  2
_D_1
  0
BLOCK_RECORD
  5
79D
330
75F
100
AcDbSymbolTableRecord
100
AcDbBlockTableRecord
  2
_D_2
  0
BLOCK_RECORD
  5
79F
330
75F
100
AcDbSymbolTableRecord
100
AcDbBlockTableRecord
  2
_D_3
  0
BLOCK_RECORD
  5
7A1
330
75F
100
AcDbSymbolTableRecord
100
AcDbBlockTableRecord
  2
_D_4
  0
BLOCK_RECORD
  5
7A3
330
75F
100
AcDbSymbolTableRecord
100
AcDbBlockTableRecord
  2
_D_5
  0
BLOCK_RECORD
  5
7A5
330
75F
100
AcDbSymbolTableRecord
100
AcDbBlockTableRecord
  2
_D_6
  0
BLOCK_RECORD
  5
7A7
330
75F
100
AcDbSymbolTableRecord
100
AcDbBlockTableRecord
  2
_D_7
  0
BLOCK_RECORD
  5
7A9
330
75F
100
AcDbSymbolTableRecord
100
AcDbBlockTableRecord
  2
_D_8
  0
BLOCK_RECORD
  5
7AB
330
75F
100
AcDbSymbolTableRecord
100
AcDbBlockTableRecord
  2
_D_9
  0
BLOCK_RECORD
  5
7AD
330
75F
100
AcDbSymbolTableRecord
100
AcDbBlockTableRecord
  2
_D_10
  0
BLOCK_RECORD
  5
7F0
330
75F
100
AcDbSymbolTableRecord
100
AcDbBlockTableRecord
  2
DIMBLOCK
  0
BLOCK_RECORD
  5
839
330
75F
100
AcDbSymbolTableRecord
100
AcDbBlockTableRecord
  2
*D13
  0
BLOCK_RECORD
  5
853
330
75F
100
AcDbSymbolTableRecord
100
AcDbBlockTableRecord
  2
*D14
  0
ENDTAB
  0
ENDSEC
  0
SECTION
  2
BLOCKS
  0
BLOCK
  5
794
330
77A
100
AcDbEntity
  8
0
100
AcDbBlockBegin
  2
*MODEL_SPACE
 70
     0
 10
0.0
 20
0.0
 30
0.0
  3
*MODEL_SPACE
  1

  0
ENDBLK
  5
21
330
77A
100
AcDbEntity
  8
0
100
AcDbBlockEnd
  0
BLOCK
  5
795
330
778
100
AcDbEntity
 67
     1
  8
0
100
AcDbBlockBegin
  2
*PAPER_SPACE
 70
     0
 10
0.0
 20
0.0
 30
0.0
  3
*PAPER_SPACE
  1

  0
ENDBLK
  5
1D
330
778
100
AcDbEntity
 67
     1
  8
0
100
AcDbBlockEnd
  0
BLOCK
  5
796
330
797
100
AcDbEntity
  8
0
100
AcDbBlockBegin
  2
SW_NOTE_0
 70
     0
 10
0.0
 20
0.0
 30
0.0
  3
SW_NOTE_0
  1
SW_NOTE_0
  0
TEXT
  5
77
330
797
100
AcDbEntity
  8
NOTES
 62
     0
100
AcDbText
 10
0.0
 20
1.0
 30
0.0
 40
2.0
  1
VFSL30FP70(10)N-1
 41
0.7
 11
0.0
 21
0.0
 31
0.0
100
AcDbText
 73
     1
  0
TEXT
  5
78
330
797
100
AcDbEntity
  8
NOTES
 62
     0
100
AcDbText
 10
0.0
 20
-1.5861111917
 30
0.0
 40
2.0
  1
VFSL30FP70(10)P-1
 41
0.7
 11
0.0
 21
-2.5861111917
 31
0.0
100
AcDbText
 73
     1
  0
ENDBLK
  5
76
330
797
100
AcDbEntity
  8
0
100
AcDbBlockEnd
  0
BLOCK
  5
798
330
799
100
AcDbEntity
  8
0
100
AcDbBlockBegin
  2
_D
 70
     0
 10
0.0
 20
0.0
 30
0.0
  3
_D
  1
_D
  0
LINE
  5
26C
330
799
100
AcDbEntity
  8
DIM
100
AcDbLine
 10
38.9699847802
 20
20.7431439707
 30
0.0
 11
38.9699847802
 21
14.514745176
 31
0.0
  0
LINE
  5
26D
330
799
100
AcDbEntity
  8
DIM
100
AcDbLine
 10
69.1709847802
 20
20.7431439707
 30
0.0
 11
69.1709847802
 21
14.514745176
 31
0.0
  0
LINE
  5
26E
330
799
100
AcDbEntity
  8
DIM
100
AcDbLine
 10
39.7199847802
 20
15.514745176
 30
0.0
 11
51.96631811353333
 21
15.514745176
 31
0.0
  0
LINE
  5
26F
330
799
100
AcDbEntity
  8
DIM
100
AcDbLine
 10
68.4209847802
 20
15.514745176
 30
0.0
 11
56.17465144686666
 21
15.514745176
 31
0.0
  0
SOLID
  5
270
330
799
100
AcDbEntity
  8
DIM
100
AcDbTrace
 10
39.7199847802
 20
15.639745176
 30
0.0
 11
39.7199847802
 21
15.389745176
 31
0.0
 12
38.9699847802
 22
15.514745176
 32
0.0
 13
38.9699847802
 23
15.514745176
 33
0.0
  0
SOLID
  5
271
330
799
100
AcDbEntity
  8
DIM
100
AcDbTrace
 10
68.4209847802
 20
15.389745176
 30
0.0
 11
68.4209847802
 21
15.639745176
 31
0.0
 12
69.1709847802
 22
15.514745176
 32
0.0
 13
69.1709847802
 23
15.514745176
 33
0.0
  0
MTEXT
  5
272
330
799
100
AcDbEntity
  8
DIM
100
AcDbMText
 10
54.0704847802
 20
15.514745176
 30
0.0
 40
1.0
 41
0.0
 71
     5
 72
     1
  1
\A1;30{\H1.000000x;\S3#16;}"
  7
SLDTEXTSTYLE0
  0
POINT
  5
273
330
799
100
AcDbEntity
  8
DEFPOINTS
 62
     0
100
AcDbPoint
 10
38.9699847802
 20
21.2431439707
 30
0.0
  0
POINT
  5
274
330
799
100
AcDbEntity
  8
DEFPOINTS
 62
     0
100
AcDbPoint
 10
69.1709847802
 20
21.2431439707
 30
0.0
  0
POINT
  5
275
330
799
100
AcDbEntity
  8
DEFPOINTS
 62
     0
100
AcDbPoint
 10
69.1709847802
 20
15.514745176
 30
0.0
  0
ENDBLK
  5
26B
330
799
100
AcDbEntity
  8
0
100
AcDbBlockEnd
  0
BLOCK
  5
79A
330
79B
100
AcDbEntity
  8
0
100
AcDbBlockBegin
  2
_D_1
 70
     0
 10
0.0
 20
0.0
 30
0.0
  3
_D_1
  1
_D_1
  0
LINE
  5
27C
330
79B
100
AcDbEntity
  8
DIM
100
AcDbLine
 10
38.6642347802
 20
19.6116689268
 30
0.0
 11
33.0880950164
 21
19.6116689268
 31
0.0
  0
LINE
  5
27D
330
79B
100
AcDbEntity
  8
DIM
100
AcDbLine
 10
39.3829847802
 20
23.6965439268
 30
0.0
 11
33.0880950164
 21
23.6965439268
 31
0.0
  0
LINE
  5
27E
330
79B
100
AcDbEntity
  8
DIM
100
AcDbLine
 10
34.0880950164
 20
20.3616689268
 30
0.0
 11
34.0880950164
 21
20.4041064268
 31
0.0
  0
LINE
  5
27F
330
79B
100
AcDbEntity
  8
DIM
100
AcDbLine
 10
34.0880950164
 20
22.9465439268
 30
0.0
 11
34.0880950164
 21
22.9041064268
 31
0.0
  0
SOLID
  5
280
330
79B
100
AcDbEntity
  8
DIM
100
AcDbTrace
 10
33.9630950164
 20
20.3616689268
 30
0.0
 11
34.2130950164
 21
20.3616689268
 31
0.0
 12
34.0880950164
 22
19.6116689268
 32
0.0
 13
34.0880950164
 23
19.6116689268
 33
0.0
  0
SOLID
  5
281
330
79B
100
AcDbEntity
  8
DIM
100
AcDbTrace
 10
34.2130950164
 20
22.9465439268
 30
0.0
 11
33.9630950164
 21
22.9465439268
 31
0.0
 12
34.0880950164
 22
23.6965439268
 32
0.0
 13
34.0880950164
 23
23.6965439268
 33
0.0
  0
MTEXT
  5
282
330
79B
100
AcDbEntity
  8
DIM
100
AcDbMText
 10
34.0880950164
 20
21.6541064268
 30
0.0
 40
1.0
 41
0.0
 71
     5
 72
     1
  1
\A1;4{\H1.000000x;\S1#16;}"
  7
SLDTEXTSTYLE0
  0
POINT
  5
283
330
79B
100
AcDbEntity
  8
DEFPOINTS
 62
     0
100
AcDbPoint
 10
39.1642347802
 20
19.6116689268
 30
0.0
  0
POINT
  5
284
330
79B
100
AcDbEntity
  8
DEFPOINTS
 62
     0
100
AcDbPoint
 10
39.8829847802
 20
23.6965439268
 30
0.0
  0
POINT
  5
285
330
79B
100
AcDbEntity
  8
DEFPOINTS
 62
     0
100
AcDbPoint
 10
34.0880950164
 20
23.6965439268
 30
0.0
  0
ENDBLK
  5
27B
330
79B
100
AcDbEntity
  8
0
100
AcDbBlockEnd
  0
BLOCK
  5
79C
330
79D
100
AcDbEntity
  8
0
100
AcDbBlockBegin
  2
_D_2
 70
     0
 10
0.0
 20
0.0
 30
0.0
  3
_D_2
  1
_D_2
  0
LINE
  5
28B
330
79D
100
AcDbEntity
  8
DIM
100
AcDbLine
 10
39.3829847802
 20
23.6965439268
 30
0.0
 11
33.0880950164
 21
23.6965439268
 31
0.0
  0
LINE
  5
28C
330
79D
100
AcDbEntity
  8
DIM
100
AcDbLine
 10
39.3829847802
 20
35.4465439268
 30
0.0
 11
33.0880950164
 21
35.4465439268
 31
0.0
  0
LINE
  5
28D
330
79D
100
AcDbEntity
  8
DIM
100
AcDbLine
 10
34.0880950164
 20
24.4465439268
 30
0.0
 11
34.0880950164
 21
28.3215439268
 31
0.0
  0
LINE
  5
28E
330
79D
100
AcDbEntity
  8
DIM
100
AcDbLine
 10
34.0880950164
 20
34.6965439268
 30
0.0
 11
34.0880950164
 21
30.8215439268
 31
0.0
  0
SOLID
  5
28F
330
79D
100
AcDbEntity
  8
DIM
100
AcDbTrace
 10
33.9630950164
 20
24.4465439268
 30
0.0
 11
34.2130950164
 21
24.4465439268
 31
0.0
 12
34.0880950164
 22
23.6965439268
 32
0.0
 13
34.0880950164
 23
23.6965439268
 33
0.0
  0
SOLID
  5
290
330
79D
100
AcDbEntity
  8
DIM
100
AcDbTrace
 10
34.2130950164
 20
34.6965439268
 30
0.0
 11
33.9630950164
 21
34.6965439268
 31
0.0
 12
34.0880950164
 22
35.4465439268
 32
0.0
 13
34.0880950164
 23
35.4465439268
 33
0.0
  0
MTEXT
  5
291
330
79D
100
AcDbEntity
  8
DIM
100
AcDbMText
 10
34.0880950164
 20
29.5715439268
 30
0.0
 40
1.0
 41
0.0
 71
     5
 72
     1
  1
\A1;11{\H1.000000x;\S3#4;}"
  7
SLDTEXTSTYLE0
  0
POINT
  5
292
330
79D
100
AcDbEntity
  8
DEFPOINTS
 62
     0
100
AcDbPoint
 10
39.8829847802
 20
23.6965439268
 30
0.0
  0
POINT
  5
293
330
79D
100
AcDbEntity
  8
DEFPOINTS
 62
     0
100
AcDbPoint
 10
39.8829847802
 20
35.4465439268
 30
0.0
  0
POINT
  5
294
330
79D
100
AcDbEntity
  8
DEFPOINTS
 62
     0
100
AcDbPoint
 10
34.0880950164
 20
35.4465439268
 30
0.0
  0
ENDBLK
  5
28A
330
79D
100
AcDbEntity
  8
0
100
AcDbBlockEnd
  0
BLOCK
  5
79E
330
79F
100
AcDbEntity
  8
0
100
AcDbBlockBegin
  2
_D_3
 70
     0
 10
0.0
 20
0.0
 30
0.0
  3
_D_3
  1
_D_3
  0
LINE
  5
29A
330
79F
100
AcDbEntity
  8
DIM
100
AcDbLine
 10
56.0314847802
 20
49.4841689268
 30
0.0
 11
76.307643743
 21
49.4841689268
 31
0.0
  0
LINE
  5
29B
330
79F
100
AcDbEntity
  8
DIM
100
AcDbLine
 10
69.4767347802
 20
19.6116689268
 30
0.0
 11
76.307643743
 21
19.6116689268
 31
0.0
  0
LINE
  5
29C
330
79F
100
AcDbEntity
  8
DIM
100
AcDbLine
 10
75.307643743
 20
48.7341689268
 30
0.0
 11
75.307643743
 21
35.7979189268
 31
0.0
  0
LINE
  5
29D
330
79F
100
AcDbEntity
  8
DIM
100
AcDbLine
 10
75.307643743
 20
20.3616689268
 30
0.0
 11
75.307643743
 21
33.2979189268
 31
0.0
  0
SOLID
  5
29E
330
79F
100
AcDbEntity
  8
DIM
100
AcDbTrace
 10
75.432643743
 20
48.7341689268
 30
0.0
 11
75.182643743
 21
48.7341689268
 31
0.0
 12
75.307643743
 22
49.4841689268
 32
0.0
 13
75.307643743
 23
49.4841689268
 33
0.0
  0
SOLID
  5
29F
330
79F
100
AcDbEntity
  8
DIM
100
AcDbTrace
 10
75.182643743
 20
20.3616689268
 30
0.0
 11
75.432643743
 21
20.3616689268
 31
0.0
 12
75.307643743
 22
19.6116689268
 32
0.0
 13
75.307643743
 23
19.6116689268
 33
0.0
  0
MTEXT
  5
2A0
330
79F
100
AcDbEntity
  8
DIM
100
AcDbMText
 10
75.307643743
 20
34.5479189268
 30
0.0
 40
1.0
 41
0.0
 71
     5
 72
     1
  1
\A1;29{\H1.000000x;\S7#8;}"
  7
SLDTEXTSTYLE0
  0
POINT
  5
2A1
330
79F
100
AcDbEntity
  8
DEFPOINTS
 62
     0
100
AcDbPoint
 10
55.5314847802
 20
49.4841689268
 30
0.0
  0
POINT
  5
2A2
330
79F
100
AcDbEntity
  8
DEFPOINTS
 62
     0
100
AcDbPoint
 10
68.9767347802
 20
19.6116689268
 30
0.0
  0
POINT
  5
2A3
330
79F
100
AcDbEntity
  8
DEFPOINTS
 62
     0
100
AcDbPoint
 10
75.307643743
 20
19.6116689268
 30
0.0
  0
ENDBLK
  5
299
330
79F
100
AcDbEntity
  8
0
100
AcDbBlockEnd
  0
BLOCK
  5
7A0
330
7A1
100
AcDbEntity
  8
0
100
AcDbBlockBegin
  2
_D_4
 70
     0
 10
0.0
 20
0.0
 30
0.0
  3
_D_4
  1
_D_4
  0
LINE
  5
2A9
330
7A1
100
AcDbEntity
  8
DIM
100
AcDbLine
 10
68.2423597802
 20
34.9465439268
 30
0.0
 11
68.2423597802
 21
28.5715439268
 31
0.0
  0
LINE
  5
2AA
330
7A1
100
AcDbEntity
  8
DIM
100
AcDbLine
 10
39.8986097802
 20
34.9465439268
 30
0.0
 11
39.8986097802
 21
28.5715439268
 31
0.0
  0
LINE
  5
2AB
330
7A1
100
AcDbEntity
  8
DIM
100
AcDbLine
 10
67.4923597802
 20
29.5715439268
 30
0.0
 11
55.98715144686666
 21
29.5715439268
 31
0.0
  0
LINE
  5
2AC
330
7A1
100
AcDbEntity
  8
DIM
100
AcDbLine
 10
40.6486097802
 20
29.5715439268
 30
0.0
 11
52.15381811353333
 21
29.5715439268
 31
0.0
  0
SOLID
  5
2AD
330
7A1
100
AcDbEntity
  8
DIM
100
AcDbTrace
 10
67.4923597802
 20
29.4465439268
 30
0.0
 11
67.4923597802
 21
29.6965439268
 31
0.0
 12
68.2423597802
 22
29.5715439268
 32
0.0
 13
68.2423597802
 23
29.5715439268
 33
0.0
  0
SOLID
  5
2AE
330
7A1
100
AcDbEntity
  8
DIM
100
AcDbTrace
 10
40.6486097802
 20
29.6965439268
 30
0.0
 11
40.6486097802
 21
29.4465439268
 31
0.0
 12
39.8986097802
 22
29.5715439268
 32
0.0
 13
39.8986097802
 23
29.5715439268
 33
0.0
  0
MTEXT
  5
2AF
330
7A1
100
AcDbEntity
  8
DIM
100
AcDbMText
 10
54.0704847802
 20
29.5715439268
 30
0.0
 40
1.0
 41
0.0
 71
     5
 72
     1
  1
\A1;28{\H1.000000x;\S3#8;}"
  7
SLDTEXTSTYLE0
  0
POINT
  5
2B0
330
7A1
100
AcDbEntity
  8
DEFPOINTS
 62
     0
100
AcDbPoint
 10
68.2423597802
 20
35.4465439268
 30
0.0
  0
POINT
  5
2B1
330
7A1
100
AcDbEntity
  8
DEFPOINTS
 62
     0
100
AcDbPoint
 10
39.8986097802
 20
35.4465439268
 30
0.0
  0
POINT
  5
860
330
7A1
100
AcDbEntity
  8
DEFPOINTS
 62
     0
100
AcDbPoint
 10
39.8986097802
 20
29.5715439268
 30
0.0
  0
ENDBLK
  5
2A8
330
7A1
100
AcDbEntity
  8
0
100
AcDbBlockEnd
  0
BLOCK
  5
7A2
330
7A3
100
AcDbEntity
  8
0
100
AcDbBlockBegin
  2
_D_5
 70
     0
 10
0.0
 20
0.0
 30
0.0
  3
_D_5
  1
_D_5
  0
LINE
  5
3A2
330
7A3
100
AcDbEntity
  8
DIM
100
AcDbLine
 10
99.1892090014
 20
37.5001689268
 30
0.0
 11
105.8842822777
 21
37.5001689268
 31
0.0
  0
LINE
  5
3A3
330
7A3
100
AcDbEntity
  8
DIM
100
AcDbLine
 10
99.1892090014
 20
19.6116689268
 30
0.0
 11
105.8842822777
 21
19.6116689268
 31
0.0
  0
LINE
  5
3A4
330
7A3
100
AcDbEntity
  8
DIM
100
AcDbLine
 10
104.8842822777
 20
36.7501689268
 30
0.0
 11
104.8842822777
 21
29.8059189268
 31
0.0
  0
LINE
  5
3A5
330
7A3
100
AcDbEntity
  8
DIM
100
AcDbLine
 10
104.8842822777
 20
20.3616689268
 30
0.0
 11
104.8842822777
 21
27.3059189268
 31
0.0
  0
SOLID
  5
3A6
330
7A3
100
AcDbEntity
  8
DIM
100
AcDbTrace
 10
105.0092822777
 20
36.7501689268
 30
0.0
 11
104.7592822777
 21
36.7501689268
 31
0.0
 12
104.8842822777
 22
37.5001689268
 32
0.0
 13
104.8842822777
 23
37.5001689268
 33
0.0
  0
SOLID
  5
3A7
330
7A3
100
AcDbEntity
  8
DIM
100
AcDbTrace
 10
104.7592822777
 20
20.3616689268
 30
0.0
 11
105.0092822777
 21
20.3616689268
 31
0.0
 12
104.8842822777
 22
19.6116689268
 32
0.0
 13
104.8842822777
 23
19.6116689268
 33
0.0
  0
MTEXT
  5
3A8
330
7A3
100
AcDbEntity
  8
DIM
100
AcDbMText
 10
104.8842822777
 20
28.5559189268
 30
0.0
 40
1.0
 41
0.0
 71
     5
 72
     1
  1
\A1;17{\H1.000000x;\S7#8;}"
  7
SLDTEXTSTYLE0
  0
POINT
  5
3A9
330
7A3
100
AcDbEntity
  8
DEFPOINTS
 62
     0
100
AcDbPoint
 10
98.6892090014
 20
37.5001689268
 30
0.0
  0
POINT
  5
3AA
330
7A3
100
AcDbEntity
  8
DEFPOINTS
 62
     0
100
AcDbPoint
 10
98.6892090014
 20
19.6116689268
 30
0.0
  0
POINT
  5
3AB
330
7A3
100
AcDbEntity
  8
DEFPOINTS
 62
     0
100
AcDbPoint
 10
104.8842822777
 20
19.6116689268
 30
0.0
  0
ENDBLK
  5
3A1
330
7A3
100
AcDbEntity
  8
0
100
AcDbBlockEnd
  0
BLOCK
  5
7A4
330
7A5
100
AcDbEntity
  8
0
100
AcDbBlockBegin
  2
_D_6
 70
     0
 10
0.0
 20
0.0
 30
0.0
  3
_D_6
  1
_D_6
  0
LINE
  5
3B1
330
7A5
100
AcDbEntity
  8
DIM
100
AcDbLine
 10
94.6657090014
 20
48.7341689268
 30
0.0
 11
98.2733801132
 21
48.7341689268
 31
0.0
  0
LINE
  5
3B2
330
7A5
100
AcDbEntity
  8
DIM
100
AcDbLine
 10
98.1892090014
 20
37.5001689268
 30
0.0
 11
96.2733801132
 21
37.5001689268
 31
0.0
  0
LINE
  5
3B3
330
7A5
100
AcDbEntity
  8
DIM
100
AcDbLine
 10
97.2733801132
 20
47.9841689268
 30
0.0
 11
97.2733801132
 21
44.3671689268
 31
0.0
  0
LINE
  5
3B4
330
7A5
100
AcDbEntity
  8
DIM
100
AcDbLine
 10
97.2733801132
 20
38.2501689268
 30
0.0
 11
97.2733801132
 21
41.8671689268
 31
0.0
  0
SOLID
  5
3B5
330
7A5
100
AcDbEntity
  8
DIM
100
AcDbTrace
 10
97.3983801132
 20
47.9841689268
 30
0.0
 11
97.1483801132
 21
47.9841689268
 31
0.0
 12
97.2733801132
 22
48.7341689268
 32
0.0
 13
97.2733801132
 23
48.7341689268
 33
0.0
  0
SOLID
  5
3B6
330
7A5
100
AcDbEntity
  8
DIM
100
AcDbTrace
 10
97.1483801132
 20
38.2501689268
 30
0.0
 11
97.3983801132
 21
38.2501689268
 31
0.0
 12
97.2733801132
 22
37.5001689268
 32
0.0
 13
97.2733801132
 23
37.5001689268
 33
0.0
  0
MTEXT
  5
3B7
330
7A5
100
AcDbEntity
  8
DIM
100
AcDbMText
 10
97.2733801132
 20
43.1171689268
 30
0.0
 40
1.0
 41
0.0
 71
     5
 72
     1
  1
\A1;11{\H1.000000x;\S1#4;}"
  7
SLDTEXTSTYLE0
  0
POINT
  5
3B8
330
7A5
100
AcDbEntity
  8
DEFPOINTS
 62
     0
100
AcDbPoint
 10
94.1657090014
 20
48.7341689268
 30
0.0
  0
POINT
  5
3B9
330
7A5
100
AcDbEntity
  8
DEFPOINTS
 62
     0
100
AcDbPoint
 10
98.6892090014
 20
37.5001689268
 30
0.0
  0
POINT
  5
3BA
330
7A5
100
AcDbEntity
  8
DEFPOINTS
 62
     0
100
AcDbPoint
 10
97.2733801132
 20
37.5001689268
 30
0.0
  0
ENDBLK
  5
3B0
330
7A5
100
AcDbEntity
  8
0
100
AcDbBlockEnd
  0
BLOCK
  5
7A6
330
7A7
100
AcDbEntity
  8
0
100
AcDbBlockBegin
  2
_D_7
 70
     0
 10
0.0
 20
0.0
 30
0.0
  3
_D_7
  1
_D_7
  0
LINE
  5
3C0
330
7A7
100
AcDbEntity
  8
DIM
100
AcDbLine
 10
93.9157090014
 20
49.4841689268
 30
0.0
 11
105.8842822777
 21
49.4841689268
 31
0.0
  0
LINE
  5
3C1
330
7A7
100
AcDbEntity
  8
DIM
100
AcDbLine
 10
98.8272090014
 20
37.5001689268
 30
0.0
 11
105.8842822777
 21
37.5001689268
 31
0.0
  0
LINE
  5
3C2
330
7A7
100
AcDbEntity
  8
DIM
100
AcDbLine
 10
104.8842822777
 20
48.7341689268
 30
0.0
 11
104.8842822777
 21
44.2421689268
 31
0.0
  0
LINE
  5
3C3
330
7A7
100
AcDbEntity
  8
DIM
100
AcDbLine
 10
104.8842822777
 20
38.2501689268
 30
0.0
 11
104.8842822777
 21
42.7421689268
 31
0.0
  0
SOLID
  5
3C4
330
7A7
100
AcDbEntity
  8
DIM
100
AcDbTrace
 10
105.0092822777
 20
48.7341689268
 30
0.0
 11
104.7592822777
 21
48.7341689268
 31
0.0
 12
104.8842822777
 22
49.4841689268
 32
0.0
 13
104.8842822777
 23
49.4841689268
 33
0.0
  0
SOLID
  5
3C5
330
7A7
100
AcDbEntity
  8
DIM
100
AcDbTrace
 10
104.7592822777
 20
38.2501689268
 30
0.0
 11
105.0092822777
 21
38.2501689268
 31
0.0
 12
104.8842822777
 22
37.5001689268
 32
0.0
 13
104.8842822777
 23
37.5001689268
 33
0.0
  0
MTEXT
  5
3C6
330
7A7
100
AcDbEntity
  8
DIM
100
AcDbMText
 10
104.8842822777
 20
43.4921689268
 30
0.0
 40
1.0
 41
0.0
 71
     5
 72
     1
  1
\A1;12"
  7
SLDTEXTSTYLE0
  0
POINT
  5
861
330
7A7
100
AcDbEntity
  8
DEFPOINTS
 62
     0
100
AcDbPoint
 10
93.4157090014
 20
49.4841689268
 30
0.0
  0
POINT
  5
862
330
7A7
100
AcDbEntity
  8
DEFPOINTS
 62
     0
100
AcDbPoint
 10
98.3272090014
 20
37.5001689268
 30
0.0
  0
POINT
  5
863
330
7A7
100
AcDbEntity
  8
DEFPOINTS
 62
     0
100
AcDbPoint
 10
104.8842822777
 20
37.5001689268
 30
0.0
  0
ENDBLK
  5
3BF
330
7A7
100
AcDbEntity
  8
0
100
AcDbBlockEnd
  0
BLOCK
  5
7A8
330
7A9
100
AcDbEntity
  8
0
100
AcDbBlockBegin
  2
_D_8
 70
     0
 10
0.0
 20
0.0
 30
0.0
  3
_D_8
  1
_D_8
  0
LINE
  5
3CB
330
7A9
100
AcDbEntity
  8
DIM
100
AcDbLine
 10
92.8779590014
 20
23.1965439268
 30
0.0
 11
92.8779590014
 21
15.6194435331
 31
0.0
  0
LINE
  5
3CC
330
7A9
100
AcDbEntity
  8
DIM
100
AcDbLine
 10
93.3301482191
 20
19.3762314268
 30
0.0
 11
93.3301482191
 21
15.6194435331
 31
0.0
  0
LINE
  5
3CD
330
7A9
100
AcDbEntity
  8
DIM
100
AcDbLine
 10
92.8779590014
 20
16.6194435331
 30
0.0
 11
91.30204485586667
 21
16.6194435331
 31
0.0
  0
LINE
  5
3CE
330
7A9
100
AcDbEntity
  8
DIM
100
AcDbLine
 10
92.1279590014
 20
16.6194435331
 30
0.0
 11
91.3779590014
 21
16.6194435331
 31
0.0
  0
LINE
  5
3CF
330
7A9
100
AcDbEntity
  8
DIM
100
AcDbLine
 10
94.0801482191
 20
16.6194435331
 30
0.0
 11
94.8301482191
 21
16.6194435331
 31
0.0
  0
SOLID
  5
3D0
330
7A9
100
AcDbEntity
  8
DIM
100
AcDbTrace
 10
92.1279590014
 20
16.4944435331
 30
0.0
 11
92.1279590014
 21
16.7444435331
 31
0.0
 12
92.8779590014
 22
16.6194435331
 32
0.0
 13
92.8779590014
 23
16.6194435331
 33
0.0
  0
SOLID
  5
3D1
330
7A9
100
AcDbEntity
  8
DIM
100
AcDbTrace
 10
94.0801482191
 20
16.7444435331
 30
0.0
 11
94.0801482191
 21
16.4944435331
 31
0.0
 12
93.3301482191
 22
16.6194435331
 32
0.0
 13
93.3301482191
 23
16.6194435331
 33
0.0
  0
MTEXT
  5
3D2
330
7A9
100
AcDbEntity
  8
DIM
100
AcDbMText
 10
89.8853781892
 20
16.6194435331
 30
0.0
 40
1.0
 41
0.0
 71
     5
 72
     1
  1
\A1;{\H1.000000x;\S7#16;}"
  7
SLDTEXTSTYLE0
  0
POINT
  5
3D3
330
7A9
100
AcDbEntity
  8
DEFPOINTS
 62
     0
100
AcDbPoint
 10
92.8779590014
 20
23.6965439268
 30
0.0
  0
POINT
  5
3D4
330
7A9
100
AcDbEntity
  8
DEFPOINTS
 62
     0
100
AcDbPoint
 10
93.3301482191
 20
19.8762314268
 30
0.0
  0
POINT
  5
864
330
7A9
100
AcDbEntity
  8
DEFPOINTS
 62
     0
100
AcDbPoint
 10
93.3301482191
 20
16.6194435331
 30
0.0
  0
ENDBLK
  5
3CA
330
7A9
100
AcDbEntity
  8
0
100
AcDbBlockEnd
  0
BLOCK
  5
7AA
330
7AB
100
AcDbEntity
  8
0
100
AcDbBlockBegin
  2
_D_9
 70
     0
 10
0.0
 20
0.0
 30
0.0
  3
_D_9
  1
_D_9
  0
LINE
  5
3D9
330
7AB
100
AcDbEntity
  8
DIM
100
AcDbLine
 10
93.3301482191
 20
19.3762314268
 30
0.0
 11
93.3301482191
 21
12.618754832
 31
0.0
  0
LINE
  5
3DA
330
7AB
100
AcDbEntity
  8
DIM
100
AcDbLine
 10
98.8137697837
 20
19.3762314268
 30
0.0
 11
98.8137697837
 21
12.618754832
 31
0.0
  0
LINE
  5
3DB
330
7AB
100
AcDbEntity
  8
DIM
100
AcDbLine
 10
94.0801482191
 20
13.618754832
 30
0.0
 11
94.65529233473333
 21
13.618754832
 31
0.0
  0
LINE
  5
3DC
330
7AB
100
AcDbEntity
  8
DIM
100
AcDbLine
 10
98.0637697837
 20
13.618754832
 30
0.0
 11
97.48862566806667
 21
13.618754832
 31
0.0
  0
SOLID
  5
3DD
330
7AB
100
AcDbEntity
  8
DIM
100
AcDbTrace
 10
94.0801482191
 20
13.743754832
 30
0.0
 11
94.0801482191
 21
13.493754832
 31
0.0
 12
93.3301482191
 22
13.618754832
 32
0.0
 13
93.3301482191
 23
13.618754832
 33
0.0
  0
SOLID
  5
3DE
330
7AB
100
AcDbEntity
  8
DIM
100
AcDbTrace
 10
98.0637697837
 20
13.493754832
 30
0.0
 11
98.0637697837
 21
13.743754832
 31
0.0
 12
98.8137697837
 22
13.618754832
 32
0.0
 13
98.8137697837
 23
13.618754832
 33
0.0
  0
MTEXT
  5
3DF
330
7AB
100
AcDbEntity
  8
DIM
100
AcDbMText
 10
96.0719590014
 20
13.618754832
 30
0.0
 40
1.0
 41
0.0
 71
     5
 72
     1
  1
\A1;5{\H1.000000x;\S1#2;}"
  7
SLDTEXTSTYLE0
  0
POINT
  5
3E0
330
7AB
100
AcDbEntity
  8
DEFPOINTS
 62
     0
100
AcDbPoint
 10
93.3301482191
 20
19.8762314268
 30
0.0
  0
POINT
  5
3E1
330
7AB
100
AcDbEntity
  8
DEFPOINTS
 62
     0
100
AcDbPoint
 10
98.8137697837
 20
19.8762314268
 30
0.0
  0
POINT
  5
3E2
330
7AB
100
AcDbEntity
  8
DEFPOINTS
 62
     0
100
AcDbPoint
 10
98.8137697837
 20
13.618754832
 30
0.0
  0
ENDBLK
  5
3D8
330
7AB
100
AcDbEntity
  8
0
100
AcDbBlockEnd
  0
BLOCK
  5
7AC
330
7AD
100
AcDbEntity
  8
0
100
AcDbBlockBegin
  2
_D_10
 70
     0
 10
0.0
 20
0.0
 30
0.0
  3
_D_10
  1
_D_10
  0
LINE
  5
656
330
7AD
100
AcDbEntity
  8
DIM
100
AcDbLine
 10
38.9699847802
 20
62.8680284171
 30
0.0
 11
38.9699847802
 21
69.7195941375
 31
0.0
  0
LINE
  5
657
330
7AD
100
AcDbEntity
  8
DIM
100
AcDbLine
 10
69.1709847802
 20
62.8680284171
 30
0.0
 11
69.1709847802
 21
69.7195941375
 31
0.0
  0
LINE
  5
658
330
7AD
100
AcDbEntity
  8
DIM
100
AcDbLine
 10
39.7199847802
 20
68.7195941375
 30
0.0
 11
51.96631811353333
 21
68.7195941375
 31
0.0
  0
LINE
  5
659
330
7AD
100
AcDbEntity
  8
DIM
100
AcDbLine
 10
68.4209847802
 20
68.7195941375
 30
0.0
 11
56.17465144686666
 21
68.7195941375
 31
0.0
  0
SOLID
  5
65A
330
7AD
100
AcDbEntity
  8
DIM
100
AcDbTrace
 10
39.7199847802
 20
68.8445941375
 30
0.0
 11
39.7199847802
 21
68.5945941375
 31
0.0
 12
38.9699847802
 22
68.7195941375
 32
0.0
 13
38.9699847802
 23
68.7195941375
 33
0.0
  0
SOLID
  5
65B
330
7AD
100
AcDbEntity
  8
DIM
100
AcDbTrace
 10
68.4209847802
 20
68.5945941375
 30
0.0
 11
68.4209847802
 21
68.8445941375
 31
0.0
 12
69.1709847802
 22
68.7195941375
 32
0.0
 13
69.1709847802
 23
68.7195941375
 33
0.0
  0
MTEXT
  5
65C
330
7AD
100
AcDbEntity
  8
DIM
100
AcDbMText
 10
54.0704847802
 20
68.7195941375
 30
0.0
 40
1.0
 41
0.0
 71
     5
 72
     1
  1
\A1;30{\H1.000000x;\S3#16;}"
  7
SLDTEXTSTYLE0
  0
POINT
  5
65D
330
7AD
100
AcDbEntity
  8
DEFPOINTS
 62
     0
100
AcDbPoint
 10
38.9699847802
 20
62.3680284171
 30
0.0
  0
POINT
  5
65E
330
7AD
100
AcDbEntity
  8
DEFPOINTS
 62
     0
100
AcDbPoint
 10
69.1709847802
 20
62.3680284171
 30
0.0
  0
POINT
  5
65F
330
7AD
100
AcDbEntity
  8
DEFPOINTS
 62
     0
100
AcDbPoint
 10
69.1709847802
 20
68.7195941375
 30
0.0
  0
ENDBLK
  5
655
330
7AD
100
AcDbEntity
  8
0
100
AcDbBlockEnd
  0
BLOCK
  5
84F
330
7F0
100
AcDbEntity
  8
0
100
AcDbBlockBegin
  2
DIMBLOCK
 70
     0
 10
0.0
 20
0.0
 30
0.0
  3
DIMBLOCK
  1
DIMBLOCK
  0
DIMENSION
  5
838
330
7F0
100
AcDbEntity
  8
DIM
100
AcDbDimension
  2
*D13
 10
52.21867827481636
 20
37.56898393355885
 30
0.0
 11
30.22184851641212
 21
37.56898393355885
 31
0.0
 70
    32
  3
ARCH_SALES_DRAWING
100
AcDbAlignedDimension
 13
8.225018758007892
 23
68.11134467724243
 33
0.0
 14
52.21867827481636
 24
50.38728041147787
 34
0.0
100
AcDbRotatedDimension
  0
ENDBLK
  5
850
330
7F0
100
AcDbEntity
  8
0
100
AcDbBlockEnd
  0
BLOCK
  5
83A
330
839
100
AcDbEntity
  8
0
100
AcDbBlockBegin
  2
*D13
 70
     1
 10
0.0
 20
0.0
 30
0.0
  3
*D13
  1
*D13
  0
LINE
  5
83B
330
839
100
AcDbEntity
  8
DIM
100
AcDbLine
 10
8.225018758007892
 20
67.61134467724243
 30
0.0
 11
8.225018758007892
 21
36.56898393355885
 31
0.0
  0
LINE
  5
83C
330
839
100
AcDbEntity
  8
DIM
100
AcDbLine
 10
52.21867827481636
 20
49.88728041147787
 30
0.0
 11
52.21867827481636
 21
36.56898393355885
 31
0.0
  0
LINE
  5
83D
330
839
100
AcDbEntity
  8
DIM
100
AcDbLine
 10
8.975018758007892
 20
37.56898393355885
 30
0.0
 11
29.09684851641212
 21
37.56898393355885
 31
0.0
  0
LINE
  5
83E
330
839
100
AcDbEntity
  8
DIM
100
AcDbLine
 10
51.46867827481636
 20
37.56898393355885
 30
0.0
 11
31.34684851641212
 21
37.56898393355885
 31
0.0
  0
SOLID
  5
83F
330
839
100
AcDbEntity
  8
DIM
100
AcDbTrace
 10
8.975018758007892
 20
37.69398393355885
 30
0.0
 11
8.975018758007892
 21
37.44398393355885
 31
0.0
 12
8.225018758007892
 22
37.56898393355885
 32
0.0
 13
8.225018758007892
 23
37.56898393355885
 33
0.0
  0
SOLID
  5
840
330
839
100
AcDbEntity
  8
DIM
100
AcDbTrace
 10
51.46867827481636
 20
37.44398393355885
 30
0.0
 11
51.46867827481636
 21
37.69398393355885
 31
0.0
 12
52.21867827481636
 22
37.56898393355885
 32
0.0
 13
52.21867827481636
 23
37.56898393355885
 33
0.0
  0
MTEXT
  5
841
330
839
100
AcDbEntity
  8
DIM
100
AcDbMText
 10
30.22184851641212
 20
37.56898393355885
 30
0.0
 40
1.0
 41
0.0
 71
     5
 72
     1
  1
\A1;44"
  7
SLDTEXTSTYLE0
  0
POINT
  5
842
330
839
100
AcDbEntity
  8
DEFPOINTS
 62
     0
100
AcDbPoint
 10
8.225018758007892
 20
68.11134467724243
 30
0.0
  0
POINT
  5
843
330
839
100
AcDbEntity
  8
DEFPOINTS
 62
     0
100
AcDbPoint
 10
52.21867827481636
 20
50.38728041147787
 30
0.0
  0
POINT
  5
844
330
839
100
AcDbEntity
  8
DEFPOINTS
 62
     0
100
AcDbPoint
 10
52.21867827481636
 20
37.56898393355885
 30
0.0
  0
ENDBLK
  5
845
330
839
100
AcDbEntity
  8
0
100
AcDbBlockEnd
  0
BLOCK
  5
854
330
853
100
AcDbEntity
  8
0
100
AcDbBlockBegin
  2
*D14
 70
     1
 10
0.0
 20
0.0
 30
0.0
  3
*D14
  1
*D14
  0
LINE
  5
856
330
853
100
AcDbEntity
  8
DIM
100
AcDbLine
 10
1008.225018758008
 20
1067.611344677242
 30
0.0
 11
1008.225018758008
 21
1036.568983933559
 31
0.0
  0
LINE
  5
857
330
853
100
AcDbEntity
  8
DIM
100
AcDbLine
 10
1052.218678274816
 20
1049.887280411478
 30
0.0
 11
1052.218678274816
 21
1036.568983933559
 31
0.0
  0
LINE
  5
858
330
853
100
AcDbEntity
  8
DIM
100
AcDbLine
 10
1008.975018758008
 20
1037.568983933559
 30
0.0
 11
1029.096848516412
 21
1037.568983933559
 31
0.0
  0
LINE
  5
859
330
853
100
AcDbEntity
  8
DIM
100
AcDbLine
 10
1051.468678274816
 20
1037.568983933559
 30
0.0
 11
1031.346848516412
 21
1037.568983933559
 31
0.0
  0
SOLID
  5
85A
330
853
100
AcDbEntity
  8
DIM
100
AcDbTrace
 10
1008.975018758008
 20
1037.693983933559
 30
0.0
 11
1008.975018758008
 21
1037.443983933559
 31
0.0
 12
1008.225018758008
 22
1037.568983933559
 32
0.0
 13
1008.225018758008
 23
1037.568983933559
 33
0.0
  0
SOLID
  5
85B
330
853
100
AcDbEntity
  8
DIM
100
AcDbTrace
 10
1051.468678274816
 20
1037.443983933559
 30
0.0
 11
1051.468678274816
 21
1037.693983933559
 31
0.0
 12
1052.218678274816
 22
1037.568983933559
 32
0.0
 13
1052.218678274816
 23
1037.568983933559
 33
0.0
  0
MTEXT
  5
85C
330
853
100
AcDbEntity
  8
DIM
100
AcDbMText
 10
1030.221848516412
 20
1037.568983933559
 30
0.0
 40
1.0
 41
0.0
 71
     5
 72
     1
  1
\A1;44"
  7
SLDTEXTSTYLE0
  0
POINT
  5
85D
330
853
100
AcDbEntity
  8
DEFPOINTS
 62
     0
100
AcDbPoint
 10
1008.225018758008
 20
1068.111344677242
 30
0.0
  0
POINT
  5
85E
330
853
100
AcDbEntity
  8
DEFPOINTS
 62
     0
100
AcDbPoint
 10
1052.218678274816
 20
1050.387280411478
 30
0.0
  0
POINT
  5
85F
330
853
100
AcDbEntity
  8
DEFPOINTS
 62
     0
100
AcDbPoint
 10
1052.218678274816
 20
1037.568983933559
 30
0.0
  0
ENDBLK
  5
855
330
853
100
AcDbEntity
  8
0
100
AcDbBlockEnd
  0
ENDSEC
  0
SECTION
  2
ENTITIES
  0
INSERT
  5
79
330
77A
100
AcDbEntity
  8
NOTES
100
AcDbBlockReference
  2
SW_NOTE_0
 10
1.222316508
 20
71.6172738901
 30
0.0
  0
LINE
  5
7A
330
77A
100
AcDbEntity
  8
0
  6
SLD-SOLID
 62
     7
100
AcDbLine
 10
56.8952879298
 20
23.8749947142
 30
0.0
 11
56.8952879298
 21
23.6965439268
 31
0.0
  0
LINE
  5
7B
330
77A
100
AcDbEntity
  8
0
  6
SLD-SOLID
 62
     7
100
AcDbLine
 10
57.2299335991
 20
23.6965439268
 30
0.0
 11
57.2299335991
 21
23.8749947142
 31
0.0
  0
LINE
  5
7C
330
77A
100
AcDbEntity
  8
0
  6
SLD-SOLID
 62
     7
100
AcDbLine
 10
57.0921100105
 20
23.8749947142
 30
0.0
 11
57.0921100105
 21
23.8817939268
 31
0.0
  0
LINE
  5
7D
330
77A
100
AcDbEntity
  8
0
  6
SLD-SOLID
 62
     7
100
AcDbLine
 10
57.0331100105
 20
23.8817939268
 30
0.0
 11
57.0331100105
 21
23.8749947142
 31
0.0
  0
LINE
  5
7E
330
77A
100
AcDbEntity
  8
0
  6
SLD-SOLID
 62
     7
100
AcDbLine
 10
55.7879790148
 20
23.8570349748
 30
0.0
 11
55.2411462362
 21
23.7243377801
 31
0.0
  0
LINE
  5
7F
330
77A
100
AcDbEntity
  8
0
  6
SLD-SOLID
 62
     7
100
AcDbLine
 10
55.3753073657
 20
23.6965439268
 30
0.0
 11
55.8018094432
 21
23.8000410678
 31
0.0
  0
ARC
  5
80
330
77A
100
AcDbEntity
  8
0
  6
SLD-SOLID
 62
     7
100
AcDbCircle
 10
55.2712721817
 20
23.6001915646
 30
0.0
 40
0.127749189489734
100
AcDbArc
 50
103.64002467
 51
131.0418035476
  0
LINE
  5
81
330
77A
100
AcDbEntity
  8
0
  6
SLD-SOLID
 62
     7
100
AcDbLine
 10
56.1225953901
 20
23.7891679426
 30
0.0
 11
56.0980438353
 21
23.7891679426
 31
0.0
  0
LINE
  5
82
330
77A
100
AcDbEntity
  8
0
  6
SLD-SOLID
 62
     7
100
AcDbLine
 10
54.8204847802
 20
23.8817939268
 30
0.0
 11
57.4024847802
 21
23.8817939268
 31
0.0
  0
LINE
  5
83
330
77A
100
AcDbEntity
  8
0
  6
SLD-SOLID
 62
     7
100
AcDbLine
 10
58.3471627637
 20
23.8817939268
 30
0.0
 11
58.4746967966
 21
23.8817939268
 31
0.0
  0
LINE
  5
84
330
77A
100
AcDbEntity
  8
0
  6
SLD-SOLID
 62
     7
100
AcDbLine
 10
62.3471627637
 20
23.8817939268
 30
0.0
 11
62.4746967966
 21
23.8817939268
 31
0.0
  0
LINE
  5
85
330
77A
100
AcDbEntity
  8
0
  6
SLD-SOLID
 62
     7
100
AcDbLine
 10
66.7127347802
 20
23.8817939268
 30
0.0
 11
66.7499847802
 21
23.8817939268
 31
0.0
  0
LINE
  5
86
330
77A
100
AcDbEntity
  8
0
  6
SLD-SOLID
 62
     7
100
AcDbLine
 10
41.3909847802
 20
23.8817939268
 30
0.0
 11
41.4282347802
 21
23.8817939268
 31
0.0
  0
LINE
  5
87
330
77A
100
AcDbEntity
  8
0
  6
SLD-SOLID
 62
     7
100
AcDbLine
 10
50.7384847802
 20
23.8817939268
 30
0.0
 11
53.3204847802
 21
23.8817939268
 31
0.0
  0
LINE
  5
88
330
77A
100
AcDbEntity
  8
0
  6
SLD-SOLID
 62
     7
100
AcDbLine
 10
66.8522347802
 20
23.7592939268
 30
0.0
 11
66.8625047478
 21
23.7976219677
 31
0.0
  0
LINE
  5
89
330
77A
100
AcDbEntity
  8
0
  6
SLD-SOLID
 62
     7
100
AcDbLine
 10
66.8209847802
 20
23.7592939268
 30
0.0
 11
66.8522347802
 21
23.7592939268
 31
0.0
  0
LINE
  5
8A
330
77A
100
AcDbEntity
  8
0
  6
SLD-SOLID
 62
     7
100
AcDbLine
 10
66.7127347802
 20
23.8830439268
 30
0.0
 11
66.7499847802
 21
23.8830439268
 31
0.0
  0
LINE
  5
8B
330
77A
100
AcDbEntity
  8
0
  6
SLD-SOLID
 62
     7
100
AcDbLine
 10
39.1262347802
 20
32.9811233554
 30
0.0
 11
39.1159648126
 21
32.9427953145
 31
0.0
  0
LINE
  5
8C
330
77A
100
AcDbEntity
  8
0
  6
SLD-SOLID
 62
     7
100
AcDbLine
 10
39.1159648126
 20
32.5819513963
 30
0.0
 11
39.1262347802
 21
32.5436233554
 31
0.0
  0
LINE
  5
8D
330
77A
100
AcDbEntity
  8
0
  6
SLD-SOLID
 62
     7
100
AcDbLine
 10
39.1574847802
 20
32.9811233554
 30
0.0
 11
39.1262347802
 21
32.9811233554
 31
0.0
  0
LINE
  5
8E
330
77A
100
AcDbEntity
  8
0
  6
SLD-SOLID
 62
     7
100
AcDbLine
 10
39.1262347802
 20
32.5436233554
 30
0.0
 11
39.1574847802
 21
32.5436233554
 31
0.0
  0
LINE
  5
8F
330
77A
100
AcDbEntity
  8
0
  6
SLD-SOLID
 62
     7
100
AcDbLine
 10
39.0097817393
 20
32.9427953145
 30
0.0
 11
38.9699847802
 21
32.9029983554
 31
0.0
  0
LINE
  5
90
330
77A
100
AcDbEntity
  8
0
  6
SLD-SOLID
 62
     7
100
AcDbLine
 10
38.9699847802
 20
32.6217483554
 30
0.0
 11
39.0097817393
 21
32.5819513963
 31
0.0
  0
LINE
  5
91
330
77A
100
AcDbEntity
  8
0
  6
SLD-SOLID
 62
     7
100
AcDbLine
 10
39.1262347802
 20
21.6025189707
 30
0.0
 11
39.1159648126
 21
21.5641909298
 31
0.0
  0
LINE
  5
92
330
77A
100
AcDbEntity
  8
0
  6
SLD-SOLID
 62
     7
100
AcDbLine
 10
39.1159648126
 20
21.2033470115
 30
0.0
 11
39.1262347802
 21
21.1650189707
 31
0.0
  0
LINE
  5
93
330
77A
100
AcDbEntity
  8
0
  6
SLD-SOLID
 62
     7
100
AcDbLine
 10
39.1574847802
 20
21.6025189707
 30
0.0
 11
39.1262347802
 21
21.6025189707
 31
0.0
  0
LINE
  5
94
330
77A
100
AcDbEntity
  8
0
  6
SLD-SOLID
 62
     7
100
AcDbLine
 10
39.1262347802
 20
21.1650189707
 30
0.0
 11
39.1574847802
 21
21.1650189707
 31
0.0
  0
LINE
  5
95
330
77A
100
AcDbEntity
  8
0
  6
SLD-SOLID
 62
     7
100
AcDbLine
 10
39.0097817393
 20
21.5641909298
 30
0.0
 11
38.9699847802
 21
21.5243939707
 31
0.0
  0
LINE
  5
96
330
77A
100
AcDbEntity
  8
0
  6
SLD-SOLID
 62
     7
100
AcDbLine
 10
38.9699847802
 20
21.2431439707
 30
0.0
 11
39.0097817393
 21
21.2033470115
 31
0.0
  0
LINE
  5
97
330
77A
100
AcDbEntity
  8
0
  6
SLD-SOLID
 62
     7
100
AcDbLine
 10
68.9834847802
 20
34.5436233554
 30
0.0
 11
69.0147347802
 21
34.5436233554
 31
0.0
  0
LINE
  5
98
330
77A
100
AcDbEntity
  8
0
  6
SLD-SOLID
 62
     7
100
AcDbLine
 10
69.0147347802
 20
34.9811233554
 30
0.0
 11
68.9834847802
 21
34.9811233554
 31
0.0
  0
LINE
  5
99
330
77A
100
AcDbEntity
  8
0
  6
SLD-SOLID
 62
     7
100
AcDbLine
 10
69.0147347802
 20
34.5436233554
 30
0.0
 11
69.0254240522
 21
34.5835162617
 31
0.0
  0
LINE
  5
9A
330
77A
100
AcDbEntity
  8
0
  6
SLD-SOLID
 62
     7
100
AcDbLine
 10
69.0278519878
 20
34.93216927
 30
0.0
 11
69.0147347802
 21
34.9811233554
 31
0.0
  0
LINE
  5
9B
330
77A
100
AcDbEntity
  8
0
  6
SLD-SOLID
 62
     7
100
AcDbLine
 10
69.1425491414
 20
34.5933127167
 30
0.0
 11
69.1709847802
 21
34.6217483554
 31
0.0
  0
LINE
  5
9C
330
77A
100
AcDbEntity
  8
0
  6
SLD-SOLID
 62
     7
100
AcDbLine
 10
69.1709847802
 20
34.9029983554
 30
0.0
 11
69.1425491414
 21
34.9314339942
 31
0.0
  0
LINE
  5
9D
330
77A
100
AcDbEntity
  8
0
  6
SLD-SOLID
 62
     7
100
AcDbLine
 10
39.1574847802
 20
31.6025189707
 30
0.0
 11
39.1262347802
 21
31.6025189707
 31
0.0
  0
LINE
  5
9E
330
77A
100
AcDbEntity
  8
0
  6
SLD-SOLID
 62
     7
100
AcDbLine
 10
39.1262347802
 20
31.1650189707
 30
0.0
 11
39.1574847802
 21
31.1650189707
 31
0.0
  0
LINE
  5
9F
330
77A
100
AcDbEntity
  8
0
  6
SLD-SOLID
 62
     7
100
AcDbLine
 10
39.1262347802
 20
31.6025189707
 30
0.0
 11
39.1159648126
 21
31.5641909298
 31
0.0
  0
LINE
  5
A0
330
77A
100
AcDbEntity
  8
0
  6
SLD-SOLID
 62
     7
100
AcDbLine
 10
39.1159648126
 20
31.2033470115
 30
0.0
 11
39.1262347802
 21
31.1650189707
 31
0.0
  0
LINE
  5
A1
330
77A
100
AcDbEntity
  8
0
  6
SLD-SOLID
 62
     7
100
AcDbLine
 10
39.0097817393
 20
31.5641909298
 30
0.0
 11
38.9699847802
 21
31.5243939707
 31
0.0
  0
LINE
  5
A2
330
77A
100
AcDbEntity
  8
0
  6
SLD-SOLID
 62
     7
100
AcDbLine
 10
38.9699847802
 20
31.2431439707
 30
0.0
 11
39.0097817393
 21
31.2033470115
 31
0.0
  0
LINE
  5
A3
330
77A
100
AcDbEntity
  8
0
  6
SLD-SOLID
 62
     7
100
AcDbLine
 10
68.9834847802
 20
32.5436233554
 30
0.0
 11
69.0147347802
 21
32.5436233554
 31
0.0
  0
LINE
  5
A4
330
77A
100
AcDbEntity
  8
0
  6
SLD-SOLID
 62
     7
100
AcDbLine
 10
69.0147347802
 20
32.9811233554
 30
0.0
 11
68.9834847802
 21
32.9811233554
 31
0.0
  0
LINE
  5
A5
330
77A
100
AcDbEntity
  8
0
  6
SLD-SOLID
 62
     7
100
AcDbLine
 10
69.0147347802
 20
32.5436233554
 30
0.0
 11
69.0254240522
 21
32.5835162617
 31
0.0
  0
LINE
  5
A6
330
77A
100
AcDbEntity
  8
0
  6
SLD-SOLID
 62
     7
100
AcDbLine
 10
69.0278519878
 20
32.93216927
 30
0.0
 11
69.0147347802
 21
32.9811233554
 31
0.0
  0
LINE
  5
A7
330
77A
100
AcDbEntity
  8
0
  6
SLD-SOLID
 62
     7
100
AcDbLine
 10
69.1425491414
 20
32.5933127167
 30
0.0
 11
69.1709847802
 21
32.6217483554
 31
0.0
  0
LINE
  5
A8
330
77A
100
AcDbEntity
  8
0
  6
SLD-SOLID
 62
     7
100
AcDbLine
 10
69.1709847802
 20
32.9029983554
 30
0.0
 11
69.1425491414
 21
32.9314339942
 31
0.0
  0
LINE
  5
A9
330
77A
100
AcDbEntity
  8
0
  6
SLD-SOLID
 62
     7
100
AcDbLine
 10
69.0147347802
 20
31.1650189707
 30
0.0
 11
69.0254240522
 21
31.204911877
 31
0.0
  0
LINE
  5
AA
330
77A
100
AcDbEntity
  8
0
  6
SLD-SOLID
 62
     7
100
AcDbLine
 10
69.0278519878
 20
31.5535648852
 30
0.0
 11
69.0147347802
 21
31.6025189707
 31
0.0
  0
LINE
  5
AB
330
77A
100
AcDbEntity
  8
0
  6
SLD-SOLID
 62
     7
100
AcDbLine
 10
68.9834847802
 20
31.1650189707
 30
0.0
 11
69.0147347802
 21
31.1650189707
 31
0.0
  0
LINE
  5
AC
330
77A
100
AcDbEntity
  8
0
  6
SLD-SOLID
 62
     7
100
AcDbLine
 10
69.0147347802
 20
31.6025189707
 30
0.0
 11
68.9834847802
 21
31.6025189707
 31
0.0
  0
LINE
  5
AD
330
77A
100
AcDbEntity
  8
0
  6
SLD-SOLID
 62
     7
100
AcDbLine
 10
69.1425491414
 20
31.2147083319
 30
0.0
 11
69.1709847802
 21
31.2431439707
 31
0.0
  0
LINE
  5
AE
330
77A
100
AcDbEntity
  8
0
  6
SLD-SOLID
 62
     7
100
AcDbLine
 10
69.1709847802
 20
31.5243939707
 30
0.0
 11
69.1425491414
 21
31.5528296094
 31
0.0
  0
LINE
  5
AF
330
77A
100
AcDbEntity
  8
0
  6
SLD-SOLID
 62
     7
100
AcDbLine
 10
69.0147347802
 20
26.1650189707
 30
0.0
 11
69.0254240522
 21
26.204911877
 31
0.0
  0
LINE
  5
B0
330
77A
100
AcDbEntity
  8
0
  6
SLD-SOLID
 62
     7
100
AcDbLine
 10
69.0278519878
 20
26.5535648852
 30
0.0
 11
69.0147347802
 21
26.6025189707
 31
0.0
  0
LINE
  5
B1
330
77A
100
AcDbEntity
  8
0
  6
SLD-SOLID
 62
     7
100
AcDbLine
 10
68.9834847802
 20
26.1650189707
 30
0.0
 11
69.0147347802
 21
26.1650189707
 31
0.0
  0
LINE
  5
B2
330
77A
100
AcDbEntity
  8
0
  6
SLD-SOLID
 62
     7
100
AcDbLine
 10
69.0147347802
 20
26.6025189707
 30
0.0
 11
68.9834847802
 21
26.6025189707
 31
0.0
  0
LINE
  5
B3
330
77A
100
AcDbEntity
  8
0
  6
SLD-SOLID
 62
     7
100
AcDbLine
 10
69.1425491414
 20
26.2147083319
 30
0.0
 11
69.1709847802
 21
26.2431439707
 31
0.0
  0
LINE
  5
B4
330
77A
100
AcDbEntity
  8
0
  6
SLD-SOLID
 62
     7
100
AcDbLine
 10
69.1709847802
 20
26.5243939707
 30
0.0
 11
69.1425491414
 21
26.5528296094
 31
0.0
  0
LINE
  5
B5
330
77A
100
AcDbEntity
  8
0
  6
SLD-SOLID
 62
     7
100
AcDbLine
 10
68.9834847802
 20
21.1650189707
 30
0.0
 11
69.0147347802
 21
21.1650189707
 31
0.0
  0
LINE
  5
B6
330
77A
100
AcDbEntity
  8
0
  6
SLD-SOLID
 62
     7
100
AcDbLine
 10
69.0147347802
 20
21.6025189707
 30
0.0
 11
68.9834847802
 21
21.6025189707
 31
0.0
  0
LINE
  5
B7
330
77A
100
AcDbEntity
  8
0
  6
SLD-SOLID
 62
     7
100
AcDbLine
 10
69.0147347802
 20
21.1650189707
 30
0.0
 11
69.0254240522
 21
21.204911877
 31
0.0
  0
LINE
  5
B8
330
77A
100
AcDbEntity
  8
0
  6
SLD-SOLID
 62
     7
100
AcDbLine
 10
69.0278519878
 20
21.5535648852
 30
0.0
 11
69.0147347802
 21
21.6025189707
 31
0.0
  0
LINE
  5
B9
330
77A
100
AcDbEntity
  8
0
  6
SLD-SOLID
 62
     7
100
AcDbLine
 10
69.1425491414
 20
21.2147083319
 30
0.0
 11
69.1709847802
 21
21.2431439707
 31
0.0
  0
LINE
  5
BA
330
77A
100
AcDbEntity
  8
0
  6
SLD-SOLID
 62
     7
100
AcDbLine
 10
69.1709847802
 20
21.5243939707
 30
0.0
 11
69.1425491414
 21
21.5528296094
 31
0.0
  0
LINE
  5
BB
330
77A
100
AcDbEntity
  8
0
  6
SLD-SOLID
 62
     7
100
AcDbLine
 10
39.1574847802
 20
34.9811233554
 30
0.0
 11
39.1262347802
 21
34.9811233554
 31
0.0
  0
LINE
  5
BC
330
77A
100
AcDbEntity
  8
0
  6
SLD-SOLID
 62
     7
100
AcDbLine
 10
39.1262347802
 20
34.5436233554
 30
0.0
 11
39.1574847802
 21
34.5436233554
 31
0.0
  0
LINE
  5
BD
330
77A
100
AcDbEntity
  8
0
  6
SLD-SOLID
 62
     7
100
AcDbLine
 10
39.1262347802
 20
34.9811233554
 30
0.0
 11
39.1159648126
 21
34.9427953145
 31
0.0
  0
LINE
  5
BE
330
77A
100
AcDbEntity
  8
0
  6
SLD-SOLID
 62
     7
100
AcDbLine
 10
39.1159648126
 20
34.5819513963
 30
0.0
 11
39.1262347802
 21
34.5436233554
 31
0.0
  0
LINE
  5
BF
330
77A
100
AcDbEntity
  8
0
  6
SLD-SOLID
 62
     7
100
AcDbLine
 10
39.0097817393
 20
34.9427953145
 30
0.0
 11
38.9699847802
 21
34.9029983554
 31
0.0
  0
LINE
  5
C0
330
77A
100
AcDbEntity
  8
0
  6
SLD-SOLID
 62
     7
100
AcDbLine
 10
38.9699847802
 20
34.6217483554
 30
0.0
 11
39.0097817393
 21
34.5819513963
 31
0.0
  0
LINE
  5
C1
330
77A
100
AcDbEntity
  8
0
  6
SLD-SOLID
 62
     7
100
AcDbLine
 10
39.1262347802
 20
26.6025189707
 30
0.0
 11
39.1159648126
 21
26.5641909298
 31
0.0
  0
LINE
  5
C2
330
77A
100
AcDbEntity
  8
0
  6
SLD-SOLID
 62
     7
100
AcDbLine
 10
39.1159648126
 20
26.2033470115
 30
0.0
 11
39.1262347802
 21
26.1650189707
 31
0.0
  0
LINE
  5
C3
330
77A
100
AcDbEntity
  8
0
  6
SLD-SOLID
 62
     7
100
AcDbLine
 10
39.1574847802
 20
26.6025189707
 30
0.0
 11
39.1262347802
 21
26.6025189707
 31
0.0
  0
LINE
  5
C4
330
77A
100
AcDbEntity
  8
0
  6
SLD-SOLID
 62
     7
100
AcDbLine
 10
39.1262347802
 20
26.1650189707
 30
0.0
 11
39.1574847802
 21
26.1650189707
 31
0.0
  0
LINE
  5
C5
330
77A
100
AcDbEntity
  8
0
  6
SLD-SOLID
 62
     7
100
AcDbLine
 10
39.0097817393
 20
26.5641909298
 30
0.0
 11
38.9699847802
 21
26.5243939707
 31
0.0
  0
LINE
  5
C6
330
77A
100
AcDbEntity
  8
0
  6
SLD-SOLID
 62
     7
100
AcDbLine
 10
38.9699847802
 20
26.2431439707
 30
0.0
 11
39.0097817393
 21
26.2033470115
 31
0.0
  0
LINE
  5
C7
330
77A
100
AcDbEntity
  8
0
  6
SLD-SOLID
 62
     7
100
AcDbLine
 10
41.2887347802
 20
23.7592939268
 30
0.0
 11
41.3199847802
 21
23.7592939268
 31
0.0
  0
LINE
  5
C8
330
77A
100
AcDbEntity
  8
0
  6
SLD-SOLID
 62
     7
100
AcDbLine
 10
41.2784648126
 20
23.7976219677
 30
0.0
 11
41.2887347802
 21
23.7592939268
 31
0.0
  0
LINE
  5
C9
330
77A
100
AcDbEntity
  8
0
  6
SLD-SOLID
 62
     7
100
AcDbLine
 10
41.3909847802
 20
23.8830439268
 30
0.0
 11
41.4282347802
 21
23.8830439268
 31
0.0
  0
LINE
  5
CA
330
77A
100
AcDbEntity
  8
0
  6
SLD-SOLID
 62
     7
100
AcDbLine
 10
55.5314847802
 20
37.5771689268
 30
0.0
 11
52.6094847802
 21
37.5771689268
 31
0.0
  0
LINE
  5
CB
330
77A
100
AcDbEntity
  8
0
  6
SLD-SOLID
 62
     7
100
AcDbLine
 10
52.6094847802
 20
48.7341689268
 30
0.0
 11
52.6094847802
 21
49.4841689268
 31
0.0
  0
LINE
  5
CC
330
77A
100
AcDbEntity
  8
0
  6
SLD-SOLID
 62
     7
100
AcDbLine
 10
55.5314847802
 20
49.4841689268
 30
0.0
 11
52.6094847802
 21
49.4841689268
 31
0.0
  0
LINE
  5
CD
330
77A
100
AcDbEntity
  8
0
  6
SLD-SOLID
 62
     7
100
AcDbLine
 10
55.5314847802
 20
49.4841689268
 30
0.0
 11
55.5314847802
 21
48.7341689268
 31
0.0
  0
CIRCLE
  5
CE
330
77A
100
AcDbEntity
  8
0
  6
SLD-SOLID
 62
     7
100
AcDbCircle
 10
54.0704847802
 20
49.1091689268
 30
0.0
 40
0.1300000000000097
  0
LINE
  5
CF
330
77A
100
AcDbEntity
  8
0
  6
SLD-SOLID
 62
     7
100
AcDbLine
 10
55.5314847802
 20
37.5771689268
 30
0.0
 11
55.6084847802
 21
37.5771689268
 31
0.0
  0
LINE
  5
D0
330
77A
100
AcDbEntity
  8
0
  6
SLD-SOLID
 62
     7
100
AcDbLine
 10
55.6084847802
 20
37.5771689268
 30
0.0
 11
55.6084847802
 21
48.7341689268
 31
0.0
  0
LINE
  5
D1
330
77A
100
AcDbEntity
  8
0
  6
SLD-SOLID
 62
     7
100
AcDbLine
 10
55.6084847802
 20
48.7341689268
 30
0.0
 11
55.5314847802
 21
48.7341689268
 31
0.0
  0
LINE
  5
D2
330
77A
100
AcDbEntity
  8
0
  6
SLD-SOLID
 62
     7
100
AcDbLine
 10
52.5324847802
 20
37.5771689268
 30
0.0
 11
52.6094847802
 21
37.5771689268
 31
0.0
  0
LINE
  5
D3
330
77A
100
AcDbEntity
  8
0
  6
SLD-SOLID
 62
     7
100
AcDbLine
 10
52.5324847802
 20
48.7341689268
 30
0.0
 11
52.5324847802
 21
37.5771689268
 31
0.0
  0
LINE
  5
D4
330
77A
100
AcDbEntity
  8
0
  6
SLD-SOLID
 62
     7
100
AcDbLine
 10
52.6094847802
 20
48.7341689268
 30
0.0
 11
52.5324847802
 21
48.7341689268
 31
0.0
  0
LINE
  5
D5
330
77A
100
AcDbEntity
  8
0
  6
SLD-SOLID
 62
     7
100
AcDbLine
 10
56.3584847802
 20
37.5381689268
 30
0.0
 11
55.6474847802
 21
37.5381689268
 31
0.0
  0
LINE
  5
D6
330
77A
100
AcDbEntity
  8
0
  6
SLD-SOLID
 62
     7
100
AcDbLine
 10
56.3584847802
 20
37.5001689268
 30
0.0
 11
55.6474847802
 21
37.5001689268
 31
0.0
  0
LINE
  5
D7
330
77A
100
AcDbEntity
  8
0
  6
SLD-SOLID
 62
     7
100
AcDbLine
 10
56.3584847802
 20
37.5001689268
 30
0.0
 11
56.3584847802
 21
37.5381689268
 31
0.0
  0
LINE
  5
D8
330
77A
100
AcDbEntity
  8
0
  6
SLD-SOLID
 62
     7
100
AcDbLine
 10
51.7824847802
 20
37.5001689268
 30
0.0
 11
51.7824847802
 21
37.5381689268
 31
0.0
  0
LINE
  5
D9
330
77A
100
AcDbEntity
  8
0
  6
SLD-SOLID
 62
     7
100
AcDbLine
 10
52.4934847802
 20
37.5381689268
 30
0.0
 11
51.7824847802
 21
37.5381689268
 31
0.0
  0
LINE
  5
DA
330
77A
100
AcDbEntity
  8
0
  6
SLD-SOLID
 62
     7
100
AcDbLine
 10
52.4934847802
 20
37.5001689268
 30
0.0
 11
51.7824847802
 21
37.5001689268
 31
0.0
  0
ARC
  5
DB
330
77A
100
AcDbEntity
  8
0
  6
SLD-SOLID
 62
     7
100
AcDbCircle
 10
52.4934847802
 20
37.5771689268
 30
0.0
 40
0.0770000000000053
100
AcDbArc
 50
270.0
 51
0.0
  0
ARC
  5
DC
330
77A
100
AcDbEntity
  8
0
  6
SLD-SOLID
 62
     7
100
AcDbCircle
 10
52.4934847802
 20
37.5771689268
 30
0.0
 40
0.0390000000000015
100
AcDbArc
 50
270.0
 51
0.0
  0
ARC
  5
DD
330
77A
100
AcDbEntity
  8
0
  6
SLD-SOLID
 62
     7
100
AcDbCircle
 10
55.6474847802
 20
37.5771689268
 30
0.0
 40
0.0389999999999944
100
AcDbArc
 50
180.0
 51
270.0
  0
ARC
  5
DE
330
77A
100
AcDbEntity
  8
0
  6
SLD-SOLID
 62
     7
100
AcDbCircle
 10
55.6474847802
 20
37.5771689268
 30
0.0
 40
0.0769999999999982
100
AcDbArc
 50
180.0
 51
270.0
  0
LINE
  5
DF
330
77A
100
AcDbEntity
  8
0
  6
SLD-SOLID
 62
     7
100
AcDbLine
 10
40.1649847802
 20
35.1645439268
 30
0.0
 11
40.1329847802
 21
35.1965439268
 31
0.0
  0
LINE
  5
E0
330
77A
100
AcDbEntity
  8
0
  6
SLD-SOLID
 62
     7
100
AcDbLine
 10
68.0079847802
 20
35.1965439268
 30
0.0
 11
40.1329847802
 21
35.1965439268
 31
0.0
  0
LINE
  5
E1
330
77A
100
AcDbEntity
  8
0
  6
SLD-SOLID
 62
     7
100
AcDbLine
 10
68.0079847802
 20
35.1965439268
 30
0.0
 11
67.9759847802
 21
35.1645439268
 31
0.0
  0
LINE
  5
E2
330
77A
100
AcDbEntity
  8
0
  6
SLD-SOLID
 62
     7
100
AcDbLine
 10
68.0079847802
 20
35.1965439268
 30
0.0
 11
68.0079847802
 21
23.9465439268
 31
0.0
  0
LINE
  5
E3
330
77A
100
AcDbEntity
  8
0
  6
SLD-SOLID
 62
     7
100
AcDbLine
 10
67.9759847802
 20
23.9785439268
 30
0.0
 11
68.0079847802
 21
23.9465439268
 31
0.0
  0
LINE
  5
E4
330
77A
100
AcDbEntity
  8
0
  6
SLD-SOLID
 62
     7
100
AcDbLine
 10
68.0079847802
 20
23.9465439268
 30
0.0
 11
40.1329847802
 21
23.9465439268
 31
0.0
  0
LINE
  5
E5
330
77A
100
AcDbEntity
  8
0
  6
SLD-SOLID
 62
     7
100
AcDbLine
 10
40.1329847802
 20
23.9465439268
 30
0.0
 11
40.1649847802
 21
23.9785439268
 31
0.0
  0
LINE
  5
E6
330
77A
100
AcDbEntity
  8
0
  6
SLD-SOLID
 62
     7
100
AcDbLine
 10
40.7489847802
 20
24.5625439268
 30
0.0
 11
40.7809847802
 21
24.5945439268
 31
0.0
  0
LINE
  5
E7
330
77A
100
AcDbEntity
  8
0
  6
SLD-SOLID
 62
     7
100
AcDbLine
 10
40.7809847802
 20
34.5485439268
 30
0.0
 11
40.7489847802
 21
34.5805439268
 31
0.0
  0
LINE
  5
E8
330
77A
100
AcDbEntity
  8
0
  6
SLD-SOLID
 62
     7
100
AcDbLine
 10
40.7809847802
 20
24.5945439268
 30
0.0
 11
40.7809847802
 21
34.5485439268
 31
0.0
  0
LINE
  5
E9
330
77A
100
AcDbEntity
  8
0
  6
SLD-SOLID
 62
     7
100
AcDbLine
 10
67.3599847802
 20
34.5485439268
 30
0.0
 11
40.7809847802
 21
34.5485439268
 31
0.0
  0
LINE
  5
EA
330
77A
100
AcDbEntity
  8
0
  6
SLD-SOLID
 62
     7
100
AcDbLine
 10
67.3919847802
 20
34.5805439268
 30
0.0
 11
67.3599847802
 21
34.5485439268
 31
0.0
  0
LINE
  5
EB
330
77A
100
AcDbEntity
  8
0
  6
SLD-SOLID
 62
     7
100
AcDbLine
 10
40.1329847802
 20
23.9465439268
 30
0.0
 11
40.1329847802
 21
35.1965439268
 31
0.0
  0
LINE
  5
EC
330
77A
100
AcDbEntity
  8
0
  6
SLD-SOLID
 62
     7
100
AcDbLine
 10
67.3599847802
 20
24.5945439268
 30
0.0
 11
67.3919847802
 21
24.5625439268
 31
0.0
  0
LINE
  5
ED
330
77A
100
AcDbEntity
  8
0
  6
SLD-SOLID
 62
     7
100
AcDbLine
 10
67.3599847802
 20
34.5485439268
 30
0.0
 11
67.3599847802
 21
24.5945439268
 31
0.0
  0
LINE
  5
EE
330
77A
100
AcDbEntity
  8
0
  6
SLD-SOLID
 62
     7
100
AcDbLine
 10
67.3599847802
 20
24.5945439268
 30
0.0
 11
40.7809847802
 21
24.5945439268
 31
0.0
  0
LINE
  5
EF
330
77A
100
AcDbEntity
  8
0
  6
SLD-SOLID
 62
     7
100
AcDbLine
 10
40.7809847802
 20
24.5945439268
 30
0.0
 11
40.8129847802
 21
24.6265439268
 31
0.0
  0
LINE
  5
F0
330
77A
100
AcDbEntity
  8
0
  6
SLD-SOLID
 62
     7
100
AcDbLine
 10
40.8129847802
 20
34.5165439268
 30
0.0
 11
40.7809847802
 21
34.5485439268
 31
0.0
  0
LINE
  5
F1
330
77A
100
AcDbEntity
  8
0
  6
SLD-SOLID
 62
     7
100
AcDbLine
 10
67.3279847802
 20
24.6265439268
 30
0.0
 11
67.3599847802
 21
24.5945439268
 31
0.0
  0
LINE
  5
F2
330
77A
100
AcDbEntity
  8
0
  6
SLD-SOLID
 62
     7
100
AcDbLine
 10
67.3599847802
 20
34.5485439268
 30
0.0
 11
67.3279847802
 21
34.5165439268
 31
0.0
  0
LINE
  5
F3
330
77A
100
AcDbEntity
  8
0
  6
SLD-SOLID
 62
     7
100
AcDbLine
 10
40.8509847802
 20
24.6645439268
 30
0.0
 11
40.8829847802
 21
24.6965439268
 31
0.0
  0
LINE
  5
F4
330
77A
100
AcDbEntity
  8
0
  6
SLD-SOLID
 62
     7
100
AcDbLine
 10
40.8829847802
 20
34.4465439268
 30
0.0
 11
40.8509847802
 21
34.4785439268
 31
0.0
  0
LINE
  5
F5
330
77A
100
AcDbEntity
  8
0
  6
SLD-SOLID
 62
     7
100
AcDbLine
 10
40.8829847802
 20
24.6965439268
 30
0.0
 11
40.8829847802
 21
34.4465439268
 31
0.0
  0
LINE
  5
F6
330
77A
100
AcDbEntity
  8
0
  6
SLD-SOLID
 62
     7
100
AcDbLine
 10
67.2579847802
 20
34.4465439268
 30
0.0
 11
40.8829847802
 21
34.4465439268
 31
0.0
  0
LINE
  5
F7
330
77A
100
AcDbEntity
  8
0
  6
SLD-SOLID
 62
     7
100
AcDbLine
 10
67.2899847802
 20
34.4785439268
 30
0.0
 11
67.2579847802
 21
34.4465439268
 31
0.0
  0
LINE
  5
F8
330
77A
100
AcDbEntity
  8
0
  6
SLD-SOLID
 62
     7
100
AcDbLine
 10
67.2579847802
 20
24.6965439268
 30
0.0
 11
40.8829847802
 21
24.6965439268
 31
0.0
  0
LINE
  5
F9
330
77A
100
AcDbEntity
  8
0
  6
SLD-SOLID
 62
     7
100
AcDbLine
 10
67.2579847802
 20
24.6965439268
 30
0.0
 11
67.2899847802
 21
24.6645439268
 31
0.0
  0
LINE
  5
FA
330
77A
100
AcDbEntity
  8
0
  6
SLD-SOLID
 62
     7
100
AcDbLine
 10
67.2579847802
 20
34.4465439268
 30
0.0
 11
67.2579847802
 21
24.6965439268
 31
0.0
  0
CIRCLE
  5
FB
330
77A
100
AcDbEntity
  8
0
  6
SLD-SOLID
 62
     7
100
AcDbCircle
 10
68.0079847802
 20
22.9320439268
 30
0.0
 40
0.1875
  0
LINE
  5
FC
330
77A
100
AcDbEntity
  8
0
  6
SLD-SOLID
 62
     7
100
AcDbLine
 10
67.9567347802
 20
22.9520439268
 30
0.0
 11
67.8829847802
 21
22.9520439268
 31
0.0
  0
LINE
  5
FD
330
77A
100
AcDbEntity
  8
0
  6
SLD-SOLID
 62
     7
100
AcDbLine
 10
67.8829847802
 20
22.9520439268
 30
0.0
 11
67.8829847802
 21
22.9120439268
 31
0.0
  0
LINE
  5
FE
330
77A
100
AcDbEntity
  8
0
  6
SLD-SOLID
 62
     7
100
AcDbLine
 10
67.8829847802
 20
22.9120439268
 30
0.0
 11
67.9567347802
 21
22.9120439268
 31
0.0
  0
LINE
  5
FF
330
77A
100
AcDbEntity
  8
0
  6
SLD-SOLID
 62
     7
100
AcDbLine
 10
67.9879847802
 20
22.8807939268
 30
0.0
 11
67.9879847802
 21
22.8070439268
 31
0.0
  0
LINE
  5
100
330
77A
100
AcDbEntity
  8
0
  6
SLD-SOLID
 62
     7
100
AcDbLine
 10
67.9879847802
 20
22.8070439268
 30
0.0
 11
68.0279847802
 21
22.8070439268
 31
0.0
  0
LINE
  5
101
330
77A
100
AcDbEntity
  8
0
  6
SLD-SOLID
 62
     7
100
AcDbLine
 10
68.0279847802
 20
22.8070439268
 30
0.0
 11
68.0279847802
 21
22.8807939268
 31
0.0
  0
LINE
  5
102
330
77A
100
AcDbEntity
  8
0
  6
SLD-SOLID
 62
     7
100
AcDbLine
 10
68.0592347802
 20
22.9120439268
 30
0.0
 11
68.1329847802
 21
22.9120439268
 31
0.0
  0
LINE
  5
103
330
77A
100
AcDbEntity
  8
0
  6
SLD-SOLID
 62
     7
100
AcDbLine
 10
68.1329847802
 20
22.9120439268
 30
0.0
 11
68.1329847802
 21
22.9520439268
 31
0.0
  0
LINE
  5
104
330
77A
100
AcDbEntity
  8
0
  6
SLD-SOLID
 62
     7
100
AcDbLine
 10
68.1329847802
 20
22.9520439268
 30
0.0
 11
68.0592347802
 21
22.9520439268
 31
0.0
  0
LINE
  5
105
330
77A
100
AcDbEntity
  8
0
  6
SLD-SOLID
 62
     7
100
AcDbLine
 10
68.0279847802
 20
22.9832939268
 30
0.0
 11
68.0279847802
 21
23.0570439268
 31
0.0
  0
LINE
  5
106
330
77A
100
AcDbEntity
  8
0
  6
SLD-SOLID
 62
     7
100
AcDbLine
 10
68.0279847802
 20
23.0570439268
 30
0.0
 11
67.9879847802
 21
23.0570439268
 31
0.0
  0
LINE
  5
107
330
77A
100
AcDbEntity
  8
0
  6
SLD-SOLID
 62
     7
100
AcDbLine
 10
67.9879847802
 20
23.0570439268
 30
0.0
 11
67.9879847802
 21
22.9832939268
 31
0.0
  0
ARC
  5
108
330
77A
100
AcDbEntity
  8
0
  6
SLD-SOLID
 62
     7
100
AcDbCircle
 10
68.0592347802
 20
22.8807939268
 30
0.0
 40
0.0312500000000142
100
AcDbArc
 50
90.0
 51
180.0
  0
ARC
  5
109
330
77A
100
AcDbEntity
  8
0
  6
SLD-SOLID
 62
     7
100
AcDbCircle
 10
68.0592347802
 20
22.9832939268
 30
0.0
 40
0.0312500000000426
100
AcDbArc
 50
180.0000000001
 51
269.9999999999
  0
ARC
  5
10A
330
77A
100
AcDbEntity
  8
0
  6
SLD-SOLID
 62
     7
100
AcDbCircle
 10
67.9567347802
 20
22.8807939268
 30
0.0
 40
0.0312500000000036
100
AcDbArc
 50
0.0
 51
90.0
  0
ARC
  5
10B
330
77A
100
AcDbEntity
  8
0
  6
SLD-SOLID
 62
     7
100
AcDbCircle
 10
67.9567347802
 20
22.9832939268
 30
0.0
 40
0.0312499999999929
100
AcDbArc
 50
270.0
 51
0.0
  0
CIRCLE
  5
10C
330
77A
100
AcDbEntity
  8
0
  6
SLD-SOLID
 62
     7
100
AcDbCircle
 10
40.1329847802
 20
22.9320439268
 30
0.0
 40
0.1875
  0
LINE
  5
10D
330
77A
100
AcDbEntity
  8
0
  6
SLD-SOLID
 62
     7
100
AcDbLine
 10
40.0817347802
 20
22.9520439268
 30
0.0
 11
40.0079847802
 21
22.9520439268
 31
0.0
  0
LINE
  5
10E
330
77A
100
AcDbEntity
  8
0
  6
SLD-SOLID
 62
     7
100
AcDbLine
 10
40.0079847802
 20
22.9520439268
 30
0.0
 11
40.0079847802
 21
22.9120439268
 31
0.0
  0
LINE
  5
10F
330
77A
100
AcDbEntity
  8
0
  6
SLD-SOLID
 62
     7
100
AcDbLine
 10
40.0079847802
 20
22.9120439268
 30
0.0
 11
40.0817347802
 21
22.9120439268
 31
0.0
  0
LINE
  5
110
330
77A
100
AcDbEntity
  8
0
  6
SLD-SOLID
 62
     7
100
AcDbLine
 10
40.1129847802
 20
22.8807939268
 30
0.0
 11
40.1129847802
 21
22.8070439268
 31
0.0
  0
LINE
  5
111
330
77A
100
AcDbEntity
  8
0
  6
SLD-SOLID
 62
     7
100
AcDbLine
 10
40.1129847802
 20
22.8070439268
 30
0.0
 11
40.1529847802
 21
22.8070439268
 31
0.0
  0
LINE
  5
112
330
77A
100
AcDbEntity
  8
0
  6
SLD-SOLID
 62
     7
100
AcDbLine
 10
40.1529847802
 20
22.8070439268
 30
0.0
 11
40.1529847802
 21
22.8807939268
 31
0.0
  0
LINE
  5
113
330
77A
100
AcDbEntity
  8
0
  6
SLD-SOLID
 62
     7
100
AcDbLine
 10
40.1842347802
 20
22.9120439268
 30
0.0
 11
40.2579847802
 21
22.9120439268
 31
0.0
  0
LINE
  5
114
330
77A
100
AcDbEntity
  8
0
  6
SLD-SOLID
 62
     7
100
AcDbLine
 10
40.2579847802
 20
22.9120439268
 30
0.0
 11
40.2579847802
 21
22.9520439268
 31
0.0
  0
LINE
  5
115
330
77A
100
AcDbEntity
  8
0
  6
SLD-SOLID
 62
     7
100
AcDbLine
 10
40.2579847802
 20
22.9520439268
 30
0.0
 11
40.1842347802
 21
22.9520439268
 31
0.0
  0
LINE
  5
116
330
77A
100
AcDbEntity
  8
0
  6
SLD-SOLID
 62
     7
100
AcDbLine
 10
40.1529847802
 20
22.9832939268
 30
0.0
 11
40.1529847802
 21
23.0570439268
 31
0.0
  0
LINE
  5
117
330
77A
100
AcDbEntity
  8
0
  6
SLD-SOLID
 62
     7
100
AcDbLine
 10
40.1529847802
 20
23.0570439268
 30
0.0
 11
40.1129847802
 21
23.0570439268
 31
0.0
  0
LINE
  5
118
330
77A
100
AcDbEntity
  8
0
  6
SLD-SOLID
 62
     7
100
AcDbLine
 10
40.1129847802
 20
23.0570439268
 30
0.0
 11
40.1129847802
 21
22.9832939268
 31
0.0
  0
ARC
  5
119
330
77A
100
AcDbEntity
  8
0
  6
SLD-SOLID
 62
     7
100
AcDbCircle
 10
40.1842347802
 20
22.8807939268
 30
0.0
 40
0.0312500000000071
100
AcDbArc
 50
90.0
 51
180.0
  0
ARC
  5
11A
330
77A
100
AcDbEntity
  8
0
  6
SLD-SOLID
 62
     7
100
AcDbCircle
 10
40.0817347802
 20
22.8807939268
 30
0.0
 40
0.0312500000000142
100
AcDbArc
 50
0.0
 51
90.0
  0
ARC
  5
11B
330
77A
100
AcDbEntity
  8
0
  6
SLD-SOLID
 62
     7
100
AcDbCircle
 10
40.1842347802
 20
22.9832939268
 30
0.0
 40
0.0312500000000071
100
AcDbArc
 50
180.0
 51
270.0
  0
ARC
  5
11C
330
77A
100
AcDbEntity
  8
0
  6
SLD-SOLID
 62
     7
100
AcDbCircle
 10
40.0817347802
 20
22.9832939268
 30
0.0
 40
0.03125
100
AcDbArc
 50
270.0
 51
0.0
  0
LINE
  5
11D
330
77A
100
AcDbEntity
  8
0
  6
SLD-SOLID
 62
     7
100
AcDbLine
 10
57.0626107644
 20
23.8749947142
 30
0.0
 11
57.2299335991
 21
23.8749947142
 31
0.0
  0
LINE
  5
11E
330
77A
100
AcDbEntity
  8
0
  6
SLD-SOLID
 62
     7
100
AcDbLine
 10
56.8952879298
 20
23.8749947142
 30
0.0
 11
57.0626107644
 21
23.8749947142
 31
0.0
  0
LINE
  5
11F
330
77A
100
AcDbEntity
  8
0
  6
SLD-SOLID
 62
     7
100
AcDbLine
 10
55.794894229
 20
23.8285380213
 30
0.0
 11
55.8018094432
 21
23.8000410678
 31
0.0
  0
LINE
  5
120
330
77A
100
AcDbEntity
  8
0
  6
SLD-SOLID
 62
     7
100
AcDbLine
 10
55.7879790148
 20
23.8570349748
 30
0.0
 11
55.794894229
 21
23.8285380213
 31
0.0
  0
LINE
  5
121
330
77A
100
AcDbEntity
  8
0
  6
SLD-SOLID
 62
     7
100
AcDbLine
 10
56.0980438353
 20
23.7688416943
 30
0.0
 11
56.0980438353
 21
23.6994900883
 31
0.0
  0
LINE
  5
122
330
77A
100
AcDbEntity
  8
0
  6
SLD-SOLID
 62
     7
100
AcDbLine
 10
56.0980438353
 20
23.7688416943
 30
0.0
 11
56.3296302316
 21
23.8817939268
 31
0.0
  0
LWPOLYLINE
  5
123
330
77A
100
AcDbEntity
  8
0
  6
SLD-SOLID
 62
     7
100
AcDbPolyline
 90
        3
 70
   128
 43
0.0
 10
56.8429670182
 20
23.8817939268
 10
56.8446243478
 20
23.8753167102
 10
56.8457729235
 20
23.863697806
  0
LINE
  5
124
330
77A
100
AcDbEntity
  8
0
  6
SLD-SOLID
 62
     7
100
AcDbLine
 10
56.8457729235
 20
23.863697806
 30
0.0
 11
56.8460753313
 21
23.863697806
 31
0.0
  0
LINE
  5
125
330
77A
100
AcDbEntity
  8
0
  6
SLD-SOLID
 62
     7
100
AcDbLine
 10
56.8460753313
 20
23.863697806
 30
0.0
 11
56.8460753313
 21
23.6994900883
 31
0.0
  0
ARC
  5
126
330
77A
100
AcDbEntity
  8
0
  6
SLD-SOLID
 62
     7
100
AcDbCircle
 10
56.5704847802
 20
23.6819134517
 30
0.0
 40
0.0867765526170882
100
AcDbArc
 50
11.6861468093
 51
168.3138531907
  0
LINE
  5
127
330
77A
100
AcDbEntity
  8
0
  6
SLD-SOLID
 62
     7
100
AcDbLine
 10
56.8460753313
 20
23.8817184801
 30
0.0
 11
56.8460753313
 21
23.8733668252
 31
0.0
  0
LINE
  5
128
330
77A
100
AcDbEntity
  8
0
  6
SLD-SOLID
 62
     7
100
AcDbLine
 10
56.8460753313
 20
23.8733668252
 30
0.0
 11
56.8454725239
 21
23.8817939268
 31
0.0
  0
LINE
  5
129
330
77A
100
AcDbEntity
  8
0
  6
SLD-SOLID
 62
     7
100
AcDbLine
 10
56.8457729235
 20
23.8720494609
 30
0.0
 11
56.8449662195
 21
23.8817939268
 31
0.0
  0
LINE
  5
12A
330
77A
100
AcDbEntity
  8
0
  6
SLD-SOLID
 62
     7
100
AcDbLine
 10
56.8457729235
 20
23.863697806
 30
0.0
 11
56.8457729235
 21
23.8720494609
 31
0.0
  0
LINE
  5
12B
330
77A
100
AcDbEntity
  8
0
  6
SLD-SOLID
 62
     7
100
AcDbLine
 10
56.8460753313
 20
23.8733668252
 30
0.0
 11
56.8460753313
 21
23.8720494609
 31
0.0
  0
LINE
  5
12C
330
77A
100
AcDbEntity
  8
0
  6
SLD-SOLID
 62
     7
100
AcDbLine
 10
56.8460753313
 20
23.8720494609
 30
0.0
 11
56.8457729235
 21
23.8720494609
 31
0.0
  0
LINE
  5
12D
330
77A
100
AcDbEntity
  8
0
  6
SLD-SOLID
 62
     7
100
AcDbLine
 10
56.0980438353
 20
23.7880036931
 30
0.0
 11
56.0980438353
 21
23.7771933492
 31
0.0
  0
ARC
  5
12E
330
77A
100
AcDbEntity
  8
0
  6
SLD-SOLID
 62
     7
100
AcDbCircle
 10
56.090555437
 20
23.749228456
 30
0.0
 40
0.0394917094739844
100
AcDbArc
 50
65.1185133626
 51
79.0694203783
  0
LWPOLYLINE
  5
12F
330
77A
100
AcDbEntity
  8
0
  6
SLD-SOLID
 62
     7
100
AcDbPolyline
 90
        3
 70
   128
 43
0.0
 10
56.1071712858
 20
23.7850545455
 10
56.1097829398
 20
23.7843048332
 10
56.1119183022
 20
23.7841603287
  0
LINE
  5
130
330
77A
100
AcDbEntity
  8
0
  6
SLD-SOLID
 62
     7
100
AcDbLine
 10
56.2198985948
 20
23.8366258865
 30
0.0
 11
56.306156921
 21
23.8817939268
 31
0.0
  0
LINE
  5
131
330
77A
100
AcDbEntity
  8
0
  6
SLD-SOLID
 62
     7
100
AcDbLine
 10
56.0980438353
 20
23.7771933492
 30
0.0
 11
56.0980438353
 21
23.7688416943
 31
0.0
  0
LINE
  5
132
330
77A
100
AcDbEntity
  8
0
  6
SLD-SOLID
 62
     7
100
AcDbLine
 10
56.3125068015
 20
23.8817939268
 30
0.0
 11
56.0980438353
 21
23.7771933492
 31
0.0
  0
LINE
  5
133
330
77A
100
AcDbEntity
  8
0
  6
SLD-SOLID
 62
     7
100
AcDbLine
 10
56.8460753313
 20
23.8720494609
 30
0.0
 11
56.8460753313
 21
23.863697806
 31
0.0
  0
LWPOLYLINE
  5
134
330
77A
100
AcDbEntity
  8
0
  6
SLD-SOLID
 62
     7
100
AcDbPolyline
 90
        3
 70
   128
 43
0.0
 10
56.4850898761
 20
23.6965439268
 10
56.4852001908
 20
23.6977385906
 10
56.4855069482
 20
23.6994900883
  0
LINE
  5
135
330
77A
100
AcDbEntity
  8
0
  6
SLD-SOLID
 62
     7
100
AcDbLine
 10
56.6554626121
 20
23.6994900883
 30
0.0
 11
56.6558491877
 21
23.6965439268
 31
0.0
  0
LINE
  5
136
330
77A
100
AcDbEntity
  8
0
  6
SLD-SOLID
 62
     7
100
AcDbLine
 10
56.0980438353
 20
23.7891679426
 30
0.0
 11
56.0980438353
 21
23.7880036931
 31
0.0
  0
LINE
  5
137
330
77A
100
AcDbEntity
  8
0
  6
SLD-SOLID
 62
     7
100
AcDbLine
 10
56.0980438353
 20
23.6994900883
 30
0.0
 11
56.0980438353
 21
23.6965439268
 31
0.0
  0
LINE
  5
138
330
77A
100
AcDbEntity
  8
0
  6
SLD-SOLID
 62
     7
100
AcDbLine
 10
56.8460753313
 20
23.6994900883
 30
0.0
 11
56.8460753313
 21
23.6965439268
 31
0.0
  0
LINE
  5
139
330
77A
100
AcDbEntity
  8
0
  6
SLD-SOLID
 62
     7
100
AcDbLine
 10
50.1476097802
 20
23.9465439268
 30
0.0
 11
50.1476097802
 21
23.6965439268
 31
0.0
  0
LINE
  5
13A
330
77A
100
AcDbEntity
  8
0
  6
SLD-SOLID
 62
     7
100
AcDbLine
 10
45.3124697802
 20
23.9465439268
 30
0.0
 11
45.3124697802
 21
23.6965439268
 31
0.0
  0
LINE
  5
13B
330
77A
100
AcDbEntity
  8
0
  6
SLD-SOLID
 62
     7
100
AcDbLine
 10
53.3204847802
 20
23.9465439268
 30
0.0
 11
53.3204847802
 21
23.6965439268
 31
0.0
  0
LINE
  5
13C
330
77A
100
AcDbEntity
  8
0
  6
SLD-SOLID
 62
     7
100
AcDbLine
 10
54.8204847802
 20
23.6965439268
 30
0.0
 11
54.8204847802
 21
23.9465439268
 31
0.0
  0
LINE
  5
13D
330
77A
100
AcDbEntity
  8
0
  6
SLD-SOLID
 62
     7
100
AcDbLine
 10
41.4282347802
 20
23.9465439268
 30
0.0
 11
41.4282347802
 21
23.6965439268
 31
0.0
  0
LINE
  5
13E
330
77A
100
AcDbEntity
  8
0
  6
SLD-SOLID
 62
     7
100
AcDbLine
 10
50.7384847802
 20
23.6965439268
 30
0.0
 11
50.7384847802
 21
23.9465439268
 31
0.0
  0
LINE
  5
13F
330
77A
100
AcDbEntity
  8
0
  6
SLD-SOLID
 62
     7
100
AcDbLine
 10
66.7127347802
 20
23.6965439268
 30
0.0
 11
66.7127347802
 21
23.9465439268
 31
0.0
  0
CIRCLE
  5
140
330
77A
100
AcDbEntity
  8
0
  6
SLD-SOLID
 62
     7
100
AcDbCircle
 10
58.4109297802
 20
23.8763379561
 30
0.0
 40
0.0640000000000001
  0
CIRCLE
  5
141
330
77A
100
AcDbEntity
  8
0
  6
SLD-SOLID
 62
     7
100
AcDbCircle
 10
62.4109297802
 20
23.8763379561
 30
0.0
 40
0.0640000000000001
  0
LINE
  5
142
330
77A
100
AcDbEntity
  8
0
  6
SLD-SOLID
 62
     7
100
AcDbLine
 10
57.4024847802
 20
23.9465439268
 30
0.0
 11
57.4024847802
 21
23.6965439268
 31
0.0
  0
LINE
  5
143
330
77A
100
AcDbEntity
  8
0
  6
SLD-SOLID
 62
     7
100
AcDbLine
 10
41.3199847802
 20
23.6965439268
 30
0.0
 11
41.3199847802
 21
23.9465439268
 31
0.0
  0
LINE
  5
144
330
77A
100
AcDbEntity
  8
0
  6
SLD-SOLID
 62
     7
100
AcDbLine
 10
66.8209847802
 20
23.9465439268
 30
0.0
 11
66.8209847802
 21
23.6965439268
 31
0.0
  0
LINE
  5
145
330
77A
100
AcDbEntity
  8
0
  6
SLD-SOLID
 62
     7
100
AcDbLine
 10
66.7499847802
 20
23.6965439268
 30
0.0
 11
66.7499847802
 21
23.9465439268
 31
0.0
  0
LINE
  5
146
330
77A
100
AcDbEntity
  8
0
  6
SLD-SOLID
 62
     7
100
AcDbLine
 10
66.7829847802
 20
23.6965439268
 30
0.0
 11
66.7829847802
 21
23.9465439268
 31
0.0
  0
LINE
  5
147
330
77A
100
AcDbEntity
  8
0
  6
SLD-SOLID
 62
     7
100
AcDbLine
 10
41.3579847802
 20
23.9465439268
 30
0.0
 11
41.3579847802
 21
23.6965439268
 31
0.0
  0
LINE
  5
148
330
77A
100
AcDbEntity
  8
0
  6
SLD-SOLID
 62
     7
100
AcDbLine
 10
41.3909847802
 20
23.9465439268
 30
0.0
 11
41.3909847802
 21
23.6965439268
 31
0.0
  0
LINE
  5
149
330
77A
100
AcDbEntity
  8
0
  6
SLD-SOLID
 62
     7
100
AcDbLine
 10
66.8625047478
 20
23.8878329473
 30
0.0
 11
66.8625047478
 21
23.7976219677
 31
0.0
  0
LINE
  5
14A
330
77A
100
AcDbEntity
  8
0
  6
SLD-SOLID
 62
     7
100
AcDbLine
 10
66.8625047478
 20
23.9465439268
 30
0.0
 11
66.8625047478
 21
23.8878329473
 31
0.0
  0
LINE
  5
14B
330
77A
100
AcDbEntity
  8
0
  6
SLD-SOLID
 62
     7
100
AcDbLine
 10
66.8522347802
 20
23.7592939268
 30
0.0
 11
66.8522347802
 21
23.9465439268
 31
0.0
  0
LINE
  5
14C
330
77A
100
AcDbEntity
  8
0
  6
SLD-SOLID
 62
     7
100
AcDbLine
 10
66.9084157015
 20
23.8878329473
 30
0.0
 11
66.8625047478
 21
23.8878329473
 31
0.0
  0
LINE
  5
14D
330
77A
100
AcDbEntity
  8
0
  6
SLD-SOLID
 62
     7
100
AcDbLine
 10
66.9084157015
 20
23.7976219677
 30
0.0
 11
66.8625047478
 21
23.7976219677
 31
0.0
  0
LINE
  5
14E
330
77A
100
AcDbEntity
  8
0
  6
SLD-SOLID
 62
     7
100
AcDbLine
 10
49.7300397802
 20
23.695915997
 30
0.0
 11
49.5737897802
 21
23.7861269765
 31
0.0
  0
LINE
  5
14F
330
77A
100
AcDbEntity
  8
0
  6
SLD-SOLID
 62
     7
100
AcDbLine
 10
49.5737897802
 20
23.7861269765
 30
0.0
 11
49.5737897802
 21
23.9465439268
 31
0.0
  0
LINE
  5
150
330
77A
100
AcDbEntity
  8
0
  6
SLD-SOLID
 62
     7
100
AcDbLine
 10
49.8862897802
 20
23.9465439268
 30
0.0
 11
49.8862897802
 21
23.7861269765
 31
0.0
  0
LINE
  5
151
330
77A
100
AcDbEntity
  8
0
  6
SLD-SOLID
 62
     7
100
AcDbLine
 10
49.8862897802
 20
23.7861269765
 30
0.0
 11
49.7300397802
 21
23.695915997
 31
0.0
  0
ARC
  5
152
330
77A
100
AcDbEntity
  8
0
  6
SLD-SOLID
 62
     7
100
AcDbCircle
 10
49.7300397802
 20
23.8763379561
 30
0.0
 40
0.140625
100
AcDbArc
 50
150.0501058988
 51
0.0
  0
LWPOLYLINE
  5
153
330
77A
100
AcDbEntity
  8
0
  6
SLD-SOLID
 62
     7
100
AcDbPolyline
 90
        3
 70
   128
 43
0.0
 10
49.8518860452
 20
23.9465439268
 10
49.8630453298
 20
23.921998819
 10
49.8706647802
 20
23.8763379561
  0
LWPOLYLINE
  5
154
330
77A
100
AcDbEntity
  8
0
  6
SLD-SOLID
 62
     7
100
AcDbPolyline
 90
        3
 70
   128
 43
0.0
 10
49.5112897802
 20
23.8763379561
 10
49.5187435057
 20
23.9329546222
 10
49.5228618755
 20
23.9465439268
  0
ARC
  5
155
330
77A
100
AcDbEntity
  8
0
  6
SLD-SOLID
 62
     7
100
AcDbCircle
 10
49.7300397802
 20
23.8763379561
 30
0.0
 40
0.2187500000000034
100
AcDbArc
 50
304.7229888309001
 51
18.719877233
  0
ARC
  5
156
330
77A
100
AcDbEntity
  8
0
  6
SLD-SOLID
 62
     7
100
AcDbCircle
 10
49.7300397802
 20
23.8763379561
 30
0.0
 40
0.21875
100
AcDbArc
 50
180.0
 51
235.2770111691
  0
LINE
  5
157
330
77A
100
AcDbEntity
  8
0
  6
SLD-SOLID
 62
     7
100
AcDbLine
 10
39.1159648126
 20
32.5819513963
 30
0.0
 11
39.1159648126
 21
32.6721623758
 31
0.0
  0
LWPOLYLINE
  5
158
330
77A
100
AcDbEntity
  8
0
  6
SLD-SOLID
 62
     7
100
AcDbPolyline
 90
        3
 70
   128
 43
0.0
 10
39.1159648126
 20
32.6721623758
 10
39.1132149842
 20
32.6949925027
 10
39.1159648126
 20
32.852584335
  0
LINE
  5
159
330
77A
100
AcDbEntity
  8
0
  6
SLD-SOLID
 62
     7
100
AcDbLine
 10
39.1159648126
 20
32.852584335
 30
0.0
 11
39.1159648126
 21
32.9427953145
 31
0.0
  0
LINE
  5
15A
330
77A
100
AcDbEntity
  8
0
  6
SLD-SOLID
 62
     7
100
AcDbLine
 10
39.1262347802
 20
32.9811233554
 30
0.0
 11
39.1262347802
 21
32.5436233554
 31
0.0
  0
LWPOLYLINE
  5
15B
330
77A
100
AcDbEntity
  8
0
  6
SLD-SOLID
 62
     7
100
AcDbPolyline
 90
        4
 70
   128
 43
0.0
 10
39.0097817393
 20
32.9427953145
 10
38.9860199838
 20
32.9033545603
 10
38.9924940512
 20
32.8742445273
 10
39.0097817393
 20
32.852584335
  0
LINE
  5
15C
330
77A
100
AcDbEntity
  8
0
  6
SLD-SOLID
 62
     7
100
AcDbLine
 10
39.0097817393
 20
32.9427953145
 30
0.0
 11
39.1159648126
 21
32.9427953145
 31
0.0
  0
LINE
  5
15D
330
77A
100
AcDbEntity
  8
0
  6
SLD-SOLID
 62
     7
100
AcDbLine
 10
39.0097817393
 20
32.852584335
 30
0.0
 11
39.1159648126
 21
32.852584335
 31
0.0
  0
ARC
  5
15E
330
77A
100
AcDbEntity
  8
0
  6
SLD-SOLID
 62
     7
100
AcDbCircle
 10
39.1756340611
 20
32.7623733554
 30
0.0
 40
0.1887988704788686
100
AcDbArc
 50
151.4571904726
 51
208.5428095274
  0
LWPOLYLINE
  5
15F
330
77A
100
AcDbEntity
  8
0
  6
SLD-SOLID
 62
     7
100
AcDbPolyline
 90
        4
 70
   128
 43
0.0
 10
39.0097817393
 20
32.6721623758
 10
38.9860199838
 20
32.6327216216
 10
38.9924940512
 20
32.6036115886
 10
39.0097817393
 20
32.5819513963
  0
LINE
  5
160
330
77A
100
AcDbEntity
  8
0
  6
SLD-SOLID
 62
     7
100
AcDbLine
 10
38.9699847802
 20
32.7623733554
 30
0.0
 11
38.9699847802
 21
32.6217483554
 31
0.0
  0
LINE
  5
161
330
77A
100
AcDbEntity
  8
0
  6
SLD-SOLID
 62
     7
100
AcDbLine
 10
38.9699847802
 20
32.9029983554
 30
0.0
 11
38.9699847802
 21
32.7623733554
 31
0.0
  0
LINE
  5
162
330
77A
100
AcDbEntity
  8
0
  6
SLD-SOLID
 62
     7
100
AcDbLine
 10
39.0097817393
 20
32.6721623758
 30
0.0
 11
39.1159648126
 21
32.6721623758
 31
0.0
  0
LINE
  5
163
330
77A
100
AcDbEntity
  8
0
  6
SLD-SOLID
 62
     7
100
AcDbLine
 10
39.0097817393
 20
32.5819513963
 30
0.0
 11
39.1159648126
 21
32.5819513963
 31
0.0
  0
LINE
  5
164
330
77A
100
AcDbEntity
  8
0
  6
SLD-SOLID
 62
     7
100
AcDbLine
 10
39.1159648126
 20
21.2033470115
 30
0.0
 11
39.1159648126
 21
21.2935579911
 31
0.0
  0
LWPOLYLINE
  5
165
330
77A
100
AcDbEntity
  8
0
  6
SLD-SOLID
 62
     7
100
AcDbPolyline
 90
        3
 70
   128
 43
0.0
 10
39.1159648126
 20
21.2935579911
 10
39.1132149842
 20
21.3163881179
 10
39.1159648126
 20
21.4739799502
  0
LINE
  5
166
330
77A
100
AcDbEntity
  8
0
  6
SLD-SOLID
 62
     7
100
AcDbLine
 10
39.1159648126
 20
21.4739799502
 30
0.0
 11
39.1159648126
 21
21.5641909298
 31
0.0
  0
LINE
  5
167
330
77A
100
AcDbEntity
  8
0
  6
SLD-SOLID
 62
     7
100
AcDbLine
 10
39.1262347802
 20
21.6025189707
 30
0.0
 11
39.1262347802
 21
21.1650189707
 31
0.0
  0
LWPOLYLINE
  5
168
330
77A
100
AcDbEntity
  8
0
  6
SLD-SOLID
 62
     7
100
AcDbPolyline
 90
        4
 70
   128
 43
0.0
 10
39.0097817393
 20
21.5641909298
 10
38.9860199838
 20
21.5247501756
 10
38.9924940512
 20
21.4956401425
 10
39.0097817393
 20
21.4739799502
  0
LINE
  5
169
330
77A
100
AcDbEntity
  8
0
  6
SLD-SOLID
 62
     7
100
AcDbLine
 10
39.0097817393
 20
21.5641909298
 30
0.0
 11
39.1159648126
 21
21.5641909298
 31
0.0
  0
LINE
  5
16A
330
77A
100
AcDbEntity
  8
0
  6
SLD-SOLID
 62
     7
100
AcDbLine
 10
39.0097817393
 20
21.4739799502
 30
0.0
 11
39.1159648126
 21
21.4739799502
 31
0.0
  0
LWPOLYLINE
  5
16B
330
77A
100
AcDbEntity
  8
0
  6
SLD-SOLID
 62
     7
100
AcDbPolyline
 90
        4
 70
   128
 43
0.0
 10
39.0097817393
 20
21.2935579911
 10
38.9860199838
 20
21.2541172369
 10
38.9924940512
 20
21.2250072038
 10
39.0097817393
 20
21.2033470115
  0
LINE
  5
16C
330
77A
100
AcDbEntity
  8
0
  6
SLD-SOLID
 62
     7
100
AcDbLine
 10
39.0097817393
 20
21.2935579911
 30
0.0
 11
39.1159648126
 21
21.2935579911
 31
0.0
  0
LINE
  5
16D
330
77A
100
AcDbEntity
  8
0
  6
SLD-SOLID
 62
     7
100
AcDbLine
 10
39.0097817393
 20
21.2033470115
 30
0.0
 11
39.1159648126
 21
21.2033470115
 31
0.0
  0
ARC
  5
16E
330
77A
100
AcDbEntity
  8
0
  6
SLD-SOLID
 62
     7
100
AcDbCircle
 10
39.1756340611
 20
21.3837689707
 30
0.0
 40
0.1887988704787892
100
AcDbArc
 50
151.4571904725
 51
208.5428095275
  0
LINE
  5
16F
330
77A
100
AcDbEntity
  8
0
  6
SLD-SOLID
 62
     7
100
AcDbLine
 10
38.9699847802
 20
21.3837689707
 30
0.0
 11
38.9699847802
 21
21.2431439707
 31
0.0
  0
LINE
  5
170
330
77A
100
AcDbEntity
  8
0
  6
SLD-SOLID
 62
     7
100
AcDbLine
 10
38.9699847802
 20
21.5243939707
 30
0.0
 11
38.9699847802
 21
21.3837689707
 31
0.0
  0
LINE
  5
171
330
77A
100
AcDbEntity
  8
0
  6
SLD-SOLID
 62
     7
100
AcDbLine
 10
69.0147347802
 20
34.9645474851
 30
0.0
 11
69.0147347802
 21
34.9811233554
 31
0.0
  0
LINE
  5
172
330
77A
100
AcDbEntity
  8
0
  6
SLD-SOLID
 62
     7
100
AcDbLine
 10
69.0147347802
 20
34.5436233554
 30
0.0
 11
69.0147347802
 21
34.9645474851
 31
0.0
  0
LINE
  5
173
330
77A
100
AcDbEntity
  8
0
  6
SLD-SOLID
 62
     7
100
AcDbLine
 10
69.0250047478
 20
34.6934793532
 30
0.0
 11
69.0250047478
 21
34.5835162617
 31
0.0
  0
LWPOLYLINE
  5
174
330
77A
100
AcDbEntity
  8
0
  6
SLD-SOLID
 62
     7
100
AcDbPolyline
 90
        3
 70
   128
 43
0.0
 10
69.0254482411
 20
34.931525188
 10
69.0277545761
 20
34.8810541153
 10
69.0250047478
 20
34.8723364469
  0
LINE
  5
175
330
77A
100
AcDbEntity
  8
0
  6
SLD-SOLID
 62
     7
100
AcDbLine
 10
69.0250047478
 20
34.8723364469
 30
0.0
 11
69.0250047478
 21
34.6934793532
 31
0.0
  0
ARC
  5
176
330
77A
100
AcDbEntity
  8
0
  6
SLD-SOLID
 62
     7
100
AcDbCircle
 10
68.9742294955
 20
34.7829079001
 30
0.0
 40
0.1806471171993412
100
AcDbArc
 50
330.3272476936
 51
29.6727523064
  0
LINE
  5
177
330
77A
100
AcDbEntity
  8
0
  6
SLD-SOLID
 62
     7
100
AcDbLine
 10
69.131187821
 20
34.6934793532
 30
0.0
 11
69.0250047478
 21
34.6934793532
 31
0.0
  0
LINE
  5
178
330
77A
100
AcDbEntity
  8
0
  6
SLD-SOLID
 62
     7
100
AcDbLine
 10
69.131187821
 20
34.8723364469
 30
0.0
 11
69.0250047478
 21
34.8723364469
 31
0.0
  0
LWPOLYLINE
  5
179
330
77A
100
AcDbEntity
  8
0
  6
SLD-SOLID
 62
     7
100
AcDbPolyline
 90
        5
 70
   128
 43
0.0
 10
69.131187821
 20
34.8723364469
 10
69.1371878452
 20
34.8771834777
 10
69.1551655622
 20
34.9038076965
 10
69.1449189676
 20
34.9289562529
 10
69.131187821
 20
34.9412304491
  0
LWPOLYLINE
  5
17A
330
77A
100
AcDbEntity
  8
0
  6
SLD-SOLID
 62
     7
100
AcDbPolyline
 90
        3
 70
   128
 43
0.0
 10
69.1409841701
 20
34.593985485
 10
69.1371878452
 20
34.5883632925
 10
69.131187821
 20
34.5835162617
  0
LWPOLYLINE
  5
17B
330
77A
100
AcDbEntity
  8
0
  6
SLD-SOLID
 62
     7
100
AcDbPolyline
 90
        4
 70
   128
 43
0.0
 10
69.131187821
 20
34.5835162617
 10
69.1549495765
 20
34.6315927518
 10
69.1484755091
 20
34.6670765615
 10
69.131187821
 20
34.6934793532
  0
LINE
  5
17C
330
77A
100
AcDbEntity
  8
0
  6
SLD-SOLID
 62
     7
100
AcDbLine
 10
69.1709847802
 20
34.6217483554
 30
0.0
 11
69.1709847802
 21
34.9029983554
 31
0.0
  0
LINE
  5
17D
330
77A
100
AcDbEntity
  8
0
  6
SLD-SOLID
 62
     7
100
AcDbLine
 10
69.131187821
 20
34.5835162617
 30
0.0
 11
69.0250047478
 21
34.5835162617
 31
0.0
  0
LINE
  5
17E
330
77A
100
AcDbEntity
  8
0
  6
SLD-SOLID
 62
     7
100
AcDbLine
 10
69.131187821
 20
34.9412304491
 30
0.0
 11
69.0254240522
 21
34.9412304491
 31
0.0
  0
LINE
  5
17F
330
77A
100
AcDbEntity
  8
0
  6
SLD-SOLID
 62
     7
100
AcDbLine
 10
39.1262347802
 20
31.6025189707
 30
0.0
 11
39.1262347802
 21
31.1650189707
 31
0.0
  0
LINE
  5
180
330
77A
100
AcDbEntity
  8
0
  6
SLD-SOLID
 62
     7
100
AcDbLine
 10
39.1159648126
 20
31.2033470115
 30
0.0
 11
39.1159648126
 21
31.2935579911
 31
0.0
  0
LWPOLYLINE
  5
181
330
77A
100
AcDbEntity
  8
0
  6
SLD-SOLID
 62
     7
100
AcDbPolyline
 90
        3
 70
   128
 43
0.0
 10
39.1159648126
 20
31.2935579911
 10
39.1132149842
 20
31.3163881179
 10
39.1159648126
 20
31.4739799502
  0
LINE
  5
182
330
77A
100
AcDbEntity
  8
0
  6
SLD-SOLID
 62
     7
100
AcDbLine
 10
39.1159648126
 20
31.4739799502
 30
0.0
 11
39.1159648126
 21
31.5641909298
 31
0.0
  0
ARC
  5
183
330
77A
100
AcDbEntity
  8
0
  6
SLD-SOLID
 62
     7
100
AcDbCircle
 10
39.1756340611
 20
31.3837689707
 30
0.0
 40
0.1887988704788578
100
AcDbArc
 50
151.4571904725
 51
208.5428095274
  0
LINE
  5
184
330
77A
100
AcDbEntity
  8
0
  6
SLD-SOLID
 62
     7
100
AcDbLine
 10
39.0097817393
 20
31.4739799502
 30
0.0
 11
39.1159648126
 21
31.4739799502
 31
0.0
  0
LINE
  5
185
330
77A
100
AcDbEntity
  8
0
  6
SLD-SOLID
 62
     7
100
AcDbLine
 10
39.0097817393
 20
31.2935579911
 30
0.0
 11
39.1159648126
 21
31.2935579911
 31
0.0
  0
LWPOLYLINE
  5
186
330
77A
100
AcDbEntity
  8
0
  6
SLD-SOLID
 62
     7
100
AcDbPolyline
 90
        4
 70
   128
 43
0.0
 10
39.0097817393
 20
31.2935579911
 10
38.9860199838
 20
31.2541172369
 10
38.9924940512
 20
31.2250072038
 10
39.0097817393
 20
31.2033470115
  0
LINE
  5
187
330
77A
100
AcDbEntity
  8
0
  6
SLD-SOLID
 62
     7
100
AcDbLine
 10
39.0097817393
 20
31.2033470115
 30
0.0
 11
39.1159648126
 21
31.2033470115
 31
0.0
  0
LWPOLYLINE
  5
188
330
77A
100
AcDbEntity
  8
0
  6
SLD-SOLID
 62
     7
100
AcDbPolyline
 90
        4
 70
   128
 43
0.0
 10
39.0097817393
 20
31.5641909298
 10
38.9860199838
 20
31.5247501756
 10
38.9924940512
 20
31.4956401425
 10
39.0097817393
 20
31.4739799502
  0
LINE
  5
189
330
77A
100
AcDbEntity
  8
0
  6
SLD-SOLID
 62
     7
100
AcDbLine
 10
38.9699847802
 20
31.3837689707
 30
0.0
 11
38.9699847802
 21
31.2431439707
 31
0.0
  0
LINE
  5
18A
330
77A
100
AcDbEntity
  8
0
  6
SLD-SOLID
 62
     7
100
AcDbLine
 10
38.9699847802
 20
31.5243939707
 30
0.0
 11
38.9699847802
 21
31.3837689707
 31
0.0
  0
LINE
  5
18B
330
77A
100
AcDbEntity
  8
0
  6
SLD-SOLID
 62
     7
100
AcDbLine
 10
39.0097817393
 20
31.5641909298
 30
0.0
 11
39.1159648126
 21
31.5641909298
 31
0.0
  0
LINE
  5
18C
330
77A
100
AcDbEntity
  8
0
  6
SLD-SOLID
 62
     7
100
AcDbLine
 10
69.0147347802
 20
32.9645474851
 30
0.0
 11
69.0147347802
 21
32.9811233554
 31
0.0
  0
LINE
  5
18D
330
77A
100
AcDbEntity
  8
0
  6
SLD-SOLID
 62
     7
100
AcDbLine
 10
69.0147347802
 20
32.5436233554
 30
0.0
 11
69.0147347802
 21
32.9645474851
 31
0.0
  0
LINE
  5
18E
330
77A
100
AcDbEntity
  8
0
  6
SLD-SOLID
 62
     7
100
AcDbLine
 10
69.0250047478
 20
32.6934793532
 30
0.0
 11
69.0250047478
 21
32.5835162617
 31
0.0
  0
LWPOLYLINE
  5
18F
330
77A
100
AcDbEntity
  8
0
  6
SLD-SOLID
 62
     7
100
AcDbPolyline
 90
        3
 70
   128
 43
0.0
 10
69.0254482411
 20
32.931525188
 10
69.0277545761
 20
32.8810541153
 10
69.0250047478
 20
32.8723364469
  0
LINE
  5
190
330
77A
100
AcDbEntity
  8
0
  6
SLD-SOLID
 62
     7
100
AcDbLine
 10
69.0250047478
 20
32.8723364469
 30
0.0
 11
69.0250047478
 21
32.6934793532
 31
0.0
  0
ARC
  5
191
330
77A
100
AcDbEntity
  8
0
  6
SLD-SOLID
 62
     7
100
AcDbCircle
 10
68.9742294955
 20
32.7829079001
 30
0.0
 40
0.1806471171993747
100
AcDbArc
 50
330.3272476936
 51
29.6727523064
  0
LINE
  5
192
330
77A
100
AcDbEntity
  8
0
  6
SLD-SOLID
 62
     7
100
AcDbLine
 10
69.131187821
 20
32.6934793532
 30
0.0
 11
69.0250047478
 21
32.6934793532
 31
0.0
  0
LINE
  5
193
330
77A
100
AcDbEntity
  8
0
  6
SLD-SOLID
 62
     7
100
AcDbLine
 10
69.131187821
 20
32.8723364469
 30
0.0
 11
69.0250047478
 21
32.8723364469
 31
0.0
  0
LWPOLYLINE
  5
194
330
77A
100
AcDbEntity
  8
0
  6
SLD-SOLID
 62
     7
100
AcDbPolyline
 90
        5
 70
   128
 43
0.0
 10
69.131187821
 20
32.8723364469
 10
69.1371878452
 20
32.8771834777
 10
69.1551655622
 20
32.9038076965
 10
69.1449189676
 20
32.9289562529
 10
69.131187821
 20
32.9412304491
  0
LWPOLYLINE
  5
195
330
77A
100
AcDbEntity
  8
0
  6
SLD-SOLID
 62
     7
100
AcDbPolyline
 90
        3
 70
   128
 43
0.0
 10
69.1409841701
 20
32.593985485
 10
69.1371878452
 20
32.5883632925
 10
69.131187821
 20
32.5835162617
  0
LWPOLYLINE
  5
196
330
77A
100
AcDbEntity
  8
0
  6
SLD-SOLID
 62
     7
100
AcDbPolyline
 90
        4
 70
   128
 43
0.0
 10
69.131187821
 20
32.5835162617
 10
69.1549495765
 20
32.6315927518
 10
69.1484755091
 20
32.6670765615
 10
69.131187821
 20
32.6934793532
  0
LINE
  5
197
330
77A
100
AcDbEntity
  8
0
  6
SLD-SOLID
 62
     7
100
AcDbLine
 10
69.1709847802
 20
32.6217483554
 30
0.0
 11
69.1709847802
 21
32.9029983554
 31
0.0
  0
LINE
  5
198
330
77A
100
AcDbEntity
  8
0
  6
SLD-SOLID
 62
     7
100
AcDbLine
 10
69.131187821
 20
32.5835162617
 30
0.0
 11
69.0250047478
 21
32.5835162617
 31
0.0
  0
LINE
  5
199
330
77A
100
AcDbEntity
  8
0
  6
SLD-SOLID
 62
     7
100
AcDbLine
 10
69.131187821
 20
32.9412304491
 30
0.0
 11
69.0254240522
 21
32.9412304491
 31
0.0
  0
LINE
  5
19A
330
77A
100
AcDbEntity
  8
0
  6
SLD-SOLID
 62
     7
100
AcDbLine
 10
69.0250047478
 20
31.3148749685
 30
0.0
 11
69.0250047478
 21
31.204911877
 31
0.0
  0
LWPOLYLINE
  5
19B
330
77A
100
AcDbEntity
  8
0
  6
SLD-SOLID
 62
     7
100
AcDbPolyline
 90
        3
 70
   128
 43
0.0
 10
69.0254482411
 20
31.5529208032
 10
69.0277545761
 20
31.5024497306
 10
69.0250047478
 20
31.4937320622
  0
LINE
  5
19C
330
77A
100
AcDbEntity
  8
0
  6
SLD-SOLID
 62
     7
100
AcDbLine
 10
69.0250047478
 20
31.4937320622
 30
0.0
 11
69.0250047478
 21
31.3148749685
 31
0.0
  0
LINE
  5
19D
330
77A
100
AcDbEntity
  8
0
  6
SLD-SOLID
 62
     7
100
AcDbLine
 10
69.0147347802
 20
31.5859431003
 30
0.0
 11
69.0147347802
 21
31.6025189707
 31
0.0
  0
LINE
  5
19E
330
77A
100
AcDbEntity
  8
0
  6
SLD-SOLID
 62
     7
100
AcDbLine
 10
69.0147347802
 20
31.1650189707
 30
0.0
 11
69.0147347802
 21
31.5859431003
 31
0.0
  0
ARC
  5
19F
330
77A
100
AcDbEntity
  8
0
  6
SLD-SOLID
 62
     7
100
AcDbCircle
 10
68.9742294955
 20
31.4043035153
 30
0.0
 40
0.1806471171993517
100
AcDbArc
 50
330.3272476936
 51
29.6727523064
  0
LWPOLYLINE
  5
1A0
330
77A
100
AcDbEntity
  8
0
  6
SLD-SOLID
 62
     7
100
AcDbPolyline
 90
        5
 70
   128
 43
0.0
 10
69.131187821
 20
31.4937320622
 10
69.1371878452
 20
31.4985790929
 10
69.1551655622
 20
31.5252033117
 10
69.1449189676
 20
31.5503518682
 10
69.131187821
 20
31.5626260644
  0
LWPOLYLINE
  5
1A1
330
77A
100
AcDbEntity
  8
0
  6
SLD-SOLID
 62
     7
100
AcDbPolyline
 90
        3
 70
   128
 43
0.0
 10
69.1409841701
 20
31.2153811002
 10
69.1371878452
 20
31.2097589077
 10
69.131187821
 20
31.204911877
  0
LWPOLYLINE
  5
1A2
330
77A
100
AcDbEntity
  8
0
  6
SLD-SOLID
 62
     7
100
AcDbPolyline
 90
        4
 70
   128
 43
0.0
 10
69.131187821
 20
31.204911877
 10
69.1549495765
 20
31.252988367
 10
69.1484755091
 20
31.2884721767
 10
69.131187821
 20
31.3148749685
  0
LINE
  5
1A3
330
77A
100
AcDbEntity
  8
0
  6
SLD-SOLID
 62
     7
100
AcDbLine
 10
69.1709847802
 20
31.2431439707
 30
0.0
 11
69.1709847802
 21
31.5243939707
 31
0.0
  0
LINE
  5
1A4
330
77A
100
AcDbEntity
  8
0
  6
SLD-SOLID
 62
     7
100
AcDbLine
 10
69.131187821
 20
31.3148749685
 30
0.0
 11
69.0250047478
 21
31.3148749685
 31
0.0
  0
LINE
  5
1A5
330
77A
100
AcDbEntity
  8
0
  6
SLD-SOLID
 62
     7
100
AcDbLine
 10
69.131187821
 20
31.4937320622
 30
0.0
 11
69.0250047478
 21
31.4937320622
 31
0.0
  0
LINE
  5
1A6
330
77A
100
AcDbEntity
  8
0
  6
SLD-SOLID
 62
     7
100
AcDbLine
 10
69.131187821
 20
31.204911877
 30
0.0
 11
69.0250047478
 21
31.204911877
 31
0.0
  0
LINE
  5
1A7
330
77A
100
AcDbEntity
  8
0
  6
SLD-SOLID
 62
     7
100
AcDbLine
 10
69.131187821
 20
31.5626260644
 30
0.0
 11
69.0254240522
 21
31.5626260644
 31
0.0
  0
LINE
  5
1A8
330
77A
100
AcDbEntity
  8
0
  6
SLD-SOLID
 62
     7
100
AcDbLine
 10
45.7300397802
 20
23.695915997
 30
0.0
 11
45.5737897802
 21
23.7861269765
 31
0.0
  0
LINE
  5
1A9
330
77A
100
AcDbEntity
  8
0
  6
SLD-SOLID
 62
     7
100
AcDbLine
 10
45.5737897802
 20
23.7861269765
 30
0.0
 11
45.5737897802
 21
23.9465439268
 31
0.0
  0
LINE
  5
1AA
330
77A
100
AcDbEntity
  8
0
  6
SLD-SOLID
 62
     7
100
AcDbLine
 10
45.8862897802
 20
23.9465439268
 30
0.0
 11
45.8862897802
 21
23.7861269765
 31
0.0
  0
LINE
  5
1AB
330
77A
100
AcDbEntity
  8
0
  6
SLD-SOLID
 62
     7
100
AcDbLine
 10
45.8862897802
 20
23.7861269765
 30
0.0
 11
45.7300397802
 21
23.695915997
 31
0.0
  0
ARC
  5
1AC
330
77A
100
AcDbEntity
  8
0
  6
SLD-SOLID
 62
     7
100
AcDbCircle
 10
45.7300397802
 20
23.8763379561
 30
0.0
 40
0.140625
100
AcDbArc
 50
150.0501058988
 51
0.0
  0
LWPOLYLINE
  5
1AD
330
77A
100
AcDbEntity
  8
0
  6
SLD-SOLID
 62
     7
100
AcDbPolyline
 90
        3
 70
   128
 43
0.0
 10
45.8518860452
 20
23.9465439268
 10
45.8630453298
 20
23.921998819
 10
45.8706647802
 20
23.8763379561
  0
LWPOLYLINE
  5
1AE
330
77A
100
AcDbEntity
  8
0
  6
SLD-SOLID
 62
     7
100
AcDbPolyline
 90
        3
 70
   128
 43
0.0
 10
45.5112897802
 20
23.8763379561
 10
45.5187435057
 20
23.9329546222
 10
45.5228618755
 20
23.9465439268
  0
ARC
  5
1AF
330
77A
100
AcDbEntity
  8
0
  6
SLD-SOLID
 62
     7
100
AcDbCircle
 10
45.7300397802
 20
23.8763379561
 30
0.0
 40
0.2187499999999988
100
AcDbArc
 50
304.7229888309001
 51
18.719877233
  0
ARC
  5
1B0
330
77A
100
AcDbEntity
  8
0
  6
SLD-SOLID
 62
     7
100
AcDbCircle
 10
45.7300397802
 20
23.8763379561
 30
0.0
 40
0.2187500000000071
100
AcDbArc
 50
180.0
 51
235.2770111691
  0
LINE
  5
1B1
330
77A
100
AcDbEntity
  8
0
  6
SLD-SOLID
 62
     7
100
AcDbLine
 10
69.0250047478
 20
26.3148749685
 30
0.0
 11
69.0250047478
 21
26.204911877
 31
0.0
  0
LWPOLYLINE
  5
1B2
330
77A
100
AcDbEntity
  8
0
  6
SLD-SOLID
 62
     7
100
AcDbPolyline
 90
        3
 70
   128
 43
0.0
 10
69.0254482411
 20
26.5529208032
 10
69.0277545761
 20
26.5024497306
 10
69.0250047478
 20
26.4937320622
  0
LINE
  5
1B3
330
77A
100
AcDbEntity
  8
0
  6
SLD-SOLID
 62
     7
100
AcDbLine
 10
69.0250047478
 20
26.4937320622
 30
0.0
 11
69.0250047478
 21
26.3148749685
 31
0.0
  0
LINE
  5
1B4
330
77A
100
AcDbEntity
  8
0
  6
SLD-SOLID
 62
     7
100
AcDbLine
 10
69.0147347802
 20
26.5859431003
 30
0.0
 11
69.0147347802
 21
26.6025189707
 31
0.0
  0
LINE
  5
1B5
330
77A
100
AcDbEntity
  8
0
  6
SLD-SOLID
 62
     7
100
AcDbLine
 10
69.0147347802
 20
26.1650189707
 30
0.0
 11
69.0147347802
 21
26.5859431003
 31
0.0
  0
ARC
  5
1B6
330
77A
100
AcDbEntity
  8
0
  6
SLD-SOLID
 62
     7
100
AcDbCircle
 10
68.9742294955
 20
26.4043035153
 30
0.0
 40
0.1806471171994011
100
AcDbArc
 50
330.3272476936
 51
29.6727523064
  0
LWPOLYLINE
  5
1B7
330
77A
100
AcDbEntity
  8
0
  6
SLD-SOLID
 62
     7
100
AcDbPolyline
 90
        5
 70
   128
 43
0.0
 10
69.131187821
 20
26.4937320622
 10
69.1371878452
 20
26.4985790929
 10
69.1551655622
 20
26.5252033117
 10
69.1449189676
 20
26.5503518682
 10
69.131187821
 20
26.5626260644
  0
LWPOLYLINE
  5
1B8
330
77A
100
AcDbEntity
  8
0
  6
SLD-SOLID
 62
     7
100
AcDbPolyline
 90
        3
 70
   128
 43
0.0
 10
69.1409841701
 20
26.2153811002
 10
69.1371878452
 20
26.2097589077
 10
69.131187821
 20
26.204911877
  0
LWPOLYLINE
  5
1B9
330
77A
100
AcDbEntity
  8
0
  6
SLD-SOLID
 62
     7
100
AcDbPolyline
 90
        4
 70
   128
 43
0.0
 10
69.131187821
 20
26.204911877
 10
69.1549495765
 20
26.252988367
 10
69.1484755091
 20
26.2884721767
 10
69.131187821
 20
26.3148749685
  0
LINE
  5
1BA
330
77A
100
AcDbEntity
  8
0
  6
SLD-SOLID
 62
     7
100
AcDbLine
 10
69.1709847802
 20
26.2431439707
 30
0.0
 11
69.1709847802
 21
26.5243939707
 31
0.0
  0
LINE
  5
1BB
330
77A
100
AcDbEntity
  8
0
  6
SLD-SOLID
 62
     7
100
AcDbLine
 10
69.131187821
 20
26.3148749685
 30
0.0
 11
69.0250047478
 21
26.3148749685
 31
0.0
  0
LINE
  5
1BC
330
77A
100
AcDbEntity
  8
0
  6
SLD-SOLID
 62
     7
100
AcDbLine
 10
69.131187821
 20
26.4937320622
 30
0.0
 11
69.0250047478
 21
26.4937320622
 31
0.0
  0
LINE
  5
1BD
330
77A
100
AcDbEntity
  8
0
  6
SLD-SOLID
 62
     7
100
AcDbLine
 10
69.131187821
 20
26.204911877
 30
0.0
 11
69.0250047478
 21
26.204911877
 31
0.0
  0
LINE
  5
1BE
330
77A
100
AcDbEntity
  8
0
  6
SLD-SOLID
 62
     7
100
AcDbLine
 10
69.131187821
 20
26.5626260644
 30
0.0
 11
69.0254240522
 21
26.5626260644
 31
0.0
  0
LINE
  5
1BF
330
77A
100
AcDbEntity
  8
0
  6
SLD-SOLID
 62
     7
100
AcDbLine
 10
69.0147347802
 20
21.5859431003
 30
0.0
 11
69.0147347802
 21
21.6025189707
 31
0.0
  0
LINE
  5
1C0
330
77A
100
AcDbEntity
  8
0
  6
SLD-SOLID
 62
     7
100
AcDbLine
 10
69.0147347802
 20
21.1650189707
 30
0.0
 11
69.0147347802
 21
21.5859431003
 31
0.0
  0
LINE
  5
1C1
330
77A
100
AcDbEntity
  8
0
  6
SLD-SOLID
 62
     7
100
AcDbLine
 10
69.0250047478
 20
21.3148749685
 30
0.0
 11
69.0250047478
 21
21.204911877
 31
0.0
  0
LWPOLYLINE
  5
1C2
330
77A
100
AcDbEntity
  8
0
  6
SLD-SOLID
 62
     7
100
AcDbPolyline
 90
        3
 70
   128
 43
0.0
 10
69.0254482411
 20
21.5529208032
 10
69.0277545761
 20
21.5024497306
 10
69.0250047478
 20
21.4937320622
  0
LINE
  5
1C3
330
77A
100
AcDbEntity
  8
0
  6
SLD-SOLID
 62
     7
100
AcDbLine
 10
69.0250047478
 20
21.4937320622
 30
0.0
 11
69.0250047478
 21
21.3148749685
 31
0.0
  0
ARC
  5
1C4
330
77A
100
AcDbEntity
  8
0
  6
SLD-SOLID
 62
     7
100
AcDbCircle
 10
68.9742294955
 20
21.4043035153
 30
0.0
 40
0.1806471171993023
100
AcDbArc
 50
330.3272476935001
 51
29.6727523065
  0
LINE
  5
1C5
330
77A
100
AcDbEntity
  8
0
  6
SLD-SOLID
 62
     7
100
AcDbLine
 10
69.131187821
 20
21.3148749685
 30
0.0
 11
69.0250047478
 21
21.3148749685
 31
0.0
  0
LINE
  5
1C6
330
77A
100
AcDbEntity
  8
0
  6
SLD-SOLID
 62
     7
100
AcDbLine
 10
69.131187821
 20
21.4937320622
 30
0.0
 11
69.0250047478
 21
21.4937320622
 31
0.0
  0
LWPOLYLINE
  5
1C7
330
77A
100
AcDbEntity
  8
0
  6
SLD-SOLID
 62
     7
100
AcDbPolyline
 90
        5
 70
   128
 43
0.0
 10
69.131187821
 20
21.4937320622
 10
69.1371878452
 20
21.4985790929
 10
69.1551655622
 20
21.5252033117
 10
69.1449189676
 20
21.5503518682
 10
69.131187821
 20
21.5626260644
  0
LWPOLYLINE
  5
1C8
330
77A
100
AcDbEntity
  8
0
  6
SLD-SOLID
 62
     7
100
AcDbPolyline
 90
        3
 70
   128
 43
0.0
 10
69.1409841701
 20
21.2153811002
 10
69.1371878452
 20
21.2097589077
 10
69.131187821
 20
21.204911877
  0
LWPOLYLINE
  5
1C9
330
77A
100
AcDbEntity
  8
0
  6
SLD-SOLID
 62
     7
100
AcDbPolyline
 90
        4
 70
   128
 43
0.0
 10
69.131187821
 20
21.204911877
 10
69.1549495765
 20
21.252988367
 10
69.1484755091
 20
21.2884721767
 10
69.131187821
 20
21.3148749685
  0
LINE
  5
1CA
330
77A
100
AcDbEntity
  8
0
  6
SLD-SOLID
 62
     7
100
AcDbLine
 10
69.1709847802
 20
21.2431439707
 30
0.0
 11
69.1709847802
 21
21.5243939707
 31
0.0
  0
LINE
  5
1CB
330
77A
100
AcDbEntity
  8
0
  6
SLD-SOLID
 62
     7
100
AcDbLine
 10
69.131187821
 20
21.204911877
 30
0.0
 11
69.0250047478
 21
21.204911877
 31
0.0
  0
LINE
  5
1CC
330
77A
100
AcDbEntity
  8
0
  6
SLD-SOLID
 62
     7
100
AcDbLine
 10
69.131187821
 20
21.5626260644
 30
0.0
 11
69.0254240522
 21
21.5626260644
 31
0.0
  0
LINE
  5
1CD
330
77A
100
AcDbEntity
  8
0
  6
SLD-SOLID
 62
     7
100
AcDbLine
 10
39.1262347802
 20
34.9811233554
 30
0.0
 11
39.1262347802
 21
34.5436233554
 31
0.0
  0
LINE
  5
1CE
330
77A
100
AcDbEntity
  8
0
  6
SLD-SOLID
 62
     7
100
AcDbLine
 10
39.1159648126
 20
34.5819513963
 30
0.0
 11
39.1159648126
 21
34.6721623758
 31
0.0
  0
LWPOLYLINE
  5
1CF
330
77A
100
AcDbEntity
  8
0
  6
SLD-SOLID
 62
     7
100
AcDbPolyline
 90
        3
 70
   128
 43
0.0
 10
39.1159648126
 20
34.6721623758
 10
39.1132149842
 20
34.6949925027
 10
39.1159648126
 20
34.852584335
  0
LINE
  5
1D0
330
77A
100
AcDbEntity
  8
0
  6
SLD-SOLID
 62
     7
100
AcDbLine
 10
39.1159648126
 20
34.852584335
 30
0.0
 11
39.1159648126
 21
34.9427953145
 31
0.0
  0
LWPOLYLINE
  5
1D1
330
77A
100
AcDbEntity
  8
0
  6
SLD-SOLID
 62
     7
100
AcDbPolyline
 90
        4
 70
   128
 43
0.0
 10
39.0097817393
 20
34.9427953145
 10
38.9860199838
 20
34.9033545603
 10
38.9924940512
 20
34.8742445273
 10
39.0097817393
 20
34.852584335
  0
LINE
  5
1D2
330
77A
100
AcDbEntity
  8
0
  6
SLD-SOLID
 62
     7
100
AcDbLine
 10
39.0097817393
 20
34.9427953145
 30
0.0
 11
39.1159648126
 21
34.9427953145
 31
0.0
  0
LINE
  5
1D3
330
77A
100
AcDbEntity
  8
0
  6
SLD-SOLID
 62
     7
100
AcDbLine
 10
39.0097817393
 20
34.852584335
 30
0.0
 11
39.1159648126
 21
34.852584335
 31
0.0
  0
LWPOLYLINE
  5
1D4
330
77A
100
AcDbEntity
  8
0
  6
SLD-SOLID
 62
     7
100
AcDbPolyline
 90
        4
 70
   128
 43
0.0
 10
39.0097817393
 20
34.6721623758
 10
38.9860199838
 20
34.6327216216
 10
38.9924940512
 20
34.6036115886
 10
39.0097817393
 20
34.5819513963
  0
LINE
  5
1D5
330
77A
100
AcDbEntity
  8
0
  6
SLD-SOLID
 62
     7
100
AcDbLine
 10
39.0097817393
 20
34.6721623758
 30
0.0
 11
39.1159648126
 21
34.6721623758
 31
0.0
  0
LINE
  5
1D6
330
77A
100
AcDbEntity
  8
0
  6
SLD-SOLID
 62
     7
100
AcDbLine
 10
39.0097817393
 20
34.5819513963
 30
0.0
 11
39.1159648126
 21
34.5819513963
 31
0.0
  0
ARC
  5
1D7
330
77A
100
AcDbEntity
  8
0
  6
SLD-SOLID
 62
     7
100
AcDbCircle
 10
39.1756340611
 20
34.7623733554
 30
0.0
 40
0.1887988704788436
100
AcDbArc
 50
151.4571904725
 51
208.5428095274
  0
LINE
  5
1D8
330
77A
100
AcDbEntity
  8
0
  6
SLD-SOLID
 62
     7
100
AcDbLine
 10
38.9699847802
 20
34.7623733554
 30
0.0
 11
38.9699847802
 21
34.6217483554
 31
0.0
  0
LINE
  5
1D9
330
77A
100
AcDbEntity
  8
0
  6
SLD-SOLID
 62
     7
100
AcDbLine
 10
38.9699847802
 20
34.9029983554
 30
0.0
 11
38.9699847802
 21
34.7623733554
 31
0.0
  0
LINE
  5
1DA
330
77A
100
AcDbEntity
  8
0
  6
SLD-SOLID
 62
     7
100
AcDbLine
 10
39.1159648126
 20
26.2033470115
 30
0.0
 11
39.1159648126
 21
26.2935579911
 31
0.0
  0
LWPOLYLINE
  5
1DB
330
77A
100
AcDbEntity
  8
0
  6
SLD-SOLID
 62
     7
100
AcDbPolyline
 90
        3
 70
   128
 43
0.0
 10
39.1159648126
 20
26.2935579911
 10
39.1132149842
 20
26.3163881179
 10
39.1159648126
 20
26.4739799502
  0
LINE
  5
1DC
330
77A
100
AcDbEntity
  8
0
  6
SLD-SOLID
 62
     7
100
AcDbLine
 10
39.1159648126
 20
26.4739799502
 30
0.0
 11
39.1159648126
 21
26.5641909298
 31
0.0
  0
LINE
  5
1DD
330
77A
100
AcDbEntity
  8
0
  6
SLD-SOLID
 62
     7
100
AcDbLine
 10
39.1262347802
 20
26.6025189707
 30
0.0
 11
39.1262347802
 21
26.1650189707
 31
0.0
  0
ARC
  5
1DE
330
77A
100
AcDbEntity
  8
0
  6
SLD-SOLID
 62
     7
100
AcDbCircle
 10
39.1756340611
 20
26.3837689707
 30
0.0
 40
0.1887988704788328
100
AcDbArc
 50
151.4571904725
 51
208.5428095275
  0
LINE
  5
1DF
330
77A
100
AcDbEntity
  8
0
  6
SLD-SOLID
 62
     7
100
AcDbLine
 10
39.0097817393
 20
26.4739799502
 30
0.0
 11
39.1159648126
 21
26.4739799502
 31
0.0
  0
LINE
  5
1E0
330
77A
100
AcDbEntity
  8
0
  6
SLD-SOLID
 62
     7
100
AcDbLine
 10
39.0097817393
 20
26.2935579911
 30
0.0
 11
39.1159648126
 21
26.2935579911
 31
0.0
  0
LWPOLYLINE
  5
1E1
330
77A
100
AcDbEntity
  8
0
  6
SLD-SOLID
 62
     7
100
AcDbPolyline
 90
        4
 70
   128
 43
0.0
 10
39.0097817393
 20
26.2935579911
 10
38.9860199838
 20
26.2541172369
 10
38.9924940512
 20
26.2250072038
 10
39.0097817393
 20
26.2033470115
  0
LINE
  5
1E2
330
77A
100
AcDbEntity
  8
0
  6
SLD-SOLID
 62
     7
100
AcDbLine
 10
39.0097817393
 20
26.2033470115
 30
0.0
 11
39.1159648126
 21
26.2033470115
 31
0.0
  0
LWPOLYLINE
  5
1E3
330
77A
100
AcDbEntity
  8
0
  6
SLD-SOLID
 62
     7
100
AcDbPolyline
 90
        4
 70
   128
 43
0.0
 10
39.0097817393
 20
26.5641909298
 10
38.9860199838
 20
26.5247501756
 10
38.9924940512
 20
26.4956401425
 10
39.0097817393
 20
26.4739799502
  0
LINE
  5
1E4
330
77A
100
AcDbEntity
  8
0
  6
SLD-SOLID
 62
     7
100
AcDbLine
 10
38.9699847802
 20
26.3837689707
 30
0.0
 11
38.9699847802
 21
26.2431439707
 31
0.0
  0
LINE
  5
1E5
330
77A
100
AcDbEntity
  8
0
  6
SLD-SOLID
 62
     7
100
AcDbLine
 10
38.9699847802
 20
26.5243939707
 30
0.0
 11
38.9699847802
 21
26.3837689707
 31
0.0
  0
LINE
  5
1E6
330
77A
100
AcDbEntity
  8
0
  6
SLD-SOLID
 62
     7
100
AcDbLine
 10
39.0097817393
 20
26.5641909298
 30
0.0
 11
39.1159648126
 21
26.5641909298
 31
0.0
  0
LINE
  5
1E7
330
77A
100
AcDbEntity
  8
0
  6
SLD-SOLID
 62
     7
100
AcDbLine
 10
41.2887347802
 20
23.9465439268
 30
0.0
 11
41.2887347802
 21
23.7592939268
 31
0.0
  0
LINE
  5
1E8
330
77A
100
AcDbEntity
  8
0
  6
SLD-SOLID
 62
     7
100
AcDbLine
 10
41.2784648126
 20
23.7976219677
 30
0.0
 11
41.2784648126
 21
23.8878329473
 31
0.0
  0
LWPOLYLINE
  5
1E9
330
77A
100
AcDbEntity
  8
0
  6
SLD-SOLID
 62
     7
100
AcDbPolyline
 90
        3
 70
   128
 43
0.0
 10
41.2784648126
 20
23.8878329473
 10
41.2757149842
 20
23.9106630741
 10
41.2763410711
 20
23.9465439268
  0
LINE
  5
1EA
330
77A
100
AcDbEntity
  8
0
  6
SLD-SOLID
 62
     7
100
AcDbLine
 10
41.2325538588
 20
23.8878329473
 30
0.0
 11
41.2784648126
 21
23.8878329473
 31
0.0
  0
LINE
  5
1EB
330
77A
100
AcDbEntity
  8
0
  6
SLD-SOLID
 62
     7
100
AcDbLine
 10
41.2325538588
 20
23.7976219677
 30
0.0
 11
41.2784648126
 21
23.7976219677
 31
0.0
  0
CIRCLE
  5
1EC
330
77A
100
AcDbEntity
  8
0
  6
SLD-SOLID
 62
     7
100
AcDbCircle
 10
46.0704847802
 20
35.7590439268
 30
0.0
 40
0.1435000000000031
  0
CIRCLE
  5
1ED
330
77A
100
AcDbEntity
  8
0
  6
SLD-SOLID
 62
     7
100
AcDbCircle
 10
46.0704847802
 20
35.7590439268
 30
0.0
 40
0.0390625
  0
CIRCLE
  5
1EE
330
77A
100
AcDbEntity
  8
0
  6
SLD-SOLID
 62
     7
100
AcDbCircle
 10
39.4309847802
 20
29.1703060235
 30
0.0
 40
0.143499999999996
  0
CIRCLE
  5
1EF
330
77A
100
AcDbEntity
  8
0
  6
SLD-SOLID
 62
     7
100
AcDbCircle
 10
39.4309847802
 20
29.1703060235
 30
0.0
 40
0.0390624999999964
  0
CIRCLE
  5
1F0
330
77A
100
AcDbEntity
  8
0
  6
SLD-SOLID
 62
     7
100
AcDbCircle
 10
68.7099847802
 20
29.1703060235
 30
0.0
 40
0.143499999999996
  0
CIRCLE
  5
1F1
330
77A
100
AcDbEntity
  8
0
  6
SLD-SOLID
 62
     7
100
AcDbCircle
 10
68.7099847802
 20
29.1703060235
 30
0.0
 40
0.0390624999999964
  0
CIRCLE
  5
1F2
330
77A
100
AcDbEntity
  8
0
  6
SLD-SOLID
 62
     7
100
AcDbCircle
 10
39.4309847802
 20
34.4203060235
 30
0.0
 40
0.143499999999996
  0
CIRCLE
  5
1F3
330
77A
100
AcDbEntity
  8
0
  6
SLD-SOLID
 62
     7
100
AcDbCircle
 10
39.4309847802
 20
34.4203060235
 30
0.0
 40
0.0390625
  0
CIRCLE
  5
1F4
330
77A
100
AcDbEntity
  8
0
  6
SLD-SOLID
 62
     7
100
AcDbCircle
 10
39.4611097802
 20
37.1965439268
 30
0.0
 40
0.1435000000000031
  0
CIRCLE
  5
1F5
330
77A
100
AcDbEntity
  8
0
  6
SLD-SOLID
 62
     7
100
AcDbCircle
 10
39.4611097802
 20
37.1965439268
 30
0.0
 40
0.0390625
  0
CIRCLE
  5
1F6
330
77A
100
AcDbEntity
  8
0
  6
SLD-SOLID
 62
     7
100
AcDbCircle
 10
62.0704847802
 20
35.7590439268
 30
0.0
 40
0.143499999999996
  0
CIRCLE
  5
1F7
330
77A
100
AcDbEntity
  8
0
  6
SLD-SOLID
 62
     7
100
AcDbCircle
 10
62.0704847802
 20
35.7590439268
 30
0.0
 40
0.0390624999999929
  0
CIRCLE
  5
1F8
330
77A
100
AcDbEntity
  8
0
  6
SLD-SOLID
 62
     7
100
AcDbCircle
 10
68.6798597802
 20
19.9152939268
 30
0.0
 40
0.1434999999999995
  0
CIRCLE
  5
1F9
330
77A
100
AcDbEntity
  8
0
  6
SLD-SOLID
 62
     7
100
AcDbCircle
 10
68.6798597802
 20
19.9152939268
 30
0.0
 40
0.0390625
  0
CIRCLE
  5
1FA
330
77A
100
AcDbEntity
  8
0
  6
SLD-SOLID
 62
     7
100
AcDbCircle
 10
66.0704847802
 20
35.7590439268
 30
0.0
 40
0.1435000000000031
  0
CIRCLE
  5
1FB
330
77A
100
AcDbEntity
  8
0
  6
SLD-SOLID
 62
     7
100
AcDbCircle
 10
66.0704847802
 20
35.7590439268
 30
0.0
 40
0.0390625
  0
CIRCLE
  5
1FC
330
77A
100
AcDbEntity
  8
0
  6
SLD-SOLID
 62
     7
100
AcDbCircle
 10
42.0704847802
 20
35.7590439268
 30
0.0
 40
0.1435000000000031
  0
CIRCLE
  5
1FD
330
77A
100
AcDbEntity
  8
0
  6
SLD-SOLID
 62
     7
100
AcDbCircle
 10
42.0704847802
 20
35.7590439268
 30
0.0
 40
0.0390625
  0
CIRCLE
  5
1FE
330
77A
100
AcDbEntity
  8
0
  6
SLD-SOLID
 62
     7
100
AcDbCircle
 10
54.0704847802
 20
35.7590439268
 30
0.0
 40
0.1435000000000031
  0
CIRCLE
  5
1FF
330
77A
100
AcDbEntity
  8
0
  6
SLD-SOLID
 62
     7
100
AcDbCircle
 10
54.0704847802
 20
35.7590439268
 30
0.0
 40
0.0390625
  0
CIRCLE
  5
200
330
77A
100
AcDbEntity
  8
0
  6
SLD-SOLID
 62
     7
100
AcDbCircle
 10
68.7099847802
 20
23.9203060235
 30
0.0
 40
0.1435000000000031
  0
CIRCLE
  5
201
330
77A
100
AcDbEntity
  8
0
  6
SLD-SOLID
 62
     7
100
AcDbCircle
 10
68.7099847802
 20
23.9203060235
 30
0.0
 40
0.0390625000000036
  0
CIRCLE
  5
202
330
77A
100
AcDbEntity
  8
0
  6
SLD-SOLID
 62
     7
100
AcDbCircle
 10
39.4611097802
 20
19.9152939268
 30
0.0
 40
0.1435000000000031
  0
CIRCLE
  5
203
330
77A
100
AcDbEntity
  8
0
  6
SLD-SOLID
 62
     7
100
AcDbCircle
 10
39.4611097802
 20
19.9152939268
 30
0.0
 40
0.0390625000000036
  0
CIRCLE
  5
204
330
77A
100
AcDbEntity
  8
0
  6
SLD-SOLID
 62
     7
100
AcDbCircle
 10
68.6798597802
 20
37.1965439268
 30
0.0
 40
0.1435000000000031
  0
CIRCLE
  5
205
330
77A
100
AcDbEntity
  8
0
  6
SLD-SOLID
 62
     7
100
AcDbCircle
 10
68.6798597802
 20
37.1965439268
 30
0.0
 40
0.0390625
  0
CIRCLE
  5
206
330
77A
100
AcDbEntity
  8
0
  6
SLD-SOLID
 62
     7
100
AcDbCircle
 10
68.7099847802
 20
34.4203060235
 30
0.0
 40
0.143499999999996
  0
CIRCLE
  5
207
330
77A
100
AcDbEntity
  8
0
  6
SLD-SOLID
 62
     7
100
AcDbCircle
 10
68.7099847802
 20
34.4203060235
 30
0.0
 40
0.0390625
  0
CIRCLE
  5
208
330
77A
100
AcDbEntity
  8
0
  6
SLD-SOLID
 62
     7
100
AcDbCircle
 10
39.4309847802
 20
23.9203060235
 30
0.0
 40
0.143499999999996
  0
CIRCLE
  5
209
330
77A
100
AcDbEntity
  8
0
  6
SLD-SOLID
 62
     7
100
AcDbCircle
 10
39.4309847802
 20
23.9203060235
 30
0.0
 40
0.0390624999999964
  0
LINE
  5
20A
330
77A
100
AcDbEntity
  8
0
  6
SLD-SOLID
 62
     7
100
AcDbLine
 10
68.2579847802
 20
35.4465439268
 30
0.0
 11
39.8829847802
 21
35.4465439268
 31
0.0
  0
LINE
  5
20B
330
77A
100
AcDbEntity
  8
0
  6
SLD-SOLID
 62
     7
100
AcDbLine
 10
39.8829847802
 20
35.4465439268
 30
0.0
 11
39.8829847802
 21
35.4845439268
 31
0.0
  0
LINE
  5
20C
330
77A
100
AcDbEntity
  8
0
  6
SLD-SOLID
 62
     7
100
AcDbLine
 10
68.2579847802
 20
35.4845439268
 30
0.0
 11
39.8829847802
 21
35.4845439268
 31
0.0
  0
LINE
  5
20D
330
77A
100
AcDbEntity
  8
0
  6
SLD-SOLID
 62
     7
100
AcDbLine
 10
68.2579847802
 20
35.4465439268
 30
0.0
 11
68.2579847802
 21
35.4845439268
 31
0.0
  0
LINE
  5
20E
330
77A
100
AcDbEntity
  8
0
  6
SLD-SOLID
 62
     7
100
AcDbLine
 10
68.2579847802
 20
35.4845439268
 30
0.0
 11
68.2579847802
 21
35.5235439268
 31
0.0
  0
LINE
  5
20F
330
77A
100
AcDbEntity
  8
0
  6
SLD-SOLID
 62
     7
100
AcDbLine
 10
39.8829847802
 20
35.5235439268
 30
0.0
 11
39.8829847802
 21
35.4845439268
 31
0.0
  0
LINE
  5
210
330
77A
100
AcDbEntity
  8
0
  6
SLD-SOLID
 62
     7
100
AcDbLine
 10
68.3349847802
 20
36.0470439268
 30
0.0
 11
39.8059847802
 21
36.0470439268
 31
0.0
  0
LINE
  5
211
330
77A
100
AcDbEntity
  8
0
  6
SLD-SOLID
 62
     7
100
AcDbLine
 10
68.3349847802
 20
35.5235439268
 30
0.0
 11
68.2579847802
 21
35.5235439268
 31
0.0
  0
LINE
  5
212
330
77A
100
AcDbEntity
  8
0
  6
SLD-SOLID
 62
     7
100
AcDbLine
 10
39.8829847802
 20
35.5235439268
 30
0.0
 11
39.8059847802
 21
35.5235439268
 31
0.0
  0
CIRCLE
  5
213
330
77A
100
AcDbEntity
  8
0
  6
SLD-SOLID
 62
     7
100
AcDbCircle
 10
62.0704847802
 20
35.7590439268
 30
0.0
 40
0.1715000000000018
  0
CIRCLE
  5
214
330
77A
100
AcDbEntity
  8
0
  6
SLD-SOLID
 62
     7
100
AcDbCircle
 10
46.0704847802
 20
35.7590439268
 30
0.0
 40
0.1714999999999947
  0
LINE
  5
215
330
77A
100
AcDbEntity
  8
0
  6
SLD-SOLID
 62
     7
100
AcDbLine
 10
66.9196525955
 20
23.6965439268
 30
0.0
 11
66.9196525955
 21
23.9465439268
 31
0.0
  0
LINE
  5
216
330
77A
100
AcDbEntity
  8
0
  6
SLD-SOLID
 62
     7
100
AcDbLine
 10
66.9084157015
 20
23.9465439268
 30
0.0
 11
66.9084157015
 21
23.6965439268
 31
0.0
  0
LINE
  5
217
330
77A
100
AcDbEntity
  8
0
  6
SLD-SOLID
 62
     7
100
AcDbLine
 10
41.2325538588
 20
23.6965439268
 30
0.0
 11
41.2325538588
 21
23.9465439268
 31
0.0
  0
LINE
  5
218
330
77A
100
AcDbEntity
  8
0
  6
SLD-SOLID
 62
     7
100
AcDbLine
 10
41.2213169648
 20
23.9465439268
 30
0.0
 11
41.2213169648
 21
23.6965439268
 31
0.0
  0
LINE
  5
219
330
77A
100
AcDbEntity
  8
0
  6
SLD-SOLID
 62
     7
100
AcDbLine
 10
67.6721097802
 20
35.4465439268
 30
0.0
 11
67.6721097802
 21
35.1965439268
 31
0.0
  0
LINE
  5
21A
330
77A
100
AcDbEntity
  8
0
  6
SLD-SOLID
 62
     7
100
AcDbLine
 10
68.3349847802
 20
35.4501167132
 30
0.0
 11
68.2579847802
 21
35.4501167132
 31
0.0
  0
ARC
  5
21B
330
77A
100
AcDbEntity
  8
0
  6
SLD-SOLID
 62
     7
100
AcDbCircle
 10
68.2267347802
 20
25.7982939268
 30
0.0
 40
0.046875
100
AcDbArc
 50
180.0
 51
289.4712206345
  0
ARC
  5
21C
330
77A
100
AcDbEntity
  8
0
  6
SLD-SOLID
 62
     7
100
AcDbCircle
 10
68.2267347802
 20
26.3295439268
 30
0.0
 40
0.046875
100
AcDbArc
 50
70.5287793655
 51
179.9999999999
  0
LINE
  5
21D
330
77A
100
AcDbEntity
  8
0
  6
SLD-SOLID
 62
     7
100
AcDbLine
 10
68.1798597802
 20
26.3295439268
 30
0.0
 11
68.1798597802
 21
25.7982939268
 31
0.0
  0
ARC
  5
21E
330
77A
100
AcDbEntity
  8
0
  6
SLD-SOLID
 62
     7
100
AcDbCircle
 10
68.2267347802
 20
32.7982939268
 30
0.0
 40
0.0468750000000142
100
AcDbArc
 50
180.0
 51
289.4712206345
  0
ARC
  5
21F
330
77A
100
AcDbEntity
  8
0
  6
SLD-SOLID
 62
     7
100
AcDbCircle
 10
68.2267347802
 20
33.3295439268
 30
0.0
 40
0.0468750000000142
100
AcDbArc
 50
70.5287793655
 51
179.9999999999
  0
LINE
  5
220
330
77A
100
AcDbEntity
  8
0
  6
SLD-SOLID
 62
     7
100
AcDbLine
 10
68.1798597802
 20
33.3295439268
 30
0.0
 11
68.1798597802
 21
32.7982939268
 31
0.0
  0
LINE
  5
221
330
77A
100
AcDbEntity
  8
0
  6
SLD-SOLID
 62
     7
100
AcDbLine
 10
67.6954847802
 20
23.9465439268
 30
0.0
 11
67.6954847802
 21
23.6965439268
 31
0.0
  0
LINE
  5
222
330
77A
100
AcDbEntity
  8
0
  6
SLD-SOLID
 62
     7
100
AcDbLine
 10
40.4688597802
 20
35.4465439268
 30
0.0
 11
40.4688597802
 21
35.1965439268
 31
0.0
  0
ARC
  5
223
330
77A
100
AcDbEntity
  8
0
  6
SLD-SOLID
 62
     7
100
AcDbCircle
 10
39.9142347802
 20
32.7982939268
 30
0.0
 40
0.0468750000000083
100
AcDbArc
 50
250.5287793654
 51
0.0
  0
LINE
  5
224
330
77A
100
AcDbEntity
  8
0
  6
SLD-SOLID
 62
     7
100
AcDbLine
 10
39.9611097802
 20
32.7982939268
 30
0.0
 11
39.9611097802
 21
33.3295439268
 31
0.0
  0
ARC
  5
225
330
77A
100
AcDbEntity
  8
0
  6
SLD-SOLID
 62
     7
100
AcDbCircle
 10
39.9142347802
 20
33.3295439268
 30
0.0
 40
0.0468750000000083
100
AcDbArc
 50
0.0
 51
109.4712206346
  0
ARC
  5
226
330
77A
100
AcDbEntity
  8
0
  6
SLD-SOLID
 62
     7
100
AcDbCircle
 10
39.9142347802
 20
25.7982939268
 30
0.0
 40
0.0468749999999982
100
AcDbArc
 50
250.5287793654
 51
0.0
  0
LINE
  5
227
330
77A
100
AcDbEntity
  8
0
  6
SLD-SOLID
 62
     7
100
AcDbLine
 10
39.9611097802
 20
25.7982939268
 30
0.0
 11
39.9611097802
 21
26.3295439268
 31
0.0
  0
ARC
  5
228
330
77A
100
AcDbEntity
  8
0
  6
SLD-SOLID
 62
     7
100
AcDbCircle
 10
39.9142347802
 20
26.3295439268
 30
0.0
 40
0.046875
100
AcDbArc
 50
0.0
 51
109.4712206346
  0
LINE
  5
229
330
77A
100
AcDbEntity
  8
0
  6
SLD-SOLID
 62
     7
100
AcDbLine
 10
39.8059847802
 20
35.4501167132
 30
0.0
 11
39.8829847802
 21
35.4501167132
 31
0.0
  0
LINE
  5
22A
330
77A
100
AcDbEntity
  8
0
  6
SLD-SOLID
 62
     7
100
AcDbLine
 10
40.4454847802
 20
23.6965439268
 30
0.0
 11
40.4454847802
 21
23.9465439268
 31
0.0
  0
LINE
  5
22B
330
77A
100
AcDbEntity
  8
0
  6
SLD-SOLID
 62
     7
100
AcDbLine
 10
40.4844847802
 20
35.4465439268
 30
0.0
 11
40.4844847802
 21
35.1965439268
 31
0.0
  0
LINE
  5
22C
330
77A
100
AcDbEntity
  8
0
  6
SLD-SOLID
 62
     7
100
AcDbLine
 10
67.6564847802
 20
35.1965439268
 30
0.0
 11
67.6564847802
 21
35.4465439268
 31
0.0
  0
LINE
  5
22D
330
77A
100
AcDbEntity
  8
0
  6
SLD-SOLID
 62
     7
100
AcDbLine
 10
68.2579847802
 20
23.6965439268
 30
0.0
 11
39.8829847802
 21
23.6965439268
 31
0.0
  0
LINE
  5
22E
330
77A
100
AcDbEntity
  8
0
  6
SLD-SOLID
 62
     7
100
AcDbLine
 10
68.2579847802
 20
23.6965439268
 30
0.0
 11
68.2579847802
 21
23.6585439268
 31
0.0
  0
LINE
  5
22F
330
77A
100
AcDbEntity
  8
0
  6
SLD-SOLID
 62
     7
100
AcDbLine
 10
68.2579847802
 20
23.6585439268
 30
0.0
 11
39.8829847802
 21
23.6585439268
 31
0.0
  0
LINE
  5
230
330
77A
100
AcDbEntity
  8
0
  6
SLD-SOLID
 62
     7
100
AcDbLine
 10
39.8829847802
 20
23.6965439268
 30
0.0
 11
39.8829847802
 21
23.6585439268
 31
0.0
  0
LINE
  5
231
330
77A
100
AcDbEntity
  8
0
  6
SLD-SOLID
 62
     7
100
AcDbLine
 10
39.8829847802
 20
23.6195439268
 30
0.0
 11
39.8829847802
 21
23.6585439268
 31
0.0
  0
LINE
  5
232
330
77A
100
AcDbEntity
  8
0
  6
SLD-SOLID
 62
     7
100
AcDbLine
 10
68.2579847802
 20
23.6585439268
 30
0.0
 11
68.2579847802
 21
23.6195439268
 31
0.0
  0
LINE
  5
233
330
77A
100
AcDbEntity
  8
0
  6
SLD-SOLID
 62
     7
100
AcDbLine
 10
39.8829847802
 20
20.1817493078
 30
0.0
 11
39.8829847802
 21
20.2016783742
 31
0.0
  0
LINE
  5
234
330
77A
100
AcDbEntity
  8
0
  6
SLD-SOLID
 62
     7
100
AcDbLine
 10
68.2579847802
 20
20.2016783742
 30
0.0
 11
68.2579847802
 21
20.1817493078
 31
0.0
  0
LINE
  5
235
330
77A
100
AcDbEntity
  8
0
  6
SLD-SOLID
 62
     7
100
AcDbLine
 10
39.1954847802
 20
23.6195439268
 30
0.0
 11
39.8829847802
 21
23.6195439268
 31
0.0
  0
LINE
  5
236
330
77A
100
AcDbEntity
  8
0
  6
SLD-SOLID
 62
     7
100
AcDbLine
 10
68.9454847802
 20
23.6195439268
 30
0.0
 11
68.2579847802
 21
23.6195439268
 31
0.0
  0
LINE
  5
237
330
77A
100
AcDbEntity
  8
0
  6
SLD-SOLID
 62
     7
100
AcDbLine
 10
39.8829847802
 20
20.2016783742
 30
0.0
 11
39.1954847802
 21
20.2016783742
 31
0.0
  0
LINE
  5
238
330
77A
100
AcDbEntity
  8
0
  6
SLD-SOLID
 62
     7
100
AcDbLine
 10
39.1954847802
 20
23.6195439268
 30
0.0
 11
39.1954847802
 21
20.2016783742
 31
0.0
  0
LINE
  5
239
330
77A
100
AcDbEntity
  8
0
  6
SLD-SOLID
 62
     7
100
AcDbLine
 10
68.9454847802
 20
20.2016783742
 30
0.0
 11
68.2579847802
 21
20.2016783742
 31
0.0
  0
LINE
  5
23A
330
77A
100
AcDbEntity
  8
0
  6
SLD-SOLID
 62
     7
100
AcDbLine
 10
68.9454847802
 20
23.6195439268
 30
0.0
 11
68.9454847802
 21
20.2016783742
 31
0.0
  0
LINE
  5
23B
330
77A
100
AcDbEntity
  8
0
  6
SLD-SOLID
 62
     7
100
AcDbLine
 10
39.8829847802
 20
20.1116689268
 30
0.0
 11
39.8829847802
 21
20.1817493078
 31
0.0
  0
LINE
  5
23C
330
77A
100
AcDbEntity
  8
0
  6
SLD-SOLID
 62
     7
100
AcDbLine
 10
68.2579847802
 20
20.1116689268
 30
0.0
 11
68.2579847802
 21
20.1817493078
 31
0.0
  0
LINE
  5
23D
330
77A
100
AcDbEntity
  8
0
  6
SLD-SOLID
 62
     7
100
AcDbLine
 10
39.1642347802
 20
37.5001689268
 30
0.0
 11
68.9767347802
 21
37.5001689268
 31
0.0
  0
LINE
  5
23E
330
77A
100
AcDbEntity
  8
0
  6
SLD-SOLID
 62
     7
100
AcDbLine
 10
68.9767347802
 20
37.5001689268
 30
0.0
 11
68.9767347802
 21
37.4231689268
 31
0.0
  0
LINE
  5
23F
330
77A
100
AcDbEntity
  8
0
  6
SLD-SOLID
 62
     7
100
AcDbLine
 10
39.1642347802
 20
37.4231689268
 30
0.0
 11
39.1642347802
 21
37.5001689268
 31
0.0
  0
LINE
  5
240
330
77A
100
AcDbEntity
  8
0
  6
SLD-SOLID
 62
     7
100
AcDbLine
 10
68.9767347802
 20
37.0001689268
 30
0.0
 11
68.9767347802
 21
37.4231689268
 31
0.0
  0
LINE
  5
241
330
77A
100
AcDbEntity
  8
0
  6
SLD-SOLID
 62
     7
100
AcDbLine
 10
39.1642347802
 20
37.4231689268
 30
0.0
 11
39.1642347802
 21
37.0001689268
 31
0.0
  0
LINE
  5
242
330
77A
100
AcDbEntity
  8
0
  6
SLD-SOLID
 62
     7
100
AcDbLine
 10
39.1642347802
 20
37.0001689268
 30
0.0
 11
68.9767347802
 21
37.0001689268
 31
0.0
  0
LINE
  5
243
330
77A
100
AcDbEntity
  8
0
  6
SLD-SOLID
 62
     7
100
AcDbLine
 10
39.8606097802
 20
35.4465439268
 30
0.0
 11
39.8606097802
 21
23.6965439268
 31
0.0
  0
LINE
  5
244
330
77A
100
AcDbEntity
  8
0
  6
SLD-SOLID
 62
     7
100
AcDbLine
 10
39.8829847802
 20
35.4465439268
 30
0.0
 11
39.8606097802
 21
35.4465439268
 31
0.0
  0
LINE
  5
245
330
77A
100
AcDbEntity
  8
0
  6
SLD-SOLID
 62
     7
100
AcDbLine
 10
39.8829847802
 20
23.6965439268
 30
0.0
 11
39.8606097802
 21
23.6965439268
 31
0.0
  0
LINE
  5
246
330
77A
100
AcDbEntity
  8
0
  6
SLD-SOLID
 62
     7
100
AcDbLine
 10
39.8986097802
 20
35.4465439268
 30
0.0
 11
39.8986097802
 21
23.6965439268
 31
0.0
  0
LINE
  5
247
330
77A
100
AcDbEntity
  8
0
  6
SLD-SOLID
 62
     7
100
AcDbLine
 10
39.8606097802
 20
23.6965439268
 30
0.0
 11
39.8216097802
 21
23.6965439268
 31
0.0
  0
LINE
  5
248
330
77A
100
AcDbEntity
  8
0
  6
SLD-SOLID
 62
     7
100
AcDbLine
 10
39.8216097802
 20
35.4465439268
 30
0.0
 11
39.8606097802
 21
35.4465439268
 31
0.0
  0
LINE
  5
249
330
77A
100
AcDbEntity
  8
0
  6
SLD-SOLID
 62
     7
100
AcDbLine
 10
39.1574847802
 20
37.4465439268
 30
0.0
 11
39.1574847802
 21
19.6652939268
 31
0.0
  0
LINE
  5
24A
330
77A
100
AcDbEntity
  8
0
  6
SLD-SOLID
 62
     7
100
AcDbLine
 10
39.1574847802
 20
37.4465439268
 30
0.0
 11
39.1642347802
 21
37.4465439268
 31
0.0
  0
LINE
  5
24B
330
77A
100
AcDbEntity
  8
0
  6
SLD-SOLID
 62
     7
100
AcDbLine
 10
39.1642347802
 20
19.6652939268
 30
0.0
 11
39.1574847802
 21
19.6652939268
 31
0.0
  0
CIRCLE
  5
24C
330
77A
100
AcDbEntity
  8
0
  6
SLD-SOLID
 62
     7
100
AcDbCircle
 10
39.4309847802
 20
29.1703060235
 30
0.0
 40
0.1714999999999876
  0
LINE
  5
24D
330
77A
100
AcDbEntity
  8
0
  6
SLD-SOLID
 62
     7
100
AcDbLine
 10
39.8059847802
 20
20.1116689268
 30
0.0
 11
39.8059847802
 21
20.2016783742
 31
0.0
  0
LINE
  5
24E
330
77A
100
AcDbEntity
  8
0
  6
SLD-SOLID
 62
     7
100
AcDbLine
 10
39.8059847802
 20
23.6195439268
 30
0.0
 11
39.8059847802
 21
23.6965439268
 31
0.0
  0
LINE
  5
24F
330
77A
100
AcDbEntity
  8
0
  6
SLD-SOLID
 62
     7
100
AcDbLine
 10
39.8216097802
 20
35.4465439268
 30
0.0
 11
39.8059847802
 21
35.4465439268
 31
0.0
  0
LINE
  5
250
330
77A
100
AcDbEntity
  8
0
  6
SLD-SOLID
 62
     7
100
AcDbLine
 10
39.8059847802
 20
23.6965439268
 30
0.0
 11
39.8216097802
 21
23.6965439268
 31
0.0
  0
LINE
  5
251
330
77A
100
AcDbEntity
  8
0
  6
SLD-SOLID
 62
     7
100
AcDbLine
 10
39.8059847802
 20
35.4465439268
 30
0.0
 11
39.8059847802
 21
37.0001689268
 31
0.0
  0
LINE
  5
252
330
77A
100
AcDbEntity
  8
0
  6
SLD-SOLID
 62
     7
100
AcDbLine
 10
68.2423597802
 20
35.4465439268
 30
0.0
 11
68.2423597802
 21
23.6965439268
 31
0.0
  0
LINE
  5
253
330
77A
100
AcDbEntity
  8
0
  6
SLD-SOLID
 62
     7
100
AcDbLine
 10
68.2579847802
 20
35.4465439268
 30
0.0
 11
68.2803597802
 21
35.4465439268
 31
0.0
  0
LINE
  5
254
330
77A
100
AcDbEntity
  8
0
  6
SLD-SOLID
 62
     7
100
AcDbLine
 10
68.2803597802
 20
35.4465439268
 30
0.0
 11
68.2803597802
 21
23.6965439268
 31
0.0
  0
LINE
  5
255
330
77A
100
AcDbEntity
  8
0
  6
SLD-SOLID
 62
     7
100
AcDbLine
 10
68.2579847802
 20
23.6965439268
 30
0.0
 11
68.2803597802
 21
23.6965439268
 31
0.0
  0
LINE
  5
256
330
77A
100
AcDbEntity
  8
0
  6
SLD-SOLID
 62
     7
100
AcDbLine
 10
68.2803597802
 20
23.6965439268
 30
0.0
 11
68.3193597802
 21
23.6965439268
 31
0.0
  0
LINE
  5
257
330
77A
100
AcDbEntity
  8
0
  6
SLD-SOLID
 62
     7
100
AcDbLine
 10
68.3193597802
 20
35.4465439268
 30
0.0
 11
68.2803597802
 21
35.4465439268
 31
0.0
  0
LINE
  5
258
330
77A
100
AcDbEntity
  8
0
  6
SLD-SOLID
 62
     7
100
AcDbLine
 10
68.3193597802
 20
35.4465439268
 30
0.0
 11
68.3349847802
 21
35.4465439268
 31
0.0
  0
LINE
  5
259
330
77A
100
AcDbEntity
  8
0
  6
SLD-SOLID
 62
     7
100
AcDbLine
 10
68.3349847802
 20
35.4465439268
 30
0.0
 11
68.3349847802
 21
37.0001689268
 31
0.0
  0
LINE
  5
25A
330
77A
100
AcDbEntity
  8
0
  6
SLD-SOLID
 62
     7
100
AcDbLine
 10
68.3349847802
 20
20.1116689268
 30
0.0
 11
68.3349847802
 21
20.2016783742
 31
0.0
  0
LINE
  5
25B
330
77A
100
AcDbEntity
  8
0
  6
SLD-SOLID
 62
     7
100
AcDbLine
 10
68.3349847802
 20
23.6195439268
 30
0.0
 11
68.3349847802
 21
23.6965439268
 31
0.0
  0
LINE
  5
25C
330
77A
100
AcDbEntity
  8
0
  6
SLD-SOLID
 62
     7
100
AcDbLine
 10
68.3349847802
 20
23.6965439268
 30
0.0
 11
68.3193597802
 21
23.6965439268
 31
0.0
  0
CIRCLE
  5
25D
330
77A
100
AcDbEntity
  8
0
  6
SLD-SOLID
 62
     7
100
AcDbCircle
 10
68.7099847802
 20
29.1703060235
 30
0.0
 40
0.1714999999999804
  0
LINE
  5
25E
330
77A
100
AcDbEntity
  8
0
  6
SLD-SOLID
 62
     7
100
AcDbLine
 10
68.9834847802
 20
37.4465439268
 30
0.0
 11
68.9834847802
 21
19.6652939268
 31
0.0
  0
LINE
  5
25F
330
77A
100
AcDbEntity
  8
0
  6
SLD-SOLID
 62
     7
100
AcDbLine
 10
68.9767347802
 20
19.6652939268
 30
0.0
 11
68.9834847802
 21
19.6652939268
 31
0.0
  0
LINE
  5
260
330
77A
100
AcDbEntity
  8
0
  6
SLD-SOLID
 62
     7
100
AcDbLine
 10
68.9834847802
 20
37.4465439268
 30
0.0
 11
68.9767347802
 21
37.4465439268
 31
0.0
  0
LINE
  5
261
330
77A
100
AcDbEntity
  8
0
  6
SLD-SOLID
 62
     7
100
AcDbLine
 10
68.9767347802
 20
20.1116689268
 30
0.0
 11
39.1642347802
 21
20.1116689268
 31
0.0
  0
LINE
  5
262
330
77A
100
AcDbEntity
  8
0
  6
SLD-SOLID
 62
     7
100
AcDbLine
 10
68.9767347802
 20
19.6886689268
 30
0.0
 11
68.9767347802
 21
20.1116689268
 31
0.0
  0
LINE
  5
263
330
77A
100
AcDbEntity
  8
0
  6
SLD-SOLID
 62
     7
100
AcDbLine
 10
39.1642347802
 20
19.6886689268
 30
0.0
 11
39.1642347802
 21
20.1116689268
 31
0.0
  0
LINE
  5
264
330
77A
100
AcDbEntity
  8
0
  6
SLD-SOLID
 62
     7
100
AcDbLine
 10
68.9767347802
 20
19.6116689268
 30
0.0
 11
39.1642347802
 21
19.6116689268
 31
0.0
  0
LINE
  5
265
330
77A
100
AcDbEntity
  8
0
  6
SLD-SOLID
 62
     7
100
AcDbLine
 10
39.1642347802
 20
19.6116689268
 30
0.0
 11
39.1642347802
 21
19.6886689268
 31
0.0
  0
LINE
  5
266
330
77A
100
AcDbEntity
  8
0
  6
SLD-SOLID
 62
     7
100
AcDbLine
 10
68.9767347802
 20
19.6116689268
 30
0.0
 11
68.9767347802
 21
19.6886689268
 31
0.0
  0
DIMENSION
  5
267
330
77A
100
AcDbEntity
  8
DIM
 62
     7
100
AcDbDimension
  2
_D
 10
69.1709847802
 20
15.514745176
 30
0.0
 11
54.0704847802
 21
15.514745176
 31
0.0
 70
   160
  1
<>
  3
SLDDIMSTYLE0
100
AcDbAlignedDimension
 13
38.9699847802
 23
21.2431439707
 33
0.0
 14
69.1709847802
 24
21.2431439707
 34
0.0
100
AcDbRotatedDimension
1001
ACAD
1000
DSTYLE
1002
{
1070
   270
1070
     5
1070
    41
1040
0.75
1070
   176
1070
   256
1070
   177
1070
   256
1070
   178
1070
   256
1070
    44
1040
1.0
1070
    42
1040
0.5
1070
   276
1070
     1
1070
   147
1040
0.25
1070
   277
1070
     5
1070
     3
1000
"
1070
    45
1040
0.0
1070
   272
1070
     3
1070
   340
1005
7F7
1070
   140
1040
1.0
1070
   284
1070
    12
1002
}
  0
DIMENSION
  5
277
330
77A
100
AcDbEntity
  8
DIM
 62
     7
100
AcDbDimension
  2
_D_1
 10
34.0880950164
 20
23.6965439268
 30
0.0
 11
34.0880950164
 21
21.6541064268
 31
0.0
 70
   160
  1
<>
  3
SLDDIMSTYLE1
100
AcDbAlignedDimension
 13
39.1642347802
 23
19.6116689268
 33
0.0
 14
39.8829847802
 24
23.6965439268
 34
0.0
 50
90.0
100
AcDbRotatedDimension
1001
ACAD
1000
DSTYLE
1002
{
1070
   270
1070
     5
1070
    41
1040
0.75
1070
   176
1070
   256
1070
   177
1070
   256
1070
   178
1070
   256
1070
    44
1040
1.0
1070
    42
1040
0.5
1070
   276
1070
     1
1070
   147
1040
0.25
1070
   277
1070
     5
1070
     3
1000
"
1070
    45
1040
0.0
1070
   272
1070
     3
1070
   172
1070
     0
1070
   340
1005
7F7
1070
   140
1040
1.0
1070
   284
1070
    12
1002
}
  0
DIMENSION
  5
287
330
77A
100
AcDbEntity
  8
DIM
 62
     7
100
AcDbDimension
  2
_D_2
 10
34.0880950164
 20
35.4465439268
 30
0.0
 11
34.0880950164
 21
29.5715439268
 31
0.0
 70
   160
  1
<>
  3
SLDDIMSTYLE0
100
AcDbAlignedDimension
 13
39.8829847802
 23
23.6965439268
 33
0.0
 14
39.8829847802
 24
35.4465439268
 34
0.0
 50
90.0
100
AcDbRotatedDimension
1001
ACAD
1000
DSTYLE
1002
{
1070
   270
1070
     5
1070
    41
1040
0.75
1070
   176
1070
   256
1070
   177
1070
   256
1070
   178
1070
   256
1070
    44
1040
1.0
1070
    42
1040
0.5
1070
   276
1070
     1
1070
   147
1040
0.25
1070
   277
1070
     5
1070
     3
1000
"
1070
    45
1040
0.0
1070
   272
1070
     3
1070
   340
1005
7F7
1070
   140
1040
1.0
1070
   284
1070
    12
1002
}
  0
DIMENSION
  5
296
330
77A
100
AcDbEntity
  8
DIM
 62
     7
100
AcDbDimension
  2
_D_3
 10
75.307643743
 20
19.6116689268
 30
0.0
 11
75.307643743
 21
34.5479189268
 31
0.0
 70
   160
  1
<>
  3
SLDDIMSTYLE0
100
AcDbAlignedDimension
 13
55.5314847802
 23
49.4841689268
 33
0.0
 14
68.9767347802
 24
19.6116689268
 34
0.0
 50
90.0
100
AcDbRotatedDimension
1001
ACAD
1000
DSTYLE
1002
{
1070
   270
1070
     5
1070
    41
1040
0.75
1070
   176
1070
   256
1070
   177
1070
   256
1070
   178
1070
   256
1070
    44
1040
1.0
1070
    42
1040
0.5
1070
   276
1070
     1
1070
   147
1040
0.25
1070
   277
1070
     5
1070
     3
1000
"
1070
    45
1040
0.0
1070
   272
1070
     3
1070
   340
1005
7F7
1070
   140
1040
1.0
1070
   284
1070
    12
1002
}
  0
DIMENSION
  5
2A5
330
77A
100
AcDbEntity
  8
DIM
 62
     7
100
AcDbDimension
  2
_D_4
 10
39.8986097802
 20
29.5715439268
 30
0.0
 11
54.0704847802
 21
29.5715439268
 31
0.0
 70
   160
  1
<>
  3
SLDDIMSTYLE0
100
AcDbAlignedDimension
 13
68.2423597802
 23
35.4465439268
 33
0.0
 14
39.8986097802
 24
35.4465439268
 34
0.0
100
AcDbRotatedDimension
1001
ACAD
1000
DSTYLE
1002
{
1070
   270
1070
     5
1070
    41
1040
0.75
1070
   176
1070
   256
1070
   177
1070
   256
1070
   178
1070
   256
1070
    44
1040
1.0
1070
    42
1040
0.5
1070
   276
1070
     1
1070
   147
1040
0.25
1070
   277
1070
     5
1070
     3
1000
"
1070
    45
1040
0.0
1070
   272
1070
     3
1070
   340
1005
7F7
1070
   140
1040
1.0
1070
   284
1070
    12
1002
}
  0
LINE
  5
2B2
330
77A
100
AcDbEntity
  8
0
  6
SLD-SOLID
 62
     7
100
AcDbLine
 10
96.0457090014
 20
23.5557939268
 30
0.0
 11
96.0457090014
 21
23.5434414358
 31
0.0
  0
LINE
  5
2B3
330
77A
100
AcDbEntity
  8
0
  6
SLD-SOLID
 62
     7
100
AcDbLine
 10
96.0668398672
 20
23.5188819284
 30
0.0
 11
96.0840370423
 21
23.5142739592
 31
0.0
  0
ARC
  5
2B4
330
77A
100
AcDbEntity
  8
0
  6
SLD-SOLID
 62
     7
100
AcDbCircle
 10
93.7177090014
 20
29.1703060235
 30
0.0
 40
0.3140000000000051
100
AcDbArc
 50
164.1088134277
 51
172.8537266221
  0
ARC
  5
2B5
330
77A
100
AcDbEntity
  8
0
  6
SLD-SOLID
 62
     7
100
AcDbCircle
 10
93.7177090014
 20
29.1703060235
 30
0.0
 40
0.3140000000000069
100
AcDbArc
 50
187.1462733779
 51
195.8911865723
  0
ARC
  5
2B6
330
77A
100
AcDbEntity
  8
0
  6
SLD-SOLID
 62
     7
100
AcDbCircle
 10
93.6417090014
 20
19.9152939268
 30
0.0
 40
0.3140000000000055
100
AcDbArc
 50
152.8058979431
 51
172.8537266221
  0
ARC
  5
2B7
330
77A
100
AcDbEntity
  8
0
  6
SLD-SOLID
 62
     7
100
AcDbCircle
 10
93.6417090014
 20
19.9152939268
 30
0.0
 40
0.3140000000000051
100
AcDbArc
 50
187.1462733779
 51
207.1941020569
  0
LINE
  5
2B8
330
77A
100
AcDbEntity
  8
0
  6
SLD-SOLID
 62
     7
100
AcDbLine
 10
93.3777090014
 20
20.0587939268
 30
0.0
 11
93.362417487
 21
20.0587939268
 31
0.0
  0
LINE
  5
2B9
330
77A
100
AcDbEntity
  8
0
  6
SLD-SOLID
 62
     7
100
AcDbLine
 10
93.362417487
 20
19.7717939268
 30
0.0
 11
93.3777090014
 21
19.7717939268
 31
0.0
  0
ARC
  5
2BA
330
77A
100
AcDbEntity
  8
0
  6
SLD-SOLID
 62
     7
100
AcDbCircle
 10
98.5022090014
 20
19.9152939268
 30
0.0
 40
0.3140000000000149
100
AcDbArc
 50
7.146273377900001
 51
27.1941020569
  0
ARC
  5
2BB
330
77A
100
AcDbEntity
  8
0
  6
SLD-SOLID
 62
     7
100
AcDbCircle
 10
98.5022090014
 20
19.9152939268
 30
0.0
 40
0.3140000000000133
100
AcDbArc
 50
332.8058979431
 51
352.8537266220999
  0
LINE
  5
2BC
330
77A
100
AcDbEntity
  8
0
  6
SLD-SOLID
 62
     7
100
AcDbLine
 10
98.7662090014
 20
19.7717939268
 30
0.0
 11
98.7815005158
 21
19.7717939268
 31
0.0
  0
LINE
  5
2BD
330
77A
100
AcDbEntity
  8
0
  6
SLD-SOLID
 62
     7
100
AcDbLine
 10
98.7815005158
 20
20.0587939268
 30
0.0
 11
98.7662090014
 21
20.0587939268
 31
0.0
  0
LINE
  5
2BE
330
77A
100
AcDbEntity
  8
0
  6
SLD-SOLID
 62
     7
100
AcDbLine
 10
98.7097040014
 20
19.8527939268
 30
0.0
 11
98.7282090014
 21
19.8527939268
 31
0.0
  0
LINE
  5
2BF
330
77A
100
AcDbEntity
  8
0
  6
SLD-SOLID
 62
     7
100
AcDbLine
 10
98.7282090014
 20
19.9777939268
 30
0.0
 11
98.7097040014
 21
19.9777939268
 31
0.0
  0
ARC
  5
2C0
330
77A
100
AcDbEntity
  8
0
  6
SLD-SOLID
 62
     7
100
AcDbCircle
 10
93.7180041734
 20
35.7590439268
 30
0.0
 40
0.3140000000000055
100
AcDbArc
 50
164.3067200634
 51
172.8537266221
  0
ARC
  5
2C1
330
77A
100
AcDbEntity
  8
0
  6
SLD-SOLID
 62
     7
100
AcDbCircle
 10
93.7180041734
 20
35.7590439268
 30
0.0
 40
0.3140000000000055
100
AcDbArc
 50
187.1462733779
 51
195.6932799366
  0
LINE
  5
2C2
330
77A
100
AcDbEntity
  8
0
  6
SLD-SOLID
 62
     7
100
AcDbLine
 10
93.4157090014
 20
24.0638060235
 30
0.0
 11
93.400417487
 21
24.0638060235
 31
0.0
  0
LINE
  5
2C3
330
77A
100
AcDbEntity
  8
0
  6
SLD-SOLID
 62
     7
100
AcDbLine
 10
93.400417487
 20
23.7768060235
 30
0.0
 11
93.4157090014
 21
23.7768060235
 31
0.0
  0
ARC
  5
2C4
330
77A
100
AcDbEntity
  8
0
  6
SLD-SOLID
 62
     7
100
AcDbCircle
 10
93.6797090014
 20
23.9203060235
 30
0.0
 40
0.3140000000000165
100
AcDbArc
 50
152.8058979431
 51
172.8537266221
  0
ARC
  5
2C5
330
77A
100
AcDbEntity
  8
0
  6
SLD-SOLID
 62
     7
100
AcDbCircle
 10
93.6797090014
 20
23.9203060235
 30
0.0
 40
0.3140000000000149
100
AcDbArc
 50
187.1462733779
 51
207.1941020569
  0
LINE
  5
2C6
330
77A
100
AcDbEntity
  8
0
  6
SLD-SOLID
 62
     7
100
AcDbLine
 10
93.3777090014
 20
37.3400439268
 30
0.0
 11
93.362417487
 21
37.3400439268
 31
0.0
  0
LINE
  5
2C7
330
77A
100
AcDbEntity
  8
0
  6
SLD-SOLID
 62
     7
100
AcDbLine
 10
93.362417487
 20
37.0530439268
 30
0.0
 11
93.3777090014
 21
37.0530439268
 31
0.0
  0
ARC
  5
2C8
330
77A
100
AcDbEntity
  8
0
  6
SLD-SOLID
 62
     7
100
AcDbCircle
 10
93.6417090014
 20
37.1965439268
 30
0.0
 40
0.3140000000000055
100
AcDbArc
 50
152.8058979431
 51
172.8537266221
  0
ARC
  5
2C9
330
77A
100
AcDbEntity
  8
0
  6
SLD-SOLID
 62
     7
100
AcDbCircle
 10
93.6417090014
 20
37.1965439268
 30
0.0
 40
0.3140000000000046
100
AcDbArc
 50
187.1462733779
 51
207.1941020569
  0
LINE
  5
2CA
330
77A
100
AcDbEntity
  8
0
  6
SLD-SOLID
 62
     7
100
AcDbLine
 10
93.4157090014
 20
34.5638060235
 30
0.0
 11
93.400417487
 21
34.5638060235
 31
0.0
  0
LINE
  5
2CB
330
77A
100
AcDbEntity
  8
0
  6
SLD-SOLID
 62
     7
100
AcDbLine
 10
93.400417487
 20
34.2768060235
 30
0.0
 11
93.4157090014
 21
34.2768060235
 31
0.0
  0
ARC
  5
2CC
330
77A
100
AcDbEntity
  8
0
  6
SLD-SOLID
 62
     7
100
AcDbCircle
 10
93.6797090014
 20
34.4203060235
 30
0.0
 40
0.3139999999999914
100
AcDbArc
 50
152.8058979431
 51
172.8537266221
  0
ARC
  5
2CD
330
77A
100
AcDbEntity
  8
0
  6
SLD-SOLID
 62
     7
100
AcDbCircle
 10
93.6797090014
 20
34.4203060235
 30
0.0
 40
0.3139999999999914
100
AcDbArc
 50
187.1462733779
 51
207.1941020569
  0
LINE
  5
2CE
330
77A
100
AcDbEntity
  8
0
  6
SLD-SOLID
 62
     7
100
AcDbLine
 10
98.7662090014
 20
37.0530439268
 30
0.0
 11
98.7815005158
 21
37.0530439268
 31
0.0
  0
LINE
  5
2CF
330
77A
100
AcDbEntity
  8
0
  6
SLD-SOLID
 62
     7
100
AcDbLine
 10
98.7815005158
 20
37.3400439268
 30
0.0
 11
98.7662090014
 21
37.3400439268
 31
0.0
  0
ARC
  5
2D0
330
77A
100
AcDbEntity
  8
0
  6
SLD-SOLID
 62
     7
100
AcDbCircle
 10
98.5022090014
 20
37.1965439268
 30
0.0
 40
0.3139999999999914
100
AcDbArc
 50
7.146273377900001
 51
27.1941020569
  0
ARC
  5
2D1
330
77A
100
AcDbEntity
  8
0
  6
SLD-SOLID
 62
     7
100
AcDbCircle
 10
98.5022090014
 20
37.1965439268
 30
0.0
 40
0.3140000000000039
100
AcDbArc
 50
332.8058979431
 51
352.8537266220999
  0
LINE
  5
2D2
330
77A
100
AcDbEntity
  8
0
  6
SLD-SOLID
 62
     7
100
AcDbLine
 10
98.7097040014
 20
37.1340439268
 30
0.0
 11
98.7282090014
 21
37.1340439268
 31
0.0
  0
LINE
  5
2D3
330
77A
100
AcDbEntity
  8
0
  6
SLD-SOLID
 62
     7
100
AcDbLine
 10
98.7282090014
 20
37.2590439268
 30
0.0
 11
98.7097040014
 21
37.2590439268
 31
0.0
  0
LINE
  5
2D4
330
77A
100
AcDbEntity
  8
0
  6
SLD-SOLID
 62
     7
100
AcDbLine
 10
93.4547090014
 20
37.5001689268
 30
0.0
 11
93.4547090014
 21
37.5381689268
 31
0.0
  0
LINE
  5
2D5
330
77A
100
AcDbEntity
  8
0
  6
SLD-SOLID
 62
     7
100
AcDbLine
 10
94.1657090014
 20
37.5381689268
 30
0.0
 11
93.4547090014
 21
37.5381689268
 31
0.0
  0
LINE
  5
2D6
330
77A
100
AcDbEntity
  8
0
  6
SLD-SOLID
 62
     7
100
AcDbLine
 10
94.1657090014
 20
37.5001689268
 30
0.0
 11
94.1657090014
 21
37.5381689268
 31
0.0
  0
LINE
  5
2D7
330
77A
100
AcDbEntity
  8
0
  6
SLD-SOLID
 62
     7
100
AcDbLine
 10
94.0717090014
 20
37.5771689268
 30
0.0
 11
94.0717090014
 21
37.5381689268
 31
0.0
  0
LINE
  5
2D8
330
77A
100
AcDbEntity
  8
0
  6
SLD-SOLID
 62
     7
100
AcDbLine
 10
94.1657090014
 20
37.5381689268
 30
0.0
 11
94.1657090014
 21
37.5771689268
 31
0.0
  0
LINE
  5
2D9
330
77A
100
AcDbEntity
  8
0
  6
SLD-SOLID
 62
     7
100
AcDbLine
 10
93.5717090014
 20
37.5381689268
 30
0.0
 11
93.5717090014
 21
37.5771689268
 31
0.0
  0
LINE
  5
2DA
330
77A
100
AcDbEntity
  8
0
  6
SLD-SOLID
 62
     7
100
AcDbLine
 10
93.4547090014
 20
37.5771689268
 30
0.0
 11
93.4547090014
 21
37.5381689268
 31
0.0
  0
LINE
  5
2DB
330
77A
100
AcDbEntity
  8
0
  6
SLD-SOLID
 62
     7
100
AcDbLine
 10
94.0717090014
 20
37.5851689268
 30
0.0
 11
93.5717090014
 21
37.5851689268
 31
0.0
  0
LINE
  5
2DC
330
77A
100
AcDbEntity
  8
0
  6
SLD-SOLID
 62
     7
100
AcDbLine
 10
93.5717090014
 20
37.5851689268
 30
0.0
 11
93.5717090014
 21
37.5771689268
 31
0.0
  0
LINE
  5
2DD
330
77A
100
AcDbEntity
  8
0
  6
SLD-SOLID
 62
     7
100
AcDbLine
 10
94.1657090014
 20
37.5771689268
 30
0.0
 11
94.1657090014
 21
48.7341689268
 31
0.0
  0
LINE
  5
2DE
330
77A
100
AcDbEntity
  8
0
  6
SLD-SOLID
 62
     7
100
AcDbLine
 10
94.0717090014
 20
37.5771689268
 30
0.0
 11
94.0717090014
 21
37.5851689268
 31
0.0
  0
CIRCLE
  5
2DF
330
77A
100
AcDbEntity
  8
0
  6
SLD-SOLID
 62
     7
100
AcDbCircle
 10
93.7967090014
 20
43.1556689268
 30
0.0
 40
0.1299999999999955
  0
LINE
  5
2E0
330
77A
100
AcDbEntity
  8
0
  6
SLD-SOLID
 62
     7
100
AcDbLine
 10
94.1657090014
 20
48.7341689268
 30
0.0
 11
93.4547090014
 21
48.7341689268
 31
0.0
  0
LINE
  5
2E1
330
77A
100
AcDbEntity
  8
0
  6
SLD-SOLID
 62
     7
100
AcDbLine
 10
93.3777090014
 20
37.5771689268
 30
0.0
 11
93.3777090014
 21
48.7341689268
 31
0.0
  0
LINE
  5
2E2
330
77A
100
AcDbEntity
  8
0
  6
SLD-SOLID
 62
     7
100
AcDbLine
 10
93.4547090014
 20
48.7341689268
 30
0.0
 11
93.3777090014
 21
48.7341689268
 31
0.0
  0
LINE
  5
2E3
330
77A
100
AcDbEntity
  8
0
  6
SLD-SOLID
 62
     7
100
AcDbLine
 10
93.3777090014
 20
37.5771689268
 30
0.0
 11
93.4547090014
 21
37.5771689268
 31
0.0
  0
LINE
  5
2E4
330
77A
100
AcDbEntity
  8
0
  6
SLD-SOLID
 62
     7
100
AcDbLine
 10
93.3777090014
 20
49.4841689268
 30
0.0
 11
93.3777090014
 21
48.7341689268
 31
0.0
  0
LINE
  5
2E5
330
77A
100
AcDbEntity
  8
0
  6
SLD-SOLID
 62
     7
100
AcDbLine
 10
93.4157090014
 20
49.4841689268
 30
0.0
 11
93.4157090014
 21
48.7341689268
 31
0.0
  0
LINE
  5
2E6
330
77A
100
AcDbEntity
  8
0
  6
SLD-SOLID
 62
     7
100
AcDbLine
 10
93.3777090014
 20
49.4841689268
 30
0.0
 11
93.4157090014
 21
49.4841689268
 31
0.0
  0
LINE
  5
2E7
330
77A
100
AcDbEntity
  8
0
  6
SLD-SOLID
 62
     7
100
AcDbLine
 10
93.7266221319
 20
19.6496689268
 30
0.0
 11
93.7266221319
 21
19.6652939268
 31
0.0
  0
LINE
  5
2E8
330
77A
100
AcDbEntity
  8
0
  6
SLD-SOLID
 62
     7
100
AcDbLine
 10
93.6886221319
 20
19.6496689268
 30
0.0
 11
93.6886221319
 21
19.6652939268
 31
0.0
  0
LINE
  5
2E9
330
77A
100
AcDbEntity
  8
0
  6
SLD-SOLID
 62
     7
100
AcDbLine
 10
98.3426221319
 20
19.6496689268
 30
0.0
 11
98.3426221319
 21
19.6652939268
 31
0.0
  0
LINE
  5
2EA
330
77A
100
AcDbEntity
  8
0
  6
SLD-SOLID
 62
     7
100
AcDbLine
 10
95.0411772555
 20
23.5557939268
 30
0.0
 11
95.1652407473
 21
23.5557939268
 31
0.0
  0
LINE
  5
2EB
330
77A
100
AcDbEntity
  8
0
  6
SLD-SOLID
 62
     7
100
AcDbLine
 10
95.5411772555
 20
23.5557939268
 30
0.0
 11
95.6652407473
 21
23.5557939268
 31
0.0
  0
LINE
  5
2EC
330
77A
100
AcDbEntity
  8
0
  6
SLD-SOLID
 62
     7
100
AcDbLine
 10
96.0411772555
 20
23.5557939268
 30
0.0
 11
96.1652407473
 21
23.5557939268
 31
0.0
  0
LINE
  5
2ED
330
77A
100
AcDbEntity
  8
0
  6
SLD-SOLID
 62
     7
100
AcDbLine
 10
96.5411772555
 20
23.5557939268
 30
0.0
 11
96.6652407473
 21
23.5557939268
 31
0.0
  0
LINE
  5
2EE
330
77A
100
AcDbEntity
  8
0
  6
SLD-SOLID
 62
     7
100
AcDbLine
 10
97.0411772555
 20
23.5557939268
 30
0.0
 11
97.1652407473
 21
23.5557939268
 31
0.0
  0
LINE
  5
2EF
330
77A
100
AcDbEntity
  8
0
  6
SLD-SOLID
 62
     7
100
AcDbLine
 10
95.0432011894
 20
23.5937939268
 30
0.0
 11
95.1632168134
 21
23.5937939268
 31
0.0
  0
LINE
  5
2F0
330
77A
100
AcDbEntity
  8
0
  6
SLD-SOLID
 62
     7
100
AcDbLine
 10
95.5432011894
 20
23.5937939268
 30
0.0
 11
95.6632168134
 21
23.5937939268
 31
0.0
  0
LINE
  5
2F1
330
77A
100
AcDbEntity
  8
0
  6
SLD-SOLID
 62
     7
100
AcDbLine
 10
96.0432011894
 20
23.5937939268
 30
0.0
 11
96.1632168134
 21
23.5937939268
 31
0.0
  0
LINE
  5
2F2
330
77A
100
AcDbEntity
  8
0
  6
SLD-SOLID
 62
     7
100
AcDbLine
 10
96.5432011894
 20
23.5937939268
 30
0.0
 11
96.6632168134
 21
23.5937939268
 31
0.0
  0
LINE
  5
2F3
330
77A
100
AcDbEntity
  8
0
  6
SLD-SOLID
 62
     7
100
AcDbLine
 10
97.0432011894
 20
23.5937939268
 30
0.0
 11
97.1632168134
 21
23.5937939268
 31
0.0
  0
LINE
  5
2F4
330
77A
100
AcDbEntity
  8
0
  6
SLD-SOLID
 62
     7
100
AcDbLine
 10
96.5432011894
 20
23.5937939268
 30
0.0
 11
96.5692090014
 21
23.5937939268
 31
0.0
  0
LINE
  5
2F5
330
77A
100
AcDbEntity
  8
0
  6
SLD-SOLID
 62
     7
100
AcDbLine
 10
96.5692090014
 20
23.6257656937
 30
0.0
 11
96.5692090014
 21
23.5937939268
 31
0.0
  0
ARC
  5
2F6
330
77A
100
AcDbEntity
  8
0
  6
SLD-SOLID
 62
     7
100
AcDbCircle
 10
96.5692090014
 20
23.5547939268
 30
0.0
 40
0.0770000000000038
100
AcDbArc
 50
30.4305449292
 51
82.1606480344
  0
LINE
  5
2F7
330
77A
100
AcDbEntity
  8
0
  6
SLD-SOLID
 62
     7
100
AcDbLine
 10
93.7009617539
 20
34.6934793532
 30
0.0
 11
93.7246730037
 21
34.8723364469
 31
0.0
  0
LINE
  5
2F8
330
77A
100
AcDbEntity
  8
0
  6
SLD-SOLID
 62
     7
100
AcDbLine
 10
93.7246730037
 20
34.8723364469
 30
0.0
 11
93.8914234154
 21
34.9412304491
 31
0.0
  0
LINE
  5
2F9
330
77A
100
AcDbEntity
  8
0
  6
SLD-SOLID
 62
     7
100
AcDbLine
 10
93.8914234154
 20
34.9412304491
 30
0.0
 11
94.0344625773
 21
34.8312673576
 31
0.0
  0
LINE
  5
2FA
330
77A
100
AcDbEntity
  8
0
  6
SLD-SOLID
 62
     7
100
AcDbLine
 10
94.0344625773
 20
34.8312673576
 30
0.0
 11
94.0107513275
 21
34.6524102639
 31
0.0
  0
LINE
  5
2FB
330
77A
100
AcDbEntity
  8
0
  6
SLD-SOLID
 62
     7
100
AcDbLine
 10
94.0107513275
 20
34.6524102639
 30
0.0
 11
93.8440009158
 21
34.5835162617
 31
0.0
  0
LINE
  5
2FC
330
77A
100
AcDbEntity
  8
0
  6
SLD-SOLID
 62
     7
100
AcDbLine
 10
93.8440009158
 20
34.5835162617
 30
0.0
 11
93.7009617539
 21
34.6934793532
 31
0.0
  0
CIRCLE
  5
2FD
330
77A
100
AcDbEntity
  8
0
  6
SLD-SOLID
 62
     7
100
AcDbCircle
 10
93.8677121656
 20
34.7623733554
 30
0.0
 40
0.1406249999999995
  0
CIRCLE
  5
2FE
330
77A
100
AcDbEntity
  8
0
  6
SLD-SOLID
 62
     7
100
AcDbCircle
 10
93.8677121656
 20
34.7623733554
 30
0.0
 40
0.2187500000000033
  0
LINE
  5
2FF
330
77A
100
AcDbEntity
  8
0
  6
SLD-SOLID
 62
     7
100
AcDbLine
 10
97.1650633691
 20
32.6934793532
 30
0.0
 11
97.1887746189
 21
32.8723364469
 31
0.0
  0
LINE
  5
300
330
77A
100
AcDbEntity
  8
0
  6
SLD-SOLID
 62
     7
100
AcDbLine
 10
97.1887746189
 20
32.8723364469
 30
0.0
 11
97.3555250306
 21
32.9412304491
 31
0.0
  0
LINE
  5
301
330
77A
100
AcDbEntity
  8
0
  6
SLD-SOLID
 62
     7
100
AcDbLine
 10
97.3555250306
 20
32.9412304491
 30
0.0
 11
97.4985641925
 21
32.8312673576
 31
0.0
  0
LINE
  5
302
330
77A
100
AcDbEntity
  8
0
  6
SLD-SOLID
 62
     7
100
AcDbLine
 10
97.4985641925
 20
32.8312673576
 30
0.0
 11
97.4748529427
 21
32.6524102639
 31
0.0
  0
LINE
  5
303
330
77A
100
AcDbEntity
  8
0
  6
SLD-SOLID
 62
     7
100
AcDbLine
 10
97.4748529427
 20
32.6524102639
 30
0.0
 11
97.308102531
 21
32.5835162617
 31
0.0
  0
LINE
  5
304
330
77A
100
AcDbEntity
  8
0
  6
SLD-SOLID
 62
     7
100
AcDbLine
 10
97.308102531
 20
32.5835162617
 30
0.0
 11
97.1650633691
 21
32.6934793532
 31
0.0
  0
CIRCLE
  5
305
330
77A
100
AcDbEntity
  8
0
  6
SLD-SOLID
 62
     7
100
AcDbCircle
 10
97.3318137808
 20
32.7623733554
 30
0.0
 40
0.1406250000000115
  0
CIRCLE
  5
306
330
77A
100
AcDbEntity
  8
0
  6
SLD-SOLID
 62
     7
100
AcDbCircle
 10
97.3318137808
 20
32.7623733554
 30
0.0
 40
0.2187500000000033
  0
LINE
  5
307
330
77A
100
AcDbEntity
  8
0
  6
SLD-SOLID
 62
     7
100
AcDbLine
 10
97.8388717202
 20
31.3148749685
 30
0.0
 11
97.86258297
 21
31.4937320622
 31
0.0
  0
LINE
  5
308
330
77A
100
AcDbEntity
  8
0
  6
SLD-SOLID
 62
     7
100
AcDbLine
 10
97.86258297
 20
31.4937320622
 30
0.0
 11
98.0293333817
 21
31.5626260644
 31
0.0
  0
LINE
  5
309
330
77A
100
AcDbEntity
  8
0
  6
SLD-SOLID
 62
     7
100
AcDbLine
 10
98.0293333817
 20
31.5626260644
 30
0.0
 11
98.1723725436
 21
31.4526629728
 31
0.0
  0
LINE
  5
30A
330
77A
100
AcDbEntity
  8
0
  6
SLD-SOLID
 62
     7
100
AcDbLine
 10
98.1723725436
 20
31.4526629728
 30
0.0
 11
98.1486612938
 21
31.2738058791
 31
0.0
  0
LINE
  5
30B
330
77A
100
AcDbEntity
  8
0
  6
SLD-SOLID
 62
     7
100
AcDbLine
 10
98.1486612938
 20
31.2738058791
 30
0.0
 11
97.9819108821
 21
31.204911877
 31
0.0
  0
LINE
  5
30C
330
77A
100
AcDbEntity
  8
0
  6
SLD-SOLID
 62
     7
100
AcDbLine
 10
97.9819108821
 20
31.204911877
 30
0.0
 11
97.8388717202
 21
31.3148749685
 31
0.0
  0
CIRCLE
  5
30D
330
77A
100
AcDbEntity
  8
0
  6
SLD-SOLID
 62
     7
100
AcDbCircle
 10
98.0056221319
 20
31.3837689707
 30
0.0
 40
0.1406250000000049
  0
CIRCLE
  5
30E
330
77A
100
AcDbEntity
  8
0
  6
SLD-SOLID
 62
     7
100
AcDbCircle
 10
98.0056221319
 20
31.3837689707
 30
0.0
 40
0.2187500000000012
  0
LINE
  5
30F
330
77A
100
AcDbEntity
  8
0
  6
SLD-SOLID
 62
     7
100
AcDbLine
 10
96.0597693881
 20
23.5245439268
 30
0.0
 11
96.1466486147
 21
23.5245439268
 31
0.0
  0
LINE
  5
310
330
77A
100
AcDbEntity
  8
0
  6
SLD-SOLID
 62
     7
100
AcDbLine
 10
96.1304318768
 20
23.5142739592
 30
0.0
 11
96.0840370423
 21
23.5142739592
 31
0.0
  0
LINE
  5
311
330
77A
100
AcDbEntity
  8
0
  6
SLD-SOLID
 62
     7
100
AcDbLine
 10
96.0840370423
 20
23.5104830066
 30
0.0
 11
96.0840370423
 21
23.5142739592
 31
0.0
  0
LINE
  5
312
330
77A
100
AcDbEntity
  8
0
  6
SLD-SOLID
 62
     7
100
AcDbLine
 10
97.8388717202
 20
26.3148749685
 30
0.0
 11
97.86258297
 21
26.4937320622
 31
0.0
  0
LINE
  5
313
330
77A
100
AcDbEntity
  8
0
  6
SLD-SOLID
 62
     7
100
AcDbLine
 10
97.86258297
 20
26.4937320622
 30
0.0
 11
98.0293333817
 21
26.5626260644
 31
0.0
  0
LINE
  5
314
330
77A
100
AcDbEntity
  8
0
  6
SLD-SOLID
 62
     7
100
AcDbLine
 10
98.0293333817
 20
26.5626260644
 30
0.0
 11
98.1723725436
 21
26.4526629728
 31
0.0
  0
LINE
  5
315
330
77A
100
AcDbEntity
  8
0
  6
SLD-SOLID
 62
     7
100
AcDbLine
 10
98.1723725436
 20
26.4526629728
 30
0.0
 11
98.1486612938
 21
26.2738058791
 31
0.0
  0
LINE
  5
316
330
77A
100
AcDbEntity
  8
0
  6
SLD-SOLID
 62
     7
100
AcDbLine
 10
98.1486612938
 20
26.2738058791
 30
0.0
 11
97.9819108821
 21
26.204911877
 31
0.0
  0
LINE
  5
317
330
77A
100
AcDbEntity
  8
0
  6
SLD-SOLID
 62
     7
100
AcDbLine
 10
97.9819108821
 20
26.204911877
 30
0.0
 11
97.8388717202
 21
26.3148749685
 31
0.0
  0
CIRCLE
  5
318
330
77A
100
AcDbEntity
  8
0
  6
SLD-SOLID
 62
     7
100
AcDbCircle
 10
98.0056221319
 20
26.3837689707
 30
0.0
 40
0.1406249999999995
  0
CIRCLE
  5
319
330
77A
100
AcDbEntity
  8
0
  6
SLD-SOLID
 62
     7
100
AcDbCircle
 10
98.0056221319
 20
26.3837689707
 30
0.0
 40
0.2187500000000066
  0
LINE
  5
31A
330
77A
100
AcDbEntity
  8
0
  6
SLD-SOLID
 62
     7
100
AcDbLine
 10
97.8388717202
 20
21.3148749685
 30
0.0
 11
97.86258297
 21
21.4937320622
 31
0.0
  0
LINE
  5
31B
330
77A
100
AcDbEntity
  8
0
  6
SLD-SOLID
 62
     7
100
AcDbLine
 10
97.86258297
 20
21.4937320622
 30
0.0
 11
98.0293333817
 21
21.5626260644
 31
0.0
  0
LINE
  5
31C
330
77A
100
AcDbEntity
  8
0
  6
SLD-SOLID
 62
     7
100
AcDbLine
 10
98.0293333817
 20
21.5626260644
 30
0.0
 11
98.1723725436
 21
21.4526629728
 31
0.0
  0
LINE
  5
31D
330
77A
100
AcDbEntity
  8
0
  6
SLD-SOLID
 62
     7
100
AcDbLine
 10
98.1723725436
 20
21.4526629728
 30
0.0
 11
98.1486612938
 21
21.2738058791
 31
0.0
  0
LINE
  5
31E
330
77A
100
AcDbEntity
  8
0
  6
SLD-SOLID
 62
     7
100
AcDbLine
 10
98.1486612938
 20
21.2738058791
 30
0.0
 11
97.9819108821
 21
21.204911877
 31
0.0
  0
LINE
  5
31F
330
77A
100
AcDbEntity
  8
0
  6
SLD-SOLID
 62
     7
100
AcDbLine
 10
97.9819108821
 20
21.204911877
 30
0.0
 11
97.8388717202
 21
21.3148749685
 31
0.0
  0
CIRCLE
  5
320
330
77A
100
AcDbEntity
  8
0
  6
SLD-SOLID
 62
     7
100
AcDbCircle
 10
98.0056221319
 20
21.3837689707
 30
0.0
 40
0.1406249999999995
  0
CIRCLE
  5
321
330
77A
100
AcDbEntity
  8
0
  6
SLD-SOLID
 62
     7
100
AcDbCircle
 10
98.0056221319
 20
21.3837689707
 30
0.0
 40
0.2187500000000066
  0
LINE
  5
322
330
77A
100
AcDbEntity
  8
0
  6
SLD-SOLID
 62
     7
100
AcDbLine
 10
93.4061482191
 20
29.1312435235
 30
0.0
 11
93.4061482191
 21
29.2093685235
 31
0.0
  0
LINE
  5
323
330
77A
100
AcDbEntity
  8
0
  6
SLD-SOLID
 62
     7
100
AcDbLine
 10
93.362417487
 20
20.0587939268
 30
0.0
 11
93.362417487
 21
19.7717939268
 31
0.0
  0
LINE
  5
324
330
77A
100
AcDbEntity
  8
0
  6
SLD-SOLID
 62
     7
100
AcDbLine
 10
93.3301482191
 20
19.8762314268
 30
0.0
 11
93.3301482191
 21
19.9543564268
 31
0.0
  0
LINE
  5
325
330
77A
100
AcDbEntity
  8
0
  6
SLD-SOLID
 62
     7
100
AcDbLine
 10
98.7815005158
 20
19.7717939268
 30
0.0
 11
98.7815005158
 21
20.0587939268
 31
0.0
  0
LINE
  5
326
330
77A
100
AcDbEntity
  8
0
  6
SLD-SOLID
 62
     7
100
AcDbLine
 10
98.8137697837
 20
19.9543564268
 30
0.0
 11
98.8137697837
 21
19.8762314268
 31
0.0
  0
LINE
  5
327
330
77A
100
AcDbEntity
  8
0
  6
SLD-SOLID
 62
     7
100
AcDbLine
 10
93.4064433911
 20
35.7199814268
 30
0.0
 11
93.4064433911
 21
35.7981064268
 31
0.0
  0
LINE
  5
328
330
77A
100
AcDbEntity
  8
0
  6
SLD-SOLID
 62
     7
100
AcDbLine
 10
93.400417487
 20
24.0638060235
 30
0.0
 11
93.400417487
 21
23.7768060235
 31
0.0
  0
LINE
  5
329
330
77A
100
AcDbEntity
  8
0
  6
SLD-SOLID
 62
     7
100
AcDbLine
 10
93.3681482191
 20
23.8812435235
 30
0.0
 11
93.3681482191
 21
23.9593685235
 31
0.0
  0
LINE
  5
32A
330
77A
100
AcDbEntity
  8
0
  6
SLD-SOLID
 62
     7
100
AcDbLine
 10
93.362417487
 20
37.3400439268
 30
0.0
 11
93.362417487
 21
37.0530439268
 31
0.0
  0
LINE
  5
32B
330
77A
100
AcDbEntity
  8
0
  6
SLD-SOLID
 62
     7
100
AcDbLine
 10
93.3301482191
 20
37.1574814268
 30
0.0
 11
93.3301482191
 21
37.2356064268
 31
0.0
  0
LINE
  5
32C
330
77A
100
AcDbEntity
  8
0
  6
SLD-SOLID
 62
     7
100
AcDbLine
 10
93.400417487
 20
34.5638060235
 30
0.0
 11
93.400417487
 21
34.2768060235
 31
0.0
  0
LINE
  5
32D
330
77A
100
AcDbEntity
  8
0
  6
SLD-SOLID
 62
     7
100
AcDbLine
 10
93.3681482191
 20
34.3812435235
 30
0.0
 11
93.3681482191
 21
34.4593685235
 31
0.0
  0
LINE
  5
32E
330
77A
100
AcDbEntity
  8
0
  6
SLD-SOLID
 62
     7
100
AcDbLine
 10
98.7815005158
 20
37.0530439268
 30
0.0
 11
98.7815005158
 21
37.3400439268
 31
0.0
  0
LINE
  5
32F
330
77A
100
AcDbEntity
  8
0
  6
SLD-SOLID
 62
     7
100
AcDbLine
 10
98.8137697837
 20
37.2356064268
 30
0.0
 11
98.8137697837
 21
37.1574814268
 31
0.0
  0
LINE
  5
330
330
77A
100
AcDbEntity
  8
0
  6
SLD-SOLID
 62
     7
100
AcDbLine
 10
92.8775041734
 20
35.4465439268
 30
0.0
 11
92.8775041734
 21
35.4845439268
 31
0.0
  0
LINE
  5
331
330
77A
100
AcDbEntity
  8
0
  6
SLD-SOLID
 62
     7
100
AcDbLine
 10
92.8779590014
 20
35.4465439268
 30
0.0
 11
92.8775041734
 21
35.4465439268
 31
0.0
  0
LINE
  5
332
330
77A
100
AcDbEntity
  8
0
  6
SLD-SOLID
 62
     7
100
AcDbLine
 10
93.4150041734
 20
35.4845439268
 30
0.0
 11
92.8775041734
 21
35.4845439268
 31
0.0
  0
ARC
  5
333
330
77A
100
AcDbEntity
  8
0
  6
SLD-SOLID
 62
     7
100
AcDbCircle
 10
98.4196221319
 20
19.7264189268
 30
0.0
 40
0.0769999999999995
100
AcDbArc
 50
232.5449955883
 51
265.3817244065
  0
LINE
  5
334
330
77A
100
AcDbEntity
  8
0
  6
SLD-SOLID
 62
     7
100
AcDbLine
 10
98.6462471319
 20
19.6496689268
 30
0.0
 11
98.6462471319
 21
19.6652939268
 31
0.0
  0
LINE
  5
335
330
77A
100
AcDbEntity
  8
0
  6
SLD-SOLID
 62
     7
100
AcDbLine
 10
98.7087471319
 20
19.6549159794
 30
0.0
 11
98.7087471319
 21
19.6652939268
 31
0.0
  0
LINE
  5
336
330
77A
100
AcDbEntity
  8
0
  6
SLD-SOLID
 62
     7
100
AcDbLine
 10
98.0055890014
 20
25.0000470632
 30
0.0
 11
98.0055890014
 21
24.8930407905
 31
0.0
  0
LINE
  5
337
330
77A
100
AcDbEntity
  8
0
  6
SLD-SOLID
 62
     7
100
AcDbLine
 10
98.0055890014
 20
23.6250470632
 30
0.0
 11
98.0055890014
 21
23.5180407905
 31
0.0
  0
LINE
  5
338
330
77A
100
AcDbEntity
  8
0
  6
SLD-SOLID
 62
     7
100
AcDbLine
 10
93.3777090014
 20
23.6195439268
 30
0.0
 11
93.3777090014
 21
20.2016783742
 31
0.0
  0
LINE
  5
339
330
77A
100
AcDbEntity
  8
0
  6
SLD-SOLID
 62
     7
100
AcDbLine
 10
93.4157090014
 20
23.6195439268
 30
0.0
 11
93.4157090014
 21
20.2016783742
 31
0.0
  0
LINE
  5
33A
330
77A
100
AcDbEntity
  8
0
  6
SLD-SOLID
 62
     7
100
AcDbLine
 10
93.3777090014
 20
20.2016783742
 30
0.0
 11
93.4157090014
 21
20.2016783742
 31
0.0
  0
LINE
  5
33B
330
77A
100
AcDbEntity
  8
0
  6
SLD-SOLID
 62
     7
100
AcDbLine
 10
93.4157090014
 20
23.6195439268
 30
0.0
 11
93.3777090014
 21
23.6195439268
 31
0.0
  0
ARC
  5
33C
330
77A
100
AcDbEntity
  8
0
  6
SLD-SOLID
 62
     7
100
AcDbCircle
 10
93.3387090014
 20
23.6195439268
 30
0.0
 40
0.0769999999999982
100
AcDbArc
 50
0.0
 51
90.0
  0
ARC
  5
33D
330
77A
100
AcDbEntity
  8
0
  6
SLD-SOLID
 62
     7
100
AcDbCircle
 10
93.3387090014
 20
23.6195439268
 30
0.0
 40
0.0390000000000015
100
AcDbArc
 50
0.0
 51
90.0
  0
LINE
  5
33E
330
77A
100
AcDbEntity
  8
0
  6
SLD-SOLID
 62
     7
100
AcDbLine
 10
92.8777090014
 20
23.6585439268
 30
0.0
 11
93.3387090014
 21
23.6585439268
 31
0.0
  0
LINE
  5
33F
330
77A
100
AcDbEntity
  8
0
  6
SLD-SOLID
 62
     7
100
AcDbLine
 10
92.8777090014
 20
23.6965439268
 30
0.0
 11
92.8777090014
 21
23.6585439268
 31
0.0
  0
LINE
  5
340
330
77A
100
AcDbEntity
  8
0
  6
SLD-SOLID
 62
     7
100
AcDbLine
 10
92.8777090014
 20
23.6965439268
 30
0.0
 11
92.8779590014
 21
23.6965439268
 31
0.0
  0
ARC
  5
341
330
77A
100
AcDbEntity
  8
0
  6
SLD-SOLID
 62
     7
100
AcDbCircle
 10
93.4547090014
 20
20.2016783742
 30
0.0
 40
0.0769999999999982
100
AcDbArc
 50
180.0
 51
195.0
  0
LINE
  5
342
330
77A
100
AcDbEntity
  8
0
  6
SLD-SOLID
 62
     7
100
AcDbLine
 10
93.3991106942
 20
20.1116689268
 30
0.0
 11
93.3803327128
 21
20.1817493078
 31
0.0
  0
LINE
  5
343
330
77A
100
AcDbEntity
  8
0
  6
SLD-SOLID
 62
     7
100
AcDbLine
 10
98.6892090014
 20
37.5001689268
 30
0.0
 11
93.4547090014
 21
37.5001689268
 31
0.0
  0
LINE
  5
344
330
77A
100
AcDbEntity
  8
0
  6
SLD-SOLID
 62
     7
100
AcDbLine
 10
98.6892090014
 20
37.4621689268
 30
0.0
 11
93.4547090014
 21
37.4621689268
 31
0.0
  0
LINE
  5
345
330
77A
100
AcDbEntity
  8
0
  6
SLD-SOLID
 62
     7
100
AcDbLine
 10
98.7662090014
 20
37.4231689268
 30
0.0
 11
98.7662090014
 21
37.0001689268
 31
0.0
  0
LINE
  5
346
330
77A
100
AcDbEntity
  8
0
  6
SLD-SOLID
 62
     7
100
AcDbLine
 10
98.7282090014
 20
37.4231689268
 30
0.0
 11
98.7282090014
 21
37.0001689268
 31
0.0
  0
LINE
  5
347
330
77A
100
AcDbEntity
  8
0
  6
SLD-SOLID
 62
     7
100
AcDbLine
 10
98.7662090014
 20
37.0001689268
 30
0.0
 11
98.7282090014
 21
37.0001689268
 31
0.0
  0
ARC
  5
348
330
77A
100
AcDbEntity
  8
0
  6
SLD-SOLID
 62
     7
100
AcDbCircle
 10
98.6892090014
 20
37.4231689268
 30
0.0
 40
0.0769999999999982
100
AcDbArc
 50
0.0
 51
90.0
  0
ARC
  5
349
330
77A
100
AcDbEntity
  8
0
  6
SLD-SOLID
 62
     7
100
AcDbCircle
 10
98.6892090014
 20
37.4231689268
 30
0.0
 40
0.0390000000000015
100
AcDbArc
 50
0.0
 51
90.0
  0
ARC
  5
34A
330
77A
100
AcDbEntity
  8
0
  6
SLD-SOLID
 62
     7
100
AcDbCircle
 10
93.4547090014
 20
37.4231689268
 30
0.0
 40
0.0769999999999982
100
AcDbArc
 50
90.0
 51
180.0
  0
ARC
  5
34B
330
77A
100
AcDbEntity
  8
0
  6
SLD-SOLID
 62
     7
100
AcDbCircle
 10
93.4547090014
 20
37.4231689268
 30
0.0
 40
0.0390000000000015
100
AcDbArc
 50
90.0
 51
180.0
  0
LINE
  5
34C
330
77A
100
AcDbEntity
  8
0
  6
SLD-SOLID
 62
     7
100
AcDbLine
 10
93.3777090014
 20
37.0001689268
 30
0.0
 11
93.4157090014
 21
37.0001689268
 31
0.0
  0
LINE
  5
34D
330
77A
100
AcDbEntity
  8
0
  6
SLD-SOLID
 62
     7
100
AcDbLine
 10
93.3777090014
 20
37.0001689268
 30
0.0
 11
93.3777090014
 21
37.4231689268
 31
0.0
  0
LINE
  5
34E
330
77A
100
AcDbEntity
  8
0
  6
SLD-SOLID
 62
     7
100
AcDbLine
 10
93.4157090014
 20
37.0001689268
 30
0.0
 11
93.4157090014
 21
37.4231689268
 31
0.0
  0
LINE
  5
34F
330
77A
100
AcDbEntity
  8
0
  6
SLD-SOLID
 62
     7
100
AcDbLine
 10
93.4927090014
 20
37.4465439268
 30
0.0
 11
93.4537090014
 21
37.4465439268
 31
0.0
  0
ARC
  5
350
330
77A
100
AcDbEntity
  8
0
  6
SLD-SOLID
 62
     7
100
AcDbCircle
 10
97.2097544426
 20
20.6704971655
 30
0.0
 40
0.4375000000000027
100
AcDbArc
 50
98.21321070170002
 51
261.7867892983
  0
LINE
  5
351
330
77A
100
AcDbEntity
  8
0
  6
SLD-SOLID
 62
     7
100
AcDbLine
 10
97.1472544426
 20
20.057756039
 30
0.0
 11
97.1472544426
 21
20.2374844636
 31
0.0
  0
LINE
  5
352
330
77A
100
AcDbEntity
  8
0
  6
SLD-SOLID
 62
     7
100
AcDbLine
 10
97.2722544426
 20
20.2374844636
 30
0.0
 11
97.2722544426
 21
20.057756039
 31
0.0
  0
ARC
  5
353
330
77A
100
AcDbEntity
  8
0
  6
SLD-SOLID
 62
     7
100
AcDbCircle
 10
97.2097544426
 20
20.6704971655
 30
0.0
 40
0.4375000000000047
100
AcDbArc
 50
278.2132107017
 51
81.78678929830001
  0
LINE
  5
354
330
77A
100
AcDbEntity
  8
0
  6
SLD-SOLID
 62
     7
100
AcDbLine
 10
97.2722544426
 20
21.1035098674
 30
0.0
 11
97.2722544426
 21
21.283238292
 31
0.0
  0
LINE
  5
355
330
77A
100
AcDbEntity
  8
0
  6
SLD-SOLID
 62
     7
100
AcDbLine
 10
97.1472544426
 20
21.283238292
 30
0.0
 11
97.1472544426
 21
21.1035098674
 31
0.0
  0
LINE
  5
356
330
77A
100
AcDbEntity
  8
0
  6
SLD-SOLID
 62
     7
100
AcDbLine
 10
98.6327040014
 20
37.4465439268
 30
0.0
 11
93.4927090014
 21
37.4465439268
 31
0.0
  0
LINE
  5
357
330
77A
100
AcDbEntity
  8
0
  6
SLD-SOLID
 62
     7
100
AcDbLine
 10
98.6327040014
 20
19.6652939268
 30
0.0
 11
93.4927090014
 21
19.6652939268
 31
0.0
  0
CIRCLE
  5
358
330
77A
100
AcDbEntity
  8
0
  6
SLD-SOLID
 62
     7
100
AcDbCircle
 10
94.1032090014
 20
36.9465439268
 30
0.0
 40
0.0640000000000072
  0
CIRCLE
  5
359
330
77A
100
AcDbEntity
  8
0
  6
SLD-SOLID
 62
     7
100
AcDbCircle
 10
94.1032090014
 20
35.5715439268
 30
0.0
 40
0.0640000000000072
  0
CIRCLE
  5
35A
330
77A
100
AcDbEntity
  8
0
  6
SLD-SOLID
 62
     7
100
AcDbCircle
 10
94.6032090014
 20
36.9465439268
 30
0.0
 40
0.0639999999999787
  0
CIRCLE
  5
35B
330
77A
100
AcDbEntity
  8
0
  6
SLD-SOLID
 62
     7
100
AcDbCircle
 10
94.6032090014
 20
35.5715439268
 30
0.0
 40
0.0639999999999787
  0
CIRCLE
  5
35C
330
77A
100
AcDbEntity
  8
0
  6
SLD-SOLID
 62
     7
100
AcDbCircle
 10
95.1032090014
 20
36.9465439268
 30
0.0
 40
0.0640000000000072
  0
CIRCLE
  5
35D
330
77A
100
AcDbEntity
  8
0
  6
SLD-SOLID
 62
     7
100
AcDbCircle
 10
95.1032090014
 20
35.5715439268
 30
0.0
 40
0.0640000000000072
  0
CIRCLE
  5
35E
330
77A
100
AcDbEntity
  8
0
  6
SLD-SOLID
 62
     7
100
AcDbCircle
 10
95.6032090014
 20
36.9465439268
 30
0.0
 40
0.0640000000000072
  0
CIRCLE
  5
35F
330
77A
100
AcDbEntity
  8
0
  6
SLD-SOLID
 62
     7
100
AcDbCircle
 10
95.6032090014
 20
35.5715439268
 30
0.0
 40
0.0640000000000072
  0
CIRCLE
  5
360
330
77A
100
AcDbEntity
  8
0
  6
SLD-SOLID
 62
     7
100
AcDbCircle
 10
96.1032090014
 20
36.9465439268
 30
0.0
 40
0.0639999999999787
  0
CIRCLE
  5
361
330
77A
100
AcDbEntity
  8
0
  6
SLD-SOLID
 62
     7
100
AcDbCircle
 10
96.1032090014
 20
35.5715439268
 30
0.0
 40
0.0639999999999787
  0
CIRCLE
  5
362
330
77A
100
AcDbEntity
  8
0
  6
SLD-SOLID
 62
     7
100
AcDbCircle
 10
96.6032090014
 20
36.9465439268
 30
0.0
 40
0.0640000000000072
  0
CIRCLE
  5
363
330
77A
100
AcDbEntity
  8
0
  6
SLD-SOLID
 62
     7
100
AcDbCircle
 10
96.6032090014
 20
35.5715439268
 30
0.0
 40
0.0640000000000072
  0
CIRCLE
  5
364
330
77A
100
AcDbEntity
  8
0
  6
SLD-SOLID
 62
     7
100
AcDbCircle
 10
97.1032090014
 20
36.9465439268
 30
0.0
 40
0.0640000000000072
  0
CIRCLE
  5
365
330
77A
100
AcDbEntity
  8
0
  6
SLD-SOLID
 62
     7
100
AcDbCircle
 10
97.1032090014
 20
35.5715439268
 30
0.0
 40
0.0640000000000072
  0
CIRCLE
  5
366
330
77A
100
AcDbEntity
  8
0
  6
SLD-SOLID
 62
     7
100
AcDbCircle
 10
97.6032090014
 20
36.9465439268
 30
0.0
 40
0.0639999999999787
  0
CIRCLE
  5
367
330
77A
100
AcDbEntity
  8
0
  6
SLD-SOLID
 62
     7
100
AcDbCircle
 10
97.6032090014
 20
35.5715439268
 30
0.0
 40
0.0639999999999787
  0
CIRCLE
  5
368
330
77A
100
AcDbEntity
  8
0
  6
SLD-SOLID
 62
     7
100
AcDbCircle
 10
94.1032090014
 20
24.9465439268
 30
0.0
 40
0.0640000000000072
  0
CIRCLE
  5
369
330
77A
100
AcDbEntity
  8
0
  6
SLD-SOLID
 62
     7
100
AcDbCircle
 10
94.1032090014
 20
23.5715439268
 30
0.0
 40
0.0640000000000072
  0
CIRCLE
  5
36A
330
77A
100
AcDbEntity
  8
0
  6
SLD-SOLID
 62
     7
100
AcDbCircle
 10
94.6032090014
 20
24.9465439268
 30
0.0
 40
0.0640000000000072
  0
CIRCLE
  5
36B
330
77A
100
AcDbEntity
  8
0
  6
SLD-SOLID
 62
     7
100
AcDbCircle
 10
94.6032090014
 20
23.5715439268
 30
0.0
 40
0.0640000000000072
  0
CIRCLE
  5
36C
330
77A
100
AcDbEntity
  8
0
  6
SLD-SOLID
 62
     7
100
AcDbCircle
 10
95.1032090014
 20
24.9465439268
 30
0.0
 40
0.0640000000000072
  0
CIRCLE
  5
36D
330
77A
100
AcDbEntity
  8
0
  6
SLD-SOLID
 62
     7
100
AcDbCircle
 10
95.1032090014
 20
23.5715439268
 30
0.0
 40
0.0640000000000072
  0
CIRCLE
  5
36E
330
77A
100
AcDbEntity
  8
0
  6
SLD-SOLID
 62
     7
100
AcDbCircle
 10
95.6032090014
 20
24.9465439268
 30
0.0
 40
0.0640000000000072
  0
CIRCLE
  5
36F
330
77A
100
AcDbEntity
  8
0
  6
SLD-SOLID
 62
     7
100
AcDbCircle
 10
95.6032090014
 20
23.5715439268
 30
0.0
 40
0.0640000000000072
  0
CIRCLE
  5
370
330
77A
100
AcDbEntity
  8
0
  6
SLD-SOLID
 62
     7
100
AcDbCircle
 10
96.1032090014
 20
24.9465439268
 30
0.0
 40
0.0640000000000072
  0
CIRCLE
  5
371
330
77A
100
AcDbEntity
  8
0
  6
SLD-SOLID
 62
     7
100
AcDbCircle
 10
96.1032090014
 20
23.5715439268
 30
0.0
 40
0.0640000000000072
  0
CIRCLE
  5
372
330
77A
100
AcDbEntity
  8
0
  6
SLD-SOLID
 62
     7
100
AcDbCircle
 10
96.6032090014
 20
24.9465439268
 30
0.0
 40
0.0640000000000072
  0
CIRCLE
  5
373
330
77A
100
AcDbEntity
  8
0
  6
SLD-SOLID
 62
     7
100
AcDbCircle
 10
96.6032090014
 20
23.5715439268
 30
0.0
 40
0.0640000000000072
  0
CIRCLE
  5
374
330
77A
100
AcDbEntity
  8
0
  6
SLD-SOLID
 62
     7
100
AcDbCircle
 10
97.1032090014
 20
24.9465439268
 30
0.0
 40
0.0640000000000072
  0
CIRCLE
  5
375
330
77A
100
AcDbEntity
  8
0
  6
SLD-SOLID
 62
     7
100
AcDbCircle
 10
97.1032090014
 20
23.5715439268
 30
0.0
 40
0.0640000000000072
  0
CIRCLE
  5
376
330
77A
100
AcDbEntity
  8
0
  6
SLD-SOLID
 62
     7
100
AcDbCircle
 10
97.6032090014
 20
24.9465439268
 30
0.0
 40
0.0639999999999787
  0
CIRCLE
  5
377
330
77A
100
AcDbEntity
  8
0
  6
SLD-SOLID
 62
     7
100
AcDbCircle
 10
97.6032090014
 20
23.5715439268
 30
0.0
 40
0.0639999999999787
  0
CIRCLE
  5
378
330
77A
100
AcDbEntity
  8
0
  6
SLD-SOLID
 62
     7
100
AcDbCircle
 10
98.0407090014
 20
36.9465439268
 30
0.0
 40
0.0640000000000072
  0
CIRCLE
  5
379
330
77A
100
AcDbEntity
  8
0
  6
SLD-SOLID
 62
     7
100
AcDbCircle
 10
98.0407090014
 20
35.5715439268
 30
0.0
 40
0.0640000000000072
  0
CIRCLE
  5
37A
330
77A
100
AcDbEntity
  8
0
  6
SLD-SOLID
 62
     7
100
AcDbCircle
 10
98.0407090014
 20
24.9465439268
 30
0.0
 40
0.0640000000000072
  0
CIRCLE
  5
37B
330
77A
100
AcDbEntity
  8
0
  6
SLD-SOLID
 62
     7
100
AcDbCircle
 10
98.0407090014
 20
23.5715439268
 30
0.0
 40
0.0640000000000072
  0
ARC
  5
37C
330
77A
100
AcDbEntity
  8
0
  6
SLD-SOLID
 62
     7
100
AcDbCircle
 10
97.2097040014
 20
22.1652939268
 30
0.0
 40
0.4375000000000042
100
AcDbArc
 50
8.2132107017
 51
171.7867892983
  0
LINE
  5
37D
330
77A
100
AcDbEntity
  8
0
  6
SLD-SOLID
 62
     7
100
AcDbLine
 10
96.5969628749
 20
22.2277939268
 30
0.0
 11
96.7766912995
 21
22.2277939268
 31
0.0
  0
LINE
  5
37E
330
77A
100
AcDbEntity
  8
0
  6
SLD-SOLID
 62
     7
100
AcDbLine
 10
96.7766912995
 20
22.1027939268
 30
0.0
 11
96.5969628749
 21
22.1027939268
 31
0.0
  0
ARC
  5
37F
330
77A
100
AcDbEntity
  8
0
  6
SLD-SOLID
 62
     7
100
AcDbCircle
 10
97.2097040014
 20
22.1652939268
 30
0.0
 40
0.4375000000000047
100
AcDbArc
 50
188.2132107017
 51
351.7867892983
  0
LINE
  5
380
330
77A
100
AcDbEntity
  8
0
  6
SLD-SOLID
 62
     7
100
AcDbLine
 10
97.6427167033
 20
22.1027939268
 30
0.0
 11
97.8224451279
 21
22.1027939268
 31
0.0
  0
LINE
  5
381
330
77A
100
AcDbEntity
  8
0
  6
SLD-SOLID
 62
     7
100
AcDbLine
 10
97.8224451279
 20
22.2277939268
 30
0.0
 11
97.6427167033
 21
22.2277939268
 31
0.0
  0
LINE
  5
382
330
77A
100
AcDbEntity
  8
0
  6
SLD-SOLID
 62
     7
100
AcDbLine
 10
98.7097040014
 20
37.4465439268
 30
0.0
 11
98.6327040014
 21
37.4465439268
 31
0.0
  0
LINE
  5
383
330
77A
100
AcDbEntity
  8
0
  6
SLD-SOLID
 62
     7
100
AcDbLine
 10
98.7097040014
 20
37.4465439268
 30
0.0
 11
98.7097040014
 21
19.6652939268
 31
0.0
  0
LINE
  5
384
330
77A
100
AcDbEntity
  8
0
  6
SLD-SOLID
 62
     7
100
AcDbLine
 10
98.6327040014
 20
19.6652939268
 30
0.0
 11
98.7097040014
 21
19.6652939268
 31
0.0
  0
LINE
  5
385
330
77A
100
AcDbEntity
  8
0
  6
SLD-SOLID
 62
     7
100
AcDbLine
 10
93.4157090014
 20
37.0001689268
 30
0.0
 11
93.4157090014
 21
23.6195439268
 31
0.0
  0
LINE
  5
386
330
77A
100
AcDbEntity
  8
0
  6
SLD-SOLID
 62
     7
100
AcDbLine
 10
93.4157090014
 20
20.2016783742
 30
0.0
 11
93.4157090014
 21
20.1116689268
 31
0.0
  0
LINE
  5
387
330
77A
100
AcDbEntity
  8
0
  6
SLD-SOLID
 62
     7
100
AcDbLine
 10
93.4927090014
 20
37.4465439268
 30
0.0
 11
93.423490267
 21
37.4465439268
 31
0.0
  0
LINE
  5
388
330
77A
100
AcDbEntity
  8
0
  6
SLD-SOLID
 62
     7
100
AcDbLine
 10
93.423490267
 20
19.6652939268
 30
0.0
 11
93.4927090014
 21
19.6652939268
 31
0.0
  0
LINE
  5
389
330
77A
100
AcDbEntity
  8
0
  6
SLD-SOLID
 62
     7
100
AcDbLine
 10
93.4157090014
 20
35.4465439268
 30
0.0
 11
93.3767090014
 21
35.4465439268
 31
0.0
  0
LINE
  5
38A
330
77A
100
AcDbEntity
  8
0
  6
SLD-SOLID
 62
     7
100
AcDbLine
 10
93.3767090014
 20
23.6965439268
 30
0.0
 11
93.4157090014
 21
23.6965439268
 31
0.0
  0
LINE
  5
38B
330
77A
100
AcDbEntity
  8
0
  6
SLD-SOLID
 62
     7
100
AcDbLine
 10
93.3767090014
 20
23.6965439268
 30
0.0
 11
92.8779590014
 21
23.6965439268
 31
0.0
  0
LINE
  5
38C
330
77A
100
AcDbEntity
  8
0
  6
SLD-SOLID
 62
     7
100
AcDbLine
 10
92.8779590014
 20
35.4465439268
 30
0.0
 11
93.3767090014
 21
35.4465439268
 31
0.0
  0
LINE
  5
38D
330
77A
100
AcDbEntity
  8
0
  6
SLD-SOLID
 62
     7
100
AcDbLine
 10
92.8779590014
 20
35.4465439268
 30
0.0
 11
92.8779590014
 21
23.6965439268
 31
0.0
  0
ARC
  5
38E
330
77A
100
AcDbEntity
  8
0
  6
SLD-SOLID
 62
     7
100
AcDbCircle
 10
98.6892090014
 20
19.6886689268
 30
0.0
 40
0.0769999999999982
100
AcDbArc
 50
270.0
 51
0.0
  0
ARC
  5
38F
330
77A
100
AcDbEntity
  8
0
  6
SLD-SOLID
 62
     7
100
AcDbCircle
 10
98.6892090014
 20
19.6886689268
 30
0.0
 40
0.0389999999999979
100
AcDbArc
 50
270.0
 51
0.0
  0
LINE
  5
390
330
77A
100
AcDbEntity
  8
0
  6
SLD-SOLID
 62
     7
100
AcDbLine
 10
98.7662090014
 20
20.1116689268
 30
0.0
 11
98.7662090014
 21
19.6886689268
 31
0.0
  0
LINE
  5
391
330
77A
100
AcDbEntity
  8
0
  6
SLD-SOLID
 62
     7
100
AcDbLine
 10
98.7282090014
 20
20.1116689268
 30
0.0
 11
98.7282090014
 21
19.6886689268
 31
0.0
  0
LINE
  5
392
330
77A
100
AcDbEntity
  8
0
  6
SLD-SOLID
 62
     7
100
AcDbLine
 10
98.7282090014
 20
20.1116689268
 30
0.0
 11
98.7662090014
 21
20.1116689268
 31
0.0
  0
LINE
  5
393
330
77A
100
AcDbEntity
  8
0
  6
SLD-SOLID
 62
     7
100
AcDbLine
 10
98.6892090014
 20
19.6496689268
 30
0.0
 11
93.4547090014
 21
19.6496689268
 31
0.0
  0
LINE
  5
394
330
77A
100
AcDbEntity
  8
0
  6
SLD-SOLID
 62
     7
100
AcDbLine
 10
98.6892090014
 20
19.6116689268
 30
0.0
 11
93.4547090014
 21
19.6116689268
 31
0.0
  0
LINE
  5
395
330
77A
100
AcDbEntity
  8
0
  6
SLD-SOLID
 62
     7
100
AcDbLine
 10
93.3777090014
 20
19.6886689268
 30
0.0
 11
93.3777090014
 21
20.1116689268
 31
0.0
  0
LINE
  5
396
330
77A
100
AcDbEntity
  8
0
  6
SLD-SOLID
 62
     7
100
AcDbLine
 10
93.3777090014
 20
20.1116689268
 30
0.0
 11
93.4157090014
 21
20.1116689268
 31
0.0
  0
LINE
  5
397
330
77A
100
AcDbEntity
  8
0
  6
SLD-SOLID
 62
     7
100
AcDbLine
 10
93.4157090014
 20
19.6886689268
 30
0.0
 11
93.4157090014
 21
20.1116689268
 31
0.0
  0
ARC
  5
398
330
77A
100
AcDbEntity
  8
0
  6
SLD-SOLID
 62
     7
100
AcDbCircle
 10
93.4547090014
 20
19.6886689268
 30
0.0
 40
0.0390000000000015
100
AcDbArc
 50
180.0
 51
270.0
  0
ARC
  5
399
330
77A
100
AcDbEntity
  8
0
  6
SLD-SOLID
 62
     7
100
AcDbCircle
 10
93.4547090014
 20
19.6886689268
 30
0.0
 40
0.0770000000000124
100
AcDbArc
 50
180.0
 51
270.0
  0
ARC
  5
39A
330
77A
100
AcDbEntity
  8
0
  6
SLD-SOLID
 62
     7
100
AcDbCircle
 10
98.0909501279
 20
19.7016689268
 30
0.0
 40
0.0519999999999997
100
AcDbArc
 50
224.3884445338
 51
270.0
  0
ARC
  5
39B
330
77A
100
AcDbEntity
  8
0
  6
SLD-SOLID
 62
     7
100
AcDbCircle
 10
97.9484720594
 20
19.5916689268
 30
0.0
 40
0.090000000000004
100
AcDbArc
 50
40.12403459349999
 51
54.8906184347
  0
ARC
  5
39C
330
77A
100
AcDbEntity
  8
0
  6
SLD-SOLID
 62
     7
100
AcDbCircle
 10
97.0079459434
 20
19.5916689268
 30
0.0
 40
0.0900000000000011
100
AcDbArc
 50
125.1093815653
 51
139.8759654065
  0
ARC
  5
39D
330
77A
100
AcDbEntity
  8
0
  6
SLD-SOLID
 62
     7
100
AcDbCircle
 10
96.8654678749
 20
19.7016689268
 30
0.0
 40
0.0519999999999997
100
AcDbArc
 50
270.0
 51
315.6115554662
  0
DIMENSION
  5
39E
330
77A
100
AcDbEntity
  8
DIM
 62
     7
100
AcDbDimension
  2
_D_5
 10
104.8842822777
 20
19.6116689268
 30
0.0
 11
104.8842822777
 21
28.5559189268
 31
0.0
 70
   160
  1
<>
  3
SLDDIMSTYLE0
100
AcDbAlignedDimension
 13
98.6892090014
 23
37.5001689268
 33
0.0
 14
98.6892090014
 24
19.6116689268
 34
0.0
 50
90.0
100
AcDbRotatedDimension
1001
ACAD
1000
DSTYLE
1002
{
1070
   270
1070
     5
1070
    41
1040
0.75
1070
   176
1070
   256
1070
   177
1070
   256
1070
   178
1070
   256
1070
    44
1040
1.0
1070
    42
1040
0.5
1070
   276
1070
     1
1070
   147
1040
0.25
1070
   277
1070
     5
1070
     3
1000
"
1070
    45
1040
0.0
1070
   272
1070
     3
1070
   340
1005
7F7
1070
   140
1040
1.0
1070
   284
1070
    12
1002
}
  0
DIMENSION
  5
3AD
330
77A
100
AcDbEntity
  8
DIM
 62
     7
100
AcDbDimension
  2
_D_6
 10
97.2733801132
 20
37.5001689268
 30
0.0
 11
97.2733801132
 21
43.1171689268
 31
0.0
 70
   160
  1
<>
  3
SLDDIMSTYLE0
100
AcDbAlignedDimension
 13
94.1657090014
 23
48.7341689268
 33
0.0
 14
98.6892090014
 24
37.5001689268
 34
0.0
 50
90.0
100
AcDbRotatedDimension
1001
ACAD
1000
DSTYLE
1002
{
1070
   270
1070
     5
1070
    41
1040
0.75
1070
   176
1070
   256
1070
   177
1070
   256
1070
   178
1070
   256
1070
    44
1040
1.0
1070
    42
1040
0.5
1070
   276
1070
     1
1070
   147
1040
0.25
1070
   277
1070
     5
1070
     3
1000
"
1070
    45
1040
0.0
1070
   272
1070
     3
1070
   340
1005
7F7
1070
   140
1040
1.0
1070
   284
1070
    12
1002
}
  0
DIMENSION
  5
3BB
330
77A
100
AcDbEntity
  8
DIM
 62
     7
100
AcDbDimension
  2
_D_7
 10
104.8842822777
 20
37.5001689268
 30
0.0
 11
104.8842822777
 21
43.4921689268
 31
0.0
 70
   160
  1
<>
  3
SLDDIMSTYLE2
100
AcDbAlignedDimension
 13
93.4157090014
 23
49.4841689268
 33
0.0
 14
98.3272090014
 24
37.5001689268
 34
0.0
 50
90.0
100
AcDbRotatedDimension
1001
ACAD
1000
DSTYLE
1002
{
1070
   270
1070
     5
1070
    41
1040
0.75
1070
   176
1070
   256
1070
   177
1070
   256
1070
   178
1070
   256
1070
    44
1040
1.0
1070
    42
1040
0.5
1070
   276
1070
     1
1070
   147
1040
0.25
1070
   277
1070
     5
1070
     3
1000
"
1070
    45
1040
0.0
1070
   272
1070
     3
1070
   340
1005
7F7
1070
   140
1040
1.0
1070
   284
1070
    12
1002
}
  0
DIMENSION
  5
3C7
330
77A
100
AcDbEntity
  8
DIM
 62
     7
100
AcDbDimension
  2
_D_8
 10
93.3301482191
 20
16.6194435331
 30
0.0
 11
89.8853781892
 21
16.6194435331
 31
0.0
 70
   160
  1
<>
  3
SLDDIMSTYLE1
100
AcDbAlignedDimension
 13
92.8779590014
 23
23.6965439268
 33
0.0
 14
93.3301482191
 24
19.8762314268
 34
0.0
100
AcDbRotatedDimension
1001
ACAD
1000
DSTYLE
1002
{
1070
   270
1070
     5
1070
    41
1040
0.75
1070
   176
1070
   256
1070
   177
1070
   256
1070
   178
1070
   256
1070
    44
1040
1.0
1070
    42
1040
0.5
1070
   276
1070
     1
1070
   147
1040
0.25
1070
   277
1070
     5
1070
     3
1000
"
1070
    45
1040
0.0
1070
   272
1070
     3
1070
   172
1070
     0
1070
   340
1005
7F7
1070
   140
1040
1.0
1070
   284
1070
    12
1002
}
  0
DIMENSION
  5
3D5
330
77A
100
AcDbEntity
  8
DIM
 62
     7
100
AcDbDimension
  2
_D_9
 10
98.8137697837
 20
13.618754832
 30
0.0
 11
96.0719590014
 21
13.618754832
 31
0.0
 70
   160
  1
<>
  3
SLDDIMSTYLE1
100
AcDbAlignedDimension
 13
93.3301482191
 23
19.8762314268
 33
0.0
 14
98.8137697837
 24
19.8762314268
 34
0.0
100
AcDbRotatedDimension
1001
ACAD
1000
DSTYLE
1002
{
1070
   270
1070
     5
1070
    41
1040
0.75
1070
   176
1070
   256
1070
   177
1070
   256
1070
   178
1070
   256
1070
    44
1040
1.0
1070
    42
1040
0.5
1070
   276
1070
     1
1070
   147
1040
0.25
1070
   277
1070
     5
1070
     3
1000
"
1070
    45
1040
0.0
1070
   272
1070
     3
1070
   172
1070
     0
1070
   340
1005
7F7
1070
   140
1040
1.0
1070
   284
1070
    12
1002
}
  0
LINE
  5
3E4
330
77A
100
AcDbEntity
  8
0
  6
SLD-SOLID
 62
     7
100
AcDbLine
 10
21.8037637227
 20
22.0937939268
 30
0.0
 11
21.8161105931
 21
22.0937939268
 31
0.0
  0
ARC
  5
3E5
330
77A
100
AcDbEntity
  8
0
  6
SLD-SOLID
 62
     7
100
AcDbCircle
 10
21.9751105931
 20
22.2812939268
 30
0.0
 40
0.2539999999999991
100
AcDbArc
 50
209.4804123854
 51
227.577371802
  0
LINE
  5
3E6
330
77A
100
AcDbEntity
  8
0
  6
SLD-SOLID
 62
     7
100
AcDbLine
 10
21.9328507506
 20
22.1992939268
 30
0.0
 11
22.0548879872
 21
22.1992939268
 31
0.0
  0
LINE
  5
3E7
330
77A
100
AcDbEntity
  8
0
  6
SLD-SOLID
 62
     7
100
AcDbLine
 10
21.3515466977
 20
21.8563431394
 30
0.0
 11
21.3515466977
 21
21.793219644
 31
0.0
  0
LINE
  5
3E8
330
77A
100
AcDbEntity
  8
0
  6
SLD-SOLID
 62
     7
100
AcDbLine
 10
21.3909137427
 20
21.8875931394
 30
0.0
 11
21.3909137427
 21
21.8563431394
 31
0.0
  0
LINE
  5
3E9
330
77A
100
AcDbEntity
  8
0
  6
SLD-SOLID
 62
     7
100
AcDbLine
 10
21.322055475
 20
22.2843070627
 30
0.0
 11
21.322055475
 21
22.1439947142
 31
0.0
  0
LINE
  5
3EA
330
77A
100
AcDbEntity
  8
0
  6
SLD-SOLID
 62
     7
100
AcDbLine
 10
21.4105987821
 20
22.2902939268
 30
0.0
 11
21.4105987821
 21
22.1238136119
 31
0.0
  0
LINE
  5
3EB
330
77A
100
AcDbEntity
  8
0
  6
SLD-SOLID
 62
     7
100
AcDbLine
 10
21.7334334277
 20
22.1238136119
 30
0.0
 11
21.7334334277
 21
22.2902939268
 31
0.0
  0
LINE
  5
3EC
330
77A
100
AcDbEntity
  8
0
  6
SLD-SOLID
 62
     7
100
AcDbLine
 10
21.461131157
 20
23.6068305009
 30
0.0
 11
21.461131157
 21
23.5119283024
 31
0.0
  0
LWPOLYLINE
  5
3ED
330
77A
100
AcDbEntity
  8
0
  6
SLD-SOLID
 62
     7
100
AcDbPolyline
 90
        3
 70
   128
 43
0.0
 10
21.4677471603
 20
23.6273987177
 10
21.4638444955
 20
23.6215897982
 10
21.461131157
 20
23.6068305009
  0
LINE
  5
3EE
330
77A
100
AcDbEntity
  8
0
  6
SLD-SOLID
 62
     7
100
AcDbLine
 10
21.0389537861
 20
21.1770940044
 30
0.0
 11
21.0545515664
 21
21.1500778564
 31
0.0
  0
ARC
  5
3EF
330
77A
100
AcDbEntity
  8
0
  6
SLD-SOLID
 62
     7
100
AcDbCircle
 10
21.2508609734
 20
21.193724712
 30
0.0
 40
0.2510382425283459
100
AcDbArc
 50
107.7696701751
 51
151.7193712917
  0
LINE
  5
3F0
330
77A
100
AcDbEntity
  8
0
  6
SLD-SOLID
 62
     7
100
AcDbLine
 10
21.0314452637
 20
21.3148296506
 30
0.0
 11
21.0634361195
 21
21.2594198629
 31
0.0
  0
LINE
  5
3F1
330
77A
100
AcDbEntity
  8
0
  6
SLD-SOLID
 62
     7
100
AcDbLine
 10
21.0092161033
 20
21.228115922
 30
0.0
 11
21.0387436624
 21
21.1769726895
 31
0.0
  0
LINE
  5
3F2
330
77A
100
AcDbEntity
  8
0
  6
SLD-SOLID
 62
     7
100
AcDbLine
 10
21.1712907833
 20
21.4379052946
 30
0.0
 11
21.1594265716
 21
21.4276133444
 31
0.0
  0
ARC
  5
3F3
330
77A
100
AcDbEntity
  8
0
  6
SLD-SOLID
 62
     7
100
AcDbCircle
 10
21.1630852894
 20
21.3624129891
 30
0.0
 40
0.0787401574803145
100
AcDbArc
 50
120.0
 51
167.5957117763
  0
LINE
  5
3F4
330
77A
100
AcDbEntity
  8
0
  6
SLD-SOLID
 62
     7
100
AcDbLine
 10
20.9867212708
 20
21.2151285243
 30
0.0
 11
20.9999825112
 21
21.1921593821
 31
0.0
  0
LINE
  5
3F5
330
77A
100
AcDbEntity
  8
0
  6
SLD-SOLID
 62
     7
100
AcDbLine
 10
22.1740687636
 20
22.2902939268
 30
0.0
 11
22.1697124139
 21
22.2655878405
 31
0.0
  0
LINE
  5
3F6
330
77A
100
AcDbEntity
  8
0
  6
SLD-SOLID
 62
     7
100
AcDbLine
 10
22.4039109829
 20
23.5937939268
 30
0.0
 11
22.3920970106
 21
23.5267935606
 31
0.0
  0
ARC
  5
3F7
330
77A
100
AcDbEntity
  8
0
  6
SLD-SOLID
 62
     7
100
AcDbCircle
 10
24.8233507506
 20
29.1703060235
 30
0.0
 40
0.3140000000000037
100
AcDbArc
 50
7.146273377900001
 51
15.8911865723
  0
ARC
  5
3F8
330
77A
100
AcDbEntity
  8
0
  6
SLD-SOLID
 62
     7
100
AcDbCircle
 10
24.8233507506
 20
29.1703060235
 30
0.0
 40
0.3140000000000047
100
AcDbArc
 50
344.1088134277
 51
352.8537266220999
  0
LINE
  5
3F9
330
77A
100
AcDbEntity
  8
0
  6
SLD-SOLID
 62
     7
100
AcDbLine
 10
25.1253507506
 20
34.2768060235
 30
0.0
 11
25.1406422649
 21
34.2768060235
 31
0.0
  0
LINE
  5
3FA
330
77A
100
AcDbEntity
  8
0
  6
SLD-SOLID
 62
     7
100
AcDbLine
 10
25.1406422649
 20
34.5638060235
 30
0.0
 11
25.1253507506
 21
34.5638060235
 31
0.0
  0
ARC
  5
3FB
330
77A
100
AcDbEntity
  8
0
  6
SLD-SOLID
 62
     7
100
AcDbCircle
 10
24.8613507506
 20
34.4203060235
 30
0.0
 40
0.3140000000000019
100
AcDbArc
 50
7.146273377900001
 51
27.1941020569
  0
ARC
  5
3FC
330
77A
100
AcDbEntity
  8
0
  6
SLD-SOLID
 62
     7
100
AcDbCircle
 10
24.8613507506
 20
34.4203060235
 30
0.0
 40
0.3140000000000019
100
AcDbArc
 50
332.8058979431
 51
352.8537266220999
  0
ARC
  5
3FD
330
77A
100
AcDbEntity
  8
0
  6
SLD-SOLID
 62
     7
100
AcDbCircle
 10
24.8993507506
 20
37.1965439268
 30
0.0
 40
0.3140000000000039
100
AcDbArc
 50
7.146273377900001
 51
27.1941020569
  0
ARC
  5
3FE
330
77A
100
AcDbEntity
  8
0
  6
SLD-SOLID
 62
     7
100
AcDbCircle
 10
24.8993507506
 20
37.1965439268
 30
0.0
 40
0.3140000000000011
100
AcDbArc
 50
332.8058979431
 51
352.8537266220999
  0
LINE
  5
3FF
330
77A
100
AcDbEntity
  8
0
  6
SLD-SOLID
 62
     7
100
AcDbLine
 10
25.1633507506
 20
37.0530439268
 30
0.0
 11
25.1786422649
 21
37.0530439268
 31
0.0
  0
LINE
  5
400
330
77A
100
AcDbEntity
  8
0
  6
SLD-SOLID
 62
     7
100
AcDbLine
 10
25.1786422649
 20
37.3400439268
 30
0.0
 11
25.1633507506
 21
37.3400439268
 31
0.0
  0
ARC
  5
401
330
77A
100
AcDbEntity
  8
0
  6
SLD-SOLID
 62
     7
100
AcDbCircle
 10
20.0388507506
 20
37.1965439268
 30
0.0
 40
0.3140000000000019
100
AcDbArc
 50
187.1462733779
 51
207.1941020569
  0
ARC
  5
402
330
77A
100
AcDbEntity
  8
0
  6
SLD-SOLID
 62
     7
100
AcDbCircle
 10
20.0388507506
 20
37.1965439268
 30
0.0
 40
0.3140000000000011
100
AcDbArc
 50
152.8058979431
 51
172.8537266221
  0
LINE
  5
403
330
77A
100
AcDbEntity
  8
0
  6
SLD-SOLID
 62
     7
100
AcDbLine
 10
19.7748507506
 20
37.3400439268
 30
0.0
 11
19.7595592362
 21
37.3400439268
 31
0.0
  0
LINE
  5
404
330
77A
100
AcDbEntity
  8
0
  6
SLD-SOLID
 62
     7
100
AcDbLine
 10
19.7595592362
 20
37.0530439268
 30
0.0
 11
19.7748507506
 21
37.0530439268
 31
0.0
  0
LINE
  5
405
330
77A
100
AcDbEntity
  8
0
  6
SLD-SOLID
 62
     7
100
AcDbLine
 10
19.8313557506
 20
37.2590439268
 30
0.0
 11
19.8128507506
 21
37.2590439268
 31
0.0
  0
LINE
  5
406
330
77A
100
AcDbEntity
  8
0
  6
SLD-SOLID
 62
     7
100
AcDbLine
 10
19.8128507506
 20
37.1340439268
 30
0.0
 11
19.8313557506
 21
37.1340439268
 31
0.0
  0
ARC
  5
407
330
77A
100
AcDbEntity
  8
0
  6
SLD-SOLID
 62
     7
100
AcDbCircle
 10
24.8230555786
 20
35.7590439268
 30
0.0
 40
0.3140000000000032
100
AcDbArc
 50
7.146273377900001
 51
15.6932799367
  0
ARC
  5
408
330
77A
100
AcDbEntity
  8
0
  6
SLD-SOLID
 62
     7
100
AcDbCircle
 10
24.8230555786
 20
35.7590439268
 30
0.0
 40
0.3140000000000019
100
AcDbArc
 50
344.3067200633
 51
352.8537266220999
  0
LINE
  5
409
330
77A
100
AcDbEntity
  8
0
  6
SLD-SOLID
 62
     7
100
AcDbLine
 10
19.7748507506
 20
20.0587939268
 30
0.0
 11
19.7595592362
 21
20.0587939268
 31
0.0
  0
LINE
  5
40A
330
77A
100
AcDbEntity
  8
0
  6
SLD-SOLID
 62
     7
100
AcDbLine
 10
19.7595592362
 20
19.7717939268
 30
0.0
 11
19.7748507506
 21
19.7717939268
 31
0.0
  0
ARC
  5
40B
330
77A
100
AcDbEntity
  8
0
  6
SLD-SOLID
 62
     7
100
AcDbCircle
 10
20.0388507506
 20
19.9152939268
 30
0.0
 40
0.3140000000000023
100
AcDbArc
 50
187.1462733779
 51
207.1941020569
  0
ARC
  5
40C
330
77A
100
AcDbEntity
  8
0
  6
SLD-SOLID
 62
     7
100
AcDbCircle
 10
20.0388507506
 20
19.9152939268
 30
0.0
 40
0.3140000000000039
100
AcDbArc
 50
152.8058979431
 51
172.8537266221
  0
LINE
  5
40D
330
77A
100
AcDbEntity
  8
0
  6
SLD-SOLID
 62
     7
100
AcDbLine
 10
19.8313557506
 20
19.9777939268
 30
0.0
 11
19.8128507506
 21
19.9777939268
 31
0.0
  0
LINE
  5
40E
330
77A
100
AcDbEntity
  8
0
  6
SLD-SOLID
 62
     7
100
AcDbLine
 10
19.8128507506
 20
19.8527939268
 30
0.0
 11
19.8313557506
 21
19.8527939268
 31
0.0
  0
ARC
  5
40F
330
77A
100
AcDbEntity
  8
0
  6
SLD-SOLID
 62
     7
100
AcDbCircle
 10
24.8993507506
 20
19.9152939268
 30
0.0
 40
0.3140000000000039
100
AcDbArc
 50
7.146273377900001
 51
27.1941020569
  0
ARC
  5
410
330
77A
100
AcDbEntity
  8
0
  6
SLD-SOLID
 62
     7
100
AcDbCircle
 10
24.8993507506
 20
19.9152939268
 30
0.0
 40
0.3140000000000023
100
AcDbArc
 50
332.8058979431
 51
352.8537266220999
  0
LINE
  5
411
330
77A
100
AcDbEntity
  8
0
  6
SLD-SOLID
 62
     7
100
AcDbLine
 10
25.1633507506
 20
19.7717939268
 30
0.0
 11
25.1786422649
 21
19.7717939268
 31
0.0
  0
LINE
  5
412
330
77A
100
AcDbEntity
  8
0
  6
SLD-SOLID
 62
     7
100
AcDbLine
 10
25.1786422649
 20
20.0587939268
 30
0.0
 11
25.1633507506
 21
20.0587939268
 31
0.0
  0
LINE
  5
413
330
77A
100
AcDbEntity
  8
0
  6
SLD-SOLID
 62
     7
100
AcDbLine
 10
25.1253507506
 20
23.7768060235
 30
0.0
 11
25.1406422649
 21
23.7768060235
 31
0.0
  0
LINE
  5
414
330
77A
100
AcDbEntity
  8
0
  6
SLD-SOLID
 62
     7
100
AcDbLine
 10
25.1406422649
 20
24.0638060235
 30
0.0
 11
25.1253507506
 21
24.0638060235
 31
0.0
  0
ARC
  5
415
330
77A
100
AcDbEntity
  8
0
  6
SLD-SOLID
 62
     7
100
AcDbCircle
 10
24.8613507506
 20
23.9203060235
 30
0.0
 40
0.3140000000000011
100
AcDbArc
 50
7.146273377900001
 51
27.1941020569
  0
ARC
  5
416
330
77A
100
AcDbEntity
  8
0
  6
SLD-SOLID
 62
     7
100
AcDbCircle
 10
24.8613507506
 20
23.9203060235
 30
0.0
 40
0.3140000000000039
100
AcDbArc
 50
332.8058979431
 51
352.8537266220999
  0
LINE
  5
417
330
77A
100
AcDbEntity
  8
0
  6
SLD-SOLID
 62
     7
100
AcDbLine
 10
25.0863507506
 20
37.5001689268
 30
0.0
 11
25.0863507506
 21
37.5381689268
 31
0.0
  0
LINE
  5
418
330
77A
100
AcDbEntity
  8
0
  6
SLD-SOLID
 62
     7
100
AcDbLine
 10
24.3753507506
 20
37.5001689268
 30
0.0
 11
24.3753507506
 21
37.5381689268
 31
0.0
  0
LINE
  5
419
330
77A
100
AcDbEntity
  8
0
  6
SLD-SOLID
 62
     7
100
AcDbLine
 10
25.0863507506
 20
37.5381689268
 30
0.0
 11
24.3753507506
 21
37.5381689268
 31
0.0
  0
LINE
  5
41A
330
77A
100
AcDbEntity
  8
0
  6
SLD-SOLID
 62
     7
100
AcDbLine
 10
24.4693507506
 20
37.5381689268
 30
0.0
 11
24.4693507506
 21
37.5771689268
 31
0.0
  0
LINE
  5
41B
330
77A
100
AcDbEntity
  8
0
  6
SLD-SOLID
 62
     7
100
AcDbLine
 10
24.3753507506
 20
37.5771689268
 30
0.0
 11
24.3753507506
 21
37.5381689268
 31
0.0
  0
LINE
  5
41C
330
77A
100
AcDbEntity
  8
0
  6
SLD-SOLID
 62
     7
100
AcDbLine
 10
25.0863507506
 20
37.5381689268
 30
0.0
 11
25.0863507506
 21
37.5771689268
 31
0.0
  0
LINE
  5
41D
330
77A
100
AcDbEntity
  8
0
  6
SLD-SOLID
 62
     7
100
AcDbLine
 10
24.9693507506
 20
37.5771689268
 30
0.0
 11
24.9693507506
 21
37.5381689268
 31
0.0
  0
LINE
  5
41E
330
77A
100
AcDbEntity
  8
0
  6
SLD-SOLID
 62
     7
100
AcDbLine
 10
24.9693507506
 20
37.5851689268
 30
0.0
 11
24.4693507506
 21
37.5851689268
 31
0.0
  0
LINE
  5
41F
330
77A
100
AcDbEntity
  8
0
  6
SLD-SOLID
 62
     7
100
AcDbLine
 10
24.4693507506
 20
37.5851689268
 30
0.0
 11
24.4693507506
 21
37.5771689268
 31
0.0
  0
LINE
  5
420
330
77A
100
AcDbEntity
  8
0
  6
SLD-SOLID
 62
     7
100
AcDbLine
 10
25.0863507506
 20
48.7341689268
 30
0.0
 11
24.3753507506
 21
48.7341689268
 31
0.0
  0
LINE
  5
421
330
77A
100
AcDbEntity
  8
0
  6
SLD-SOLID
 62
     7
100
AcDbLine
 10
24.9693507506
 20
37.5771689268
 30
0.0
 11
24.9693507506
 21
37.5851689268
 31
0.0
  0
CIRCLE
  5
422
330
77A
100
AcDbEntity
  8
0
  6
SLD-SOLID
 62
     7
100
AcDbCircle
 10
24.7443507506
 20
43.1556689268
 30
0.0
 40
0.1299999999999955
  0
LINE
  5
423
330
77A
100
AcDbEntity
  8
0
  6
SLD-SOLID
 62
     7
100
AcDbLine
 10
24.3753507506
 20
48.7341689268
 30
0.0
 11
24.3753507506
 21
37.5771689268
 31
0.0
  0
LINE
  5
424
330
77A
100
AcDbEntity
  8
0
  6
SLD-SOLID
 62
     7
100
AcDbLine
 10
25.1633507506
 20
48.7341689268
 30
0.0
 11
25.1633507506
 21
37.5771689268
 31
0.0
  0
LINE
  5
425
330
77A
100
AcDbEntity
  8
0
  6
SLD-SOLID
 62
     7
100
AcDbLine
 10
25.0863507506
 20
37.5771689268
 30
0.0
 11
25.1633507506
 21
37.5771689268
 31
0.0
  0
LINE
  5
426
330
77A
100
AcDbEntity
  8
0
  6
SLD-SOLID
 62
     7
100
AcDbLine
 10
25.1633507506
 20
48.7341689268
 30
0.0
 11
25.0863507506
 21
48.7341689268
 31
0.0
  0
LINE
  5
427
330
77A
100
AcDbEntity
  8
0
  6
SLD-SOLID
 62
     7
100
AcDbLine
 10
25.1633507506
 20
49.4841689268
 30
0.0
 11
25.1253507506
 21
49.4841689268
 31
0.0
  0
LINE
  5
428
330
77A
100
AcDbEntity
  8
0
  6
SLD-SOLID
 62
     7
100
AcDbLine
 10
25.1633507506
 20
48.7341689268
 30
0.0
 11
25.1633507506
 21
49.4841689268
 31
0.0
  0
LINE
  5
429
330
77A
100
AcDbEntity
  8
0
  6
SLD-SOLID
 62
     7
100
AcDbLine
 10
25.1253507506
 20
48.7341689268
 30
0.0
 11
25.1253507506
 21
49.4841689268
 31
0.0
  0
LINE
  5
42A
330
77A
100
AcDbEntity
  8
0
  6
SLD-SOLID
 62
     7
100
AcDbLine
 10
20.1984376201
 20
19.6496689268
 30
0.0
 11
20.1984376201
 21
19.6652939268
 31
0.0
  0
LINE
  5
42B
330
77A
100
AcDbEntity
  8
0
  6
SLD-SOLID
 62
     7
100
AcDbLine
 10
20.2364376201
 20
19.6496689268
 30
0.0
 11
20.2364376201
 21
19.6652939268
 31
0.0
  0
LINE
  5
42C
330
77A
100
AcDbEntity
  8
0
  6
SLD-SOLID
 62
     7
100
AcDbLine
 10
20.7854376201
 20
21.6496689268
 30
0.0
 11
21.1029095621
 21
21.6496689268
 31
0.0
  0
LINE
  5
42D
330
77A
100
AcDbEntity
  8
0
  6
SLD-SOLID
 62
     7
100
AcDbLine
 10
24.8524376201
 20
19.6496689268
 30
0.0
 11
24.8524376201
 21
19.6652939268
 31
0.0
  0
LINE
  5
42E
330
77A
100
AcDbEntity
  8
0
  6
SLD-SOLID
 62
     7
100
AcDbLine
 10
21.8037637227
 20
22.2902939268
 30
0.0
 11
21.8037637227
 21
22.0937939268
 31
0.0
  0
LINE
  5
42F
330
77A
100
AcDbEntity
  8
0
  6
SLD-SOLID
 62
     7
100
AcDbLine
 10
21.7334334277
 20
22.2612939268
 30
0.0
 11
21.754903872
 21
22.2612939268
 31
0.0
  0
ARC
  5
430
330
77A
100
AcDbEntity
  8
0
  6
SLD-SOLID
 62
     7
100
AcDbCircle
 10
21.9751105931
 20
22.2812939268
 30
0.0
 40
0.2211130932351117
100
AcDbArc
 50
177.6672367013
 51
185.1895792289
  0
LINE
  5
431
330
77A
100
AcDbEntity
  8
0
  6
SLD-SOLID
 62
     7
100
AcDbLine
 10
21.7539974999
 20
22.1562939268
 30
0.0
 11
21.754903872
 21
22.1562939268
 31
0.0
  0
ARC
  5
432
330
77A
100
AcDbEntity
  8
0
  6
SLD-SOLID
 62
     7
100
AcDbCircle
 10
21.9751105931
 20
22.2812939268
 30
0.0
 40
0.2532113741521109
100
AcDbArc
 50
197.3601088372
 51
209.5813429047
  0
ARC
  5
433
330
77A
100
AcDbEntity
  8
0
  6
SLD-SOLID
 62
     7
100
AcDbCircle
 10
22.8260416816
 20
21.8679147986
 30
0.0
 40
0.1250000000000036
100
AcDbArc
 50
0.0
 51
60.0
  0
ARC
  5
434
330
77A
100
AcDbEntity
  8
0
  6
SLD-SOLID
 62
     7
100
AcDbCircle
 10
22.8260416816
 20
21.8679147986
 30
0.0
 40
0.1250000000000036
100
AcDbArc
 50
312.4742017105
 51
0.0
  0
LINE
  5
435
330
77A
100
AcDbEntity
  8
0
  6
SLD-SOLID
 62
     7
100
AcDbLine
 10
22.902741813
 20
21.789066274
 30
0.0
 11
22.9104489527
 21
21.7757171165
 31
0.0
  0
ARC
  5
436
330
77A
100
AcDbEntity
  8
0
  6
SLD-SOLID
 62
     7
100
AcDbCircle
 10
22.8260416816
 20
21.8679147986
 30
0.0
 40
0.1100000000000028
100
AcDbArc
 50
314.2086975347
 51
105.7913024653
  0
LINE
  5
437
330
77A
100
AcDbEntity
  8
0
  6
SLD-SOLID
 62
     7
100
AcDbLine
 10
22.7883997823
 20
21.9871124807
 30
0.0
 11
22.7961069219
 21
21.9737633232
 31
0.0
  0
ARC
  5
438
330
77A
100
AcDbEntity
  8
0
  6
SLD-SOLID
 62
     7
100
AcDbCircle
 10
22.8260416816
 20
21.8679147986
 30
0.0
 40
0.1249999999999979
100
AcDbArc
 50
60.0
 51
107.5257982895
  0
LINE
  5
439
330
77A
100
AcDbEntity
  8
0
  6
SLD-SOLID
 62
     7
100
AcDbLine
 10
22.8975673836
 20
21.7980286487
 30
0.0
 11
22.902741813
 21
21.789066274
 31
0.0
  0
ARC
  5
43A
330
77A
100
AcDbEntity
  8
0
  6
SLD-SOLID
 62
     7
100
AcDbCircle
 10
22.8260416816
 20
21.8679147986
 30
0.0
 40
0.1000000000000025
100
AcDbArc
 50
315.6642668514
 51
104.3357331486
  0
LINE
  5
43B
330
77A
100
AcDbEntity
  8
0
  6
SLD-SOLID
 62
     7
100
AcDbLine
 10
22.7961069219
 20
21.9737633232
 30
0.0
 11
22.8012813514
 21
21.9648009485
 31
0.0
  0
LINE
  5
43C
330
77A
100
AcDbEntity
  8
0
  6
SLD-SOLID
 62
     7
100
AcDbLine
 10
22.9510416816
 20
21.7957460149
 30
0.0
 11
22.9510416816
 21
21.8679147986
 31
0.0
  0
LINE
  5
43D
330
77A
100
AcDbEntity
  8
0
  6
SLD-SOLID
 62
     7
100
AcDbLine
 10
22.9119243675
 20
21.7731616231
 30
0.0
 11
22.9510416816
 21
21.7957460149
 31
0.0
  0
LINE
  5
43E
330
77A
100
AcDbEntity
  8
0
  6
SLD-SOLID
 62
     7
100
AcDbLine
 10
22.9119243675
 20
21.7731616231
 30
0.0
 11
22.9104489527
 21
21.7757171165
 31
0.0
  0
LINE
  5
43F
330
77A
100
AcDbEntity
  8
0
  6
SLD-SOLID
 62
     7
100
AcDbLine
 10
22.9510416816
 20
21.9400835822
 30
0.0
 11
22.8885416816
 21
21.9761679741
 31
0.0
  0
LINE
  5
440
330
77A
100
AcDbEntity
  8
0
  6
SLD-SOLID
 62
     7
100
AcDbLine
 10
22.9510416816
 20
21.8679147986
 30
0.0
 11
22.9510416816
 21
21.9400835822
 31
0.0
  0
LINE
  5
441
330
77A
100
AcDbEntity
  8
0
  6
SLD-SOLID
 62
     7
100
AcDbLine
 10
22.8260416816
 20
22.0122523659
 30
0.0
 11
22.7869243675
 21
21.9896679741
 31
0.0
  0
LINE
  5
442
330
77A
100
AcDbEntity
  8
0
  6
SLD-SOLID
 62
     7
100
AcDbLine
 10
22.8885416816
 20
21.9761679741
 30
0.0
 11
22.8260416816
 21
22.0122523659
 31
0.0
  0
LINE
  5
443
330
77A
100
AcDbEntity
  8
0
  6
SLD-SOLID
 62
     7
100
AcDbLine
 10
22.7883997823
 20
21.9871124807
 30
0.0
 11
22.7869243675
 21
21.9896679741
 31
0.0
  0
LINE
  5
444
330
77A
100
AcDbEntity
  8
0
  6
SLD-SOLID
 62
     7
100
AcDbLine
 10
22.7010416816
 20
21.9400835822
 30
0.0
 11
22.7010416816
 21
21.8679147986
 31
0.0
  0
LINE
  5
445
330
77A
100
AcDbEntity
  8
0
  6
SLD-SOLID
 62
     7
100
AcDbLine
 10
22.7401589957
 20
21.9626679741
 30
0.0
 11
22.7010416816
 21
21.9400835822
 31
0.0
  0
LINE
  5
446
330
77A
100
AcDbEntity
  8
0
  6
SLD-SOLID
 62
     7
100
AcDbLine
 10
22.7416344105
 20
21.9601124807
 30
0.0
 11
22.7401589957
 21
21.9626679741
 31
0.0
  0
ARC
  5
447
330
77A
100
AcDbEntity
  8
0
  6
SLD-SOLID
 62
     7
100
AcDbCircle
 10
22.8260416816
 20
21.8679147986
 30
0.0
 40
0.1249999999999983
100
AcDbArc
 50
132.4742017105
 51
180.0
  0
ARC
  5
448
330
77A
100
AcDbEntity
  8
0
  6
SLD-SOLID
 62
     7
100
AcDbCircle
 10
22.8260416816
 20
21.8679147986
 30
0.0
 40
0.1100000000000034
100
AcDbArc
 50
134.2086975347
 51
285.7913024653
  0
ARC
  5
449
330
77A
100
AcDbEntity
  8
0
  6
SLD-SOLID
 62
     7
100
AcDbCircle
 10
22.8260416816
 20
21.8679147986
 30
0.0
 40
0.1250000000000022
100
AcDbArc
 50
240.0
 51
287.5257982895
  0
ARC
  5
44A
330
77A
100
AcDbEntity
  8
0
  6
SLD-SOLID
 62
     7
100
AcDbCircle
 10
22.8260416816
 20
21.8679147986
 30
0.0
 40
0.1249999999999993
100
AcDbArc
 50
180.0
 51
240.0
  0
LINE
  5
44B
330
77A
100
AcDbEntity
  8
0
  6
SLD-SOLID
 62
     7
100
AcDbLine
 10
22.8559764412
 20
21.762066274
 30
0.0
 11
22.8636835809
 21
21.7487171165
 31
0.0
  0
LINE
  5
44C
330
77A
100
AcDbEntity
  8
0
  6
SLD-SOLID
 62
     7
100
AcDbLine
 10
22.7416344105
 20
21.9601124807
 30
0.0
 11
22.7493415501
 21
21.9467633232
 31
0.0
  0
LINE
  5
44D
330
77A
100
AcDbEntity
  8
0
  6
SLD-SOLID
 62
     7
100
AcDbLine
 10
22.7635416816
 20
21.7596616231
 30
0.0
 11
22.8260416816
 21
21.7235772313
 31
0.0
  0
LINE
  5
44E
330
77A
100
AcDbEntity
  8
0
  6
SLD-SOLID
 62
     7
100
AcDbLine
 10
22.8260416816
 20
21.7235772313
 30
0.0
 11
22.8651589957
 21
21.7461616231
 31
0.0
  0
LINE
  5
44F
330
77A
100
AcDbEntity
  8
0
  6
SLD-SOLID
 62
     7
100
AcDbLine
 10
22.8651589957
 20
21.7461616231
 30
0.0
 11
22.8636835809
 21
21.7487171165
 31
0.0
  0
LINE
  5
450
330
77A
100
AcDbEntity
  8
0
  6
SLD-SOLID
 62
     7
100
AcDbLine
 10
22.7010416816
 20
21.8679147986
 30
0.0
 11
22.7010416816
 21
21.7957460149
 31
0.0
  0
LINE
  5
451
330
77A
100
AcDbEntity
  8
0
  6
SLD-SOLID
 62
     7
100
AcDbLine
 10
22.7010416816
 20
21.7957460149
 30
0.0
 11
22.7635416816
 21
21.7596616231
 31
0.0
  0
ARC
  5
452
330
77A
100
AcDbEntity
  8
0
  6
SLD-SOLID
 62
     7
100
AcDbCircle
 10
22.8260416816
 20
21.8679147986
 30
0.0
 40
0.1000000000000005
100
AcDbArc
 50
135.6642668514
 51
284.3357331486
  0
LINE
  5
453
330
77A
100
AcDbEntity
  8
0
  6
SLD-SOLID
 62
     7
100
AcDbLine
 10
22.8508020118
 20
21.7710286487
 30
0.0
 11
22.8559764412
 21
21.762066274
 31
0.0
  0
LINE
  5
454
330
77A
100
AcDbEntity
  8
0
  6
SLD-SOLID
 62
     7
100
AcDbLine
 10
22.7493415501
 20
21.9467633232
 30
0.0
 11
22.7545159796
 21
21.9378009485
 31
0.0
  0
LINE
  5
455
330
77A
100
AcDbEntity
  8
0
  6
SLD-SOLID
 62
     7
100
AcDbLine
 10
22.8975673836
 20
21.7980286487
 30
0.0
 11
22.8012813514
 21
21.9648009485
 31
0.0
  0
LINE
  5
456
330
77A
100
AcDbEntity
  8
0
  6
SLD-SOLID
 62
     7
100
AcDbLine
 10
22.8508020118
 20
21.7710286487
 30
0.0
 11
22.7545159796
 21
21.9378009485
 31
0.0
  0
LINE
  5
457
330
77A
100
AcDbEntity
  8
0
  6
SLD-SOLID
 62
     7
100
AcDbLine
 10
22.7869243675
 20
21.9896679741
 30
0.0
 11
22.7401589957
 21
21.9626679741
 31
0.0
  0
LINE
  5
458
330
77A
100
AcDbEntity
  8
0
  6
SLD-SOLID
 62
     7
100
AcDbLine
 10
22.8651589957
 20
21.7461616231
 30
0.0
 11
22.9119243675
 21
21.7731616231
 31
0.0
  0
ARC
  5
459
330
77A
100
AcDbEntity
  8
0
  6
SLD-SOLID
 62
     7
100
AcDbCircle
 10
22.8260416816
 20
21.8679147986
 30
0.0
 40
0.1740000000000009
100
AcDbArc
 50
300.0
 51
359.5786571393
  0
ARC
  5
45A
330
77A
100
AcDbEntity
  8
0
  6
SLD-SOLID
 62
     7
100
AcDbCircle
 10
22.8260416816
 20
21.8679147986
 30
0.0
 40
0.1740000000000009
100
AcDbArc
 50
52.1777067624
 51
300.0
  0
LINE
  5
45B
330
77A
100
AcDbEntity
  8
0
  6
SLD-SOLID
 62
     7
100
AcDbLine
 10
21.6701298034
 20
21.0893672313
 30
0.0
 11
21.6753042329
 21
21.0804048566
 31
0.0
  0
ARC
  5
45C
330
77A
100
AcDbEntity
  8
0
  6
SLD-SOLID
 62
     7
100
AcDbCircle
 10
21.5986041014
 20
21.1592533813
 30
0.0
 40
0.1000000000000014
100
AcDbArc
 50
315.6642668514
 51
104.3357331486
  0
LINE
  5
45D
330
77A
100
AcDbEntity
  8
0
  6
SLD-SOLID
 62
     7
100
AcDbLine
 10
21.5686693418
 20
21.2651019059
 30
0.0
 11
21.5738437712
 21
21.2561395312
 31
0.0
  0
ARC
  5
45E
330
77A
100
AcDbEntity
  8
0
  6
SLD-SOLID
 62
     7
100
AcDbCircle
 10
21.5986041014
 20
21.1592533813
 30
0.0
 40
0.1100000000000009
100
AcDbArc
 50
314.2086975347
 51
105.7913024653
  0
ARC
  5
45F
330
77A
100
AcDbEntity
  8
0
  6
SLD-SOLID
 62
     7
100
AcDbCircle
 10
21.5986041014
 20
21.1592533813
 30
0.0
 40
0.125
100
AcDbArc
 50
312.4742017105
 51
0.0
  0
LINE
  5
460
330
77A
100
AcDbEntity
  8
0
  6
SLD-SOLID
 62
     7
100
AcDbLine
 10
21.7236041014
 20
21.0870845976
 30
0.0
 11
21.7236041014
 21
21.1592533813
 31
0.0
  0
LINE
  5
461
330
77A
100
AcDbEntity
  8
0
  6
SLD-SOLID
 62
     7
100
AcDbLine
 10
21.6844867873
 20
21.0645002058
 30
0.0
 11
21.7236041014
 21
21.0870845976
 31
0.0
  0
LINE
  5
462
330
77A
100
AcDbEntity
  8
0
  6
SLD-SOLID
 62
     7
100
AcDbLine
 10
21.6844867873
 20
21.0645002058
 30
0.0
 11
21.6830113725
 21
21.0670556992
 31
0.0
  0
ARC
  5
463
330
77A
100
AcDbEntity
  8
0
  6
SLD-SOLID
 62
     7
100
AcDbCircle
 10
21.5986041014
 20
21.1592533813
 30
0.0
 40
0.125000000000001
100
AcDbArc
 50
0.0
 51
60.0
  0
LINE
  5
464
330
77A
100
AcDbEntity
  8
0
  6
SLD-SOLID
 62
     7
100
AcDbLine
 10
21.6753042329
 20
21.0804048566
 30
0.0
 11
21.6830113725
 21
21.0670556992
 31
0.0
  0
LINE
  5
465
330
77A
100
AcDbEntity
  8
0
  6
SLD-SOLID
 62
     7
100
AcDbLine
 10
21.5609622021
 20
21.2784510634
 30
0.0
 11
21.5686693418
 21
21.2651019059
 31
0.0
  0
ARC
  5
466
330
77A
100
AcDbEntity
  8
0
  6
SLD-SOLID
 62
     7
100
AcDbCircle
 10
21.5986041014
 20
21.1592533813
 30
0.0
 40
0.1250000000000012
100
AcDbArc
 50
60.0
 51
107.5257982895
  0
LINE
  5
467
330
77A
100
AcDbEntity
  8
0
  6
SLD-SOLID
 62
     7
100
AcDbLine
 10
21.7236041014
 20
21.1592533813
 30
0.0
 11
21.7236041014
 21
21.2314221649
 31
0.0
  0
LINE
  5
468
330
77A
100
AcDbEntity
  8
0
  6
SLD-SOLID
 62
     7
100
AcDbLine
 10
21.7236041014
 20
21.2314221649
 30
0.0
 11
21.6611041014
 21
21.2675065567
 31
0.0
  0
LINE
  5
469
330
77A
100
AcDbEntity
  8
0
  6
SLD-SOLID
 62
     7
100
AcDbLine
 10
21.5986041014
 20
21.3035909486
 30
0.0
 11
21.5594867873
 21
21.2810065567
 31
0.0
  0
LINE
  5
46A
330
77A
100
AcDbEntity
  8
0
  6
SLD-SOLID
 62
     7
100
AcDbLine
 10
21.6611041014
 20
21.2675065567
 30
0.0
 11
21.5986041014
 21
21.3035909486
 31
0.0
  0
LINE
  5
46B
330
77A
100
AcDbEntity
  8
0
  6
SLD-SOLID
 62
     7
100
AcDbLine
 10
21.5609622021
 20
21.2784510634
 30
0.0
 11
21.5594867873
 21
21.2810065567
 31
0.0
  0
LINE
  5
46C
330
77A
100
AcDbEntity
  8
0
  6
SLD-SOLID
 62
     7
100
AcDbLine
 10
21.4736041014
 20
21.2314221649
 30
0.0
 11
21.4736041014
 21
21.1592533813
 31
0.0
  0
LINE
  5
46D
330
77A
100
AcDbEntity
  8
0
  6
SLD-SOLID
 62
     7
100
AcDbLine
 10
21.5127214155
 20
21.2540065567
 30
0.0
 11
21.4736041014
 21
21.2314221649
 31
0.0
  0
LINE
  5
46E
330
77A
100
AcDbEntity
  8
0
  6
SLD-SOLID
 62
     7
100
AcDbLine
 10
21.5141968303
 20
21.2514510634
 30
0.0
 11
21.5127214155
 21
21.2540065567
 31
0.0
  0
ARC
  5
46F
330
77A
100
AcDbEntity
  8
0
  6
SLD-SOLID
 62
     7
100
AcDbCircle
 10
21.5986041014
 20
21.1592533813
 30
0.0
 40
0.1250000000000004
100
AcDbArc
 50
132.4742017105
 51
180.0
  0
ARC
  5
470
330
77A
100
AcDbEntity
  8
0
  6
SLD-SOLID
 62
     7
100
AcDbCircle
 10
21.5986041014
 20
21.1592533813
 30
0.0
 40
0.11
100
AcDbArc
 50
134.2086975347
 51
285.7913024653
  0
ARC
  5
471
330
77A
100
AcDbEntity
  8
0
  6
SLD-SOLID
 62
     7
100
AcDbCircle
 10
21.5986041014
 20
21.1592533813
 30
0.0
 40
0.1250000000000029
100
AcDbArc
 50
240.0
 51
252.1151489729
  0
ARC
  5
472
330
77A
100
AcDbEntity
  8
0
  6
SLD-SOLID
 62
     7
100
AcDbCircle
 10
21.5986041014
 20
21.1592533813
 30
0.0
 40
0.125000000000001
100
AcDbArc
 50
180.0
 51
240.0
  0
LINE
  5
473
330
77A
100
AcDbEntity
  8
0
  6
SLD-SOLID
 62
     7
100
AcDbLine
 10
21.6285388611
 20
21.0534048566
 30
0.0
 11
21.6361084599
 21
21.0402939268
 31
0.0
  0
LINE
  5
474
330
77A
100
AcDbEntity
  8
0
  6
SLD-SOLID
 62
     7
100
AcDbLine
 10
21.5141968303
 20
21.2514510634
 30
0.0
 11
21.52190397
 21
21.2381019059
 31
0.0
  0
LINE
  5
475
330
77A
100
AcDbEntity
  8
0
  6
SLD-SOLID
 62
     7
100
AcDbLine
 10
21.5361041014
 20
21.0510002058
 30
0.0
 11
21.5546479206
 21
21.0402939268
 31
0.0
  0
LINE
  5
476
330
77A
100
AcDbEntity
  8
0
  6
SLD-SOLID
 62
     7
100
AcDbLine
 10
21.4736041014
 20
21.1592533813
 30
0.0
 11
21.4736041014
 21
21.0870845976
 31
0.0
  0
LINE
  5
477
330
77A
100
AcDbEntity
  8
0
  6
SLD-SOLID
 62
     7
100
AcDbLine
 10
21.4736041014
 20
21.0870845976
 30
0.0
 11
21.5361041014
 21
21.0510002058
 31
0.0
  0
ARC
  5
478
330
77A
100
AcDbEntity
  8
0
  6
SLD-SOLID
 62
     7
100
AcDbCircle
 10
21.5986041014
 20
21.1592533813
 30
0.0
 40
0.1000000000000031
100
AcDbArc
 50
135.6642668514
 51
284.3357331486
  0
LINE
  5
479
330
77A
100
AcDbEntity
  8
0
  6
SLD-SOLID
 62
     7
100
AcDbLine
 10
21.6233644316
 20
21.0623672313
 30
0.0
 11
21.6285388611
 21
21.0534048566
 31
0.0
  0
LINE
  5
47A
330
77A
100
AcDbEntity
  8
0
  6
SLD-SOLID
 62
     7
100
AcDbLine
 10
21.52190397
 20
21.2381019059
 30
0.0
 11
21.5270783994
 21
21.2291395312
 31
0.0
  0
LINE
  5
47B
330
77A
100
AcDbEntity
  8
0
  6
SLD-SOLID
 62
     7
100
AcDbLine
 10
21.6701298034
 20
21.0893672313
 30
0.0
 11
21.5738437712
 21
21.2561395312
 31
0.0
  0
LINE
  5
47C
330
77A
100
AcDbEntity
  8
0
  6
SLD-SOLID
 62
     7
100
AcDbLine
 10
21.6233644316
 20
21.0623672313
 30
0.0
 11
21.5270783994
 21
21.2291395312
 31
0.0
  0
LINE
  5
47D
330
77A
100
AcDbEntity
  8
0
  6
SLD-SOLID
 62
     7
100
AcDbLine
 10
21.5594867873
 20
21.2810065567
 30
0.0
 11
21.5127214155
 21
21.2540065567
 31
0.0
  0
LINE
  5
47E
330
77A
100
AcDbEntity
  8
0
  6
SLD-SOLID
 62
     7
100
AcDbLine
 10
21.6425602823
 20
21.0402939268
 30
0.0
 11
21.6844867873
 21
21.0645002058
 31
0.0
  0
ARC
  5
47F
330
77A
100
AcDbEntity
  8
0
  6
SLD-SOLID
 62
     7
100
AcDbCircle
 10
21.5986041014
 20
21.1592533813
 30
0.0
 40
0.174000000000003
100
AcDbArc
 50
316.8685056956
 51
223.1314943044
  0
ARC
  5
480
330
77A
100
AcDbEntity
  8
0
  6
SLD-SOLID
 62
     7
100
AcDbCircle
 10
22.3698032065
 20
21.2408201832
 30
0.0
 40
0.2537141967706633
100
AcDbArc
 50
312.855800196
 51
359.5000190375
  0
ARC
  5
481
330
77A
100
AcDbEntity
  8
0
  6
SLD-SOLID
 62
     7
100
AcDbCircle
 10
22.3698032065
 20
21.2408201832
 30
0.0
 40
0.2537141967706647
100
AcDbArc
 50
359.5000190375
 51
232.2194262327
  0
ARC
  5
482
330
77A
100
AcDbEntity
  8
0
  6
SLD-SOLID
 62
     7
100
AcDbCircle
 10
22.3698032065
 20
21.2408201832
 30
0.0
 40
0.2156250000000006
100
AcDbArc
 50
292.6946507705
 51
359.5000190375
  0
ARC
  5
483
330
77A
100
AcDbEntity
  8
0
  6
SLD-SOLID
 62
     7
100
AcDbCircle
 10
22.3698032065
 20
21.2408201832
 30
0.0
 40
0.2156250000000006
100
AcDbArc
 50
359.5000190375
 51
248.4312052526
  0
CIRCLE
  5
484
330
77A
100
AcDbEntity
  8
0
  6
SLD-SOLID
 62
     7
100
AcDbCircle
 10
22.3698032065
 20
21.2408201832
 30
0.0
 40
0.1500000000000022
  0
ARC
  5
485
330
77A
100
AcDbEntity
  8
0
  6
SLD-SOLID
 62
     7
100
AcDbCircle
 10
22.3530971248
 20
21.2446610576
 30
0.0
 40
0.2813819930095682
100
AcDbArc
 50
321.2753791306
 51
74.8653525853
  0
ARC
  5
486
330
77A
100
AcDbEntity
  8
0
  6
SLD-SOLID
 62
     7
100
AcDbCircle
 10
22.3502842218
 20
21.2409905163
 30
0.0
 40
0.2431392220715136
100
AcDbArc
 50
127.2150707228
 51
231.7849673522
  0
LINE
  5
487
330
77A
100
AcDbEntity
  8
0
  6
SLD-SOLID
 62
     7
100
AcDbLine
 10
22.3450744925
 20
21.4951679633
 30
0.0
 11
22.3122808129
 21
21.5161249902
 31
0.0
  0
ARC
  5
488
330
77A
100
AcDbEntity
  8
0
  6
SLD-SOLID
 62
     7
100
AcDbCircle
 10
22.3698032065
 20
21.2408201832
 30
0.0
 40
0.2812499999999973
100
AcDbArc
 50
78.35709387579999
 51
101.8016397442
  0
ARC
  5
489
330
77A
100
AcDbEntity
  8
0
  6
SLD-SOLID
 62
     7
100
AcDbCircle
 10
22.3667938304
 20
21.2428011404
 30
0.0
 40
0.2787070073484505
100
AcDbArc
 50
101.2793414645
 51
226.6017238471
  0
ARC
  5
48A
330
77A
100
AcDbEntity
  8
0
  6
SLD-SOLID
 62
     7
100
AcDbCircle
 10
22.3989430717
 20
21.2797513055
 30
0.0
 40
0.2354588098599465
100
AcDbArc
 50
31.6117495785
 51
81.3533393118
  0
LWPOLYLINE
  5
48B
330
77A
100
AcDbEntity
  8
0
  6
SLD-SOLID
 62
     7
100
AcDbPolyline
 90
        6
 70
   128
 43
0.0
 10
22.5968464618
 20
21.07660418
 10
22.6014815134
 20
21.0813625882
 10
22.6412352186
 20
21.1671572664
 10
22.6503327776
 20
21.260937892
 10
22.6280419511
 20
21.3522397204
 10
22.5994643769
 20
21.4031695266
  0
ARC
  5
48C
330
77A
100
AcDbEntity
  8
0
  6
SLD-SOLID
 62
     7
100
AcDbCircle
 10
22.3203424792
 20
21.2408908935
 30
0.0
 40
0.2378824273686573
100
AcDbArc
 50
148.4324085273
 51
169.8657559095
  0
ARC
  5
48D
330
77A
100
AcDbEntity
  8
0
  6
SLD-SOLID
 62
     7
100
AcDbCircle
 10
22.3203487777
 20
21.2416126596
 30
0.0
 40
0.2378824273683913
100
AcDbArc
 50
189.1342821655
 51
210.5676295467
  0
LWPOLYLINE
  5
48E
330
77A
100
AcDbEntity
  8
0
  6
SLD-SOLID
 62
     7
100
AcDbPolyline
 90
        3
 70
   128
 43
0.0
 10
22.7403018014
 20
21.2375870141
 10
22.7325520148
 20
21.1653684483
 10
22.7215624089
 20
21.1244366543
  0
ARC
  5
48F
330
77A
100
AcDbEntity
  8
0
  6
SLD-SOLID
 62
     7
100
AcDbCircle
 10
22.3698032065
 20
21.2408201832
 30
0.0
 40
0.370512701892219
100
AcDbArc
 50
359.5000190375
 51
212.7662448949
  0
ARC
  5
490
330
77A
100
AcDbEntity
  8
0
  6
SLD-SOLID
 62
     7
100
AcDbCircle
 10
22.3698032065
 20
21.2408201832
 30
0.0
 40
0.4230127018922244
100
AcDbArc
 50
117.0635607734
 51
121.9364773015
  0
LINE
  5
491
330
77A
100
AcDbEntity
  8
0
  6
SLD-SOLID
 62
     7
100
AcDbLine
 10
22.5688096085
 20
21.6140978251
 30
0.0
 11
22.1773414569
 21
21.6175139858
 31
0.0
  0
ARC
  5
492
330
77A
100
AcDbEntity
  8
0
  6
SLD-SOLID
 62
     7
100
AcDbCircle
 10
22.3698032065
 20
21.2408201832
 30
0.0
 40
0.4230127018922248
100
AcDbArc
 50
57.0635607734
 51
61.93647730149999
  0
LINE
  5
493
330
77A
100
AcDbEntity
  8
0
  6
SLD-SOLID
 62
     7
100
AcDbLine
 10
22.792574328
 20
21.2551144045
 30
0.0
 11
22.5997987342
 21
21.5958438489
 31
0.0
  0
ARC
  5
494
330
77A
100
AcDbEntity
  8
0
  6
SLD-SOLID
 62
     7
100
AcDbCircle
 10
22.3698032065
 20
21.2408201832
 30
0.0
 40
0.4230127018922216
100
AcDbArc
 50
357.0635607734
 51
1.9364773015
  0
LINE
  5
495
330
77A
100
AcDbEntity
  8
0
  6
SLD-SOLID
 62
     7
100
AcDbLine
 10
22.7524710156
 20
21.1516008823
 30
0.0
 11
22.7922604838
 21
21.2191500463
 31
0.0
  0
LINE
  5
496
330
77A
100
AcDbEntity
  8
0
  6
SLD-SOLID
 62
     7
100
AcDbLine
 10
21.9470320849
 20
21.2265259619
 30
0.0
 11
22.0523971825
 21
21.0402939268
 31
0.0
  0
ARC
  5
497
330
77A
100
AcDbEntity
  8
0
  6
SLD-SOLID
 62
     7
100
AcDbCircle
 10
22.3698032065
 20
21.2408201832
 30
0.0
 40
0.4230127018922184
100
AcDbArc
 50
177.0635607734
 51
181.9364773015
  0
LINE
  5
498
330
77A
100
AcDbEntity
  8
0
  6
SLD-SOLID
 62
     7
100
AcDbLine
 10
22.1460384869
 20
21.5998036038
 30
0.0
 11
21.9473459292
 21
21.2624903201
 31
0.0
  0
LINE
  5
499
330
77A
100
AcDbEntity
  8
0
  6
SLD-SOLID
 62
     7
100
AcDbLine
 10
21.2766007506
 20
21.7812939268
 30
0.0
 11
21.3308907497
 21
21.7812939268
 31
0.0
  0
LINE
  5
49A
330
77A
100
AcDbEntity
  8
0
  6
SLD-SOLID
 62
     7
100
AcDbLine
 10
21.2766007506
 20
21.7499495812
 30
0.0
 11
21.2766007506
 21
21.7812939268
 31
0.0
  0
LINE
  5
49B
330
77A
100
AcDbEntity
  8
0
  6
SLD-SOLID
 62
     7
100
AcDbLine
 10
21.2766007506
 20
21.7812939268
 30
0.0
 11
21.2766007506
 21
21.8202939268
 31
0.0
  0
LINE
  5
49C
330
77A
100
AcDbEntity
  8
0
  6
SLD-SOLID
 62
     7
100
AcDbLine
 10
21.2766007506
 20
21.8202939268
 30
0.0
 11
21.2766007506
 21
22.276248606
 31
0.0
  0
LINE
  5
49D
330
77A
100
AcDbEntity
  8
0
  6
SLD-SOLID
 62
     7
100
AcDbLine
 10
21.9054579799
 20
23.5937939268
 30
0.0
 11
21.8778429386
 21
23.5937939268
 31
0.0
  0
LINE
  5
49E
330
77A
100
AcDbEntity
  8
0
  6
SLD-SOLID
 62
     7
100
AcDbLine
 10
21.378755613
 20
21.8563431394
 30
0.0
 11
21.460879799
 21
21.8563431394
 31
0.0
  0
LINE
  5
49F
330
77A
100
AcDbEntity
  8
0
  6
SLD-SOLID
 62
     7
100
AcDbLine
 10
21.3515466977
 20
21.8563431394
 30
0.0
 11
21.378755613
 21
21.8563431394
 31
0.0
  0
LINE
  5
4A0
330
77A
100
AcDbEntity
  8
0
  6
SLD-SOLID
 62
     7
100
AcDbLine
 10
21.8161105931
 20
22.1631836906
 30
0.0
 11
21.8161105931
 21
22.2902939268
 31
0.0
  0
LINE
  5
4A1
330
77A
100
AcDbEntity
  8
0
  6
SLD-SOLID
 62
     7
100
AcDbLine
 10
21.8559612701
 20
22.0844435331
 30
0.0
 11
21.8161105931
 21
22.0844435331
 31
0.0
  0
LINE
  5
4A2
330
77A
100
AcDbEntity
  8
0
  6
SLD-SOLID
 62
     7
100
AcDbLine
 10
21.8161105931
 20
22.0844435331
 30
0.0
 11
21.8161105931
 21
22.1631836906
 31
0.0
  0
LINE
  5
4A3
330
77A
100
AcDbEntity
  8
0
  6
SLD-SOLID
 62
     7
100
AcDbLine
 10
21.322055475
 20
22.1439947142
 30
0.0
 11
21.3712287033
 21
22.1439947142
 31
0.0
  0
LINE
  5
4A4
330
77A
100
AcDbEntity
  8
0
  6
SLD-SOLID
 62
     7
100
AcDbLine
 10
21.4105987821
 20
22.1238136119
 30
0.0
 11
21.7334334277
 21
22.1238136119
 31
0.0
  0
LINE
  5
4A5
330
77A
100
AcDbEntity
  8
0
  6
SLD-SOLID
 62
     7
100
AcDbLine
 10
21.5816209715
 20
21.9663332969
 30
0.0
 11
21.5816209715
 21
22.1238136119
 31
0.0
  0
LINE
  5
4A6
330
77A
100
AcDbEntity
  8
0
  6
SLD-SOLID
 62
     7
100
AcDbLine
 10
21.5624112383
 20
21.9663332969
 30
0.0
 11
21.5624112383
 21
22.1238136119
 31
0.0
  0
LINE
  5
4A7
330
77A
100
AcDbEntity
  8
0
  6
SLD-SOLID
 62
     7
100
AcDbLine
 10
21.5816209715
 20
21.9663332969
 30
0.0
 11
21.5624112383
 21
21.9663332969
 31
0.0
  0
LINE
  5
4A8
330
77A
100
AcDbEntity
  8
0
  6
SLD-SOLID
 62
     7
100
AcDbLine
 10
21.4105987821
 20
22.2419238481
 30
0.0
 11
21.4105987821
 21
22.2902939268
 31
0.0
  0
LINE
  5
4A9
330
77A
100
AcDbEntity
  8
0
  6
SLD-SOLID
 62
     7
100
AcDbLine
 10
21.568079097
 20
21.9663332969
 30
0.0
 11
21.568079097
 21
21.918234683
 31
0.0
  0
ARC
  5
4AA
330
77A
100
AcDbEntity
  8
0
  6
SLD-SOLID
 62
     7
100
AcDbCircle
 10
21.4648476309
 20
22.0774112954
 30
0.0
 40
0.1898789945306398
100
AcDbArc
 50
271.4504414316
 51
302.9338060365
  0
LWPOLYLINE
  5
4AB
330
77A
100
AcDbEntity
  8
0
  6
SLD-SOLID
 62
     7
100
AcDbPolyline
 90
        3
 70
   128
 43
0.0
 10
21.4696539002
 20
21.8875931394
 10
21.4184933717
 20
21.8962663301
 10
21.3712287033
 20
21.9180460013
  0
LINE
  5
4AC
330
77A
100
AcDbEntity
  8
0
  6
SLD-SOLID
 62
     7
100
AcDbLine
 10
21.3712287033
 20
22.2891902182
 30
0.0
 11
21.3712287033
 21
21.9180460013
 31
0.0
  0
LINE
  5
4AD
330
77A
100
AcDbEntity
  8
0
  6
SLD-SOLID
 62
     7
100
AcDbLine
 10
21.4696539002
 20
21.8875931394
 30
0.0
 11
21.5150063867
 21
21.8875931394
 31
0.0
  0
LINE
  5
4AE
330
77A
100
AcDbEntity
  8
0
  6
SLD-SOLID
 62
     7
100
AcDbLine
 10
21.7649294907
 20
22.1386758908
 30
0.0
 11
21.7649294907
 21
22.0318863108
 31
0.0
  0
LINE
  5
4AF
330
77A
100
AcDbEntity
  8
0
  6
SLD-SOLID
 62
     7
100
AcDbLine
 10
21.3712287033
 20
21.9180460013
 30
0.0
 11
21.3712287033
 21
21.8875931394
 31
0.0
  0
LINE
  5
4B0
330
77A
100
AcDbEntity
  8
0
  6
SLD-SOLID
 62
     7
100
AcDbLine
 10
21.3712287033
 20
21.8875931394
 30
0.0
 11
21.4696539002
 21
21.8875931394
 31
0.0
  0
LINE
  5
4B1
330
77A
100
AcDbEntity
  8
0
  6
SLD-SOLID
 62
     7
100
AcDbLine
 10
22.7367221082
 20
21.5387094486
 30
0.0
 11
22.8921139268
 21
21.2695629236
 31
0.0
  0
LINE
  5
4B2
330
77A
100
AcDbEntity
  8
0
  6
SLD-SOLID
 62
     7
100
AcDbLine
 10
21.9466717453
 20
21.0402939268
 30
0.0
 11
21.9283640843
 21
21.0720037259
 31
0.0
  0
LINE
  5
4B3
330
77A
100
AcDbEntity
  8
0
  6
SLD-SOLID
 62
     7
100
AcDbLine
 10
21.1643651287
 20
21.2495002768
 30
0.0
 11
21.18720208
 21
21.2626851968
 31
0.0
  0
LINE
  5
4B4
330
77A
100
AcDbEntity
  8
0
  6
SLD-SOLID
 62
     7
100
AcDbLine
 10
21.1995762971
 20
21.2698294544
 30
0.0
 11
21.2511411354
 21
21.2996004277
 31
0.0
  0
LINE
  5
4B5
330
77A
100
AcDbEntity
  8
0
  6
SLD-SOLID
 62
     7
100
AcDbLine
 10
21.0451253098
 20
21.1806571353
 30
0.0
 11
21.1643651287
 21
21.2495002768
 31
0.0
  0
LINE
  5
4B6
330
77A
100
AcDbEntity
  8
0
  6
SLD-SOLID
 62
     7
100
AcDbLine
 10
21.0389537861
 20
21.1770940044
 30
0.0
 11
21.0451253098
 21
21.1806571353
 31
0.0
  0
LINE
  5
4B7
330
77A
100
AcDbEntity
  8
0
  6
SLD-SOLID
 62
     7
100
AcDbLine
 10
21.0269495294
 20
21.1701633436
 30
0.0
 11
21.0389537861
 21
21.1770940044
 31
0.0
  0
LINE
  5
4B8
330
77A
100
AcDbEntity
  8
0
  6
SLD-SOLID
 62
     7
100
AcDbLine
 10
21.1807284856
 20
21.327138642
 30
0.0
 11
21.12659055
 21
21.2958820904
 31
0.0
  0
LINE
  5
4B9
330
77A
100
AcDbEntity
  8
0
  6
SLD-SOLID
 62
     7
100
AcDbLine
 10
21.2102560447
 20
21.2759954095
 30
0.0
 11
21.1866806049
 21
21.262384123
 31
0.0
  0
LINE
  5
4BA
330
77A
100
AcDbEntity
  8
0
  6
SLD-SOLID
 62
     7
100
AcDbLine
 10
21.1807284856
 20
21.327138642
 30
0.0
 11
21.2216135764
 21
21.3507436602
 31
0.0
  0
LINE
  5
4BB
330
77A
100
AcDbEntity
  8
0
  6
SLD-SOLID
 62
     7
100
AcDbLine
 10
21.2102560447
 20
21.2759954095
 30
0.0
 11
21.2511411354
 21
21.2996004277
 31
0.0
  0
LINE
  5
4BC
330
77A
100
AcDbEntity
  8
0
  6
SLD-SOLID
 62
     7
100
AcDbLine
 10
21.12659055
 20
21.2958820904
 30
0.0
 11
21.0221010962
 21
21.235555076
 31
0.0
  0
LINE
  5
4BD
330
77A
100
AcDbEntity
  8
0
  6
SLD-SOLID
 62
     7
100
AcDbLine
 10
21.1561181091
 20
21.2447388579
 30
0.0
 11
21.0516286552
 21
21.1844118435
 31
0.0
  0
LWPOLYLINE
  5
4BE
330
77A
100
AcDbEntity
  8
0
  6
SLD-SOLID
 62
     7
100
AcDbPolyline
 90
        6
 70
   128
 43
0.0
 10
21.1507798489
 20
21.3837266372
 10
21.1112799563
 20
21.3609204632
 10
21.0762277895
 20
21.3406951858
 10
21.0495873348
 20
21.3253100645
 10
21.0343562265
 20
21.3165098246
 10
21.032976572
 20
21.3157137502
  0
LWPOLYLINE
  5
4BF
330
77A
100
AcDbEntity
  8
0
  6
SLD-SOLID
 62
     7
100
AcDbPolyline
 90
        3
 70
   128
 43
0.0
 10
21.1896218521
 20
21.4061549521
 10
21.1757193817
 20
21.3981266365
 10
21.1507798489
 20
21.3837266372
  0
LINE
  5
4C0
330
77A
100
AcDbEntity
  8
0
  6
SLD-SOLID
 62
     7
100
AcDbLine
 10
21.0221010962
 20
21.235555076
 30
0.0
 11
21.0092161033
 21
21.228115922
 31
0.0
  0
LINE
  5
4C1
330
77A
100
AcDbEntity
  8
0
  6
SLD-SOLID
 62
     7
100
AcDbLine
 10
21.0389537861
 20
21.1770940044
 30
0.0
 11
21.0387436624
 21
21.1769726895
 31
0.0
  0
LINE
  5
4C2
330
77A
100
AcDbEntity
  8
0
  6
SLD-SOLID
 62
     7
100
AcDbLine
 10
21.1237152106
 20
21.4306039657
 30
0.0
 11
21.1625584583
 21
21.4530301252
 31
0.0
  0
LINE
  5
4C3
330
77A
100
AcDbEntity
  8
0
  6
SLD-SOLID
 62
     7
100
AcDbLine
 10
21.0092161033
 20
21.228115922
 30
0.0
 11
20.9867212708
 21
21.2151285243
 31
0.0
  0
LINE
  5
4C4
330
77A
100
AcDbEntity
  8
0
  6
SLD-SOLID
 62
     7
100
AcDbLine
 10
21.1009991354
 20
21.559654
 30
0.0
 11
21.0624991354
 21
21.6263379561
 31
0.0
  0
LINE
  5
4C5
330
77A
100
AcDbEntity
  8
0
  6
SLD-SOLID
 62
     7
100
AcDbLine
 10
21.0624991354
 20
21.6263379561
 30
0.0
 11
22.2125046107
 21
22.2902939268
 31
0.0
  0
LINE
  5
4C6
330
77A
100
AcDbEntity
  8
0
  6
SLD-SOLID
 62
     7
100
AcDbLine
 10
23.0318197944
 20
21.7090841771
 30
0.0
 11
22.6573026227
 21
21.4928565872
 31
0.0
  0
LINE
  5
4C7
330
77A
100
AcDbEntity
  8
0
  6
SLD-SOLID
 62
     7
100
AcDbLine
 10
22.5966919687
 20
21.5978373194
 30
0.0
 11
22.4698026227
 21
21.8176161136
 31
0.0
  0
LINE
  5
4C8
330
77A
100
AcDbEntity
  8
0
  6
SLD-SOLID
 62
     7
100
AcDbLine
 10
22.4698026227
 20
21.8176161136
 30
0.0
 11
21.8202835698
 21
21.4426161136
 31
0.0
  0
LINE
  5
4C9
330
77A
100
AcDbEntity
  8
0
  6
SLD-SOLID
 62
     7
100
AcDbLine
 10
21.8202835698
 20
21.4426161136
 30
0.0
 11
22.0077835698
 21
21.1178565872
 31
0.0
  0
LINE
  5
4CA
330
77A
100
AcDbEntity
  8
0
  6
SLD-SOLID
 62
     7
100
AcDbLine
 10
22.0077835698
 20
21.1178565872
 30
0.0
 11
21.8734411013
 21
21.0402939268
 31
0.0
  0
LINE
  5
4CB
330
77A
100
AcDbEntity
  8
0
  6
SLD-SOLID
 62
     7
100
AcDbLine
 10
21.4008256226
 20
21.0403392907
 30
0.0
 11
21.1009991354
 21
21.559654
 31
0.0
  0
ARC
  5
4CC
330
77A
100
AcDbEntity
  8
0
  6
SLD-SOLID
 62
     7
100
AcDbCircle
 10
21.9064394813
 20
22.13090765
 30
0.0
 40
0.0530000000000022
100
AcDbArc
 50
180.0
 51
226.4404631166
  0
ARC
  5
4CD
330
77A
100
AcDbEntity
  8
0
  6
SLD-SOLID
 62
     7
100
AcDbCircle
 10
21.9064394813
 20
22.13090765
 30
0.0
 40
0.0150000000000006
100
AcDbArc
 50
180.0
 51
300.0
  0
LINE
  5
4CE
330
77A
100
AcDbEntity
  8
0
  6
SLD-SOLID
 62
     7
100
AcDbLine
 10
21.8534394813
 20
22.13090765
 30
0.0
 11
21.8534394813
 21
22.2902939268
 31
0.0
  0
LINE
  5
4CF
330
77A
100
AcDbEntity
  8
0
  6
SLD-SOLID
 62
     7
100
AcDbLine
 10
21.8914394813
 20
22.13090765
 30
0.0
 11
21.8914394813
 21
22.2902939268
 31
0.0
  0
LINE
  5
4D0
330
77A
100
AcDbEntity
  8
0
  6
SLD-SOLID
 62
     7
100
AcDbLine
 10
21.9718507506
 20
23.5937939268
 30
0.0
 11
21.9718507506
 21
23.6257656937
 31
0.0
  0
LINE
  5
4D1
330
77A
100
AcDbEntity
  8
0
  6
SLD-SOLID
 62
     7
100
AcDbLine
 10
23.4978585626
 20
23.5937939268
 30
0.0
 11
23.3778429386
 21
23.5937939268
 31
0.0
  0
LINE
  5
4D2
330
77A
100
AcDbEntity
  8
0
  6
SLD-SOLID
 62
     7
100
AcDbLine
 10
22.9978585626
 20
23.5937939268
 30
0.0
 11
22.8778429386
 21
23.5937939268
 31
0.0
  0
LINE
  5
4D3
330
77A
100
AcDbEntity
  8
0
  6
SLD-SOLID
 62
     7
100
AcDbLine
 10
22.4978585626
 20
23.5937939268
 30
0.0
 11
22.3778429386
 21
23.5937939268
 31
0.0
  0
LINE
  5
4D4
330
77A
100
AcDbEntity
  8
0
  6
SLD-SOLID
 62
     7
100
AcDbLine
 10
21.9978585626
 20
23.5937939268
 30
0.0
 11
21.9718507506
 21
23.5937939268
 31
0.0
  0
ARC
  5
4D5
330
77A
100
AcDbEntity
  8
0
  6
SLD-SOLID
 62
     7
100
AcDbCircle
 10
21.9718507506
 20
23.5547939268
 30
0.0
 40
0.0770000000000017
100
AcDbArc
 50
97.8393522344
 51
180.0
  0
ARC
  5
4D6
330
77A
100
AcDbEntity
  8
0
  6
SLD-SOLID
 62
     7
100
AcDbCircle
 10
21.9718507506
 20
23.5547939268
 30
0.0
 40
0.0389999999999979
100
AcDbArc
 50
90.0
 51
180.0
  0
LINE
  5
4D7
330
77A
100
AcDbEntity
  8
0
  6
SLD-SOLID
 62
     7
100
AcDbLine
 10
21.9328507506
 20
23.5547939268
 30
0.0
 11
21.9328507506
 21
23.5077395383
 31
0.0
  0
LINE
  5
4D8
330
77A
100
AcDbEntity
  8
0
  6
SLD-SOLID
 62
     7
100
AcDbLine
 10
21.8948507506
 20
23.5547939268
 30
0.0
 11
21.8948507506
 21
23.5241413952
 31
0.0
  0
LINE
  5
4D9
330
77A
100
AcDbEntity
  8
0
  6
SLD-SOLID
 62
     7
100
AcDbLine
 10
21.8948507506
 20
22.1562939268
 30
0.0
 11
21.9328507506
 21
22.1562939268
 31
0.0
  0
LINE
  5
4DA
330
77A
100
AcDbEntity
  8
0
  6
SLD-SOLID
 62
     7
100
AcDbLine
 10
21.9328507506
 20
22.2902939268
 30
0.0
 11
21.9328507506
 21
22.1562939268
 31
0.0
  0
LINE
  5
4DB
330
77A
100
AcDbEntity
  8
0
  6
SLD-SOLID
 62
     7
100
AcDbLine
 10
21.8948507506
 20
22.2902939268
 30
0.0
 11
21.8948507506
 21
22.1562939268
 31
0.0
  0
LINE
  5
4DC
330
77A
100
AcDbEntity
  8
0
  6
SLD-SOLID
 62
     7
100
AcDbLine
 10
21.9328507506
 20
22.1562939268
 30
0.0
 11
21.9328507506
 21
22.1288356954
 31
0.0
  0
LINE
  5
4DD
330
77A
100
AcDbEntity
  8
0
  6
SLD-SOLID
 62
     7
100
AcDbLine
 10
21.8948507506
 20
22.1562939268
 30
0.0
 11
21.8948507506
 21
22.121383926
 31
0.0
  0
LINE
  5
4DE
330
77A
100
AcDbEntity
  8
0
  6
SLD-SOLID
 62
     7
100
AcDbLine
 10
21.2092459712
 20
32.5819513963
 30
0.0
 11
21.0529959712
 21
32.6721623758
 31
0.0
  0
LINE
  5
4DF
330
77A
100
AcDbEntity
  8
0
  6
SLD-SOLID
 62
     7
100
AcDbLine
 10
21.0529959712
 20
32.6721623758
 30
0.0
 11
21.0529959712
 21
32.852584335
 31
0.0
  0
LINE
  5
4E0
330
77A
100
AcDbEntity
  8
0
  6
SLD-SOLID
 62
     7
100
AcDbLine
 10
21.0529959712
 20
32.852584335
 30
0.0
 11
21.2092459712
 21
32.9427953145
 31
0.0
  0
LINE
  5
4E1
330
77A
100
AcDbEntity
  8
0
  6
SLD-SOLID
 62
     7
100
AcDbLine
 10
21.2092459712
 20
32.9427953145
 30
0.0
 11
21.3654959712
 21
32.852584335
 31
0.0
  0
LINE
  5
4E2
330
77A
100
AcDbEntity
  8
0
  6
SLD-SOLID
 62
     7
100
AcDbLine
 10
21.3654959712
 20
32.852584335
 30
0.0
 11
21.3654959712
 21
32.6721623758
 31
0.0
  0
LINE
  5
4E3
330
77A
100
AcDbEntity
  8
0
  6
SLD-SOLID
 62
     7
100
AcDbLine
 10
21.3654959712
 20
32.6721623758
 30
0.0
 11
21.2092459712
 21
32.5819513963
 31
0.0
  0
CIRCLE
  5
4E4
330
77A
100
AcDbEntity
  8
0
  6
SLD-SOLID
 62
     7
100
AcDbCircle
 10
21.2092459712
 20
32.7623733554
 30
0.0
 40
0.140625
  0
CIRCLE
  5
4E5
330
77A
100
AcDbEntity
  8
0
  6
SLD-SOLID
 62
     7
100
AcDbCircle
 10
21.2092459712
 20
32.7623733554
 30
0.0
 40
0.2187500000000036
  0
CIRCLE
  5
4E6
330
77A
100
AcDbEntity
  8
0
  6
SLD-SOLID
 62
     7
100
AcDbCircle
 10
20.5354376201
 20
21.3837689707
 30
0.0
 40
0.140625
  0
LINE
  5
4E7
330
77A
100
AcDbEntity
  8
0
  6
SLD-SOLID
 62
     7
100
AcDbLine
 10
20.5354376201
 20
21.2033470115
 30
0.0
 11
20.3791876201
 21
21.2935579911
 31
0.0
  0
LINE
  5
4E8
330
77A
100
AcDbEntity
  8
0
  6
SLD-SOLID
 62
     7
100
AcDbLine
 10
20.3791876201
 20
21.2935579911
 30
0.0
 11
20.3791876201
 21
21.4739799502
 31
0.0
  0
LINE
  5
4E9
330
77A
100
AcDbEntity
  8
0
  6
SLD-SOLID
 62
     7
100
AcDbLine
 10
20.3791876201
 20
21.4739799502
 30
0.0
 11
20.5354376201
 21
21.5641909298
 31
0.0
  0
LINE
  5
4EA
330
77A
100
AcDbEntity
  8
0
  6
SLD-SOLID
 62
     7
100
AcDbLine
 10
20.5354376201
 20
21.5641909298
 30
0.0
 11
20.6916876201
 21
21.4739799502
 31
0.0
  0
LINE
  5
4EB
330
77A
100
AcDbEntity
  8
0
  6
SLD-SOLID
 62
     7
100
AcDbLine
 10
20.6916876201
 20
21.4739799502
 30
0.0
 11
20.6916876201
 21
21.2935579911
 31
0.0
  0
LINE
  5
4EC
330
77A
100
AcDbEntity
  8
0
  6
SLD-SOLID
 62
     7
100
AcDbLine
 10
20.6916876201
 20
21.2935579911
 30
0.0
 11
20.5354376201
 21
21.2033470115
 31
0.0
  0
CIRCLE
  5
4ED
330
77A
100
AcDbEntity
  8
0
  6
SLD-SOLID
 62
     7
100
AcDbCircle
 10
20.5354376201
 20
21.3837689707
 30
0.0
 40
0.2187500000000036
  0
CIRCLE
  5
4EE
330
77A
100
AcDbEntity
  8
0
  6
SLD-SOLID
 62
     7
100
AcDbCircle
 10
20.5354376201
 20
31.3837689707
 30
0.0
 40
0.140625
  0
LINE
  5
4EF
330
77A
100
AcDbEntity
  8
0
  6
SLD-SOLID
 62
     7
100
AcDbLine
 10
20.5354376201
 20
31.2033470115
 30
0.0
 11
20.3791876201
 21
31.2935579911
 31
0.0
  0
LINE
  5
4F0
330
77A
100
AcDbEntity
  8
0
  6
SLD-SOLID
 62
     7
100
AcDbLine
 10
20.3791876201
 20
31.2935579911
 30
0.0
 11
20.3791876201
 21
31.4739799502
 31
0.0
  0
LINE
  5
4F1
330
77A
100
AcDbEntity
  8
0
  6
SLD-SOLID
 62
     7
100
AcDbLine
 10
20.3791876201
 20
31.4739799502
 30
0.0
 11
20.5354376201
 21
31.5641909298
 31
0.0
  0
LINE
  5
4F2
330
77A
100
AcDbEntity
  8
0
  6
SLD-SOLID
 62
     7
100
AcDbLine
 10
20.5354376201
 20
31.5641909298
 30
0.0
 11
20.6916876201
 21
31.4739799502
 31
0.0
  0
LINE
  5
4F3
330
77A
100
AcDbEntity
  8
0
  6
SLD-SOLID
 62
     7
100
AcDbLine
 10
20.6916876201
 20
31.4739799502
 30
0.0
 11
20.6916876201
 21
31.2935579911
 31
0.0
  0
LINE
  5
4F4
330
77A
100
AcDbEntity
  8
0
  6
SLD-SOLID
 62
     7
100
AcDbLine
 10
20.6916876201
 20
31.2935579911
 30
0.0
 11
20.5354376201
 21
31.2033470115
 31
0.0
  0
CIRCLE
  5
4F5
330
77A
100
AcDbEntity
  8
0
  6
SLD-SOLID
 62
     7
100
AcDbCircle
 10
20.5354376201
 20
31.3837689707
 30
0.0
 40
0.2187500000000036
  0
CIRCLE
  5
4F6
330
77A
100
AcDbEntity
  8
0
  6
SLD-SOLID
 62
     7
100
AcDbCircle
 10
24.6733475863
 20
34.7623733554
 30
0.0
 40
0.140625
  0
LINE
  5
4F7
330
77A
100
AcDbEntity
  8
0
  6
SLD-SOLID
 62
     7
100
AcDbLine
 10
24.6733475863
 20
34.5819513963
 30
0.0
 11
24.5170975863
 21
34.6721623758
 31
0.0
  0
LINE
  5
4F8
330
77A
100
AcDbEntity
  8
0
  6
SLD-SOLID
 62
     7
100
AcDbLine
 10
24.5170975863
 20
34.6721623758
 30
0.0
 11
24.5170975863
 21
34.852584335
 31
0.0
  0
LINE
  5
4F9
330
77A
100
AcDbEntity
  8
0
  6
SLD-SOLID
 62
     7
100
AcDbLine
 10
24.5170975863
 20
34.852584335
 30
0.0
 11
24.6733475863
 21
34.9427953145
 31
0.0
  0
LINE
  5
4FA
330
77A
100
AcDbEntity
  8
0
  6
SLD-SOLID
 62
     7
100
AcDbLine
 10
24.6733475863
 20
34.9427953145
 30
0.0
 11
24.8295975863
 21
34.852584335
 31
0.0
  0
LINE
  5
4FB
330
77A
100
AcDbEntity
  8
0
  6
SLD-SOLID
 62
     7
100
AcDbLine
 10
24.8295975863
 20
34.852584335
 30
0.0
 11
24.8295975863
 21
34.6721623758
 31
0.0
  0
LINE
  5
4FC
330
77A
100
AcDbEntity
  8
0
  6
SLD-SOLID
 62
     7
100
AcDbLine
 10
24.8295975863
 20
34.6721623758
 30
0.0
 11
24.6733475863
 21
34.5819513963
 31
0.0
  0
CIRCLE
  5
4FD
330
77A
100
AcDbEntity
  8
0
  6
SLD-SOLID
 62
     7
100
AcDbCircle
 10
24.6733475863
 20
34.7623733554
 30
0.0
 40
0.21875
  0
CIRCLE
  5
4FE
330
77A
100
AcDbEntity
  8
0
  6
SLD-SOLID
 62
     7
100
AcDbCircle
 10
20.5354376201
 20
26.3837689707
 30
0.0
 40
0.140625
  0
LINE
  5
4FF
330
77A
100
AcDbEntity
  8
0
  6
SLD-SOLID
 62
     7
100
AcDbLine
 10
20.5354376201
 20
26.2033470115
 30
0.0
 11
20.3791876201
 21
26.2935579911
 31
0.0
  0
LINE
  5
500
330
77A
100
AcDbEntity
  8
0
  6
SLD-SOLID
 62
     7
100
AcDbLine
 10
20.3791876201
 20
26.2935579911
 30
0.0
 11
20.3791876201
 21
26.4739799502
 31
0.0
  0
LINE
  5
501
330
77A
100
AcDbEntity
  8
0
  6
SLD-SOLID
 62
     7
100
AcDbLine
 10
20.3791876201
 20
26.4739799502
 30
0.0
 11
20.5354376201
 21
26.5641909298
 31
0.0
  0
LINE
  5
502
330
77A
100
AcDbEntity
  8
0
  6
SLD-SOLID
 62
     7
100
AcDbLine
 10
20.5354376201
 20
26.5641909298
 30
0.0
 11
20.6916876201
 21
26.4739799502
 31
0.0
  0
LINE
  5
503
330
77A
100
AcDbEntity
  8
0
  6
SLD-SOLID
 62
     7
100
AcDbLine
 10
20.6916876201
 20
26.4739799502
 30
0.0
 11
20.6916876201
 21
26.2935579911
 31
0.0
  0
LINE
  5
504
330
77A
100
AcDbEntity
  8
0
  6
SLD-SOLID
 62
     7
100
AcDbLine
 10
20.6916876201
 20
26.2935579911
 30
0.0
 11
20.5354376201
 21
26.2033470115
 31
0.0
  0
CIRCLE
  5
505
330
77A
100
AcDbEntity
  8
0
  6
SLD-SOLID
 62
     7
100
AcDbCircle
 10
20.5354376201
 20
26.3837689707
 30
0.0
 40
0.21875
  0
LINE
  5
506
330
77A
100
AcDbEntity
  8
0
  6
SLD-SOLID
 62
     7
100
AcDbLine
 10
25.1349115329
 20
29.2093685235
 30
0.0
 11
25.1349115329
 21
29.1312435235
 31
0.0
  0
LINE
  5
507
330
77A
100
AcDbEntity
  8
0
  6
SLD-SOLID
 62
     7
100
AcDbLine
 10
25.1406422649
 20
34.2768060235
 30
0.0
 11
25.1406422649
 21
34.5638060235
 31
0.0
  0
LINE
  5
508
330
77A
100
AcDbEntity
  8
0
  6
SLD-SOLID
 62
     7
100
AcDbLine
 10
25.1729115329
 20
34.4593685235
 30
0.0
 11
25.1729115329
 21
34.3812435235
 31
0.0
  0
LINE
  5
509
330
77A
100
AcDbEntity
  8
0
  6
SLD-SOLID
 62
     7
100
AcDbLine
 10
25.1786422649
 20
37.0530439268
 30
0.0
 11
25.1786422649
 21
37.3400439268
 31
0.0
  0
LINE
  5
50A
330
77A
100
AcDbEntity
  8
0
  6
SLD-SOLID
 62
     7
100
AcDbLine
 10
25.2109115329
 20
37.2356064268
 30
0.0
 11
25.2109115329
 21
37.1574814268
 31
0.0
  0
LINE
  5
50B
330
77A
100
AcDbEntity
  8
0
  6
SLD-SOLID
 62
     7
100
AcDbLine
 10
19.7595592362
 20
37.3290988979
 30
0.0
 11
19.7595592362
 21
37.0530439268
 31
0.0
  0
LINE
  5
50C
330
77A
100
AcDbEntity
  8
0
  6
SLD-SOLID
 62
     7
100
AcDbLine
 10
19.7595592362
 20
37.3400439268
 30
0.0
 11
19.7595592362
 21
37.3290988979
 31
0.0
  0
LINE
  5
50D
330
77A
100
AcDbEntity
  8
0
  6
SLD-SOLID
 62
     7
100
AcDbLine
 10
19.7272899682
 20
37.2326270527
 30
0.0
 11
19.7272899682
 21
37.2356064268
 31
0.0
  0
LINE
  5
50E
330
77A
100
AcDbEntity
  8
0
  6
SLD-SOLID
 62
     7
100
AcDbLine
 10
19.7272899682
 20
37.1574814268
 30
0.0
 11
19.7272899682
 21
37.2326270527
 31
0.0
  0
LINE
  5
50F
330
77A
100
AcDbEntity
  8
0
  6
SLD-SOLID
 62
     7
100
AcDbLine
 10
25.1346163609
 20
35.7981064268
 30
0.0
 11
25.1346163609
 21
35.7199814268
 31
0.0
  0
LINE
  5
510
330
77A
100
AcDbEntity
  8
0
  6
SLD-SOLID
 62
     7
100
AcDbLine
 10
19.7595592362
 20
20.0478488979
 30
0.0
 11
19.7595592362
 21
19.7717939268
 31
0.0
  0
LINE
  5
511
330
77A
100
AcDbEntity
  8
0
  6
SLD-SOLID
 62
     7
100
AcDbLine
 10
19.7595592362
 20
20.0587939268
 30
0.0
 11
19.7595592362
 21
20.0478488979
 31
0.0
  0
LINE
  5
512
330
77A
100
AcDbEntity
  8
0
  6
SLD-SOLID
 62
     7
100
AcDbLine
 10
19.7272899682
 20
19.9513770527
 30
0.0
 11
19.7272899682
 21
19.9543564268
 31
0.0
  0
LINE
  5
513
330
77A
100
AcDbEntity
  8
0
  6
SLD-SOLID
 62
     7
100
AcDbLine
 10
19.7272899682
 20
19.8762314268
 30
0.0
 11
19.7272899682
 21
19.9513770527
 31
0.0
  0
LINE
  5
514
330
77A
100
AcDbEntity
  8
0
  6
SLD-SOLID
 62
     7
100
AcDbLine
 10
25.1786422649
 20
19.7717939268
 30
0.0
 11
25.1786422649
 21
20.0587939268
 31
0.0
  0
LINE
  5
515
330
77A
100
AcDbEntity
  8
0
  6
SLD-SOLID
 62
     7
100
AcDbLine
 10
25.2109115329
 20
19.9543564268
 30
0.0
 11
25.2109115329
 21
19.8762314268
 31
0.0
  0
LINE
  5
516
330
77A
100
AcDbEntity
  8
0
  6
SLD-SOLID
 62
     7
100
AcDbLine
 10
25.1406422649
 20
23.7768060235
 30
0.0
 11
25.1406422649
 21
24.0638060235
 31
0.0
  0
LINE
  5
517
330
77A
100
AcDbEntity
  8
0
  6
SLD-SOLID
 62
     7
100
AcDbLine
 10
25.1729115329
 20
23.9593685235
 30
0.0
 11
25.1729115329
 21
23.8812435235
 31
0.0
  0
LINE
  5
518
330
77A
100
AcDbEntity
  8
0
  6
SLD-SOLID
 62
     7
100
AcDbLine
 10
25.6635555786
 20
35.4845439268
 30
0.0
 11
25.1260555786
 21
35.4845439268
 31
0.0
  0
LINE
  5
519
330
77A
100
AcDbEntity
  8
0
  6
SLD-SOLID
 62
     7
100
AcDbLine
 10
25.6635555786
 20
35.4465439268
 30
0.0
 11
25.6635555786
 21
35.4845439268
 31
0.0
  0
LINE
  5
51A
330
77A
100
AcDbEntity
  8
0
  6
SLD-SOLID
 62
     7
100
AcDbLine
 10
25.6635555786
 20
35.4465439268
 30
0.0
 11
25.6631007506
 21
35.4465439268
 31
0.0
  0
LINE
  5
51B
330
77A
100
AcDbEntity
  8
0
  6
SLD-SOLID
 62
     7
100
AcDbLine
 10
20.7854376201
 20
21.6143233203
 30
0.0
 11
20.7854376201
 21
21.7162645334
 31
0.0
  0
ARC
  5
51C
330
77A
100
AcDbEntity
  8
0
  6
SLD-SOLID
 62
     7
100
AcDbCircle
 10
20.1214376201
 20
19.7264189268
 30
0.0
 40
0.0770000000000008
100
AcDbArc
 50
274.6182755935001
 51
307.4550044116999
  0
LINE
  5
51D
330
77A
100
AcDbEntity
  8
0
  6
SLD-SOLID
 62
     7
100
AcDbLine
 10
19.8948126201
 20
19.6496689268
 30
0.0
 11
19.8948126201
 21
19.6652939268
 31
0.0
  0
LINE
  5
51E
330
77A
100
AcDbEntity
  8
0
  6
SLD-SOLID
 62
     7
100
AcDbLine
 10
19.8323126201
 20
19.6549159794
 30
0.0
 11
19.8323126201
 21
19.6652939268
 31
0.0
  0
LINE
  5
51F
330
77A
100
AcDbEntity
  8
0
  6
SLD-SOLID
 62
     7
100
AcDbLine
 10
20.5354707506
 20
25.0000470632
 30
0.0
 11
20.5354707506
 21
24.8930407905
 31
0.0
  0
LINE
  5
520
330
77A
100
AcDbEntity
  8
0
  6
SLD-SOLID
 62
     7
100
AcDbLine
 10
20.5354707506
 20
23.6250470632
 30
0.0
 11
20.5354707506
 21
23.5180407905
 31
0.0
  0
LINE
  5
521
330
77A
100
AcDbEntity
  8
0
  6
SLD-SOLID
 62
     7
100
AcDbLine
 10
25.1633507506
 20
23.6195439268
 30
0.0
 11
25.1253507506
 21
23.6195439268
 31
0.0
  0
LINE
  5
522
330
77A
100
AcDbEntity
  8
0
  6
SLD-SOLID
 62
     7
100
AcDbLine
 10
25.1633507506
 20
23.6195439268
 30
0.0
 11
25.1633507506
 21
20.2016783742
 31
0.0
  0
LINE
  5
523
330
77A
100
AcDbEntity
  8
0
  6
SLD-SOLID
 62
     7
100
AcDbLine
 10
25.1253507506
 20
20.2016783742
 30
0.0
 11
25.1633507506
 21
20.2016783742
 31
0.0
  0
LINE
  5
524
330
77A
100
AcDbEntity
  8
0
  6
SLD-SOLID
 62
     7
100
AcDbLine
 10
25.1253507506
 20
23.6195439268
 30
0.0
 11
25.1253507506
 21
20.2016783742
 31
0.0
  0
ARC
  5
525
330
77A
100
AcDbEntity
  8
0
  6
SLD-SOLID
 62
     7
100
AcDbCircle
 10
25.2023507506
 20
23.6195439268
 30
0.0
 40
0.039000000000005
100
AcDbArc
 50
90.0
 51
180.0
  0
ARC
  5
526
330
77A
100
AcDbEntity
  8
0
  6
SLD-SOLID
 62
     7
100
AcDbCircle
 10
25.2023507506
 20
23.6195439268
 30
0.0
 40
0.0770000000000053
100
AcDbArc
 50
90.0
 51
180.0
  0
LINE
  5
527
330
77A
100
AcDbEntity
  8
0
  6
SLD-SOLID
 62
     7
100
AcDbLine
 10
25.1419490577
 20
20.1116689268
 30
0.0
 11
25.1607270392
 21
20.1817493078
 31
0.0
  0
ARC
  5
528
330
77A
100
AcDbEntity
  8
0
  6
SLD-SOLID
 62
     7
100
AcDbCircle
 10
25.0863507506
 20
20.2016783742
 30
0.0
 40
0.0769999999999996
100
AcDbArc
 50
345.0
 51
0.0
  0
LINE
  5
529
330
77A
100
AcDbEntity
  8
0
  6
SLD-SOLID
 62
     7
100
AcDbLine
 10
25.6633507506
 20
23.6965439268
 30
0.0
 11
25.6633507506
 21
23.6585439268
 31
0.0
  0
LINE
  5
52A
330
77A
100
AcDbEntity
  8
0
  6
SLD-SOLID
 62
     7
100
AcDbLine
 10
25.6633507506
 20
23.6585439268
 30
0.0
 11
25.2023507506
 21
23.6585439268
 31
0.0
  0
LINE
  5
52B
330
77A
100
AcDbEntity
  8
0
  6
SLD-SOLID
 62
     7
100
AcDbLine
 10
25.6631007506
 20
23.6965439268
 30
0.0
 11
25.6633507506
 21
23.6965439268
 31
0.0
  0
LINE
  5
52C
330
77A
100
AcDbEntity
  8
0
  6
SLD-SOLID
 62
     7
100
AcDbLine
 10
19.8128507506
 20
37.0001689268
 30
0.0
 11
19.8128507506
 21
37.4231689268
 31
0.0
  0
LINE
  5
52D
330
77A
100
AcDbEntity
  8
0
  6
SLD-SOLID
 62
     7
100
AcDbLine
 10
19.7748507506
 20
37.0001689268
 30
0.0
 11
19.7748507506
 21
37.4231689268
 31
0.0
  0
LINE
  5
52E
330
77A
100
AcDbEntity
  8
0
  6
SLD-SOLID
 62
     7
100
AcDbLine
 10
19.7748507506
 20
37.0001689268
 30
0.0
 11
19.8128507506
 21
37.0001689268
 31
0.0
  0
LINE
  5
52F
330
77A
100
AcDbEntity
  8
0
  6
SLD-SOLID
 62
     7
100
AcDbLine
 10
25.0863507506
 20
37.5001689268
 30
0.0
 11
19.8518507506
 21
37.5001689268
 31
0.0
  0
LINE
  5
530
330
77A
100
AcDbEntity
  8
0
  6
SLD-SOLID
 62
     7
100
AcDbLine
 10
25.0863507506
 20
37.4621689268
 30
0.0
 11
19.8518507506
 21
37.4621689268
 31
0.0
  0
ARC
  5
531
330
77A
100
AcDbEntity
  8
0
  6
SLD-SOLID
 62
     7
100
AcDbCircle
 10
19.8518507506
 20
37.4231689268
 30
0.0
 40
0.0769999999999982
100
AcDbArc
 50
90.0
 51
180.0
  0
ARC
  5
532
330
77A
100
AcDbEntity
  8
0
  6
SLD-SOLID
 62
     7
100
AcDbCircle
 10
19.8518507506
 20
37.4231689268
 30
0.0
 40
0.0390000000000015
100
AcDbArc
 50
90.0
 51
180.0
  0
ARC
  5
533
330
77A
100
AcDbEntity
  8
0
  6
SLD-SOLID
 62
     7
100
AcDbCircle
 10
25.0863507506
 20
37.4231689268
 30
0.0
 40
0.0769999999999982
100
AcDbArc
 50
0.0
 51
90.0
  0
ARC
  5
534
330
77A
100
AcDbEntity
  8
0
  6
SLD-SOLID
 62
     7
100
AcDbCircle
 10
25.0863507506
 20
37.4231689268
 30
0.0
 40
0.0390000000000015
100
AcDbArc
 50
0.0
 51
90.0
  0
LINE
  5
535
330
77A
100
AcDbEntity
  8
0
  6
SLD-SOLID
 62
     7
100
AcDbLine
 10
25.1633507506
 20
37.4231689268
 30
0.0
 11
25.1633507506
 21
37.0001689268
 31
0.0
  0
LINE
  5
536
330
77A
100
AcDbEntity
  8
0
  6
SLD-SOLID
 62
     7
100
AcDbLine
 10
25.1633507506
 20
37.0001689268
 30
0.0
 11
25.1253507506
 21
37.0001689268
 31
0.0
  0
LINE
  5
537
330
77A
100
AcDbEntity
  8
0
  6
SLD-SOLID
 62
     7
100
AcDbLine
 10
25.1253507506
 20
37.4231689268
 30
0.0
 11
25.1253507506
 21
37.0001689268
 31
0.0
  0
LINE
  5
538
330
77A
100
AcDbEntity
  8
0
  6
SLD-SOLID
 62
     7
100
AcDbLine
 10
19.8313557506
 20
37.4465439268
 30
0.0
 11
19.8313557506
 21
19.6652939268
 31
0.0
  0
LINE
  5
539
330
77A
100
AcDbEntity
  8
0
  6
SLD-SOLID
 62
     7
100
AcDbLine
 10
19.8313557506
 20
37.4465439268
 30
0.0
 11
19.9083557506
 21
37.4465439268
 31
0.0
  0
LINE
  5
53A
330
77A
100
AcDbEntity
  8
0
  6
SLD-SOLID
 62
     7
100
AcDbLine
 10
19.9083557506
 20
19.6652939268
 30
0.0
 11
19.8313557506
 21
19.6652939268
 31
0.0
  0
CIRCLE
  5
53B
330
77A
100
AcDbEntity
  8
0
  6
SLD-SOLID
 62
     7
100
AcDbCircle
 10
24.4378507506
 20
36.9465439268
 30
0.0
 40
0.0640000000000001
  0
CIRCLE
  5
53C
330
77A
100
AcDbEntity
  8
0
  6
SLD-SOLID
 62
     7
100
AcDbCircle
 10
24.4378507506
 20
35.5715439268
 30
0.0
 40
0.0640000000000001
  0
CIRCLE
  5
53D
330
77A
100
AcDbEntity
  8
0
  6
SLD-SOLID
 62
     7
100
AcDbCircle
 10
23.9378507506
 20
36.9465439268
 30
0.0
 40
0.0640000000000001
  0
CIRCLE
  5
53E
330
77A
100
AcDbEntity
  8
0
  6
SLD-SOLID
 62
     7
100
AcDbCircle
 10
23.9378507506
 20
35.5715439268
 30
0.0
 40
0.0640000000000001
  0
CIRCLE
  5
53F
330
77A
100
AcDbEntity
  8
0
  6
SLD-SOLID
 62
     7
100
AcDbCircle
 10
23.4378507506
 20
36.9465439268
 30
0.0
 40
0.0640000000000036
  0
CIRCLE
  5
540
330
77A
100
AcDbEntity
  8
0
  6
SLD-SOLID
 62
     7
100
AcDbCircle
 10
23.4378507506
 20
35.5715439268
 30
0.0
 40
0.0640000000000036
  0
CIRCLE
  5
541
330
77A
100
AcDbEntity
  8
0
  6
SLD-SOLID
 62
     7
100
AcDbCircle
 10
22.9378507506
 20
36.9465439268
 30
0.0
 40
0.0640000000000001
  0
CIRCLE
  5
542
330
77A
100
AcDbEntity
  8
0
  6
SLD-SOLID
 62
     7
100
AcDbCircle
 10
22.9378507506
 20
35.5715439268
 30
0.0
 40
0.0640000000000001
  0
CIRCLE
  5
543
330
77A
100
AcDbEntity
  8
0
  6
SLD-SOLID
 62
     7
100
AcDbCircle
 10
22.4378507506
 20
36.9465439268
 30
0.0
 40
0.0640000000000001
  0
CIRCLE
  5
544
330
77A
100
AcDbEntity
  8
0
  6
SLD-SOLID
 62
     7
100
AcDbCircle
 10
22.4378507506
 20
35.5715439268
 30
0.0
 40
0.0640000000000001
  0
CIRCLE
  5
545
330
77A
100
AcDbEntity
  8
0
  6
SLD-SOLID
 62
     7
100
AcDbCircle
 10
21.9378507506
 20
36.9465439268
 30
0.0
 40
0.0640000000000001
  0
CIRCLE
  5
546
330
77A
100
AcDbEntity
  8
0
  6
SLD-SOLID
 62
     7
100
AcDbCircle
 10
21.9378507506
 20
35.5715439268
 30
0.0
 40
0.0640000000000001
  0
CIRCLE
  5
547
330
77A
100
AcDbEntity
  8
0
  6
SLD-SOLID
 62
     7
100
AcDbCircle
 10
21.4378507506
 20
36.9465439268
 30
0.0
 40
0.0640000000000001
  0
CIRCLE
  5
548
330
77A
100
AcDbEntity
  8
0
  6
SLD-SOLID
 62
     7
100
AcDbCircle
 10
21.4378507506
 20
35.5715439268
 30
0.0
 40
0.0640000000000001
  0
CIRCLE
  5
549
330
77A
100
AcDbEntity
  8
0
  6
SLD-SOLID
 62
     7
100
AcDbCircle
 10
20.9378507506
 20
36.9465439268
 30
0.0
 40
0.0639999999999965
  0
CIRCLE
  5
54A
330
77A
100
AcDbEntity
  8
0
  6
SLD-SOLID
 62
     7
100
AcDbCircle
 10
20.9378507506
 20
35.5715439268
 30
0.0
 40
0.0639999999999965
  0
CIRCLE
  5
54B
330
77A
100
AcDbEntity
  8
0
  6
SLD-SOLID
 62
     7
100
AcDbCircle
 10
24.4378507506
 20
24.9465439268
 30
0.0
 40
0.0639999999999965
  0
CIRCLE
  5
54C
330
77A
100
AcDbEntity
  8
0
  6
SLD-SOLID
 62
     7
100
AcDbCircle
 10
24.4378507506
 20
23.5715439268
 30
0.0
 40
0.0639999999999965
  0
CIRCLE
  5
54D
330
77A
100
AcDbEntity
  8
0
  6
SLD-SOLID
 62
     7
100
AcDbCircle
 10
23.9378507506
 20
24.9465439268
 30
0.0
 40
0.0640000000000001
  0
CIRCLE
  5
54E
330
77A
100
AcDbEntity
  8
0
  6
SLD-SOLID
 62
     7
100
AcDbCircle
 10
23.9378507506
 20
23.5715439268
 30
0.0
 40
0.0640000000000001
  0
CIRCLE
  5
54F
330
77A
100
AcDbEntity
  8
0
  6
SLD-SOLID
 62
     7
100
AcDbCircle
 10
23.4378507506
 20
24.9465439268
 30
0.0
 40
0.0640000000000001
  0
CIRCLE
  5
550
330
77A
100
AcDbEntity
  8
0
  6
SLD-SOLID
 62
     7
100
AcDbCircle
 10
23.4378507506
 20
23.5715439268
 30
0.0
 40
0.0640000000000001
  0
CIRCLE
  5
551
330
77A
100
AcDbEntity
  8
0
  6
SLD-SOLID
 62
     7
100
AcDbCircle
 10
22.9378507506
 20
24.9465439268
 30
0.0
 40
0.0640000000000001
  0
CIRCLE
  5
552
330
77A
100
AcDbEntity
  8
0
  6
SLD-SOLID
 62
     7
100
AcDbCircle
 10
22.9378507506
 20
23.5715439268
 30
0.0
 40
0.0640000000000001
  0
CIRCLE
  5
553
330
77A
100
AcDbEntity
  8
0
  6
SLD-SOLID
 62
     7
100
AcDbCircle
 10
22.4378507506
 20
24.9465439268
 30
0.0
 40
0.0640000000000001
  0
CIRCLE
  5
554
330
77A
100
AcDbEntity
  8
0
  6
SLD-SOLID
 62
     7
100
AcDbCircle
 10
22.4378507506
 20
23.5715439268
 30
0.0
 40
0.0640000000000001
  0
CIRCLE
  5
555
330
77A
100
AcDbEntity
  8
0
  6
SLD-SOLID
 62
     7
100
AcDbCircle
 10
21.9378507506
 20
24.9465439268
 30
0.0
 40
0.0640000000000001
  0
CIRCLE
  5
556
330
77A
100
AcDbEntity
  8
0
  6
SLD-SOLID
 62
     7
100
AcDbCircle
 10
21.9378507506
 20
23.5715439268
 30
0.0
 40
0.0640000000000001
  0
CIRCLE
  5
557
330
77A
100
AcDbEntity
  8
0
  6
SLD-SOLID
 62
     7
100
AcDbCircle
 10
21.4378507506
 20
24.9465439268
 30
0.0
 40
0.0640000000000001
  0
CIRCLE
  5
558
330
77A
100
AcDbEntity
  8
0
  6
SLD-SOLID
 62
     7
100
AcDbCircle
 10
21.4378507506
 20
23.5715439268
 30
0.0
 40
0.0640000000000001
  0
CIRCLE
  5
559
330
77A
100
AcDbEntity
  8
0
  6
SLD-SOLID
 62
     7
100
AcDbCircle
 10
20.9378507506
 20
24.9465439268
 30
0.0
 40
0.0640000000000001
  0
CIRCLE
  5
55A
330
77A
100
AcDbEntity
  8
0
  6
SLD-SOLID
 62
     7
100
AcDbCircle
 10
20.9378507506
 20
23.5715439268
 30
0.0
 40
0.0640000000000001
  0
CIRCLE
  5
55B
330
77A
100
AcDbEntity
  8
0
  6
SLD-SOLID
 62
     7
100
AcDbCircle
 10
20.5003507506
 20
36.9465439268
 30
0.0
 40
0.0640000000000001
  0
CIRCLE
  5
55C
330
77A
100
AcDbEntity
  8
0
  6
SLD-SOLID
 62
     7
100
AcDbCircle
 10
20.5003507506
 20
35.5715439268
 30
0.0
 40
0.0640000000000001
  0
CIRCLE
  5
55D
330
77A
100
AcDbEntity
  8
0
  6
SLD-SOLID
 62
     7
100
AcDbCircle
 10
20.5003507506
 20
24.9465439268
 30
0.0
 40
0.0640000000000001
  0
CIRCLE
  5
55E
330
77A
100
AcDbEntity
  8
0
  6
SLD-SOLID
 62
     7
100
AcDbCircle
 10
20.5003507506
 20
23.5715439268
 30
0.0
 40
0.0640000000000001
  0
LINE
  5
55F
330
77A
100
AcDbEntity
  8
0
  6
SLD-SOLID
 62
     7
100
AcDbLine
 10
21.4083557506
 20
22.2902939268
 30
0.0
 11
22.4083557506
 21
22.2902939268
 31
0.0
  0
ARC
  5
560
330
77A
100
AcDbEntity
  8
0
  6
SLD-SOLID
 62
     7
100
AcDbCircle
 10
21.4083557506
 20
21.6652939268
 30
0.0
 40
0.6250000000000036
100
AcDbArc
 50
90.0
 51
270.0
  0
LINE
  5
561
330
77A
100
AcDbEntity
  8
0
  6
SLD-SOLID
 62
     7
100
AcDbLine
 10
22.4083557506
 20
21.0402939268
 30
0.0
 11
21.4083557506
 21
21.0402939268
 31
0.0
  0
ARC
  5
562
330
77A
100
AcDbEntity
  8
0
  6
SLD-SOLID
 62
     7
100
AcDbCircle
 10
22.4083557506
 20
21.6652939268
 30
0.0
 40
0.6250000000000036
100
AcDbArc
 50
270.0
 51
90.0
  0
LINE
  5
563
330
77A
100
AcDbEntity
  8
0
  6
SLD-SOLID
 62
     7
100
AcDbLine
 10
19.9083557506
 20
19.6652939268
 30
0.0
 11
25.0483507506
 21
19.6652939268
 31
0.0
  0
LINE
  5
564
330
77A
100
AcDbEntity
  8
0
  6
SLD-SOLID
 62
     7
100
AcDbLine
 10
19.9083557506
 20
37.4465439268
 30
0.0
 11
25.0483507506
 21
37.4465439268
 31
0.0
  0
LINE
  5
565
330
77A
100
AcDbEntity
  8
0
  6
SLD-SOLID
 62
     7
100
AcDbLine
 10
25.0483507506
 20
37.4465439268
 30
0.0
 11
25.1175694849
 21
37.4465439268
 31
0.0
  0
LINE
  5
566
330
77A
100
AcDbEntity
  8
0
  6
SLD-SOLID
 62
     7
100
AcDbLine
 10
25.1253507506
 20
37.0001689268
 30
0.0
 11
25.1253507506
 21
23.6195439268
 31
0.0
  0
LINE
  5
567
330
77A
100
AcDbEntity
  8
0
  6
SLD-SOLID
 62
     7
100
AcDbLine
 10
25.1253507506
 20
20.2016783742
 30
0.0
 11
25.1253507506
 21
20.1116689268
 31
0.0
  0
LINE
  5
568
330
77A
100
AcDbEntity
  8
0
  6
SLD-SOLID
 62
     7
100
AcDbLine
 10
25.1175694849
 20
19.6652939268
 30
0.0
 11
25.0483507506
 21
19.6652939268
 31
0.0
  0
LINE
  5
569
330
77A
100
AcDbEntity
  8
0
  6
SLD-SOLID
 62
     7
100
AcDbLine
 10
25.1643507506
 20
23.6965439268
 30
0.0
 11
25.1253507506
 21
23.6965439268
 31
0.0
  0
LINE
  5
56A
330
77A
100
AcDbEntity
  8
0
  6
SLD-SOLID
 62
     7
100
AcDbLine
 10
25.1253507506
 20
35.4465439268
 30
0.0
 11
25.1643507506
 21
35.4465439268
 31
0.0
  0
LINE
  5
56B
330
77A
100
AcDbEntity
  8
0
  6
SLD-SOLID
 62
     7
100
AcDbLine
 10
25.6631007506
 20
35.4465439268
 30
0.0
 11
25.1643507506
 21
35.4465439268
 31
0.0
  0
LINE
  5
56C
330
77A
100
AcDbEntity
  8
0
  6
SLD-SOLID
 62
     7
100
AcDbLine
 10
25.6631007506
 20
35.4465439268
 30
0.0
 11
25.6631007506
 21
23.6965439268
 31
0.0
  0
LINE
  5
56D
330
77A
100
AcDbEntity
  8
0
  6
SLD-SOLID
 62
     7
100
AcDbLine
 10
25.1643507506
 20
23.6965439268
 30
0.0
 11
25.6631007506
 21
23.6965439268
 31
0.0
  0
ARC
  5
56E
330
77A
100
AcDbEntity
  8
0
  6
SLD-SOLID
 62
     7
100
AcDbCircle
 10
21.3313557506
 20
22.1652939268
 30
0.0
 40
0.4374999999999999
100
AcDbArc
 50
196.115345877
 51
259.4281932896001
  0
LINE
  5
56F
330
77A
100
AcDbEntity
  8
0
  6
SLD-SOLID
 62
     7
100
AcDbLine
 10
19.8518507506
 20
19.6496689268
 30
0.0
 11
25.0863507506
 21
19.6496689268
 31
0.0
  0
LINE
  5
570
330
77A
100
AcDbEntity
  8
0
  6
SLD-SOLID
 62
     7
100
AcDbLine
 10
19.8518507506
 20
19.6116689268
 30
0.0
 11
25.0863507506
 21
19.6116689268
 31
0.0
  0
LINE
  5
571
330
77A
100
AcDbEntity
  8
0
  6
SLD-SOLID
 62
     7
100
AcDbLine
 10
19.8128507506
 20
20.1116689268
 30
0.0
 11
19.7748507506
 21
20.1116689268
 31
0.0
  0
LINE
  5
572
330
77A
100
AcDbEntity
  8
0
  6
SLD-SOLID
 62
     7
100
AcDbLine
 10
19.8128507506
 20
20.1116689268
 30
0.0
 11
19.8128507506
 21
19.6886689268
 31
0.0
  0
LINE
  5
573
330
77A
100
AcDbEntity
  8
0
  6
SLD-SOLID
 62
     7
100
AcDbLine
 10
19.7748507506
 20
20.1116689268
 30
0.0
 11
19.7748507506
 21
19.6886689268
 31
0.0
  0
ARC
  5
574
330
77A
100
AcDbEntity
  8
0
  6
SLD-SOLID
 62
     7
100
AcDbCircle
 10
19.8518507506
 20
19.6886689268
 30
0.0
 40
0.0389999999999979
100
AcDbArc
 50
180.0
 51
270.0
  0
ARC
  5
575
330
77A
100
AcDbEntity
  8
0
  6
SLD-SOLID
 62
     7
100
AcDbCircle
 10
19.8518507506
 20
19.6886689268
 30
0.0
 40
0.0769999999999982
100
AcDbArc
 50
180.0
 51
270.0
  0
ARC
  5
576
330
77A
100
AcDbEntity
  8
0
  6
SLD-SOLID
 62
     7
100
AcDbCircle
 10
25.0863507506
 20
19.6886689268
 30
0.0
 40
0.0769999999999982
100
AcDbArc
 50
270.0
 51
0.0
  0
ARC
  5
577
330
77A
100
AcDbEntity
  8
0
  6
SLD-SOLID
 62
     7
100
AcDbCircle
 10
25.0863507506
 20
19.6886689268
 30
0.0
 40
0.0389999999999979
100
AcDbArc
 50
270.0
 51
0.0
  0
LINE
  5
578
330
77A
100
AcDbEntity
  8
0
  6
SLD-SOLID
 62
     7
100
AcDbLine
 10
25.1633507506
 20
19.6886689268
 30
0.0
 11
25.1633507506
 21
20.1116689268
 31
0.0
  0
LINE
  5
579
330
77A
100
AcDbEntity
  8
0
  6
SLD-SOLID
 62
     7
100
AcDbLine
 10
25.1253507506
 20
19.6886689268
 30
0.0
 11
25.1253507506
 21
20.1116689268
 31
0.0
  0
LINE
  5
57A
330
77A
100
AcDbEntity
  8
0
  6
SLD-SOLID
 62
     7
100
AcDbLine
 10
25.1633507506
 20
20.1116689268
 30
0.0
 11
25.1253507506
 21
20.1116689268
 31
0.0
  0
ARC
  5
57B
330
77A
100
AcDbEntity
  8
0
  6
SLD-SOLID
 62
     7
100
AcDbCircle
 10
20.5925876926
 20
19.5916689268
 30
0.0
 40
0.0900000000000013
100
AcDbArc
 50
125.1093815653
 51
139.8759654065
  0
ARC
  5
57C
330
77A
100
AcDbEntity
  8
0
  6
SLD-SOLID
 62
     7
100
AcDbCircle
 10
20.4501096241
 20
19.7016689268
 30
0.0
 40
0.0520000000000023
100
AcDbArc
 50
270.0
 51
315.6115554662
  0
ARC
  5
57D
330
77A
100
AcDbEntity
  8
0
  6
SLD-SOLID
 62
     7
100
AcDbCircle
 10
21.6755918771
 20
19.7016689268
 30
0.0
 40
0.0520000000000023
100
AcDbArc
 50
224.3884445338
 51
270.0
  0
ARC
  5
57E
330
77A
100
AcDbEntity
  8
0
  6
SLD-SOLID
 62
     7
100
AcDbCircle
 10
21.5331138086
 20
19.5916689268
 30
0.0
 40
0.0899999999999991
100
AcDbArc
 50
40.12403459349999
 51
54.8906184347
  0
LINE
  5
57F
330
77A
100
AcDbEntity
  8
0
  6
SLD-SOLID
 62
     7
100
AcDbLine
 10
39.1262347802
 20
61.772345066
 30
0.0
 11
39.1094879556
 21
61.709845066
 31
0.0
  0
LINE
  5
580
330
77A
100
AcDbEntity
  8
0
  6
SLD-SOLID
 62
     7
100
AcDbLine
 10
39.1094879556
 20
61.397345066
 30
0.0
 11
39.1262347802
 21
61.334845066
 31
0.0
  0
LINE
  5
581
330
77A
100
AcDbEntity
  8
0
  6
SLD-SOLID
 62
     7
100
AcDbLine
 10
39.1574847802
 20
61.772345066
 30
0.0
 11
39.1262347802
 21
61.772345066
 31
0.0
  0
LINE
  5
582
330
77A
100
AcDbEntity
  8
0
  6
SLD-SOLID
 62
     7
100
AcDbLine
 10
39.1262347802
 20
61.334845066
 30
0.0
 11
39.1574847802
 21
61.334845066
 31
0.0
  0
LINE
  5
583
330
77A
100
AcDbEntity
  8
0
  6
SLD-SOLID
 62
     7
100
AcDbLine
 10
38.9856097802
 20
61.709845066
 30
0.0
 11
38.9699847802
 21
61.694220066
 31
0.0
  0
LINE
  5
584
330
77A
100
AcDbEntity
  8
0
  6
SLD-SOLID
 62
     7
100
AcDbLine
 10
38.9699847802
 20
61.412970066
 30
0.0
 11
38.9856097802
 21
61.397345066
 31
0.0
  0
LINE
  5
585
330
77A
100
AcDbEntity
  8
0
  6
SLD-SOLID
 62
     7
100
AcDbLine
 10
69.0147347802
 20
57.8707434509
 30
0.0
 11
69.0314816047
 21
57.9332434509
 31
0.0
  0
LINE
  5
586
330
77A
100
AcDbEntity
  8
0
  6
SLD-SOLID
 62
     7
100
AcDbLine
 10
69.0286680279
 20
58.2562438626
 30
0.0
 11
69.0147347802
 21
58.3082434509
 31
0.0
  0
LINE
  5
587
330
77A
100
AcDbEntity
  8
0
  6
SLD-SOLID
 62
     7
100
AcDbLine
 10
68.9834847802
 20
57.8707434509
 30
0.0
 11
69.0147347802
 21
57.8707434509
 31
0.0
  0
LINE
  5
588
330
77A
100
AcDbEntity
  8
0
  6
SLD-SOLID
 62
     7
100
AcDbLine
 10
69.0147347802
 20
58.3082434509
 30
0.0
 11
68.9834847802
 21
58.3082434509
 31
0.0
  0
LINE
  5
589
330
77A
100
AcDbEntity
  8
0
  6
SLD-SOLID
 62
     7
100
AcDbLine
 10
69.1530920926
 20
57.9309757633
 30
0.0
 11
69.1709847802
 21
57.9488684509
 31
0.0
  0
LINE
  5
58A
330
77A
100
AcDbEntity
  8
0
  6
SLD-SOLID
 62
     7
100
AcDbLine
 10
69.1709847802
 20
58.2301184509
 30
0.0
 11
69.1530920926
 21
58.2480111384
 31
0.0
  0
LINE
  5
58B
330
77A
100
AcDbEntity
  8
0
  6
SLD-SOLID
 62
     7
100
AcDbLine
 10
39.1574847802
 20
62.4461534171
 30
0.0
 11
39.1262347802
 21
62.4461534171
 31
0.0
  0
LINE
  5
58C
330
77A
100
AcDbEntity
  8
0
  6
SLD-SOLID
 62
     7
100
AcDbLine
 10
39.1262347802
 20
62.0086534171
 30
0.0
 11
39.1574847802
 21
62.0086534171
 31
0.0
  0
LINE
  5
58D
330
77A
100
AcDbEntity
  8
0
  6
SLD-SOLID
 62
     7
100
AcDbLine
 10
39.1262347802
 20
62.4461534171
 30
0.0
 11
39.1094879556
 21
62.3836534171
 31
0.0
  0
LINE
  5
58E
330
77A
100
AcDbEntity
  8
0
  6
SLD-SOLID
 62
     7
100
AcDbLine
 10
39.1094879556
 20
62.0711534171
 30
0.0
 11
39.1262347802
 21
62.0086534171
 31
0.0
  0
LINE
  5
58F
330
77A
100
AcDbEntity
  8
0
  6
SLD-SOLID
 62
     7
100
AcDbLine
 10
38.9856097802
 20
62.3836534171
 30
0.0
 11
38.9699847802
 21
62.3680284171
 31
0.0
  0
LINE
  5
590
330
77A
100
AcDbEntity
  8
0
  6
SLD-SOLID
 62
     7
100
AcDbLine
 10
38.9699847802
 20
62.0867784171
 30
0.0
 11
38.9856097802
 21
62.0711534171
 31
0.0
  0
LINE
  5
591
330
77A
100
AcDbEntity
  8
0
  6
SLD-SOLID
 62
     7
100
AcDbLine
 10
68.9834847802
 20
61.334845066
 30
0.0
 11
69.0147347802
 21
61.334845066
 31
0.0
  0
LINE
  5
592
330
77A
100
AcDbEntity
  8
0
  6
SLD-SOLID
 62
     7
100
AcDbLine
 10
69.0147347802
 20
61.772345066
 30
0.0
 11
68.9834847802
 21
61.772345066
 31
0.0
  0
LINE
  5
593
330
77A
100
AcDbEntity
  8
0
  6
SLD-SOLID
 62
     7
100
AcDbLine
 10
69.0147347802
 20
61.334845066
 30
0.0
 11
69.0314816047
 21
61.397345066
 31
0.0
  0
LINE
  5
594
330
77A
100
AcDbEntity
  8
0
  6
SLD-SOLID
 62
     7
100
AcDbLine
 10
69.0286680279
 20
61.7203454777
 30
0.0
 11
69.0147347802
 21
61.772345066
 31
0.0
  0
LINE
  5
595
330
77A
100
AcDbEntity
  8
0
  6
SLD-SOLID
 62
     7
100
AcDbLine
 10
69.1530920926
 20
61.3950773785
 30
0.0
 11
69.1709847802
 21
61.412970066
 31
0.0
  0
LINE
  5
596
330
77A
100
AcDbEntity
  8
0
  6
SLD-SOLID
 62
     7
100
AcDbLine
 10
69.1709847802
 20
61.694220066
 30
0.0
 11
69.1530920926
 21
61.7121127535
 31
0.0
  0
LINE
  5
597
330
77A
100
AcDbEntity
  8
0
  6
SLD-SOLID
 62
     7
100
AcDbLine
 10
69.0147347802
 20
62.0086534171
 30
0.0
 11
69.0314816047
 21
62.0711534171
 31
0.0
  0
LINE
  5
598
330
77A
100
AcDbEntity
  8
0
  6
SLD-SOLID
 62
     7
100
AcDbLine
 10
69.0286680279
 20
62.3941538288
 30
0.0
 11
69.0147347802
 21
62.4461534171
 31
0.0
  0
LINE
  5
599
330
77A
100
AcDbEntity
  8
0
  6
SLD-SOLID
 62
     7
100
AcDbLine
 10
68.9834847802
 20
62.0086534171
 30
0.0
 11
69.0147347802
 21
62.0086534171
 31
0.0
  0
LINE
  5
59A
330
77A
100
AcDbEntity
  8
0
  6
SLD-SOLID
 62
     7
100
AcDbLine
 10
69.0147347802
 20
62.4461534171
 30
0.0
 11
68.9834847802
 21
62.4461534171
 31
0.0
  0
LINE
  5
59B
330
77A
100
AcDbEntity
  8
0
  6
SLD-SOLID
 62
     7
100
AcDbLine
 10
69.1530920926
 20
62.0688857296
 30
0.0
 11
69.1709847802
 21
62.0867784171
 31
0.0
  0
LINE
  5
59C
330
77A
100
AcDbEntity
  8
0
  6
SLD-SOLID
 62
     7
100
AcDbLine
 10
69.1709847802
 20
62.3680284171
 30
0.0
 11
69.1530920926
 21
62.3859211046
 31
0.0
  0
LINE
  5
59D
330
77A
100
AcDbEntity
  8
0
  6
SLD-SOLID
 62
     7
100
AcDbLine
 10
39.1574847802
 20
58.3082434509
 30
0.0
 11
39.1262347802
 21
58.3082434509
 31
0.0
  0
LINE
  5
59E
330
77A
100
AcDbEntity
  8
0
  6
SLD-SOLID
 62
     7
100
AcDbLine
 10
39.1262347802
 20
57.8707434509
 30
0.0
 11
39.1574847802
 21
57.8707434509
 31
0.0
  0
LINE
  5
59F
330
77A
100
AcDbEntity
  8
0
  6
SLD-SOLID
 62
     7
100
AcDbLine
 10
39.1262347802
 20
58.3082434509
 30
0.0
 11
39.1094879556
 21
58.2457434509
 31
0.0
  0
LINE
  5
5A0
330
77A
100
AcDbEntity
  8
0
  6
SLD-SOLID
 62
     7
100
AcDbLine
 10
39.1094879556
 20
57.9332434509
 30
0.0
 11
39.1262347802
 21
57.8707434509
 31
0.0
  0
LINE
  5
5A1
330
77A
100
AcDbEntity
  8
0
  6
SLD-SOLID
 62
     7
100
AcDbLine
 10
38.9856097802
 20
58.2457434509
 30
0.0
 11
38.9699847802
 21
58.2301184509
 31
0.0
  0
LINE
  5
5A2
330
77A
100
AcDbEntity
  8
0
  6
SLD-SOLID
 62
     7
100
AcDbLine
 10
38.9699847802
 20
57.9488684509
 30
0.0
 11
38.9856097802
 21
57.9332434509
 31
0.0
  0
ARC
  5
5A3
330
77A
100
AcDbEntity
  8
0
  6
SLD-SOLID
 62
     7
100
AcDbCircle
 10
39.4611097802
 20
57.8634902866
 30
0.0
 40
0.3139999999999976
100
AcDbArc
 50
242.8058979431
 51
262.8537266220999
  0
ARC
  5
5A4
330
77A
100
AcDbEntity
  8
0
  6
SLD-SOLID
 62
     7
100
AcDbCircle
 10
39.4611097802
 20
57.8634902866
 30
0.0
 40
0.3139999999999976
100
AcDbArc
 50
277.1462733778999
 51
297.1941020569
  0
LINE
  5
5A5
330
77A
100
AcDbEntity
  8
0
  6
SLD-SOLID
 62
     7
100
AcDbLine
 10
39.3176097802
 20
57.5994902866
 30
0.0
 11
39.3176097802
 21
57.5841987723
 31
0.0
  0
LINE
  5
5A6
330
77A
100
AcDbEntity
  8
0
  6
SLD-SOLID
 62
     7
100
AcDbLine
 10
39.6046097802
 20
57.5841987723
 30
0.0
 11
39.6046097802
 21
57.5994902866
 31
0.0
  0
ARC
  5
5A7
330
77A
100
AcDbEntity
  8
0
  6
SLD-SOLID
 62
     7
100
AcDbCircle
 10
39.4611097802
 20
62.7239902866
 30
0.0
 40
0.3140000000000039
100
AcDbArc
 50
97.14627337790002
 51
117.1941020569
  0
ARC
  5
5A8
330
77A
100
AcDbEntity
  8
0
  6
SLD-SOLID
 62
     7
100
AcDbCircle
 10
39.4611097802
 20
62.7239902866
 30
0.0
 40
0.3140000000000039
100
AcDbArc
 50
62.8058979431
 51
82.85372662209998
  0
LINE
  5
5A9
330
77A
100
AcDbEntity
  8
0
  6
SLD-SOLID
 62
     7
100
AcDbLine
 10
39.6046097802
 20
62.9879902866
 30
0.0
 11
39.6046097802
 21
63.003281801
 31
0.0
  0
LINE
  5
5AA
330
77A
100
AcDbEntity
  8
0
  6
SLD-SOLID
 62
     7
100
AcDbLine
 10
39.3176097802
 20
63.003281801
 30
0.0
 11
39.3176097802
 21
62.9879902866
 31
0.0
  0
ARC
  5
5AB
330
77A
100
AcDbEntity
  8
0
  6
SLD-SOLID
 62
     7
100
AcDbCircle
 10
68.6798597802
 20
57.8634902866
 30
0.0
 40
0.3139999999999914
100
AcDbArc
 50
242.8058979431
 51
262.8537266220999
  0
ARC
  5
5AC
330
77A
100
AcDbEntity
  8
0
  6
SLD-SOLID
 62
     7
100
AcDbCircle
 10
68.6798597802
 20
57.8634902866
 30
0.0
 40
0.3139999999999976
100
AcDbArc
 50
277.1462733778999
 51
297.1941020569
  0
LINE
  5
5AD
330
77A
100
AcDbEntity
  8
0
  6
SLD-SOLID
 62
     7
100
AcDbLine
 10
68.5363597802
 20
57.5994902866
 30
0.0
 11
68.5363597802
 21
57.5841987723
 31
0.0
  0
LINE
  5
5AE
330
77A
100
AcDbEntity
  8
0
  6
SLD-SOLID
 62
     7
100
AcDbLine
 10
68.8233597802
 20
57.5841987723
 30
0.0
 11
68.8233597802
 21
57.5994902866
 31
0.0
  0
ARC
  5
5AF
330
77A
100
AcDbEntity
  8
0
  6
SLD-SOLID
 62
     7
100
AcDbCircle
 10
68.6798597802
 20
62.7239902866
 30
0.0
 40
0.3140000000000039
100
AcDbArc
 50
97.14627337790002
 51
117.1941020569
  0
ARC
  5
5B0
330
77A
100
AcDbEntity
  8
0
  6
SLD-SOLID
 62
     7
100
AcDbCircle
 10
68.6798597802
 20
62.7239902866
 30
0.0
 40
0.3140000000000039
100
AcDbArc
 50
62.8058979431
 51
82.85372662209998
  0
LINE
  5
5B1
330
77A
100
AcDbEntity
  8
0
  6
SLD-SOLID
 62
     7
100
AcDbLine
 10
68.8233597802
 20
62.9879902866
 30
0.0
 11
68.8233597802
 21
63.003281801
 31
0.0
  0
LINE
  5
5B2
330
77A
100
AcDbEntity
  8
0
  6
SLD-SOLID
 62
     7
100
AcDbLine
 10
68.5363597802
 20
63.003281801
 30
0.0
 11
68.5363597802
 21
62.9879902866
 31
0.0
  0
LINE
  5
5B3
330
77A
100
AcDbEntity
  8
0
  6
SLD-SOLID
 62
     7
100
AcDbLine
 10
52.6094847802
 20
57.5994902866
 30
0.0
 11
52.6094847802
 21
57.6374902866
 31
0.0
  0
LINE
  5
5B4
330
77A
100
AcDbEntity
  8
0
  6
SLD-SOLID
 62
     7
100
AcDbLine
 10
55.5314847802
 20
57.6374902866
 30
0.0
 11
52.6094847802
 21
57.6374902866
 31
0.0
  0
LINE
  5
5B5
330
77A
100
AcDbEntity
  8
0
  6
SLD-SOLID
 62
     7
100
AcDbLine
 10
55.5314847802
 20
57.5994902866
 30
0.0
 11
52.6094847802
 21
57.5994902866
 31
0.0
  0
LINE
  5
5B6
330
77A
100
AcDbEntity
  8
0
  6
SLD-SOLID
 62
     7
100
AcDbLine
 10
55.5314847802
 20
57.5994902866
 30
0.0
 11
55.5314847802
 21
57.6374902866
 31
0.0
  0
LINE
  5
5B7
330
77A
100
AcDbEntity
  8
0
  6
SLD-SOLID
 62
     7
100
AcDbLine
 10
55.6084847802
 20
58.3874902866
 30
0.0
 11
55.6084847802
 21
57.6764902866
 31
0.0
  0
LINE
  5
5B8
330
77A
100
AcDbEntity
  8
0
  6
SLD-SOLID
 62
     7
100
AcDbLine
 10
55.5704847802
 20
58.3874902866
 30
0.0
 11
55.5704847802
 21
57.6764902866
 31
0.0
  0
LINE
  5
5B9
330
77A
100
AcDbEntity
  8
0
  6
SLD-SOLID
 62
     7
100
AcDbLine
 10
55.6084847802
 20
58.3874902866
 30
0.0
 11
55.5704847802
 21
58.3874902866
 31
0.0
  0
ARC
  5
5BA
330
77A
100
AcDbEntity
  8
0
  6
SLD-SOLID
 62
     7
100
AcDbCircle
 10
55.5314847802
 20
57.6764902866
 30
0.0
 40
0.0390000000000015
100
AcDbArc
 50
270.0
 51
0.0
  0
ARC
  5
5BB
330
77A
100
AcDbEntity
  8
0
  6
SLD-SOLID
 62
     7
100
AcDbCircle
 10
55.5314847802
 20
57.6764902866
 30
0.0
 40
0.0769999999999982
100
AcDbArc
 50
270.0
 51
0.0
  0
ARC
  5
5BC
330
77A
100
AcDbEntity
  8
0
  6
SLD-SOLID
 62
     7
100
AcDbCircle
 10
52.6094847802
 20
57.6764902866
 30
0.0
 40
0.0770000000000053
100
AcDbArc
 50
180.0
 51
270.0
  0
ARC
  5
5BD
330
77A
100
AcDbEntity
  8
0
  6
SLD-SOLID
 62
     7
100
AcDbCircle
 10
52.6094847802
 20
57.6764902866
 30
0.0
 40
0.0390000000000086
100
AcDbArc
 50
180.0
 51
270.0
  0
LINE
  5
5BE
330
77A
100
AcDbEntity
  8
0
  6
SLD-SOLID
 62
     7
100
AcDbLine
 10
52.5324847802
 20
57.6764902866
 30
0.0
 11
52.5324847802
 21
58.3874902866
 31
0.0
  0
LINE
  5
5BF
330
77A
100
AcDbEntity
  8
0
  6
SLD-SOLID
 62
     7
100
AcDbLine
 10
52.5704847802
 20
57.6764902866
 30
0.0
 11
52.5704847802
 21
58.3874902866
 31
0.0
  0
LINE
  5
5C0
330
77A
100
AcDbEntity
  8
0
  6
SLD-SOLID
 62
     7
100
AcDbLine
 10
52.5324847802
 20
58.3874902866
 30
0.0
 11
52.5704847802
 21
58.3874902866
 31
0.0
  0
LINE
  5
5C1
330
77A
100
AcDbEntity
  8
0
  6
SLD-SOLID
 62
     7
100
AcDbLine
 10
55.6474847802
 20
58.3874902866
 30
0.0
 11
55.6084847802
 21
58.3874902866
 31
0.0
  0
LINE
  5
5C2
330
77A
100
AcDbEntity
  8
0
  6
SLD-SOLID
 62
     7
100
AcDbLine
 10
55.6084847802
 20
58.2934902866
 30
0.0
 11
55.6474847802
 21
58.2934902866
 31
0.0
  0
LINE
  5
5C3
330
77A
100
AcDbEntity
  8
0
  6
SLD-SOLID
 62
     7
100
AcDbLine
 10
52.4934847802
 20
58.2934902866
 30
0.0
 11
52.5324847802
 21
58.2934902866
 31
0.0
  0
LINE
  5
5C4
330
77A
100
AcDbEntity
  8
0
  6
SLD-SOLID
 62
     7
100
AcDbLine
 10
52.5324847802
 20
58.3874902866
 30
0.0
 11
52.4934847802
 21
58.3874902866
 31
0.0
  0
LINE
  5
5C5
330
77A
100
AcDbEntity
  8
0
  6
SLD-SOLID
 62
     7
100
AcDbLine
 10
55.6084847802
 20
57.6764902866
 30
0.0
 11
55.6474847802
 21
57.6764902866
 31
0.0
  0
LINE
  5
5C6
330
77A
100
AcDbEntity
  8
0
  6
SLD-SOLID
 62
     7
100
AcDbLine
 10
55.6474847802
 20
57.7934902866
 30
0.0
 11
55.6084847802
 21
57.7934902866
 31
0.0
  0
LINE
  5
5C7
330
77A
100
AcDbEntity
  8
0
  6
SLD-SOLID
 62
     7
100
AcDbLine
 10
52.5324847802
 20
57.7934902866
 30
0.0
 11
52.4934847802
 21
57.7934902866
 31
0.0
  0
LINE
  5
5C8
330
77A
100
AcDbEntity
  8
0
  6
SLD-SOLID
 62
     7
100
AcDbLine
 10
52.4934847802
 20
57.6764902866
 30
0.0
 11
52.5324847802
 21
57.6764902866
 31
0.0
  0
LINE
  5
5C9
330
77A
100
AcDbEntity
  8
0
  6
SLD-SOLID
 62
     7
100
AcDbLine
 10
55.6474847802
 20
58.3874902866
 30
0.0
 11
56.3584847802
 21
58.3874902866
 31
0.0
  0
LINE
  5
5CA
330
77A
100
AcDbEntity
  8
0
  6
SLD-SOLID
 62
     7
100
AcDbLine
 10
56.3584847802
 20
58.3874902866
 30
0.0
 11
56.3584847802
 21
57.6764902866
 31
0.0
  0
LINE
  5
5CB
330
77A
100
AcDbEntity
  8
0
  6
SLD-SOLID
 62
     7
100
AcDbLine
 10
56.3584847802
 20
57.6764902866
 30
0.0
 11
55.6474847802
 21
57.6764902866
 31
0.0
  0
LINE
  5
5CC
330
77A
100
AcDbEntity
  8
0
  6
SLD-SOLID
 62
     7
100
AcDbLine
 10
55.6474847802
 20
57.7934902866
 30
0.0
 11
55.6507352297
 21
57.7934902866
 31
0.0
  0
LINE
  5
5CD
330
77A
100
AcDbEntity
  8
0
  6
SLD-SOLID
 62
     7
100
AcDbLine
 10
55.6507352297
 20
57.7934902866
 30
0.0
 11
55.6507352297
 21
58.2934902866
 31
0.0
  0
LINE
  5
5CE
330
77A
100
AcDbEntity
  8
0
  6
SLD-SOLID
 62
     7
100
AcDbLine
 10
55.6507352297
 20
58.2934902866
 30
0.0
 11
55.6474847802
 21
58.2934902866
 31
0.0
  0
CIRCLE
  5
5CF
330
77A
100
AcDbEntity
  8
0
  6
SLD-SOLID
 62
     7
100
AcDbCircle
 10
56.1584847802
 20
57.9744902866
 30
0.0
 40
0.1299999999999955
  0
LINE
  5
5D0
330
77A
100
AcDbEntity
  8
0
  6
SLD-SOLID
 62
     7
100
AcDbLine
 10
52.4934847802
 20
57.6764902866
 30
0.0
 11
51.7824847802
 21
57.6764902866
 31
0.0
  0
LINE
  5
5D1
330
77A
100
AcDbEntity
  8
0
  6
SLD-SOLID
 62
     7
100
AcDbLine
 10
51.7824847802
 20
57.6764902866
 30
0.0
 11
51.7824847802
 21
58.3874902866
 31
0.0
  0
LINE
  5
5D2
330
77A
100
AcDbEntity
  8
0
  6
SLD-SOLID
 62
     7
100
AcDbLine
 10
51.7824847802
 20
58.3874902866
 30
0.0
 11
52.4934847802
 21
58.3874902866
 31
0.0
  0
LINE
  5
5D3
330
77A
100
AcDbEntity
  8
0
  6
SLD-SOLID
 62
     7
100
AcDbLine
 10
52.4934847802
 20
58.2934902866
 30
0.0
 11
52.4902343307
 21
58.2934902866
 31
0.0
  0
LINE
  5
5D4
330
77A
100
AcDbEntity
  8
0
  6
SLD-SOLID
 62
     7
100
AcDbLine
 10
52.4902343307
 20
57.7934902866
 30
0.0
 11
52.4934847802
 21
57.7934902866
 31
0.0
  0
CIRCLE
  5
5D5
330
77A
100
AcDbEntity
  8
0
  6
SLD-SOLID
 62
     7
100
AcDbCircle
 10
51.9824847802
 20
57.9744902866
 30
0.0
 40
0.1300000000000026
  0
LINE
  5
5D6
330
77A
100
AcDbEntity
  8
0
  6
SLD-SOLID
 62
     7
100
AcDbLine
 10
52.4902343307
 20
58.2934902866
 30
0.0
 11
52.4902343307
 21
57.7934902866
 31
0.0
  0
LINE
  5
5D7
330
77A
100
AcDbEntity
  8
0
  6
SLD-SOLID
 62
     7
100
AcDbLine
 10
39.1159648126
 20
61.397345066
 30
0.0
 11
39.1159648126
 21
61.553595066
 31
0.0
  0
LINE
  5
5D8
330
77A
100
AcDbEntity
  8
0
  6
SLD-SOLID
 62
     7
100
AcDbLine
 10
39.1159648126
 20
61.553595066
 30
0.0
 11
39.1159648126
 21
61.709845066
 31
0.0
  0
LINE
  5
5D9
330
77A
100
AcDbEntity
  8
0
  6
SLD-SOLID
 62
     7
100
AcDbLine
 10
39.1262347802
 20
61.772345066
 30
0.0
 11
39.1262347802
 21
61.334845066
 31
0.0
  0
LINE
  5
5DA
330
77A
100
AcDbEntity
  8
0
  6
SLD-SOLID
 62
     7
100
AcDbLine
 10
38.9869340972
 20
61.709845066
 30
0.0
 11
39.0097817393
 21
61.709845066
 31
0.0
  0
ARC
  5
5DB
330
77A
100
AcDbEntity
  8
0
  6
SLD-SOLID
 62
     7
100
AcDbCircle
 10
39.1271390771
 20
61.631720066
 30
0.0
 40
0.1409831917718218
100
AcDbArc
 50
146.3482191814
 51
213.6517808186
  0
ARC
  5
5DC
330
77A
100
AcDbEntity
  8
0
  6
SLD-SOLID
 62
     7
100
AcDbCircle
 10
39.1271390771
 20
61.475470066
 30
0.0
 40
0.1409831917716878
100
AcDbArc
 50
146.3482191814
 51
213.6517808186
  0
LINE
  5
5DD
330
77A
100
AcDbEntity
  8
0
  6
SLD-SOLID
 62
     7
100
AcDbLine
 10
39.0097817393
 20
61.397345066
 30
0.0
 11
38.9869340972
 21
61.397345066
 31
0.0
  0
LINE
  5
5DE
330
77A
100
AcDbEntity
  8
0
  6
SLD-SOLID
 62
     7
100
AcDbLine
 10
38.9699847802
 20
61.694220066
 30
0.0
 11
38.9699847802
 21
61.412970066
 31
0.0
  0
LINE
  5
5DF
330
77A
100
AcDbEntity
  8
0
  6
SLD-SOLID
 62
     7
100
AcDbLine
 10
39.0097817393
 20
61.709845066
 30
0.0
 11
39.1159648126
 21
61.709845066
 31
0.0
  0
LINE
  5
5E0
330
77A
100
AcDbEntity
  8
0
  6
SLD-SOLID
 62
     7
100
AcDbLine
 10
39.0097817393
 20
61.553595066
 30
0.0
 11
39.1159648126
 21
61.553595066
 31
0.0
  0
LINE
  5
5E1
330
77A
100
AcDbEntity
  8
0
  6
SLD-SOLID
 62
     7
100
AcDbLine
 10
39.0097817393
 20
61.397345066
 30
0.0
 11
39.1159648126
 21
61.397345066
 31
0.0
  0
LINE
  5
5E2
330
77A
100
AcDbEntity
  8
0
  6
SLD-SOLID
 62
     7
100
AcDbLine
 10
69.0250047478
 20
58.2562438626
 30
0.0
 11
69.0250047478
 21
58.1132047007
 31
0.0
  0
LWPOLYLINE
  5
5E3
330
77A
100
AcDbEntity
  8
0
  6
SLD-SOLID
 62
     7
100
AcDbPolyline
 90
        3
 70
   128
 43
0.0
 10
69.0250047478
 20
58.1132047007
 10
69.0277545761
 20
57.9675544536
 10
69.0250047478
 20
57.946454289
  0
LINE
  5
5E4
330
77A
100
AcDbEntity
  8
0
  6
SLD-SOLID
 62
     7
100
AcDbLine
 10
69.0250047478
 20
57.946454289
 30
0.0
 11
69.0250047478
 21
57.9318495638
 31
0.0
  0
LINE
  5
5E5
330
77A
100
AcDbEntity
  8
0
  6
SLD-SOLID
 62
     7
100
AcDbLine
 10
69.0147347802
 20
58.0059639124
 30
0.0
 11
69.0147347802
 21
58.3082434509
 31
0.0
  0
LINE
  5
5E6
330
77A
100
AcDbEntity
  8
0
  6
SLD-SOLID
 62
     7
100
AcDbLine
 10
69.0147347802
 20
57.8707434509
 30
0.0
 11
69.0147347802
 21
58.0059639124
 31
0.0
  0
ARC
  5
5E7
330
77A
100
AcDbEntity
  8
0
  6
SLD-SOLID
 62
     7
100
AcDbCircle
 10
69.0344985104
 20
58.1847242816
 30
0.0
 40
0.1202658440792347
100
AcDbArc
 50
323.5102425153
 51
36.4897574847
  0
LINE
  5
5E8
330
77A
100
AcDbEntity
  8
0
  6
SLD-SOLID
 62
     7
100
AcDbLine
 10
69.131187821
 20
58.1132047007
 30
0.0
 11
69.0250047478
 21
58.1132047007
 31
0.0
  0
LINE
  5
5E9
330
77A
100
AcDbEntity
  8
0
  6
SLD-SOLID
 62
     7
100
AcDbLine
 10
69.131187821
 20
58.2562438626
 30
0.0
 11
69.0250047478
 21
58.2562438626
 31
0.0
  0
LWPOLYLINE
  5
5EA
330
77A
100
AcDbEntity
  8
0
  6
SLD-SOLID
 62
     7
100
AcDbPolyline
 90
        4
 70
   128
 43
0.0
 10
69.131187821
 20
57.9227430392
 10
69.1549495765
 20
57.9331097327
 10
69.1484755091
 20
57.940761077
 10
69.131187821
 20
57.946454289
  0
ARC
  5
5EB
330
77A
100
AcDbEntity
  8
0
  6
SLD-SOLID
 62
     7
100
AcDbCircle
 10
68.9905804356
 20
58.0298294948
 30
0.0
 40
0.1634682287062063
100
AcDbArc
 50
329.3335586208
 51
30.66644137920001
  0
LINE
  5
5EC
330
77A
100
AcDbEntity
  8
0
  6
SLD-SOLID
 62
     7
100
AcDbLine
 10
69.131187821
 20
58.2562438626
 30
0.0
 11
69.1521705479
 21
58.2470895937
 31
0.0
  0
LINE
  5
5ED
330
77A
100
AcDbEntity
  8
0
  6
SLD-SOLID
 62
     7
100
AcDbLine
 10
69.1709847802
 20
57.9488684509
 30
0.0
 11
69.1709847802
 21
58.2301184509
 31
0.0
  0
LINE
  5
5EE
330
77A
100
AcDbEntity
  8
0
  6
SLD-SOLID
 62
     7
100
AcDbLine
 10
69.131187821
 20
57.946454289
 30
0.0
 11
69.0250047478
 21
57.946454289
 31
0.0
  0
LINE
  5
5EF
330
77A
100
AcDbEntity
  8
0
  6
SLD-SOLID
 62
     7
100
AcDbLine
 10
69.131187821
 20
57.9227430392
 30
0.0
 11
69.0286680279
 21
57.9227430392
 31
0.0
  0
LINE
  5
5F0
330
77A
100
AcDbEntity
  8
0
  6
SLD-SOLID
 62
     7
100
AcDbLine
 10
39.1262347802
 20
62.4461534171
 30
0.0
 11
39.1262347802
 21
62.0086534171
 31
0.0
  0
LINE
  5
5F1
330
77A
100
AcDbEntity
  8
0
  6
SLD-SOLID
 62
     7
100
AcDbLine
 10
39.1159648126
 20
62.0711534171
 30
0.0
 11
39.1159648126
 21
62.2274034171
 31
0.0
  0
LINE
  5
5F2
330
77A
100
AcDbEntity
  8
0
  6
SLD-SOLID
 62
     7
100
AcDbLine
 10
39.1159648126
 20
62.2274034171
 30
0.0
 11
39.1159648126
 21
62.3836534171
 31
0.0
  0
ARC
  5
5F3
330
77A
100
AcDbEntity
  8
0
  6
SLD-SOLID
 62
     7
100
AcDbCircle
 10
39.1271390771
 20
62.3055284171
 30
0.0
 40
0.1409831917718238
100
AcDbArc
 50
146.3482191814
 51
213.6517808186
  0
LINE
  5
5F4
330
77A
100
AcDbEntity
  8
0
  6
SLD-SOLID
 62
     7
100
AcDbLine
 10
39.0097817393
 20
62.3836534171
 30
0.0
 11
39.1159648126
 21
62.3836534171
 31
0.0
  0
LINE
  5
5F5
330
77A
100
AcDbEntity
  8
0
  6
SLD-SOLID
 62
     7
100
AcDbLine
 10
39.0097817393
 20
62.2274034171
 30
0.0
 11
39.1159648126
 21
62.2274034171
 31
0.0
  0
LINE
  5
5F6
330
77A
100
AcDbEntity
  8
0
  6
SLD-SOLID
 62
     7
100
AcDbLine
 10
38.9869340972
 20
62.3836534171
 30
0.0
 11
39.0097817393
 21
62.3836534171
 31
0.0
  0
ARC
  5
5F7
330
77A
100
AcDbEntity
  8
0
  6
SLD-SOLID
 62
     7
100
AcDbCircle
 10
39.1271390771
 20
62.1492784171
 30
0.0
 40
0.1409831917716956
100
AcDbArc
 50
146.3482191814
 51
213.6517808186
  0
LINE
  5
5F8
330
77A
100
AcDbEntity
  8
0
  6
SLD-SOLID
 62
     7
100
AcDbLine
 10
39.0097817393
 20
62.0711534171
 30
0.0
 11
38.9869340972
 21
62.0711534171
 31
0.0
  0
LINE
  5
5F9
330
77A
100
AcDbEntity
  8
0
  6
SLD-SOLID
 62
     7
100
AcDbLine
 10
38.9699847802
 20
62.3680284171
 30
0.0
 11
38.9699847802
 21
62.0867784171
 31
0.0
  0
LINE
  5
5FA
330
77A
100
AcDbEntity
  8
0
  6
SLD-SOLID
 62
     7
100
AcDbLine
 10
39.0097817393
 20
62.0711534171
 30
0.0
 11
39.1159648126
 21
62.0711534171
 31
0.0
  0
LINE
  5
5FB
330
77A
100
AcDbEntity
  8
0
  6
SLD-SOLID
 62
     7
100
AcDbLine
 10
69.0147347802
 20
61.4700655275
 30
0.0
 11
69.0147347802
 21
61.772345066
 31
0.0
  0
LINE
  5
5FC
330
77A
100
AcDbEntity
  8
0
  6
SLD-SOLID
 62
     7
100
AcDbLine
 10
69.0147347802
 20
61.334845066
 30
0.0
 11
69.0147347802
 21
61.4700655275
 31
0.0
  0
LINE
  5
5FD
330
77A
100
AcDbEntity
  8
0
  6
SLD-SOLID
 62
     7
100
AcDbLine
 10
69.0250047478
 20
61.7203454777
 30
0.0
 11
69.0250047478
 21
61.5773063158
 31
0.0
  0
LWPOLYLINE
  5
5FE
330
77A
100
AcDbEntity
  8
0
  6
SLD-SOLID
 62
     7
100
AcDbPolyline
 90
        3
 70
   128
 43
0.0
 10
69.0250047478
 20
61.5773063158
 10
69.0277545761
 20
61.4316560688
 10
69.0250047478
 20
61.4105559041
  0
LINE
  5
5FF
330
77A
100
AcDbEntity
  8
0
  6
SLD-SOLID
 62
     7
100
AcDbLine
 10
69.0250047478
 20
61.4105559041
 30
0.0
 11
69.0250047478
 21
61.395951179
 31
0.0
  0
LWPOLYLINE
  5
600
330
77A
100
AcDbEntity
  8
0
  6
SLD-SOLID
 62
     7
100
AcDbPolyline
 90
        4
 70
   128
 43
0.0
 10
69.131187821
 20
61.3868446543
 10
69.1549495765
 20
61.3972113478
 10
69.1484755091
 20
61.4048626921
 10
69.131187821
 20
61.4105559041
  0
ARC
  5
601
330
77A
100
AcDbEntity
  8
0
  6
SLD-SOLID
 62
     7
100
AcDbCircle
 10
68.9905804356
 20
61.49393111
 30
0.0
 40
0.1634682287061012
100
AcDbArc
 50
329.3335586208
 51
30.66644137920001
  0
ARC
  5
602
330
77A
100
AcDbEntity
  8
0
  6
SLD-SOLID
 62
     7
100
AcDbCircle
 10
69.0344985104
 20
61.6488258967
 30
0.0
 40
0.1202658440792389
100
AcDbArc
 50
323.5102425153
 51
36.4897574847
  0
LINE
  5
603
330
77A
100
AcDbEntity
  8
0
  6
SLD-SOLID
 62
     7
100
AcDbLine
 10
69.131187821
 20
61.7203454777
 30
0.0
 11
69.1521705479
 21
61.7111912088
 31
0.0
  0
LINE
  5
604
330
77A
100
AcDbEntity
  8
0
  6
SLD-SOLID
 62
     7
100
AcDbLine
 10
69.1709847802
 20
61.412970066
 30
0.0
 11
69.1709847802
 21
61.694220066
 31
0.0
  0
LINE
  5
605
330
77A
100
AcDbEntity
  8
0
  6
SLD-SOLID
 62
     7
100
AcDbLine
 10
69.131187821
 20
61.5773063158
 30
0.0
 11
69.0250047478
 21
61.5773063158
 31
0.0
  0
LINE
  5
606
330
77A
100
AcDbEntity
  8
0
  6
SLD-SOLID
 62
     7
100
AcDbLine
 10
69.131187821
 20
61.7203454777
 30
0.0
 11
69.0250047478
 21
61.7203454777
 31
0.0
  0
LINE
  5
607
330
77A
100
AcDbEntity
  8
0
  6
SLD-SOLID
 62
     7
100
AcDbLine
 10
69.131187821
 20
61.4105559041
 30
0.0
 11
69.0250047478
 21
61.4105559041
 31
0.0
  0
LINE
  5
608
330
77A
100
AcDbEntity
  8
0
  6
SLD-SOLID
 62
     7
100
AcDbLine
 10
69.131187821
 20
61.3868446543
 30
0.0
 11
69.0286680279
 21
61.3868446543
 31
0.0
  0
LINE
  5
609
330
77A
100
AcDbEntity
  8
0
  6
SLD-SOLID
 62
     7
100
AcDbLine
 10
69.0250047478
 20
62.3941538288
 30
0.0
 11
69.0250047478
 21
62.2511146669
 31
0.0
  0
LWPOLYLINE
  5
60A
330
77A
100
AcDbEntity
  8
0
  6
SLD-SOLID
 62
     7
100
AcDbPolyline
 90
        3
 70
   128
 43
0.0
 10
69.0250047478
 20
62.2511146669
 10
69.0277545761
 20
62.1054644199
 10
69.0250047478
 20
62.0843642552
  0
LINE
  5
60B
330
77A
100
AcDbEntity
  8
0
  6
SLD-SOLID
 62
     7
100
AcDbLine
 10
69.0250047478
 20
62.0843642552
 30
0.0
 11
69.0250047478
 21
62.06975953
 31
0.0
  0
LINE
  5
60C
330
77A
100
AcDbEntity
  8
0
  6
SLD-SOLID
 62
     7
100
AcDbLine
 10
69.0147347802
 20
62.1438738786
 30
0.0
 11
69.0147347802
 21
62.4461534171
 31
0.0
  0
LINE
  5
60D
330
77A
100
AcDbEntity
  8
0
  6
SLD-SOLID
 62
     7
100
AcDbLine
 10
69.0147347802
 20
62.0086534171
 30
0.0
 11
69.0147347802
 21
62.1438738786
 31
0.0
  0
ARC
  5
60E
330
77A
100
AcDbEntity
  8
0
  6
SLD-SOLID
 62
     7
100
AcDbCircle
 10
69.0344985104
 20
62.3226342478
 30
0.0
 40
0.1202658440792203
100
AcDbArc
 50
323.5102425153
 51
36.4897574847
  0
LINE
  5
60F
330
77A
100
AcDbEntity
  8
0
  6
SLD-SOLID
 62
     7
100
AcDbLine
 10
69.131187821
 20
62.2511146669
 30
0.0
 11
69.0250047478
 21
62.2511146669
 31
0.0
  0
LINE
  5
610
330
77A
100
AcDbEntity
  8
0
  6
SLD-SOLID
 62
     7
100
AcDbLine
 10
69.131187821
 20
62.3941538288
 30
0.0
 11
69.0250047478
 21
62.3941538288
 31
0.0
  0
LWPOLYLINE
  5
611
330
77A
100
AcDbEntity
  8
0
  6
SLD-SOLID
 62
     7
100
AcDbPolyline
 90
        4
 70
   128
 43
0.0
 10
69.131187821
 20
62.0606530054
 10
69.1549495765
 20
62.0710196989
 10
69.1484755091
 20
62.0786710432
 10
69.131187821
 20
62.0843642552
  0
ARC
  5
612
330
77A
100
AcDbEntity
  8
0
  6
SLD-SOLID
 62
     7
100
AcDbCircle
 10
68.9905804356
 20
62.1677394611
 30
0.0
 40
0.1634682287062221
100
AcDbArc
 50
329.3335586208
 51
30.66644137920001
  0
LINE
  5
613
330
77A
100
AcDbEntity
  8
0
  6
SLD-SOLID
 62
     7
100
AcDbLine
 10
69.131187821
 20
62.3941538288
 30
0.0
 11
69.1521705479
 21
62.3849995599
 31
0.0
  0
LINE
  5
614
330
77A
100
AcDbEntity
  8
0
  6
SLD-SOLID
 62
     7
100
AcDbLine
 10
69.1709847802
 20
62.0867784171
 30
0.0
 11
69.1709847802
 21
62.3680284171
 31
0.0
  0
LINE
  5
615
330
77A
100
AcDbEntity
  8
0
  6
SLD-SOLID
 62
     7
100
AcDbLine
 10
69.131187821
 20
62.0843642552
 30
0.0
 11
69.0250047478
 21
62.0843642552
 31
0.0
  0
LINE
  5
616
330
77A
100
AcDbEntity
  8
0
  6
SLD-SOLID
 62
     7
100
AcDbLine
 10
69.131187821
 20
62.0606530054
 30
0.0
 11
69.0286680279
 21
62.0606530054
 31
0.0
  0
LINE
  5
617
330
77A
100
AcDbEntity
  8
0
  6
SLD-SOLID
 62
     7
100
AcDbLine
 10
39.1262347802
 20
58.3082434509
 30
0.0
 11
39.1262347802
 21
57.8707434509
 31
0.0
  0
LINE
  5
618
330
77A
100
AcDbEntity
  8
0
  6
SLD-SOLID
 62
     7
100
AcDbLine
 10
39.1159648126
 20
57.9332434509
 30
0.0
 11
39.1159648126
 21
58.0894934509
 31
0.0
  0
LINE
  5
619
330
77A
100
AcDbEntity
  8
0
  6
SLD-SOLID
 62
     7
100
AcDbLine
 10
39.1159648126
 20
58.0894934509
 30
0.0
 11
39.1159648126
 21
58.2457434509
 31
0.0
  0
ARC
  5
61A
330
77A
100
AcDbEntity
  8
0
  6
SLD-SOLID
 62
     7
100
AcDbCircle
 10
39.1271390771
 20
58.1676184509
 30
0.0
 40
0.1409831917718455
100
AcDbArc
 50
146.3482191814
 51
213.6517808186
  0
LINE
  5
61B
330
77A
100
AcDbEntity
  8
0
  6
SLD-SOLID
 62
     7
100
AcDbLine
 10
39.0097817393
 20
58.2457434509
 30
0.0
 11
39.1159648126
 21
58.2457434509
 31
0.0
  0
LINE
  5
61C
330
77A
100
AcDbEntity
  8
0
  6
SLD-SOLID
 62
     7
100
AcDbLine
 10
39.0097817393
 20
58.0894934509
 30
0.0
 11
39.1159648126
 21
58.0894934509
 31
0.0
  0
LINE
  5
61D
330
77A
100
AcDbEntity
  8
0
  6
SLD-SOLID
 62
     7
100
AcDbLine
 10
38.9869340972
 20
58.2457434509
 30
0.0
 11
39.0097817393
 21
58.2457434509
 31
0.0
  0
ARC
  5
61E
330
77A
100
AcDbEntity
  8
0
  6
SLD-SOLID
 62
     7
100
AcDbCircle
 10
39.1271390771
 20
58.0113684509
 30
0.0
 40
0.1409831917717075
100
AcDbArc
 50
146.3482191814
 51
213.6517808186
  0
LINE
  5
61F
330
77A
100
AcDbEntity
  8
0
  6
SLD-SOLID
 62
     7
100
AcDbLine
 10
39.0097817393
 20
57.9332434509
 30
0.0
 11
38.9869340972
 21
57.9332434509
 31
0.0
  0
LINE
  5
620
330
77A
100
AcDbEntity
  8
0
  6
SLD-SOLID
 62
     7
100
AcDbLine
 10
38.9699847802
 20
58.2301184509
 30
0.0
 11
38.9699847802
 21
57.9488684509
 31
0.0
  0
LINE
  5
621
330
77A
100
AcDbEntity
  8
0
  6
SLD-SOLID
 62
     7
100
AcDbLine
 10
39.0097817393
 20
57.9332434509
 30
0.0
 11
39.1159648126
 21
57.9332434509
 31
0.0
  0
LINE
  5
622
330
77A
100
AcDbEntity
  8
0
  6
SLD-SOLID
 62
     7
100
AcDbLine
 10
39.4611097802
 20
57.5841987723
 30
0.0
 11
39.6046097802
 21
57.5841987723
 31
0.0
  0
LINE
  5
623
330
77A
100
AcDbEntity
  8
0
  6
SLD-SOLID
 62
     7
100
AcDbLine
 10
39.3176097802
 20
57.5841987723
 30
0.0
 11
39.4611097802
 21
57.5841987723
 31
0.0
  0
LINE
  5
624
330
77A
100
AcDbEntity
  8
0
  6
SLD-SOLID
 62
     7
100
AcDbLine
 10
39.4611097802
 20
57.5519295043
 30
0.0
 11
39.4220472802
 21
57.5519295043
 31
0.0
  0
LINE
  5
625
330
77A
100
AcDbEntity
  8
0
  6
SLD-SOLID
 62
     7
100
AcDbLine
 10
39.5001722802
 20
57.5519295043
 30
0.0
 11
39.4611097802
 21
57.5519295043
 31
0.0
  0
LINE
  5
626
330
77A
100
AcDbEntity
  8
0
  6
SLD-SOLID
 62
     7
100
AcDbLine
 10
39.4061422475
 20
63.003281801
 30
0.0
 11
39.3176097802
 21
63.003281801
 31
0.0
  0
LINE
  5
627
330
77A
100
AcDbEntity
  8
0
  6
SLD-SOLID
 62
     7
100
AcDbLine
 10
39.6046097802
 20
63.003281801
 30
0.0
 11
39.4061422475
 21
63.003281801
 31
0.0
  0
LINE
  5
628
330
77A
100
AcDbEntity
  8
0
  6
SLD-SOLID
 62
     7
100
AcDbLine
 10
39.4461469283
 20
63.035551069
 30
0.0
 11
39.5001722802
 21
63.035551069
 31
0.0
  0
LINE
  5
629
330
77A
100
AcDbEntity
  8
0
  6
SLD-SOLID
 62
     7
100
AcDbLine
 10
39.4220472802
 20
63.035551069
 30
0.0
 11
39.4461469283
 21
63.035551069
 31
0.0
  0
LINE
  5
62A
330
77A
100
AcDbEntity
  8
0
  6
SLD-SOLID
 62
     7
100
AcDbLine
 10
68.6798597802
 20
57.5841987723
 30
0.0
 11
68.8233597802
 21
57.5841987723
 31
0.0
  0
LINE
  5
62B
330
77A
100
AcDbEntity
  8
0
  6
SLD-SOLID
 62
     7
100
AcDbLine
 10
68.5363597802
 20
57.5841987723
 30
0.0
 11
68.6798597802
 21
57.5841987723
 31
0.0
  0
LINE
  5
62C
330
77A
100
AcDbEntity
  8
0
  6
SLD-SOLID
 62
     7
100
AcDbLine
 10
68.6798597802
 20
57.5519295043
 30
0.0
 11
68.6407972802
 21
57.5519295043
 31
0.0
  0
LINE
  5
62D
330
77A
100
AcDbEntity
  8
0
  6
SLD-SOLID
 62
     7
100
AcDbLine
 10
68.7189222802
 20
57.5519295043
 30
0.0
 11
68.6798597802
 21
57.5519295043
 31
0.0
  0
LINE
  5
62E
330
77A
100
AcDbEntity
  8
0
  6
SLD-SOLID
 62
     7
100
AcDbLine
 10
68.6248922475
 20
63.003281801
 30
0.0
 11
68.5363597802
 21
63.003281801
 31
0.0
  0
LINE
  5
62F
330
77A
100
AcDbEntity
  8
0
  6
SLD-SOLID
 62
     7
100
AcDbLine
 10
68.8233597802
 20
63.003281801
 30
0.0
 11
68.6248922475
 21
63.003281801
 31
0.0
  0
LINE
  5
630
330
77A
100
AcDbEntity
  8
0
  6
SLD-SOLID
 62
     7
100
AcDbLine
 10
68.6648969283
 20
63.035551069
 30
0.0
 11
68.7189222802
 21
63.035551069
 31
0.0
  0
LINE
  5
631
330
77A
100
AcDbEntity
  8
0
  6
SLD-SOLID
 62
     7
100
AcDbLine
 10
68.6407972802
 20
63.035551069
 30
0.0
 11
68.6648969283
 21
63.035551069
 31
0.0
  0
LINE
  5
632
330
77A
100
AcDbEntity
  8
0
  6
SLD-SOLID
 62
     7
100
AcDbLine
 10
56.2209803258
 20
57.9882854587
 30
0.0
 11
56.0959892345
 21
57.9882854587
 31
0.0
  0
LINE
  5
633
330
77A
100
AcDbEntity
  8
0
  6
SLD-SOLID
 62
     7
100
AcDbLine
 10
52.0449803258
 20
57.9882854587
 30
0.0
 11
51.9199892345
 21
57.9882854587
 31
0.0
  0
LINE
  5
634
330
77A
100
AcDbEntity
  8
0
  6
SLD-SOLID
 62
     7
100
AcDbLine
 10
68.2579847802
 20
57.0992854587
 30
0.0
 11
39.8829847802
 21
57.0992854587
 31
0.0
  0
LINE
  5
635
330
77A
100
AcDbEntity
  8
0
  6
SLD-SOLID
 62
     7
100
AcDbLine
 10
39.8829847802
 20
57.0992854587
 30
0.0
 11
39.8829847802
 21
57.5994902866
 31
0.0
  0
LINE
  5
636
330
77A
100
AcDbEntity
  8
0
  6
SLD-SOLID
 62
     7
100
AcDbLine
 10
68.2579847802
 20
57.5994902866
 30
0.0
 11
68.2579847802
 21
57.0992854587
 31
0.0
  0
LINE
  5
637
330
77A
100
AcDbEntity
  8
0
  6
SLD-SOLID
 62
     7
100
AcDbLine
 10
56.2216030675
 20
62.6024034171
 30
0.0
 11
56.0953664928
 21
62.6024034171
 31
0.0
  0
LINE
  5
638
330
77A
100
AcDbEntity
  8
0
  6
SLD-SOLID
 62
     7
100
AcDbLine
 10
52.0456030675
 20
62.6024034171
 30
0.0
 11
51.9193664928
 21
62.6024034171
 31
0.0
  0
LINE
  5
639
330
77A
100
AcDbEntity
  8
0
  6
SLD-SOLID
 62
     7
100
AcDbLine
 10
68.9767347802
 20
62.9109902866
 30
0.0
 11
68.9767347802
 21
57.6764902866
 31
0.0
  0
LINE
  5
63A
330
77A
100
AcDbEntity
  8
0
  6
SLD-SOLID
 62
     7
100
AcDbLine
 10
39.1642347802
 20
57.6764902866
 30
0.0
 11
39.1642347802
 21
62.9109902866
 31
0.0
  0
CIRCLE
  5
63B
330
77A
100
AcDbEntity
  8
0
  6
SLD-SOLID
 62
     7
100
AcDbCircle
 10
56.1584847802
 20
57.9744902866
 30
0.0
 40
0.0640000000000001
  0
CIRCLE
  5
63C
330
77A
100
AcDbEntity
  8
0
  6
SLD-SOLID
 62
     7
100
AcDbCircle
 10
51.9824847802
 20
57.9744902866
 30
0.0
 40
0.0640000000000001
  0
CIRCLE
  5
63D
330
77A
100
AcDbEntity
  8
0
  6
SLD-SOLID
 62
     7
100
AcDbCircle
 10
51.9824847802
 20
62.6129902866
 30
0.0
 40
0.0640000000000072
  0
CIRCLE
  5
63E
330
77A
100
AcDbEntity
  8
0
  6
SLD-SOLID
 62
     7
100
AcDbCircle
 10
56.1584847802
 20
62.6129902866
 30
0.0
 40
0.0640000000000072
  0
LINE
  5
63F
330
77A
100
AcDbEntity
  8
0
  6
SLD-SOLID
 62
     7
100
AcDbLine
 10
68.9767347802
 20
62.9879902866
 30
0.0
 11
39.1642347802
 21
62.9879902866
 31
0.0
  0
LINE
  5
640
330
77A
100
AcDbEntity
  8
0
  6
SLD-SOLID
 62
     7
100
AcDbLine
 10
39.1642347802
 20
62.9109902866
 30
0.0
 11
39.1642347802
 21
62.9879902866
 31
0.0
  0
LINE
  5
641
330
77A
100
AcDbEntity
  8
0
  6
SLD-SOLID
 62
     7
100
AcDbLine
 10
68.9767347802
 20
62.9879902866
 30
0.0
 11
68.9767347802
 21
62.9109902866
 31
0.0
  0
LINE
  5
642
330
77A
100
AcDbEntity
  8
0
  6
SLD-SOLID
 62
     7
100
AcDbLine
 10
39.1642347802
 20
57.5994902866
 30
0.0
 11
52.6094847802
 21
57.5994902866
 31
0.0
  0
LINE
  5
643
330
77A
100
AcDbEntity
  8
0
  6
SLD-SOLID
 62
     7
100
AcDbLine
 10
55.5314847802
 20
57.5994902866
 30
0.0
 11
68.9767347802
 21
57.5994902866
 31
0.0
  0
LINE
  5
644
330
77A
100
AcDbEntity
  8
0
  6
SLD-SOLID
 62
     7
100
AcDbLine
 10
39.1642347802
 20
57.5994902866
 30
0.0
 11
39.1642347802
 21
57.6764902866
 31
0.0
  0
LINE
  5
645
330
77A
100
AcDbEntity
  8
0
  6
SLD-SOLID
 62
     7
100
AcDbLine
 10
68.9767347802
 20
57.6764902866
 30
0.0
 11
68.9767347802
 21
57.5994902866
 31
0.0
  0
ARC
  5
646
330
77A
100
AcDbEntity
  8
0
  6
SLD-SOLID
 62
     7
100
AcDbCircle
 10
39.2344847802
 20
62.8544852866
 30
0.0
 40
0.077000000000006
100
AcDbArc
 50
155.8304248475
 51
180.0
  0
LINE
  5
647
330
77A
100
AcDbEntity
  8
0
  6
SLD-SOLID
 62
     7
100
AcDbLine
 10
39.1574847802
 20
62.8544852866
 30
0.0
 11
39.1574847802
 21
57.7144902866
 31
0.0
  0
ARC
  5
648
330
77A
100
AcDbEntity
  8
0
  6
SLD-SOLID
 62
     7
100
AcDbCircle
 10
39.2344847802
 20
57.7144902866
 30
0.0
 40
0.0770000000000053
100
AcDbArc
 50
180.0
 51
204.1695751525
  0
LINE
  5
649
330
77A
100
AcDbEntity
  8
0
  6
SLD-SOLID
 62
     7
100
AcDbLine
 10
39.8605969575
 20
57.5994902866
 30
0.0
 11
39.8606097802
 21
57.5984902866
 31
0.0
  0
LINE
  5
64A
330
77A
100
AcDbEntity
  8
0
  6
SLD-SOLID
 62
     7
100
AcDbLine
 10
39.8829847802
 20
57.0997402866
 30
0.0
 11
39.8606097802
 21
57.0997402866
 31
0.0
  0
LINE
  5
64B
330
77A
100
AcDbEntity
  8
0
  6
SLD-SOLID
 62
     7
100
AcDbLine
 10
39.8606097802
 20
57.0997402866
 30
0.0
 11
39.8606097802
 21
57.5984902866
 31
0.0
  0
LINE
  5
64C
330
77A
100
AcDbEntity
  8
0
  6
SLD-SOLID
 62
     7
100
AcDbLine
 10
68.9834847802
 20
62.8544852866
 30
0.0
 11
68.9834847802
 21
57.7144902866
 31
0.0
  0
ARC
  5
64D
330
77A
100
AcDbEntity
  8
0
  6
SLD-SOLID
 62
     7
100
AcDbCircle
 10
68.9064847802
 20
62.8544852866
 30
0.0
 40
0.0770000000000124
100
AcDbArc
 50
0.0
 51
24.1695751524
  0
ARC
  5
64E
330
77A
100
AcDbEntity
  8
0
  6
SLD-SOLID
 62
     7
100
AcDbCircle
 10
68.9064847802
 20
57.7144902866
 30
0.0
 40
0.0770000000000128
100
AcDbArc
 50
335.8304248476
 51
0.0
  0
LINE
  5
64F
330
77A
100
AcDbEntity
  8
0
  6
SLD-SOLID
 62
     7
100
AcDbLine
 10
68.2803726028
 20
57.5994902866
 30
0.0
 11
68.2803597802
 21
57.5984902866
 31
0.0
  0
LINE
  5
650
330
77A
100
AcDbEntity
  8
0
  6
SLD-SOLID
 62
     7
100
AcDbLine
 10
68.2803597802
 20
57.0997402866
 30
0.0
 11
68.2803597802
 21
57.5984902866
 31
0.0
  0
LINE
  5
651
330
77A
100
AcDbEntity
  8
0
  6
SLD-SOLID
 62
     7
100
AcDbLine
 10
68.2579847802
 20
57.0997402866
 30
0.0
 11
68.2803597802
 21
57.0997402866
 31
0.0
  0
DIMENSION
  5
652
330
77A
100
AcDbEntity
  8
DIM
 62
     7
100
AcDbDimension
  2
_D_10
 10
69.1709847802
 20
68.7195941375
 30
0.0
 11
54.0704847802
 21
68.7195941375
 31
0.0
 70
   160
  1
<>
  3
SLDDIMSTYLE0
100
AcDbAlignedDimension
 13
38.9699847802
 23
62.3680284171
 33
0.0
 14
69.1709847802
 24
62.3680284171
 34
0.0
100
AcDbRotatedDimension
1001
ACAD
1000
DSTYLE
1002
{
1070
   270
1070
     5
1070
    41
1040
0.75
1070
   176
1070
   256
1070
   177
1070
   256
1070
   178
1070
   256
1070
    44
1040
1.0
1070
    42
1040
0.5
1070
   276
1070
     1
1070
   147
1040
0.25
1070
   277
1070
     5
1070
     3
1000
"
1070
    45
1040
0.0
1070
   272
1070
     3
1070
   340
1005
7F7
1070
   140
1040
1.0
1070
   284
1070
    12
1002
}
  0
ENDSEC
  0
SECTION
  2
OBJECTS
  0
DICTIONARY
  5
76A
330
0
100
AcDbDictionary
  3
ACAD_GROUP
350
76B
  3
ACAD_IMAGE_VARS
350
7EF
  3
ACAD_MLINESTYLE
350
774
  3
ACAD_SCALELIST
350
7AE
  3
APPDATA
350
7ED
  3
DWGPROPS
350
868
  0
DICTIONARY
  5
846
330
760
100
AcDbDictionary
280
     1
  3
ACAD_LAYERSTATES
360
847
  0
DICTIONARY
  5
76B
102
{ACAD_REACTORS
330
76A
102
}
330
76A
100
AcDbDictionary
  0
RASTERVARIABLES
  5
7EF
102
{ACAD_REACTORS
330
76A
102
}
330
76A
100
AcDbRasterVariables
 90
        0
 70
     1
 71
     1
 72
     0
  0
DICTIONARY
  5
774
102
{ACAD_REACTORS
330
76A
102
}
330
76A
100
AcDbDictionary
  3
STANDARD
350
775
  0
DICTIONARY
  5
7AE
102
{ACAD_REACTORS
330
76A
102
}
330
76A
100
AcDbDictionary
  0
DICTIONARY
  5
7ED
102
{ACAD_REACTORS
330
76A
102
}
330
76A
100
AcDbDictionary
  0
XRECORD
  5
868
102
{ACAD_REACTORS
330
76A
102
}
330
76A
100
AcDbXrecord
  1
DWGPROPS COOKIE
  2

  3

  4

  6

  7

  8
cj.klein
  9

300
=
301
=
302
=
303
=
304
=
305
=
306
=
307
=
308
=
309
=
 40
0.0
 41
2457316.67242588
 42
2457316.689518102
  1

 90
        0
  0
DICTIONARY
  5
847
102
{ACAD_REACTORS
330
846
102
}
330
846
100
AcDbDictionary
  0
MLINESTYLE
  5
775
102
{ACAD_REACTORS
330
774
102
}
330
774
100
AcDbMlineStyle
  2
Standard
 70
     0
  3

 62
   256
 51
90.0
 52
90.0
 71
     2
 49
0.5
 62
   256
  6
BYLAYER
 49
-0.5
 62
   256
  6
BYLAYER
  0
ENDSEC
  0
EOF
